  0
SECTION
  2
HEADER
  9
$ACADVER
  1
AC1027
  9
$ACADMAINTVER
 70
     8
  9
$DWGCODEPAGE
  3
ANSI_1252
  9
$REQUIREDVERSIONS
160
                 0
  9
$INSBASE
 10
0.0
 20
0.0
 30
0.0
  9
$EXTMIN
 10
0.0
 20
0.0
 30
0.0
  9
$EXTMAX
 10
420.0
 20
297.0
 30
0.0
  9
$LIMMIN
 10
0.0
 20
0.0
  9
$LIMMAX
 10
420.0
 20
297.0
  9
$ORTHOMODE
 70
     0
  9
$REGENMODE
 70
     1
  9
$FILLMODE
 70
     1
  9
$QTEXTMODE
 70
     0
  9
$MIRRTEXT
 70
     1
  9
$LTSCALE
 40
23.1
  9
$ATTMODE
 70
     1
  9
$TEXTSIZE
 40
0.2
  9
$TRACEWID
 40
0.05
  9
$TEXTSTYLE
  7
STANDARD
  9
$CLAYER
  8
0
  9
$CELTYPE
  6
BYLAYER
  9
$CECOLOR
 62
   256
  9
$CELTSCALE
 40
1.0
  9
$DISPSILH
 70
     0
  9
$DIMSCALE
 40
1.0
  9
$DIMASZ
 40
2.5
  9
$DIMEXO
 40
0.75
  9
$DIMDLI
 40
15.96
  9
$DIMRND
 40
0.0
  9
$DIMDLE
 40
0.0
  9
$DIMEXE
 40
0.75
  9
$DIMTP
 40
0.01
  9
$DIMTM
 40
0.01
  9
$DIMTXT
 40
3.0
  9
$DIMCEN
 40
3.78
  9
$DIMTSZ
 40
0.0
  9
$DIMTOL
 70
     1
  9
$DIMLIM
 70
     0
  9
$DIMTIH
 70
     1
  9
$DIMTOH
 70
     1
  9
$DIMSE1
 70
     0
  9
$DIMSE2
 70
     0
  9
$DIMTAD
 70
     0
  9
$DIMZIN
 70
     0
  9
$DIMBLK
  1
CLOSED
  9
$DIMASO
 70
     1
  9
$DIMSHO
 70
     1
  9
$DIMPOST
  1

  9
$DIMAPOST
  1

  9
$DIMALT
 70
     0
  9
$DIMALTD
 70
     2
  9
$DIMALTF
 40
25.4
  9
$DIMLFAC
 40
1.0
  9
$DIMTOFL
 70
     0
  9
$DIMTVP
 40
0.0
  9
$DIMTIX
 70
     0
  9
$DIMSOXD
 70
     0
  9
$DIMSAH
 70
     0
  9
$DIMBLK1
  1

  9
$DIMBLK2
  1

  9
$DIMSTYLE
  2
STANDARD
  9
$DIMCLRD
 70
     0
  9
$DIMCLRE
 70
     0
  9
$DIMCLRT
 70
     0
  9
$DIMTFAC
 40
1.0
  9
$DIMGAP
 40
0.625
  9
$DIMJUST
 70
     0
  9
$DIMSD1
 70
     0
  9
$DIMSD2
 70
     0
  9
$DIMTOLJ
 70
     1
  9
$DIMTZIN
 70
     0
  9
$DIMALTZ
 70
     0
  9
$DIMALTTZ
 70
     0
  9
$DIMUPT
 70
     0
  9
$DIMDEC
 70
     4
  9
$DIMTDEC
 70
     4
  9
$DIMALTU
 70
     2
  9
$DIMALTTD
 70
     2
  9
$DIMTXSTY
  7
STANDARD
  9
$DIMAUNIT
 70
     0
  9
$DIMADEC
 70
     0
  9
$DIMALTRND
 40
0.0
  9
$DIMAZIN
 70
     0
  9
$DIMDSEP
 70
    44
  9
$DIMATFIT
 70
     3
  9
$DIMFRAC
 70
     0
  9
$DIMLDRBLK
  1

  9
$DIMLUNIT
 70
     2
  9
$DIMLWD
 70
    -2
  9
$DIMLWE
 70
    -2
  9
$DIMTMOVE
 70
     0
  9
$DIMFXL
 40
1.0
  9
$DIMFXLON
 70
     0
  9
$DIMJOGANG
 40
0.785398
  9
$DIMTFILL
 70
     0
  9
$DIMTFILLCLR
 70
     0
  9
$DIMARCSYM
 70
     0
  9
$DIMLTYPE
  6

  9
$DIMLTEX1
  6

  9
$DIMLTEX2
  6

  9
$DIMTXTDIRECTION
 70
     0
  9
$LUNITS
 70
     2
  9
$LUPREC
 70
     4
  9
$SKETCHINC
 40
0.1
  9
$FILLETRAD
 40
0.5
  9
$AUNITS
 70
     0
  9
$AUPREC
 70
     0
  9
$MENU
  1
.
  9
$ELEVATION
 40
0.0
  9
$PELEVATION
 40
0.0
  9
$THICKNESS
 40
0.0
  9
$LIMCHECK
 70
     0
  9
$CHAMFERA
 40
0.0
  9
$CHAMFERB
 40
0.0
  9
$CHAMFERC
 40
0.0
  9
$CHAMFERD
 40
0.0
  9
$SKPOLY
 70
     0
  9
$TDCREATE
 40
2447893.083333333
  9
$TDUCREATE
 40
0.0
  9
$TDUPDATE
 40
2460483.724564989
  9
$TDUUPDATE
 40
2460483.641231655
  9
$TDINDWG
 40
0.0
  9
$TDUSRTIMER
 40
0.0
  9
$USRTIMER
 70
     1
  9
$ANGBASE
 50
0.0
  9
$ANGDIR
 70
     0
  9
$PDMODE
 70
     3
  9
$PDSIZE
 40
0.3125
  9
$PLINEWID
 40
0.0
  9
$SPLFRAME
 70
     0
  9
$SPLINETYPE
 70
     6
  9
$SPLINESEGS
 70
     8
  9
$HANDSEED
  5
4E8
  9
$SURFTAB1
 70
     6
  9
$SURFTAB2
 70
     6
  9
$SURFTYPE
 70
     6
  9
$SURFU
 70
     6
  9
$SURFV
 70
     6
  9
$UCSBASE
  2

  9
$UCSNAME
  2

  9
$UCSORG
 10
0.0
 20
0.0
 30
0.0
  9
$UCSXDIR
 10
1.0
 20
0.0
 30
0.0
  9
$UCSYDIR
 10
0.0
 20
1.0
 30
0.0
  9
$UCSORTHOREF
  2

  9
$UCSORTHOVIEW
 70
     0
  9
$UCSORGTOP
 10
0.0
 20
0.0
 30
0.0
  9
$UCSORGBOTTOM
 10
0.0
 20
0.0
 30
0.0
  9
$UCSORGLEFT
 10
0.0
 20
0.0
 30
0.0
  9
$UCSORGRIGHT
 10
0.0
 20
0.0
 30
0.0
  9
$UCSORGFRONT
 10
0.0
 20
0.0
 30
0.0
  9
$UCSORGBACK
 10
0.0
 20
0.0
 30
0.0
  9
$PUCSBASE
  2

  9
$PUCSNAME
  2

  9
$PUCSORG
 10
0.0
 20
0.0
 30
0.0
  9
$PUCSXDIR
 10
1.0
 20
0.0
 30
0.0
  9
$PUCSYDIR
 10
0.0
 20
1.0
 30
0.0
  9
$PUCSORTHOREF
  2

  9
$PUCSORTHOVIEW
 70
     0
  9
$PUCSORGTOP
 10
0.0
 20
0.0
 30
0.0
  9
$PUCSORGBOTTOM
 10
0.0
 20
0.0
 30
0.0
  9
$PUCSORGLEFT
 10
0.0
 20
0.0
 30
0.0
  9
$PUCSORGRIGHT
 10
0.0
 20
0.0
 30
0.0
  9
$PUCSORGFRONT
 10
0.0
 20
0.0
 30
0.0
  9
$PUCSORGBACK
 10
0.0
 20
0.0
 30
0.0
  9
$USERI1
 70
     0
  9
$USERI2
 70
     0
  9
$USERI3
 70
     0
  9
$USERI4
 70
     0
  9
$USERI5
 70
     0
  9
$USERR1
 40
0.0
  9
$USERR2
 40
0.0
  9
$USERR3
 40
0.0
  9
$USERR4
 40
0.0
  9
$USERR5
 40
0.0
  9
$WORLDVIEW
 70
     1
  9
$SHADEDGE
 70
     3
  9
$SHADEDIF
 70
    70
  9
$TILEMODE
 70
     0
  9
$MAXACTVP
 70
    64
  9
$PINSBASE
 10
0.0
 20
0.0
 30
0.0
  9
$PLIMCHECK
 70
     0
  9
$PEXTMIN
 10
1.000000E+20
 20
1.000000E+20
 30
1.000000E+20
  9
$PEXTMAX
 10
-1.000000E+20
 20
-1.000000E+20
 30
-1.000000E+20
  9
$PLIMMIN
 10
0.0
 20
0.0
  9
$PLIMMAX
 10
12.0
 20
9.0
  9
$UNITMODE
 70
     0
  9
$VISRETAIN
 70
     1
  9
$PLINEGEN
 70
     0
  9
$PSLTSCALE
 70
     0
  9
$TREEDEPTH
 70
  3020
  9
$CMLSTYLE
  2

  9
$CMLJUST
 70
     0
  9
$CMLSCALE
 40
1.0
  9
$PROXYGRAPHICS
 70
     1
  9
$MEASUREMENT
 70
     1
  9
$CELWEIGHT
370
    -1
  9
$ENDCAPS
280
     0
  9
$JOINSTYLE
280
     0
  9
$LWDISPLAY
290
     0
  9
$INSUNITS
 70
     4
  9
$HYPERLINKBASE
  1

  9
$STYLESHEET
  1

  9
$XEDIT
290
     1
  9
$CEPSNTYPE
380
     0
  9
$PSTYLEMODE
290
     1
  9
$FINGERPRINTGUID
  2
{9F90EA61-E15A-45A4-A991-B08CA110271A}
  9
$VERSIONGUID
  2
{FAEB1C32-E019-11D5-929B-00C0DF256EC4}
  9
$EXTNAMES
290
     1
  9
$PSVPSCALE
 40
0.0
  9
$OLESTARTUP
290
     0
  9
$SORTENTS
280
   127
  9
$INDEXCTL
280
     0
  9
$HIDETEXT
280
     1
  9
$XCLIPFRAME
280
     2
  9
$HALOGAP
280
     0
  9
$OBSCOLOR
 70
   257
  9
$OBSLTYPE
280
     0
  9
$INTERSECTIONDISPLAY
280
     0
  9
$INTERSECTIONCOLOR
 70
   257
  9
$DIMASSOC
280
     2
  9
$PROJECTNAME
  1

  9
$CAMERADISPLAY
290
     0
  9
$LENSLENGTH
 40
50.0
  9
$CAMERAHEIGHT
 40
0.0
  9
$STEPSPERSEC
 40
2.0
  9
$STEPSIZE
 40
6.0
  9
$3DDWFPREC
 40
2.0
  9
$PSOLWIDTH
 40
0.25
  9
$PSOLHEIGHT
 40
4.0
  9
$LOFTANG1
 40
1.570796
  9
$LOFTANG2
 40
1.570796
  9
$LOFTMAG1
 40
0.0
  9
$LOFTMAG2
 40
0.0
  9
$LOFTPARAM
 70
     7
  9
$LOFTNORMALS
280
     1
  9
$LATITUDE
 40
37.795
  9
$LONGITUDE
 40
-122.394
  9
$NORTHDIRECTION
 40
0.0
  9
$TIMEZONE
 70
 -8000
  9
$LIGHTGLYPHDISPLAY
280
     1
  9
$TILEMODELIGHTSYNCH
280
     1
  9
$SOLIDHIST
280
     1
  9
$SHOWHIST
280
     1
  9
$DWFFRAME
280
     2
  9
$DGNFRAME
280
     2
  9
$REALWORLDSCALE
290
     1
  9
$INTERFERECOLOR
 62
   256
  9
$CSHADOW
280
     0
  9
$SHADOWPLANELOCATION
 40
0.0
  0
ENDSEC
  0
SECTION
  2
CLASSES
  0
CLASS
  1
ACDBDICTIONARYWDFLT
  2
AcDbDictionaryWithDefault
  3
ObjectDBX Classes
 90
        0
 91
        6
280
     0
281
     0
  0
CLASS
  1
ACDBPLACEHOLDER
  2
AcDbPlaceHolder
  3
ObjectDBX Classes
 90
        0
 91
        1
280
     0
281
     0
  0
CLASS
  1
LAYOUT
  2
AcDbLayout
  3
ObjectDBX Classes
 90
        0
 91
        1
280
     0
281
     0
  0
CLASS
  1
TABLESTYLE
  2
AcDbTableStyle
  3
ObjectDBX Classes
 90
     4095
 91
        5
280
     0
281
     0
  0
CLASS
  1
ACAD_TABLE
  2
AcDbTable
  3
ObjectDBX Classes
 90
     1025
 91
        5
280
     0
281
     1
  0
CLASS
  1
SCALE
  2
AcDbScale
  3
ObjectDBX Classes
 90
     1153
 91
        5
280
     0
281
     0
  0
CLASS
  1
VISUALSTYLE
  2
AcDbVisualStyle
  3
ObjectDBX Classes
 90
     4095
 91
        5
280
     0
281
     0
  0
CLASS
  1
TABLEGEOMETRY
  2
AcDbTableGeometry
  3
ObjectDBX Classes
 90
     1152
 91
        4
280
     0
281
     0
  0
CLASS
  1
MATERIAL
  2
AcDbMaterial
  3
ObjectDBX Classes
 90
     1153
 91
        5
280
     0
281
     0
  0
CLASS
  1
SUN
  2
AcDbSun
  3
SCENEOE
 90
     1153
 91
        5
280
     0
281
     0
  0
CLASS
  1
CSACDOCUMENTOPTIONS
  2
CDocDataContainer
  3
"DERU003_CSAPP"
 90
     4095
 91
        4
280
     0
281
     0
  0
CLASS
  1
TABLECONTENT
  2
AcDbTableContent
  3
ObjectDBX Classes
 90
     1152
 91
        4
280
     0
281
     0
  0
CLASS
  1
DICTIONARYVAR
  2
AcDbDictionaryVar
  3
ObjectDBX Classes
 90
        0
 91
        4
280
     0
281
     0
  0
CLASS
  1
CELLSTYLEMAP
  2
AcDbCellStyleMap
  3
ObjectDBX Classes
 90
     1152
 91
        4
280
     0
281
     0
  0
ENDSEC
  0
SECTION
  2
TABLES
  0
TABLE
  2
VPORT
  5
8
330
0
100
AcDbSymbolTable
 70
     1
  0
VPORT
  5
1F4
330
8
100
AcDbSymbolTableRecord
100
AcDbViewportTableRecord
  2
*ACTIVE
 70
     0
 10
0.0
 20
0.0
 11
1.0
 21
1.0
 12
210.0
 22
148.5
 13
0.0
 23
0.0
 14
1.0
 24
1.0
 15
0.0
 25
0.0
 16
0.0
 26
0.0
 36
1.0
 17
0.0
 27
0.0
 37
0.0
 40
297.0
 41
1.414141
 42
50.0
 43
0.0
 44
0.0
 50
0.0
 51
0.0
 71
     0
 72
   100
 73
     1
 74
     1
 75
     0
 76
     0
 77
     0
 78
     0
281
     0
 65
     1
110
0.0
120
0.0
130
0.0
111
1.0
121
0.0
131
0.0
112
0.0
122
1.0
132
0.0
 79
     0
146
0.0
348
4B3
 60
     3
 61
     5
292
     1
282
     1
141
0.0
142
0.0
 63
   256
  0
ENDTAB
  0
TABLE
  2
LTYPE
  5
5
330
0
100
AcDbSymbolTable
 70
     6
  0
LTYPE
  5
14
330
5
100
AcDbSymbolTableRecord
100
AcDbLinetypeTableRecord
  2
BYBLOCK
 70
     0
  3

 72
    65
 73
     0
 40
0.0
  0
LTYPE
  5
15
330
5
100
AcDbSymbolTableRecord
100
AcDbLinetypeTableRecord
  2
BYLAYER
 70
     0
  3

 72
    65
 73
     0
 40
0.0
  0
LTYPE
  5
16
330
5
100
AcDbSymbolTableRecord
100
AcDbLinetypeTableRecord
  2
CONTINUOUS
 70
     0
  3
Solid line
 72
    65
 73
     0
 40
0.0
  0
LTYPE
  5
1F5
330
5
100
AcDbSymbolTableRecord
100
AcDbLinetypeTableRecord
  2
CENTER
 70
     0
  3
____ _ ____ _ ____ _ ____ _ ____ _ ____ _ ____
 72
    65
 73
     4
 40
0.6
 49
0.375
 74
     0
 49
-0.075
 74
     0
 49
0.075
 74
     0
 49
-0.075
 74
     0
  0
LTYPE
  5
1F6
330
5
100
AcDbSymbolTableRecord
100
AcDbLinetypeTableRecord
  2
HIDDEN
 70
     0
  3
- - - - - - - - - - - - - - - - - - - -
 72
    65
 73
     2
 40
0.2
 49
0.1
 74
     0
 49
-0.1
 74
     0
  0
LTYPE
  5
1F7
330
5
100
AcDbSymbolTableRecord
100
AcDbLinetypeTableRecord
  2
PHANTOM
 70
     0
  3
_____ _ _ _____ _ _ _____ _ _ _____
 72
    65
 73
     6
 40
0.8
 49
0.45
 74
     0
 49
-0.05
 74
     0
 49
0.1
 74
     0
 49
-0.05
 74
     0
 49
0.1
 74
     0
 49
-0.05
 74
     0
  0
LTYPE
  5
1F8
330
5
100
AcDbSymbolTableRecord
100
AcDbLinetypeTableRecord
  2
DOT
 70
     0
  3
. . . . . . . . . . . . . . . . . . . .
 72
    65
 73
     2
 40
0.2
 49
0.1
 74
     0
 49
-0.1
 74
     0
  0
LTYPE
  5
1F9
330
5
100
AcDbSymbolTableRecord
100
AcDbLinetypeTableRecord
  2
DASHED
 70
     0
  3
- - - - - - - - - - - - - - - - - - - -
 72
    65
 73
     2
 40
0.2
 49
0.1
 74
     0
 49
-0.1
 74
     0
  0
ENDTAB
  0
TABLE
  2
LAYER
  5
2
330
0
100
AcDbSymbolTable
 70
    56
  0
LAYER
  5
10
330
2
100
AcDbSymbolTableRecord
100
AcDbLayerTableRecord
  2
0
 70
     0
 62
     7
  6
CONTINUOUS
370
    -3
390
F
347
4CD
348
0
  0
LAYER
  5
1FA
330
2
100
AcDbSymbolTableRecord
100
AcDbLayerTableRecord
  2
DEFAULT_1
 70
     0
 62
     7
  6
CENTER
370
    -3
390
F
347
4CD
348
0
  0
LAYER
  5
1FB
330
2
100
AcDbSymbolTableRecord
100
AcDbLayerTableRecord
  2
DEFAULT_2
 70
     0
 62
     8
  6
HIDDEN
370
    -3
390
F
347
4CD
348
0
  0
LAYER
  5
1FC
330
2
100
AcDbSymbolTableRecord
100
AcDbLayerTableRecord
  2
DEFAULT_3
 70
     0
 62
     7
  6
PHANTOM
370
    -3
390
F
347
4CD
348
0
  0
LAYER
  5
1FD
330
2
100
AcDbSymbolTableRecord
100
AcDbLayerTableRecord
  2
01_ALL_DTM_PLN
 70
     0
 62
     7
  6
CONTINUOUS
370
    -3
390
F
347
4CD
348
0
  0
LAYER
  5
1FE
330
2
100
AcDbSymbolTableRecord
100
AcDbLayerTableRecord
  2
01__ASM_ALL_DTM_PLN
 70
     0
 62
     7
  6
CONTINUOUS
370
    -3
390
F
347
4CD
348
0
  0
LAYER
  5
1FF
330
2
100
AcDbSymbolTableRecord
100
AcDbLayerTableRecord
  2
01__ASM_DEF_DTM_PLN
 70
     0
 62
     7
  6
CONTINUOUS
370
    -3
390
F
347
4CD
348
0
  0
LAYER
  5
200
330
2
100
AcDbSymbolTableRecord
100
AcDbLayerTableRecord
  2
01___PRT_ALL_DTM_PLN
 70
     0
 62
     7
  6
CONTINUOUS
370
    -3
390
F
347
4CD
348
0
  0
LAYER
  5
201
330
2
100
AcDbSymbolTableRecord
100
AcDbLayerTableRecord
  2
01___PRT_DEF_DTM_PLN
 70
     0
 62
     7
  6
CONTINUOUS
370
    -3
390
F
347
4CD
348
0
  0
LAYER
  5
202
330
2
100
AcDbSymbolTableRecord
100
AcDbLayerTableRecord
  2
02_ALL_AXES
 70
     0
 62
     7
  6
CONTINUOUS
370
    -3
390
F
347
4CD
348
0
  0
LAYER
  5
203
330
2
100
AcDbSymbolTableRecord
100
AcDbLayerTableRecord
  2
02__ASM_ALL_AXES
 70
     0
 62
     7
  6
CONTINUOUS
370
    -3
390
F
347
4CD
348
0
  0
LAYER
  5
204
330
2
100
AcDbSymbolTableRecord
100
AcDbLayerTableRecord
  2
02___PRT_ALL_AXES
 70
     0
 62
     7
  6
CONTINUOUS
370
    -3
390
F
347
4CD
348
0
  0
LAYER
  5
205
330
2
100
AcDbSymbolTableRecord
100
AcDbLayerTableRecord
  2
03_ALL_CURVES
 70
     0
 62
     7
  6
CONTINUOUS
370
    -3
390
F
347
4CD
348
0
  0
LAYER
  5
206
330
2
100
AcDbSymbolTableRecord
100
AcDbLayerTableRecord
  2
03__ASM_ALL_CURVES
 70
     0
 62
     7
  6
CONTINUOUS
370
    -3
390
F
347
4CD
348
0
  0
LAYER
  5
207
330
2
100
AcDbSymbolTableRecord
100
AcDbLayerTableRecord
  2
03___PRT_ALL_CURVES
 70
     0
 62
     7
  6
CONTINUOUS
370
    -3
390
F
347
4CD
348
0
  0
LAYER
  5
208
330
2
100
AcDbSymbolTableRecord
100
AcDbLayerTableRecord
  2
04_ALL_DTM_PNT
 70
     0
 62
     7
  6
CONTINUOUS
370
    -3
390
F
347
4CD
348
0
  0
LAYER
  5
209
330
2
100
AcDbSymbolTableRecord
100
AcDbLayerTableRecord
  2
04__ASM_ALL_DTM_PNT
 70
     0
 62
     7
  6
CONTINUOUS
370
    -3
390
F
347
4CD
348
0
  0
LAYER
  5
20A
330
2
100
AcDbSymbolTableRecord
100
AcDbLayerTableRecord
  2
04___PRT_ALL_DTM_PNT
 70
     0
 62
     7
  6
CONTINUOUS
370
    -3
390
F
347
4CD
348
0
  0
LAYER
  5
20B
330
2
100
AcDbSymbolTableRecord
100
AcDbLayerTableRecord
  2
05_ALL_DTM_CSYS
 70
     0
 62
     7
  6
CONTINUOUS
370
    -3
390
F
347
4CD
348
0
  0
LAYER
  5
20C
330
2
100
AcDbSymbolTableRecord
100
AcDbLayerTableRecord
  2
05__ASM_ALL_DTM_CSYS
 70
     0
 62
     7
  6
CONTINUOUS
370
    -3
390
F
347
4CD
348
0
  0
LAYER
  5
20D
330
2
100
AcDbSymbolTableRecord
100
AcDbLayerTableRecord
  2
05__ASM_DEF_DTM_CSYS
 70
     0
 62
     7
  6
CONTINUOUS
370
    -3
390
F
347
4CD
348
0
  0
LAYER
  5
20E
330
2
100
AcDbSymbolTableRecord
100
AcDbLayerTableRecord
  2
05___PRT_ALL_DTM_CSYS
 70
     0
 62
     7
  6
CONTINUOUS
370
    -3
390
F
347
4CD
348
0
  0
LAYER
  5
20F
330
2
100
AcDbSymbolTableRecord
100
AcDbLayerTableRecord
  2
05___PRT_DEF_DTM_CSYS
 70
     0
 62
     7
  6
CONTINUOUS
370
    -3
390
F
347
4CD
348
0
  0
LAYER
  5
210
330
2
100
AcDbSymbolTableRecord
100
AcDbLayerTableRecord
  2
06_ALL_SURFS
 70
     0
 62
     7
  6
CONTINUOUS
370
    -3
390
F
347
4CD
348
0
  0
LAYER
  5
211
330
2
100
AcDbSymbolTableRecord
100
AcDbLayerTableRecord
  2
06__ASM_ALL_SURFS
 70
     0
 62
     7
  6
CONTINUOUS
370
    -3
390
F
347
4CD
348
0
  0
LAYER
  5
212
330
2
100
AcDbSymbolTableRecord
100
AcDbLayerTableRecord
  2
06___PRT_ALL_SURFS
 70
     0
 62
     7
  6
CONTINUOUS
370
    -3
390
F
347
4CD
348
0
  0
LAYER
  5
213
330
2
100
AcDbSymbolTableRecord
100
AcDbLayerTableRecord
  2
07__ASM_ALL_SKELETONS
 70
     0
 62
     7
  6
CONTINUOUS
370
    -3
390
F
347
4CD
348
0
  0
LAYER
  5
214
330
2
100
AcDbSymbolTableRecord
100
AcDbLayerTableRecord
  2
1_ALL_PLANES
 70
     0
 62
     7
  6
CONTINUOUS
370
    -3
390
F
347
4CD
348
0
  0
LAYER
  5
215
330
2
100
AcDbSymbolTableRecord
100
AcDbLayerTableRecord
  2
1__APPOGGIO
 70
     0
 62
     7
  6
CONTINUOUS
370
    -3
390
F
347
4CD
348
0
  0
LAYER
  5
216
330
2
100
AcDbSymbolTableRecord
100
AcDbLayerTableRecord
  2
2_ALL_CSYS
 70
     0
 62
     7
  6
CONTINUOUS
370
    -3
390
F
347
4CD
348
0
  0
LAYER
  5
217
330
2
100
AcDbSymbolTableRecord
100
AcDbLayerTableRecord
  2
3_ALL_AXES
 70
     0
 62
     7
  6
CONTINUOUS
370
    -3
390
F
347
4CD
348
0
  0
LAYER
  5
218
330
2
100
AcDbSymbolTableRecord
100
AcDbLayerTableRecord
  2
4_ALL_POINTS
 70
     0
 62
     7
  6
CONTINUOUS
370
    -3
390
F
347
4CD
348
0
  0
LAYER
  5
219
330
2
100
AcDbSymbolTableRecord
100
AcDbLayerTableRecord
  2
5_ALL_CURVES
 70
     0
 62
     7
  6
CONTINUOUS
370
    -3
390
F
347
4CD
348
0
  0
LAYER
  5
21A
330
2
100
AcDbSymbolTableRecord
100
AcDbLayerTableRecord
  2
5__080-081
 70
     0
 62
     7
  6
CONTINUOUS
370
    -3
390
F
347
4CD
348
0
  0
LAYER
  5
21B
330
2
100
AcDbSymbolTableRecord
100
AcDbLayerTableRecord
  2
5__APPOGGIO
 70
     0
 62
     7
  6
CONTINUOUS
370
    -3
390
F
347
4CD
348
0
  0
LAYER
  5
21C
330
2
100
AcDbSymbolTableRecord
100
AcDbLayerTableRecord
  2
5__APP_VETRO
 70
     0
 62
     7
  6
CONTINUOUS
370
    -3
390
F
347
4CD
348
0
  0
LAYER
  5
21D
330
2
100
AcDbSymbolTableRecord
100
AcDbLayerTableRecord
  2
5__COSTRUZIONE
 70
     0
 62
     7
  6
CONTINUOUS
370
    -3
390
F
347
4CD
348
0
  0
LAYER
  5
21E
330
2
100
AcDbSymbolTableRecord
100
AcDbLayerTableRecord
  2
5__DATARIO
 70
     0
 62
     7
  6
CONTINUOUS
370
    -3
390
F
347
4CD
348
0
  0
LAYER
  5
21F
330
2
100
AcDbSymbolTableRecord
100
AcDbLayerTableRecord
  2
5__SCOTCH
 70
     0
 62
     7
  6
CONTINUOUS
370
    -3
390
F
347
4CD
348
0
  0
LAYER
  5
220
330
2
100
AcDbSymbolTableRecord
100
AcDbLayerTableRecord
  2
5__SVILUPPO_SER
 70
     0
 62
     7
  6
CONTINUOUS
370
    -3
390
F
347
4CD
348
0
  0
LAYER
  5
221
330
2
100
AcDbSymbolTableRecord
100
AcDbLayerTableRecord
  2
6_ALL_SURFS
 70
     0
 62
     7
  6
CONTINUOUS
370
    -3
390
F
347
4CD
348
0
  0
LAYER
  5
222
330
2
100
AcDbSymbolTableRecord
100
AcDbLayerTableRecord
  2
6__APPOGGIO
 70
     0
 62
     7
  6
CONTINUOUS
370
    -3
390
F
347
4CD
348
0
  0
LAYER
  5
223
330
2
100
AcDbSymbolTableRecord
100
AcDbLayerTableRecord
  2
6__APP_VETRO
 70
     0
 62
     7
  6
CONTINUOUS
370
    -3
390
F
347
4CD
348
0
  0
LAYER
  5
224
330
2
100
AcDbSymbolTableRecord
100
AcDbLayerTableRecord
  2
6__COSTRUZIONE
 70
     0
 62
     7
  6
CONTINUOUS
370
    -3
390
F
347
4CD
348
0
  0
LAYER
  5
225
330
2
100
AcDbSymbolTableRecord
100
AcDbLayerTableRecord
  2
7_ALL_FEATURES
 70
     0
 62
     7
  6
CONTINUOUS
370
    -3
390
F
347
4CD
348
0
  0
LAYER
  5
226
330
2
100
AcDbSymbolTableRecord
100
AcDbLayerTableRecord
  2
8_ALL_NOTES_BALLOONS_SYMBOLS_GT
 70
     0
 62
     7
  6
CONTINUOUS
370
    -3
390
F
347
4CD
348
0
  0
LAYER
  5
227
330
2
100
AcDbSymbolTableRecord
100
AcDbLayerTableRecord
  2
9_SOLID
 70
     0
 62
     7
  6
CONTINUOUS
370
    -3
390
F
347
4CD
348
0
  0
LAYER
  5
228
330
2
100
AcDbSymbolTableRecord
100
AcDbLayerTableRecord
  2
CLOSED_SHELL
 70
     0
 62
     7
  6
CONTINUOUS
370
    -3
390
F
347
4CD
348
0
  0
LAYER
  5
229
330
2
100
AcDbSymbolTableRecord
100
AcDbLayerTableRecord
  2
INTFCLR_2
 70
     0
 62
     7
  6
CONTINUOUS
370
    -3
390
F
347
4CD
348
0
  0
LAYER
  5
22A
330
2
100
AcDbSymbolTableRecord
100
AcDbLayerTableRecord
  2
INTFCLR_7
 70
     0
 62
     7
  6
CONTINUOUS
370
    -3
390
F
347
4CD
348
0
  0
LAYER
  5
22B
330
2
100
AcDbSymbolTableRecord
100
AcDbLayerTableRecord
  2
INTF_BLUE
 70
     0
 62
     7
  6
CONTINUOUS
370
    -3
390
F
347
4CD
348
0
  0
LAYER
  5
22C
330
2
100
AcDbSymbolTableRecord
100
AcDbLayerTableRecord
  2
INTF_GREEN
 70
     0
 62
     7
  6
CONTINUOUS
370
    -3
390
F
347
4CD
348
0
  0
LAYER
  5
22D
330
2
100
AcDbSymbolTableRecord
100
AcDbLayerTableRecord
  2
INTF_MAGENTA
 70
     0
 62
     7
  6
CONTINUOUS
370
    -3
390
F
347
4CD
348
0
  0
LAYER
  5
22E
330
2
100
AcDbSymbolTableRecord
100
AcDbLayerTableRecord
  2
INTF_RED
 70
     0
 62
     7
  6
CONTINUOUS
370
    -3
390
F
347
4CD
348
0
  0
LAYER
  5
22F
330
2
100
AcDbSymbolTableRecord
100
AcDbLayerTableRecord
  2
INTF_YELLOW
 70
     0
 62
     7
  6
CONTINUOUS
370
    -3
390
F
347
4CD
348
0
  0
LAYER
  5
230
330
2
100
AcDbSymbolTableRecord
100
AcDbLayerTableRecord
  2
XXX_SOLIDO
 70
     0
 62
     7
  6
CONTINUOUS
370
    -3
390
F
347
4CD
348
0
  0
ENDTAB
  0
TABLE
  2
STYLE
  5
3
330
0
100
AcDbSymbolTable
 70
     5
  0
STYLE
  5
11
330
3
100
AcDbSymbolTableRecord
100
AcDbTextStyleTableRecord
  2
STANDARD
 70
     0
 40
0.0
 41
0.85
 50
0.0
 71
     0
 42
0.2
  3
txt
  4

  0
STYLE
  5
231
330
3
100
AcDbSymbolTableRecord
100
AcDbTextStyleTableRecord
  2
TEXTSTYLE_1
 70
     0
 40
0.0
 41
0.8
 50
0.0
 71
     0
 42
0.2
  3
gdt
  4

  0
STYLE
  5
232
330
3
100
AcDbSymbolTableRecord
100
AcDbTextStyleTableRecord
  2
TEXTSTYLE_2
 70
     0
 40
0.0
 41
0.9
 50
0.0
 71
     0
 42
0.2
  3
txt
  4

  0
STYLE
  5
233
330
3
100
AcDbSymbolTableRecord
100
AcDbTextStyleTableRecord
  2
TEXTSTYLE_3
 70
     0
 40
0.0
 41
0.9
 50
0.0
 71
     0
 42
0.2
  3
txt
  4

  0
STYLE
  5
234
330
3
100
AcDbSymbolTableRecord
100
AcDbTextStyleTableRecord
  2
TEXTSTYLE_4
 70
     0
 40
0.0
 41
0.85
 50
0.0
 71
     0
 42
0.2
  3
txt
  4

  0
ENDTAB
  0
TABLE
  2
VIEW
  5
6
330
0
100
AcDbSymbolTable
 70
     0
  0
ENDTAB
  0
TABLE
  2
UCS
  5
7
330
0
100
AcDbSymbolTable
 70
     0
  0
ENDTAB
  0
TABLE
  2
APPID
  5
9
330
0
100
AcDbSymbolTable
 70
     6
  0
APPID
  5
235
330
9
100
AcDbSymbolTableRecord
100
AcDbRegAppTableRecord
  2
ACAD
 70
     0
  0
APPID
  5
4CE
330
9
100
AcDbSymbolTableRecord
100
AcDbRegAppTableRecord
  2
MCS_DIM1
 70
     0
  0
APPID
  5
4CF
330
9
100
AcDbSymbolTableRecord
100
AcDbRegAppTableRecord
  2
McsXdata5
 70
     0
  0
APPID
  5
4D2
330
9
100
AcDbSymbolTableRecord
100
AcDbRegAppTableRecord
  2
MCS_DOCUMENT_ID
 70
     0
  0
APPID
  5
4D8
330
9
100
AcDbSymbolTableRecord
100
AcDbRegAppTableRecord
  2
MCS_PARAMS_DATA
 70
     0
  0
APPID
  5
4DA
330
9
100
AcDbSymbolTableRecord
100
AcDbRegAppTableRecord
  2
MC_VERSION_DATA
 70
     0
  0
ENDTAB
  0
TABLE
  2
DIMSTYLE
  5
A
330
0
100
AcDbSymbolTable
 70
     5
100
AcDbDimStyleTable
  0
DIMSTYLE
105
23F
330
A
100
AcDbSymbolTableRecord
100
AcDbDimStyleTableRecord
  2
STANDARD
 70
     0
 41
2.5
 42
0.75
 44
0.75
 47
0.01
 48
0.01
 71
     1
 73
     0
 74
     0
 77
     1
 78
     8
 79
     2
140
3.0
147
0.625
171
     1
178
     0
179
     2
271
     2
272
     2
278
    44
284
     8
340
11
341
238
342
238
343
238
344
238
  0
DIMSTYLE
105
240
330
A
100
AcDbSymbolTableRecord
100
AcDbDimStyleTableRecord
  2
DIMSTYLE_1
 70
     0
 41
2.5
 42
0.75
 44
0.75
 47
0.5
 48
0.5
 73
     0
 74
     0
 77
     1
 78
     8
 79
     2
140
3.0
147
0.75
171
     1
178
     0
271
     0
272
     0
278
    44
284
     8
340
11
341
238
342
238
343
238
344
238
  0
DIMSTYLE
105
241
330
A
100
AcDbSymbolTableRecord
100
AcDbDimStyleTableRecord
  2
DIMSTYLE_2
 70
     0
 41
2.5
 42
0.75
 44
0.75
 47
0.3
 48
0.3
 73
     0
 74
     0
 77
     1
 78
     8
 79
     2
140
3.0
147
0.75
171
     1
178
     0
271
     0
272
     0
278
    44
284
     8
340
11
341
238
342
238
343
238
344
238
  0
DIMSTYLE
105
242
330
A
100
AcDbSymbolTableRecord
100
AcDbDimStyleTableRecord
  2
DIMSTYLE_3
 70
     0
  3
<>
 41
2.5
 42
0.75
 44
0.75
 47
0.3
 48
0.3
 73
     0
 74
     0
 77
     1
 78
     8
 79
     2
140
3.0
147
0.625
171
     1
178
     0
271
     0
272
     0
278
    44
284
     8
340
11
341
238
342
238
343
238
344
238
  0
DIMSTYLE
105
243
330
A
100
AcDbSymbolTableRecord
100
AcDbDimStyleTableRecord
  2
DIMSTYLE_4
 70
     0
 41
2.5
 42
0.75
 44
0.75
 47
0.3
 48
0.3
 73
     0
 74
     0
 77
     1
 78
     8
 79
     2
140
3.0
147
0.75
171
     1
178
     0
179
     2
271
     2
272
     2
278
    44
284
     8
340
11
341
238
342
238
343
238
344
238
  0
ENDTAB
  0
TABLE
  2
BLOCK_RECORD
  5
1
330
0
100
AcDbSymbolTable
 70
     7
  0
BLOCK_RECORD
  5
236
330
1
100
AcDbSymbolTableRecord
100
AcDbBlockTableRecord
  2
*Model_Space
340
488
 70
     0
280
     1
281
     0
  0
BLOCK_RECORD
  5
237
330
1
100
AcDbSymbolTableRecord
100
AcDbBlockTableRecord
  2
*Paper_Space
340
489
 70
     0
280
     1
281
     0
  0
BLOCK_RECORD
  5
238
330
1
100
AcDbSymbolTableRecord
100
AcDbBlockTableRecord
  2
_CLOSED
340
0
102
{BLKREFS
331
28C
331
28D
331
295
331
296
331
29B
331
2A3
331
2A4
102
}
 70
     0
280
     1
281
     0
  0
BLOCK_RECORD
  5
239
330
1
100
AcDbSymbolTableRecord
100
AcDbBlockTableRecord
  2
*D1
340
0
 70
     0
280
     1
281
     0
  0
BLOCK_RECORD
  5
23A
330
1
100
AcDbSymbolTableRecord
100
AcDbBlockTableRecord
  2
*D2
340
0
 70
     0
280
     1
281
     0
  0
BLOCK_RECORD
  5
23B
330
1
100
AcDbSymbolTableRecord
100
AcDbBlockTableRecord
  2
*D3
340
0
 70
     0
280
     1
281
     0
  0
BLOCK_RECORD
  5
23C
330
1
100
AcDbSymbolTableRecord
100
AcDbBlockTableRecord
  2
*D4
340
0
 70
     0
280
     1
281
     0
  0
BLOCK_RECORD
  5
23D
330
1
100
AcDbSymbolTableRecord
100
AcDbBlockTableRecord
  2
LOGO2_BL0
340
0
102
{BLKREFS
331
485
102
}
 70
     0
280
     1
281
     0
  0
BLOCK_RECORD
  5
23E
330
1
100
AcDbSymbolTableRecord
100
AcDbBlockTableRecord
  2
*T6
340
0
102
{BLKREFS
331
486
102
}
 70
     0
280
     1
281
     0
  0
ENDTAB
  0
ENDSEC
  0
SECTION
  2
BLOCKS
  0
BLOCK
  5
20
330
236
100
AcDbEntity
  8
0
100
AcDbBlockBegin
  2
*Model_Space
 70
     0
 10
0.0
 20
0.0
 30
0.0
  3
*Model_Space
  1
*Model_Space
  0
ENDBLK
  5
21
330
236
100
AcDbEntity
  8
0
100
AcDbBlockEnd
  0
BLOCK
  5
1C
330
237
100
AcDbEntity
 67
     1
  8
0
100
AcDbBlockBegin
  2
*Paper_Space
 70
     0
 10
0.0
 20
0.0
 30
0.0
  3
*Paper_Space
  1
*Paper_Space
  0
ENDBLK
  5
1D
330
237
100
AcDbEntity
 67
     1
  8
0
100
AcDbBlockEnd
  0
BLOCK
  5
280
330
238
100
AcDbEntity
  8
0
100
AcDbBlockBegin
  2
_CLOSED
 70
     0
 10
0.0
 20
0.0
 30
0.0
  3
_CLOSED
  1
_CLOSED
  0
LINE
  5
281
330
238
100
AcDbEntity
  8
0
  6
ByBlock
 62
     0
100
AcDbLine
 10
0.0
 20
0.0
 30
0.0
 11
-1.0
 21
0.2
 31
0.0
  0
LINE
  5
282
330
238
100
AcDbEntity
  8
0
  6
ByBlock
 62
     0
100
AcDbLine
 10
-1.0
 20
0.2
 30
0.0
 11
-1.0
 21
-0.2
 31
0.0
  0
LINE
  5
283
330
238
100
AcDbEntity
  8
0
  6
ByBlock
 62
     0
100
AcDbLine
 10
-1.0
 20
-0.2
 30
0.0
 11
0.0
 21
0.0
 31
0.0
  0
LINE
  5
284
330
238
100
AcDbEntity
  8
0
  6
ByBlock
 62
     0
100
AcDbLine
 10
-1.0
 20
0.0
 30
0.0
 11
0.0
 21
0.0
 31
0.0
  0
ENDBLK
  5
285
330
238
100
AcDbEntity
  8
0
  6
ByBlock
 62
     0
100
AcDbBlockEnd
  0
BLOCK
  5
286
330
239
100
AcDbEntity
  8
0
100
AcDbBlockBegin
  2
*D1
 70
     1
 10
0.0
 20
0.0
 30
0.0
  3
*D1
  1
*D1
  0
MTEXT
  5
287
330
239
100
AcDbEntity
  8
0
  6
Continuous
 62
     2
100
AcDbMText
 10
120.413869
 20
23.599065
 30
0.0
 40
3.0
 41
9.321429
 46
0.0
 71
     2
 72
     1
  1
130
 73
     1
 44
0.9
  0
LINE
  5
288
330
239
100
AcDbEntity
  8
0
  6
Continuous
 62
     2
100
AcDbLine
 10
55.350599
 20
32.660755
 30
0.0
 11
55.350599
 21
19.099065
 31
0.0
  0
LINE
  5
289
330
239
100
AcDbEntity
  8
0
  6
Continuous
 62
     2
100
AcDbLine
 10
185.477139
 20
33.716866
 30
0.0
 11
185.477139
 21
19.099065
 31
0.0
  0
LINE
  5
28A
330
239
100
AcDbEntity
  8
0
  6
Continuous
 62
     2
100
AcDbLine
 10
55.350599
 20
19.849065
 30
0.0
 11
120.413869
 21
19.849065
 31
0.0
  0
LINE
  5
28B
330
239
100
AcDbEntity
  8
0
  6
Continuous
 62
     2
100
AcDbLine
 10
185.477139
 20
19.849065
 30
0.0
 11
120.413869
 21
19.849065
 31
0.0
  0
INSERT
  5
28C
330
239
100
AcDbEntity
  8
0
  6
Continuous
 62
     2
100
AcDbBlockReference
  2
_CLOSED
 10
55.350599
 20
19.849065
 30
0.0
 41
2.5
 42
2.5
 43
2.5
 50
180.0
  0
INSERT
  5
28D
330
239
100
AcDbEntity
  8
0
  6
Continuous
 62
     2
100
AcDbBlockReference
  2
_CLOSED
 10
185.477139
 20
19.849065
 30
0.0
 41
2.5
 42
2.5
 43
2.5
  0
ENDBLK
  5
28E
330
239
100
AcDbEntity
  8
0
  6
ByBlock
 62
     0
100
AcDbBlockEnd
  0
BLOCK
  5
28F
330
23A
100
AcDbEntity
  8
0
100
AcDbBlockBegin
  2
*D2
 70
     1
 10
0.0
 20
0.0
 30
0.0
  3
*D2
  1
*D2
  0
MTEXT
  5
290
330
23A
100
AcDbEntity
  8
0
  6
Continuous
 62
     2
100
AcDbMText
 10
211.521984
 20
85.79332
 30
0.0
 40
3.0
 41
7.071429
 46
0.0
 71
     2
 72
     1
  1
92
 11
0.0
 21
1.0
 31
0.0
 73
     1
 44
0.9
  0
LINE
  5
291
330
23A
100
AcDbEntity
  8
0
  6
Continuous
 62
     2
100
AcDbLine
 10
195.788495
 20
131.782864
 30
0.0
 11
216.021984
 21
131.782864
 31
0.0
  0
LINE
  5
292
330
23A
100
AcDbEntity
  8
0
  6
Continuous
 62
     2
100
AcDbLine
 10
196.844607
 20
39.803775
 30
0.0
 11
216.021984
 21
39.803775
 31
0.0
  0
LINE
  5
293
330
23A
100
AcDbEntity
  8
0
  6
Continuous
 62
     2
100
AcDbLine
 10
215.271984
 20
131.782864
 30
0.0
 11
215.271984
 21
85.79332
 31
0.0
  0
LINE
  5
294
330
23A
100
AcDbEntity
  8
0
  6
Continuous
 62
     2
100
AcDbLine
 10
215.271984
 20
39.803775
 30
0.0
 11
215.271984
 21
85.79332
 31
0.0
  0
INSERT
  5
295
330
23A
100
AcDbEntity
  8
0
  6
Continuous
 62
     2
100
AcDbBlockReference
  2
_CLOSED
 10
215.271984
 20
131.782864
 30
0.0
 41
2.5
 42
2.5
 43
2.5
 50
90.0
  0
INSERT
  5
296
330
23A
100
AcDbEntity
  8
0
  6
Continuous
 62
     2
100
AcDbBlockReference
  2
_CLOSED
 10
215.271984
 20
39.803775
 30
0.0
 41
2.5
 42
2.5
 43
2.5
 50
270.0
  0
ENDBLK
  5
297
330
23A
100
AcDbEntity
  8
0
  6
ByBlock
 62
     0
100
AcDbBlockEnd
  0
BLOCK
  5
298
330
23B
100
AcDbEntity
  8
0
100
AcDbBlockBegin
  2
*D3
 70
     1
 10
0.0
 20
0.0
 30
0.0
  3
*D3
  1
*D3
  0
MTEXT
  5
299
330
23B
100
AcDbEntity
  8
0
  6
Continuous
 62
     2
100
AcDbMText
 10
156.073056
 20
251.830645
 30
0.0
 40
3.0
 41
9.642857
 46
0.0
 71
     1
 72
     1
  1
R71
 11
0.4943346932
 21
0.8692716555
 31
0.0
 73
     1
 44
0.9
  0
LINE
  5
29A
330
23B
100
AcDbEntity
  8
0
  6
Continuous
 62
     2
100
AcDbLine
 10
155.388049
 20
243.040129
 30
0.0
 11
162.510691
 21
255.565065
 31
0.0
  0
INSERT
  5
29B
330
23B
100
AcDbEntity
  8
0
  6
Continuous
 62
     2
100
AcDbBlockReference
  2
_CLOSED
 10
155.388049
 20
243.040129
 30
0.0
 41
2.5
 42
2.5
 43
2.5
 50
240.374111
  0
ENDBLK
  5
29C
330
23B
100
AcDbEntity
  8
0
  6
ByBlock
 62
     0
100
AcDbBlockEnd
  0
BLOCK
  5
29D
330
23C
100
AcDbEntity
  8
0
100
AcDbBlockBegin
  2
*D4
 70
     1
 10
0.0
 20
0.0
 30
0.0
  3
*D4
  1
*D4
  0
MTEXT
  5
29E
330
23C
100
AcDbEntity
  8
0
  6
Continuous
 62
     2
100
AcDbMText
 10
358.590131
 20
225.28916
 30
0.0
 40
3.0
 41
6.75
 46
0.0
 71
     2
 72
     1
  1
54
 11
0.0
 21
1.0
 31
0.0
 73
     1
 44
0.9
  0
LINE
  5
29F
330
23C
100
AcDbEntity
  8
0
  6
Continuous
 62
     2
100
AcDbLine
 10
353.324355
 20
252.28916
 30
0.0
 11
363.090131
 21
252.28916
 31
0.0
  0
LINE
  5
2A0
330
23C
100
AcDbEntity
  8
0
  6
Continuous
 62
     2
100
AcDbLine
 10
353.783087
 20
198.28916
 30
0.0
 11
363.090131
 21
198.28916
 31
0.0
  0
LINE
  5
2A1
330
23C
100
AcDbEntity
  8
0
  6
Continuous
 62
     2
100
AcDbLine
 10
362.340131
 20
252.28916
 30
0.0
 11
362.340131
 21
225.28916
 31
0.0
  0
LINE
  5
2A2
330
23C
100
AcDbEntity
  8
0
  6
Continuous
 62
     2
100
AcDbLine
 10
362.340131
 20
198.28916
 30
0.0
 11
362.340131
 21
225.28916
 31
0.0
  0
INSERT
  5
2A3
330
23C
100
AcDbEntity
  8
0
  6
Continuous
 62
     2
100
AcDbBlockReference
  2
_CLOSED
 10
362.340131
 20
252.28916
 30
0.0
 41
2.5
 42
2.5
 43
2.5
 50
90.0
  0
INSERT
  5
2A4
330
23C
100
AcDbEntity
  8
0
  6
Continuous
 62
     2
100
AcDbBlockReference
  2
_CLOSED
 10
362.340131
 20
198.28916
 30
0.0
 41
2.5
 42
2.5
 43
2.5
 50
270.0
  0
ENDBLK
  5
2A5
330
23C
100
AcDbEntity
  8
0
  6
ByBlock
 62
     0
100
AcDbBlockEnd
  0
BLOCK
  5
244
330
23D
100
AcDbEntity
  8
0
100
AcDbBlockBegin
  2
LOGO2_BL0
 70
     0
 10
333.147387
 20
37.523927
 30
0.0
  3
LOGO2_BL0
  1
LOGO2_BL0
  0
LINE
  5
245
330
23D
100
AcDbEntity
  8
0
  6
Continuous
 62
     7
100
AcDbLine
 10
324.890312
 20
40.719418
 30
0.0
 11
323.585971
 21
40.719418
 31
0.0
  0
LINE
  5
246
330
23D
100
AcDbEntity
  8
0
  6
Continuous
 62
     7
100
AcDbLine
 10
323.585971
 20
40.719418
 30
0.0
 11
323.585971
 21
30.260352
 31
0.0
  0
LINE
  5
247
330
23D
100
AcDbEntity
  8
0
  6
Continuous
 62
     7
100
AcDbLine
 10
323.585971
 20
30.260352
 30
0.0
 11
328.067026
 21
30.260352
 31
0.0
  0
LINE
  5
248
330
23D
100
AcDbEntity
  8
0
  6
Continuous
 62
     7
100
AcDbLine
 10
328.067026
 20
30.260352
 30
0.0
 11
328.067026
 21
31.453207
 31
0.0
  0
LINE
  5
249
330
23D
100
AcDbEntity
  8
0
  6
Continuous
 62
     7
100
AcDbLine
 10
328.067026
 20
31.453207
 30
0.0
 11
324.890312
 21
31.453207
 31
0.0
  0
LINE
  5
24A
330
23D
100
AcDbEntity
  8
0
  6
Continuous
 62
     7
100
AcDbLine
 10
324.890312
 20
31.453207
 30
0.0
 11
324.890312
 21
40.719418
 31
0.0
  0
LINE
  5
24B
330
23D
100
AcDbEntity
  8
0
  6
Continuous
 62
     7
100
AcDbLine
 10
339.826638
 20
40.719418
 30
0.0
 11
338.522821
 21
40.719418
 31
0.0
  0
LINE
  5
24C
330
23D
100
AcDbEntity
  8
0
  6
Continuous
 62
     7
100
AcDbLine
 10
338.522821
 20
40.719418
 30
0.0
 11
338.522821
 21
30.260352
 31
0.0
  0
LINE
  5
24D
330
23D
100
AcDbEntity
  8
0
  6
Continuous
 62
     7
100
AcDbLine
 10
338.522821
 20
30.260352
 30
0.0
 11
343.004007
 21
30.260352
 31
0.0
  0
LINE
  5
24E
330
23D
100
AcDbEntity
  8
0
  6
Continuous
 62
     7
100
AcDbLine
 10
343.004007
 20
30.260352
 30
0.0
 11
343.004007
 21
31.453207
 31
0.0
  0
LINE
  5
24F
330
23D
100
AcDbEntity
  8
0
  6
Continuous
 62
     7
100
AcDbLine
 10
343.004007
 20
31.453207
 30
0.0
 11
339.826638
 21
31.453207
 31
0.0
  0
LINE
  5
250
330
23D
100
AcDbEntity
  8
0
  6
Continuous
 62
     7
100
AcDbLine
 10
339.826638
 20
31.453207
 30
0.0
 11
339.826638
 21
40.719418
 31
0.0
  0
LWPOLYLINE
  5
251
330
23D
100
AcDbEntity
  8
0
  6
Continuous
 62
     7
100
AcDbPolyline
 90
        2
 70
     0
 43
0.2
 10
321.940366
 20
26.916801
 10
321.940366
 20
25.059738
  0
LWPOLYLINE
  5
252
330
23D
100
AcDbEntity
  8
0
  6
Continuous
 62
     7
100
AcDbPolyline
 90
        2
 70
     0
 43
0.2
 10
321.940366
 20
25.059738
 10
322.736082
 20
25.059738
  0
LWPOLYLINE
  5
253
330
23D
100
AcDbEntity
  8
0
  6
Continuous
 62
     7
100
AcDbPolyline
 90
        2
 70
     0
 43
0.2
 10
322.736082
 20
25.059738
 10
322.736082
 20
25.271719
  0
LWPOLYLINE
  5
254
330
23D
100
AcDbEntity
  8
0
  6
Continuous
 62
     7
100
AcDbPolyline
 90
        2
 70
     0
 43
0.2
 10
322.736082
 20
25.271719
 10
322.171976
 20
25.271719
  0
LWPOLYLINE
  5
255
330
23D
100
AcDbEntity
  8
0
  6
Continuous
 62
     7
100
AcDbPolyline
 90
        2
 70
     0
 43
0.2
 10
322.171976
 20
25.271719
 10
322.171976
 20
26.916801
  0
LWPOLYLINE
  5
256
330
23D
100
AcDbEntity
  8
0
  6
Continuous
 62
     7
100
AcDbPolyline
 90
        2
 70
     0
 43
0.2
 10
322.171976
 20
26.916801
 10
321.940366
 20
26.916801
  0
SPLINE
  5
257
330
23D
100
AcDbEntity
  8
0
  6
Continuous
 62
     7
100
AcDbSpline
 70
     3
 71
     3
 72
    35
 73
    31
 74
     0
 42
0.000000001
 43
0.0000001
 40
0.0
 40
0.0
 40
0.0
 40
0.0
 40
1.0
 40
1.0
 40
1.0
 40
2.0
 40
2.0
 40
2.0
 40
3.0
 40
3.0
 40
3.0
 40
4.0
 40
4.0
 40
4.0
 40
5.0
 40
5.0
 40
5.0
 40
6.0
 40
6.0
 40
6.0
 40
7.0
 40
7.0
 40
7.0
 40
8.0
 40
8.0
 40
8.0
 40
9.0
 40
9.0
 40
9.0
 40
10.0
 40
10.0
 40
10.0
 40
10.0
 10
324.1343754303
 20
26.2122894457
 30
0.0
 10
324.1343754303
 20
26.2122894457
 30
0.0
 10
324.1343754303
 20
25.5501741665
 30
0.0
 10
324.1343754303
 20
25.5501741665
 30
0.0
 10
324.1343754303
 20
25.2350805712
 30
0.0
 10
324.2822391191
 20
25.0204819432
 30
0.0
 10
324.6223256034
 20
25.0204819432
 30
0.0
 10
324.9618886764
 20
25.0204819432
 30
0.0
 10
325.1100140709
 20
25.2350805712
 30
0.0
 10
325.1100140709
 20
25.5501741665
 30
0.0
 10
325.1100140709
 20
25.5501741665
 30
0.0
 10
325.1100140709
 20
26.2122894457
 30
0.0
 10
325.1100140709
 20
26.2122894457
 30
0.0
 10
325.1100140709
 20
26.2122894457
 30
0.0
 10
324.887956832
 20
26.2122894457
 30
0.0
 10
324.887956832
 20
26.2122894457
 30
0.0
 10
324.887956832
 20
26.2122894457
 30
0.0
 10
324.887956832
 20
25.5752979083
 30
0.0
 10
324.887956832
 20
25.5752979083
 30
0.0
 10
324.887956832
 20
25.3894869011
 30
0.0
 10
324.8412423746
 20
25.2267059906
 30
0.0
 10
324.6223256034
 20
25.2267059906
 30
0.0
 10
324.402885421
 20
25.2267059906
 30
0.0
 10
324.3561709636
 20
25.3894869011
 30
0.0
 10
324.3561709636
 20
25.5752979083
 30
0.0
 10
324.3561709636
 20
25.5752979083
 30
0.0
 10
324.3561709636
 20
26.2122894457
 30
0.0
 10
324.3561709636
 20
26.2122894457
 30
0.0
 10
324.3561709636
 20
26.2122894457
 30
0.0
 10
324.1343754303
 20
26.2122894457
 30
0.0
 10
324.1343754303
 20
26.2122894457
 30
0.0
  0
SPLINE
  5
258
330
23D
100
AcDbEntity
  8
0
  6
Continuous
 62
     7
100
AcDbSpline
 70
     3
 71
     3
 72
    35
 73
    31
 74
     0
 42
0.000000001
 43
0.0000001
 40
0.0
 40
0.0
 40
0.0
 40
0.0
 40
1.0
 40
1.0
 40
1.0
 40
2.0
 40
2.0
 40
2.0
 40
3.0
 40
3.0
 40
3.0
 40
4.0
 40
4.0
 40
4.0
 40
5.0
 40
5.0
 40
5.0
 40
6.0
 40
6.0
 40
6.0
 40
7.0
 40
7.0
 40
7.0
 40
8.0
 40
8.0
 40
8.0
 40
9.0
 40
9.0
 40
9.0
 40
10.0
 40
10.0
 40
10.0
 40
10.0
 10
327.5331466281
 20
26.1709399539
 30
0.0
 10
327.4446901205
 20
26.2222342601
 30
0.0
 10
327.3312407238
 20
26.2473580019
 30
0.0
 10
327.2276052888
 20
26.2473580019
 30
0.0
 10
326.8727324356
 20
26.2473580019
 30
0.0
 10
326.5972872454
 20
25.9835587129
 30
0.0
 10
326.5972872454
 20
25.6260688032
 30
0.0
 10
326.5972872454
 20
25.2811407645
 30
0.0
 10
326.8757420505
 20
25.0210053545
 30
0.0
 10
327.2153051235
 20
25.0210053545
 30
0.0
 10
327.3312407238
 20
25.0210053545
 30
0.0
 10
327.4319973967
 20
25.0429886286
 30
0.0
 10
327.5331466281
 20
25.0968999912
 30
0.0
 10
327.5331466281
 20
25.0968999912
 30
0.0
 10
327.5331466281
 20
25.3795420867
 30
0.0
 10
327.5331466281
 20
25.3795420867
 30
0.0
 10
327.4492699692
 20
25.2863748774
 30
0.0
 10
327.345765387
 20
25.2272294019
 30
0.0
 10
327.2176604743
 20
25.2272294019
 30
0.0
 10
326.9839573343
 20
25.2272294019
 30
0.0
 10
326.8186902202
 20
25.3994317156
 30
0.0
 10
326.8186902202
 20
25.6360136177
 30
0.0
 10
326.8186902202
 20
25.8479951893
 30
0.0
 10
326.9864435379
 20
26.040087132
 30
0.0
 10
327.2032666639
 20
26.040087132
 30
0.0
 10
327.3360822782
 20
26.040087132
 30
0.0
 10
327.4446901205
 20
25.9861757693
 30
0.0
 10
327.5331466281
 20
25.8851573907
 30
0.0
 10
327.5331466281
 20
25.8851573907
 30
0.0
 10
327.5331466281
 20
26.1709399539
 30
0.0
 10
327.5331466281
 20
26.1709399539
 30
0.0
  0
SPLINE
  5
259
330
23D
100
AcDbEntity
  8
0
  6
Continuous
 62
     7
100
AcDbSpline
 70
     3
 71
     3
 72
    32
 73
    28
 74
     0
 42
0.000000001
 43
0.0000001
 40
0.0
 40
0.0
 40
0.0
 40
0.0
 40
1.0
 40
1.0
 40
1.0
 40
2.0
 40
2.0
 40
2.0
 40
3.0
 40
3.0
 40
3.0
 40
4.0
 40
4.0
 40
4.0
 40
5.0
 40
5.0
 40
5.0
 40
6.0
 40
6.0
 40
6.0
 40
7.0
 40
7.0
 40
7.0
 40
8.0
 40
8.0
 40
8.0
 40
9.0
 40
9.0
 40
9.0
 40
9.0
 10
330.0650178804
 20
25.5993748276
 30
0.0
 10
330.0650178804
 20
25.5993748276
 30
0.0
 10
330.0650178804
 20
25.6333965613
 30
0.0
 10
330.0650178804
 20
25.6333965613
 30
0.0
 10
330.0650178804
 20
25.9757075435
 30
0.0
 10
329.8921613025
 20
26.2473580019
 30
0.0
 10
329.5255116954
 20
26.2473580019
 30
0.0
 10
329.153889681
 20
26.2473580019
 30
0.0
 10
328.9641530891
 20
25.9809416564
 30
0.0
 10
328.9641530891
 20
25.6260688032
 30
0.0
 10
328.9641530891
 20
25.2863748774
 30
0.0
 10
329.1782283059
 20
25.0204819432
 30
0.0
 10
329.5303532498
 20
25.0204819432
 30
0.0
 10
329.754373281
 20
25.0204819432
 30
0.0
 10
329.9565408909
 20
25.1361558378
 30
0.0
 10
330.0650178804
 20
25.3355755385
 30
0.0
 10
330.0650178804
 20
25.3355755385
 30
0.0
 10
329.8773749337
 20
25.4423514412
 30
0.0
 10
329.8773749337
 20
25.4423514412
 30
0.0
 10
329.7938908332
 20
25.3036474499
 30
0.0
 10
329.7026864163
 20
25.2178079987
 30
0.0
 10
329.5331011591
 20
25.2178079987
 30
0.0
 10
329.3211195875
 20
25.2178079987
 30
0.0
 10
329.1881731204
 20
25.4025721833
 30
0.0
 10
329.1858177696
 20
25.5993748276
 30
0.0
 10
329.1858177696
 20
25.5993748276
 30
0.0
 10
330.0650178804
 20
25.5993748276
 30
0.0
 10
330.0650178804
 20
25.5993748276
 30
0.0
  0
SPLINE
  5
25A
330
23D
100
AcDbEntity
  8
0
  6
Continuous
 62
     7
100
AcDbSpline
 70
     3
 71
     3
 72
    14
 73
    10
 74
     0
 42
0.000000001
 43
0.0000001
 40
0.0
 40
0.0
 40
0.0
 40
0.0
 40
1.0
 40
1.0
 40
1.0
 40
2.0
 40
2.0
 40
2.0
 40
3.0
 40
3.0
 40
3.0
 40
3.0
 10
329.1978562292
 20
25.7668664397
 30
0.0
 10
329.2254661746
 20
25.9317409954
 30
0.0
 10
329.3533093817
 20
26.054742648
 30
0.0
 10
329.5255116954
 20
26.054742648
 30
0.0
 10
329.7026864163
 20
26.054742648
 30
0.0
 10
329.816135813
 20
25.9390687534
 30
0.0
 10
329.8433531999
 20
25.7668664397
 30
0.0
 10
329.8433531999
 20
25.7668664397
 30
0.0
 10
329.1978562292
 20
25.7668664397
 30
0.0
 10
329.1978562292
 20
25.7668664397
 30
0.0
  0
SPLINE
  5
25B
330
23D
100
AcDbEntity
  8
0
  6
Continuous
 62
     7
100
AcDbSpline
 70
     3
 71
     3
 72
    20
 73
    16
 74
     0
 42
0.000000001
 43
0.0000001
 40
0.0
 40
0.0
 40
0.0
 40
0.0
 40
1.0
 40
1.0
 40
1.0
 40
2.0
 40
2.0
 40
2.0
 40
3.0
 40
3.0
 40
3.0
 40
4.0
 40
4.0
 40
4.0
 40
5.0
 40
5.0
 40
5.0
 40
5.0
 10
332.0890493306
 20
25.9762309548
 30
0.0
 10
332.0890493306
 20
25.9762309548
 30
0.0
 10
332.5001888972
 20
25.4737561185
 30
0.0
 10
332.5001888972
 20
25.4737561185
 30
0.0
 10
332.3841224441
 20
25.3580822239
 30
0.0
 10
332.2463344226
 20
25.2277528132
 30
0.0
 10
332.0743938145
 20
25.2277528132
 30
0.0
 10
331.8969573879
 20
25.2277528132
 30
0.0
 10
331.7294657758
 20
25.3921039576
 30
0.0
 10
331.7294657758
 20
25.5690169729
 30
0.0
 10
331.7294657758
 20
25.7469768107
 30
0.0
 10
331.9392228494
 20
25.8731189311
 30
0.0
 10
332.0668043508
 20
25.9610520275
 30
0.0
 10
332.0668043508
 20
25.9610520275
 30
0.0
 10
332.0890493306
 20
25.9762309548
 30
0.0
 10
332.0890493306
 20
25.9762309548
 30
0.0
  0
SPLINE
  5
25C
330
23D
100
AcDbEntity
  8
0
  6
Continuous
 62
     7
100
AcDbSpline
 70
     3
 71
     3
 72
    23
 73
    19
 74
     0
 42
0.000000001
 43
0.0000001
 40
0.0
 40
0.0
 40
0.0
 40
0.0
 40
1.0
 40
1.0
 40
1.0
 40
2.0
 40
2.0
 40
2.0
 40
3.0
 40
3.0
 40
3.0
 40
4.0
 40
4.0
 40
4.0
 40
5.0
 40
5.0
 40
5.0
 40
6.0
 40
6.0
 40
6.0
 40
6.0
 10
332.1383808444
 20
26.2672476309
 30
0.0
 10
332.1383808444
 20
26.2672476309
 30
0.0
 10
332.0767491653
 20
26.3457593241
 30
0.0
 10
332.0767491653
 20
26.3457593241
 30
0.0
 10
332.0228378026
 20
26.4143262028
 30
0.0
 10
331.9660476779
 20
26.4834164928
 30
0.0
 10
331.9660476779
 20
26.5771071133
 30
0.0
 10
331.9660476779
 20
26.6959214757
 30
0.0
 10
332.0619627964
 20
26.7733863463
 30
0.0
 10
332.1729259894
 20
26.7733863463
 30
0.0
 10
332.2961893477
 20
26.7733863463
 30
0.0
 10
332.3894874098
 20
26.7022024111
 30
0.0
 10
332.3894874098
 20
26.5718730004
 30
0.0
 10
332.3894874098
 20
26.4368328882
 30
0.0
 10
332.2613824971
 20
26.3604148401
 30
0.0
 10
332.1678227294
 20
26.2866138485
 30
0.0
 10
332.1678227294
 20
26.2866138485
 30
0.0
 10
332.1383808444
 20
26.2672476309
 30
0.0
 10
332.1383808444
 20
26.2672476309
 30
0.0
  0
SPLINE
  5
25D
330
23D
100
AcDbEntity
  8
0
  6
Continuous
 62
     7
100
AcDbSpline
 70
     3
 71
     3
 72
    50
 73
    46
 74
     0
 42
0.000000001
 43
0.0000001
 40
0.0
 40
0.0
 40
0.0
 40
0.0
 40
1.0
 40
1.0
 40
1.0
 40
2.0
 40
2.0
 40
2.0
 40
3.0
 40
3.0
 40
3.0
 40
4.0
 40
4.0
 40
4.0
 40
5.0
 40
5.0
 40
5.0
 40
6.0
 40
6.0
 40
6.0
 40
7.0
 40
7.0
 40
7.0
 40
8.0
 40
8.0
 40
8.0
 40
9.0
 40
9.0
 40
9.0
 40
10.0
 40
10.0
 40
10.0
 40
11.0
 40
11.0
 40
11.0
 40
12.0
 40
12.0
 40
12.0
 40
13.0
 40
13.0
 40
13.0
 40
14.0
 40
14.0
 40
14.0
 40
15.0
 40
15.0
 40
15.0
 40
15.0
 10
332.8405370871
 20
25.0602612011
 30
0.0
 10
332.8405370871
 20
25.0602612011
 30
0.0
 10
333.1259270918
 20
25.0602612011
 30
0.0
 10
333.1259270918
 20
25.0602612011
 30
0.0
 10
333.1259270918
 20
25.0602612011
 30
0.0
 10
332.793560924
 20
25.471139062
 30
0.0
 10
332.793560924
 20
25.471139062
 30
0.0
 10
332.793560924
 20
25.471139062
 30
0.0
 10
333.0200671588
 20
25.7370319963
 30
0.0
 10
333.0200671588
 20
25.7370319963
 30
0.0
 10
333.0200671588
 20
25.7370319963
 30
0.0
 10
332.8718109116
 20
25.8898680923
 30
0.0
 10
332.8718109116
 20
25.8898680923
 30
0.0
 10
332.8718109116
 20
25.8898680923
 30
0.0
 10
332.6559037553
 20
25.6386306742
 30
0.0
 10
332.6559037553
 20
25.6386306742
 30
0.0
 10
332.6559037553
 20
25.6386306742
 30
0.0
 10
332.2688411079
 20
26.1065603655
 30
0.0
 10
332.2688411079
 20
26.1065603655
 30
0.0
 10
332.4242942604
 20
26.2206640263
 30
0.0
 10
332.6065722414
 20
26.3604148401
 30
0.0
 10
332.6065722414
 20
26.5697793553
 30
0.0
 10
332.6065722414
 20
26.8136890154
 30
0.0
 10
332.4045354843
 20
26.9571037083
 30
0.0
 10
332.1780292495
 20
26.9571037083
 30
0.0
 10
331.9338578837
 20
26.9571037083
 30
0.0
 10
331.7494862575
 20
26.8063612574
 30
0.0
 10
331.7494862575
 20
26.5498897263
 30
0.0
 10
331.7494862575
 20
26.3923429287
 30
0.0
 10
331.8481492853
 20
26.25468576
 30
0.0
 10
331.953485807
 20
26.1437225669
 30
0.0
 10
331.953485807
 20
26.1437225669
 30
0.0
 10
331.8379427652
 20
26.0599767609
 30
0.0
 10
331.8379427652
 20
26.0599767609
 30
0.0
 10
331.660244633
 20
25.9317409954
 30
0.0
 10
331.5129043554
 20
25.8040286411
 30
0.0
 10
331.5129043554
 20
25.5669233277
 30
0.0
 10
331.5129043554
 20
25.2465956195
 30
0.0
 10
331.7714695316
 20
25.0204819432
 30
0.0
 10
332.0818524253
 20
25.0204819432
 30
0.0
 10
332.3007691965
 20
25.0204819432
 30
0.0
 10
332.4979643992
 20
25.145577241
 30
0.0
 10
332.6382386243
 20
25.3114986192
 30
0.0
 10
332.6382386243
 20
25.3114986192
 30
0.0
 10
332.8405370871
 20
25.0602612011
 30
0.0
 10
332.8405370871
 20
25.0602612011
 30
0.0
  0
LWPOLYLINE
  5
25E
330
23D
100
AcDbEntity
  8
0
  6
Continuous
 62
     7
100
AcDbPolyline
 90
        2
 70
     0
 43
0.2
 10
334.775981
 20
26.916801
 10
334.544633
 20
26.916801
  0
LWPOLYLINE
  5
25F
330
23D
100
AcDbEntity
  8
0
  6
Continuous
 62
     7
100
AcDbPolyline
 90
        2
 70
     0
 43
0.2
 10
334.544633
 20
26.916801
 10
334.544633
 20
25.059738
  0
LWPOLYLINE
  5
260
330
23D
100
AcDbEntity
  8
0
  6
Continuous
 62
     7
100
AcDbPolyline
 90
        2
 70
     0
 43
0.2
 10
334.544633
 20
25.059738
 10
335.339957
 20
25.059738
  0
LWPOLYLINE
  5
261
330
23D
100
AcDbEntity
  8
0
  6
Continuous
 62
     7
100
AcDbPolyline
 90
        2
 70
     0
 43
0.2
 10
335.339957
 20
25.059738
 10
335.339957
 20
25.271719
  0
LWPOLYLINE
  5
262
330
23D
100
AcDbEntity
  8
0
  6
Continuous
 62
     7
100
AcDbPolyline
 90
        2
 70
     0
 43
0.2
 10
335.339957
 20
25.271719
 10
334.775981
 20
25.271719
  0
LWPOLYLINE
  5
263
330
23D
100
AcDbEntity
  8
0
  6
Continuous
 62
     7
100
AcDbPolyline
 90
        2
 70
     0
 43
0.2
 10
334.775981
 20
25.271719
 10
334.775981
 20
26.916801
  0
LWPOLYLINE
  5
264
330
23D
100
AcDbEntity
  8
0
  6
Continuous
 62
     7
100
AcDbPolyline
 90
        2
 70
     0
 43
0.2
 10
337.01906
 20
26.212289
 10
336.797919
 20
26.212289
  0
LWPOLYLINE
  5
265
330
23D
100
AcDbEntity
  8
0
  6
Continuous
 62
     7
100
AcDbPolyline
 90
        2
 70
     0
 43
0.2
 10
336.797919
 20
26.212289
 10
336.797919
 20
25.060261
  0
LWPOLYLINE
  5
266
330
23D
100
AcDbEntity
  8
0
  6
Continuous
 62
     7
100
AcDbPolyline
 90
        2
 70
     0
 43
0.2
 10
336.797919
 20
25.060261
 10
337.01906
 20
25.060261
  0
LWPOLYLINE
  5
267
330
23D
100
AcDbEntity
  8
0
  6
Continuous
 62
     7
100
AcDbPolyline
 90
        2
 70
     0
 43
0.2
 10
337.01906
 20
25.060261
 10
337.01906
 20
26.212289
  0
LWPOLYLINE
  5
268
330
23D
100
AcDbEntity
  8
0
  6
Continuous
 62
     7
100
AcDbPolyline
 90
        2
 70
     1
 43
0.2
 10
336.756037
 20
26.742243
 42
1.0
 10
337.061204
 20
26.742243
 42
1.0
  0
SPLINE
  5
269
330
23D
100
AcDbEntity
  8
0
  6
Continuous
 62
     7
100
AcDbSpline
 70
     3
 71
     3
 72
    17
 73
    13
 74
     0
 42
0.000000001
 43
0.0000001
 40
0.0
 40
0.0
 40
0.0
 40
0.0
 40
1.0
 40
1.0
 40
1.0
 40
2.0
 40
2.0
 40
2.0
 40
3.0
 40
3.0
 40
3.0
 40
4.0
 40
4.0
 40
4.0
 40
4.0
 10
339.1493441926
 20
25.2178079987
 30
0.0
 10
338.915379347
 20
25.2178079987
 30
0.0
 10
338.7850499363
 20
25.4198447558
 30
0.0
 10
338.7850499363
 20
25.6360136177
 30
0.0
 10
338.7850499363
 20
25.8506122457
 30
0.0
 10
338.9208751655
 20
26.0495085351
 30
0.0
 10
339.1493441926
 20
26.0495085351
 30
0.0
 10
339.3888048568
 20
26.0495085351
 30
0.0
 10
339.5243683804
 20
25.8605570602
 30
0.0
 10
339.5243683804
 20
25.6360136177
 30
0.0
 10
339.5243683804
 20
25.4098999414
 30
0.0
 10
339.3911602076
 20
25.2178079987
 30
0.0
 10
339.1493441926
 20
25.2178079987
 30
0.0
  0
SPLINE
  5
26A
330
23D
100
AcDbEntity
  8
0
  6
Continuous
 62
     7
100
AcDbSpline
 70
     3
 71
     3
 72
    50
 73
    46
 74
     0
 42
0.000000001
 43
0.0000001
 40
0.0
 40
0.0
 40
0.0
 40
0.0
 40
1.0
 40
1.0
 40
1.0
 40
2.0
 40
2.0
 40
2.0
 40
3.0
 40
3.0
 40
3.0
 40
4.0
 40
4.0
 40
4.0
 40
5.0
 40
5.0
 40
5.0
 40
6.0
 40
6.0
 40
6.0
 40
7.0
 40
7.0
 40
7.0
 40
8.0
 40
8.0
 40
8.0
 40
9.0
 40
9.0
 40
9.0
 40
10.0
 40
10.0
 40
10.0
 40
11.0
 40
11.0
 40
11.0
 40
12.0
 40
12.0
 40
12.0
 40
13.0
 40
13.0
 40
13.0
 40
14.0
 40
14.0
 40
14.0
 40
15.0
 40
15.0
 40
15.0
 40
15.0
 10
339.7334711899
 20
26.2128128569
 30
0.0
 10
339.7334711899
 20
26.2128128569
 30
0.0
 10
339.5118065095
 20
26.2128128569
 30
0.0
 10
339.5118065095
 20
26.2128128569
 30
0.0
 10
339.5118065095
 20
26.2128128569
 30
0.0
 10
339.5118065095
 20
26.0154868014
 30
0.0
 10
339.5118065095
 20
26.0154868014
 30
0.0
 10
339.5118065095
 20
26.0154868014
 30
0.0
 10
339.5070958079
 20
26.0154868014
 30
0.0
 10
339.5070958079
 20
26.0154868014
 30
0.0
 10
339.4157605382
 20
26.158378083
 30
0.0
 10
339.2778416638
 20
26.2468345907
 30
0.0
 10
339.1051159388
 20
26.2468345907
 30
0.0
 10
338.772749771
 20
26.2468345907
 30
0.0
 10
338.5636469615
 20
25.9589583823
 30
0.0
 10
338.5636469615
 20
25.6433413757
 30
0.0
 10
338.5636469615
 20
25.3135922644
 30
0.0
 10
338.7607113114
 20
25.0204819432
 30
0.0
 10
339.1155841646
 20
25.0204819432
 30
0.0
 10
339.2778416638
 20
25.0204819432
 30
0.0
 10
339.4178541833
 20
25.1089384508
 30
0.0
 10
339.5070958079
 20
25.2397912728
 30
0.0
 10
339.5070958079
 20
25.2397912728
 30
0.0
 10
339.5118065095
 20
25.2397912728
 30
0.0
 10
339.5118065095
 20
25.2397912728
 30
0.0
 10
339.5118065095
 20
25.2397912728
 30
0.0
 10
339.5118065095
 20
25.0204819432
 30
0.0
 10
339.5118065095
 20
25.0204819432
 30
0.0
 10
339.5118065095
 20
24.7839000411
 30
0.0
 10
339.4552780904
 20
24.5970422113
 30
0.0
 10
339.1820573981
 20
24.5970422113
 30
0.0
 10
338.9797589354
 20
24.5970422113
 30
0.0
 10
338.8371293594
 20
24.7153331624
 30
0.0
 10
338.8371293594
 20
24.9215572098
 30
0.0
 10
338.8371293594
 20
24.9215572098
 30
0.0
 10
338.615464679
 20
24.9215572098
 30
0.0
 10
338.615464679
 20
24.9215572098
 30
0.0
 10
338.6204370862
 20
24.5970422113
 30
0.0
 10
338.8515231698
 20
24.4002395671
 30
0.0
 10
339.171850878
 20
24.4002395671
 30
0.0
 10
339.6198909404
 20
24.4002395671
 30
0.0
 10
339.7334711899
 20
24.6854987189
 30
0.0
 10
339.7334711899
 20
25.0822444751
 30
0.0
 10
339.7334711899
 20
25.0822444751
 30
0.0
 10
339.7334711899
 20
26.2128128569
 30
0.0
 10
339.7334711899
 20
26.2128128569
 30
0.0
  0
SPLINE
  5
26B
330
23D
100
AcDbEntity
  8
0
  6
Continuous
 62
     7
100
AcDbSpline
 70
     3
 71
     3
 72
    44
 73
    40
 74
     0
 42
0.000000001
 43
0.0000001
 40
0.0
 40
0.0
 40
0.0
 40
0.0
 40
1.0
 40
1.0
 40
1.0
 40
2.0
 40
2.0
 40
2.0
 40
3.0
 40
3.0
 40
3.0
 40
4.0
 40
4.0
 40
4.0
 40
5.0
 40
5.0
 40
5.0
 40
6.0
 40
6.0
 40
6.0
 40
7.0
 40
7.0
 40
7.0
 40
8.0
 40
8.0
 40
8.0
 40
9.0
 40
9.0
 40
9.0
 40
10.0
 40
10.0
 40
10.0
 40
11.0
 40
11.0
 40
11.0
 40
12.0
 40
12.0
 40
12.0
 40
13.0
 40
13.0
 40
13.0
 40
13.0
 10
341.3023965253
 20
27.1978729007
 30
0.0
 10
341.3023965253
 20
27.1978729007
 30
0.0
 10
341.3023965253
 20
25.0597377898
 30
0.0
 10
341.3023965253
 20
25.0597377898
 30
0.0
 10
341.3023965253
 20
25.0597377898
 30
0.0
 10
341.5237995001
 20
25.0597377898
 30
0.0
 10
341.5237995001
 20
25.0597377898
 30
0.0
 10
341.5237995001
 20
25.0597377898
 30
0.0
 10
341.5237995001
 20
25.5894300131
 30
0.0
 10
341.5237995001
 20
25.5894300131
 30
0.0
 10
341.5237995001
 20
25.7993179395
 30
0.0
 10
341.5237995001
 20
26.0500319464
 30
0.0
 10
341.8090586519
 20
26.0500319464
 30
0.0
 10
342.0359574452
 20
26.0500319464
 30
0.0
 10
342.0629131266
 20
25.9170854793
 30
0.0
 10
342.0629131266
 20
25.7208062464
 30
0.0
 10
342.0629131266
 20
25.7208062464
 30
0.0
 10
342.0629131266
 20
25.0597377898
 30
0.0
 10
342.0629131266
 20
25.0597377898
 30
0.0
 10
342.0629131266
 20
25.0597377898
 30
0.0
 10
342.2848395126
 20
25.0597377898
 30
0.0
 10
342.2848395126
 20
25.0597377898
 30
0.0
 10
342.2848395126
 20
25.0597377898
 30
0.0
 10
342.2848395126
 20
25.7469768107
 30
0.0
 10
342.2848395126
 20
25.7469768107
 30
0.0
 10
342.2848395126
 20
26.027525261
 30
0.0
 10
342.2008320009
 20
26.2473580019
 30
0.0
 10
341.8757935911
 20
26.2473580019
 30
0.0
 10
341.7360427773
 20
26.2473580019
 30
0.0
 10
341.5978621973
 20
26.1808847684
 30
0.0
 10
341.5285102016
 20
26.0578831157
 30
0.0
 10
341.5285102016
 20
26.0578831157
 30
0.0
 10
341.5237995001
 20
26.0578831157
 30
0.0
 10
341.5237995001
 20
26.0578831157
 30
0.0
 10
341.5237995001
 20
26.0578831157
 30
0.0
 10
341.5237995001
 20
27.1978729007
 30
0.0
 10
341.5237995001
 20
27.1978729007
 30
0.0
 10
341.5237995001
 20
27.1978729007
 30
0.0
 10
341.3023965253
 20
27.1978729007
 30
0.0
 10
341.3023965253
 20
27.1978729007
 30
0.0
  0
LWPOLYLINE
  5
26C
330
23D
100
AcDbEntity
  8
0
  6
Continuous
 62
     7
100
AcDbPolyline
 90
        2
 70
     0
 43
0.2
 10
344.12463
 20
26.005542
 10
344.341061
 20
26.005542
  0
LWPOLYLINE
  5
26D
330
23D
100
AcDbEntity
  8
0
  6
Continuous
 62
     7
100
AcDbPolyline
 90
        2
 70
     0
 43
0.2
 10
344.341061
 20
26.005542
 10
344.341061
 20
26.212289
  0
LWPOLYLINE
  5
26E
330
23D
100
AcDbEntity
  8
0
  6
Continuous
 62
     7
100
AcDbPolyline
 90
        2
 70
     0
 43
0.2
 10
344.341061
 20
26.212289
 10
344.12463
 20
26.212289
  0
LWPOLYLINE
  5
26F
330
23D
100
AcDbEntity
  8
0
  6
Continuous
 62
     7
100
AcDbPolyline
 90
        2
 70
     0
 43
0.2
 10
344.12463
 20
26.212289
 10
344.12463
 20
26.653002
  0
LWPOLYLINE
  5
270
330
23D
100
AcDbEntity
  8
0
  6
Continuous
 62
     7
100
AcDbPolyline
 90
        2
 70
     0
 43
0.2
 10
344.12463
 20
26.653002
 10
343.902966
 20
26.653002
  0
LWPOLYLINE
  5
271
330
23D
100
AcDbEntity
  8
0
  6
Continuous
 62
     7
100
AcDbPolyline
 90
        2
 70
     0
 43
0.2
 10
343.902966
 20
26.653002
 10
343.902966
 20
26.212289
  0
LWPOLYLINE
  5
272
330
23D
100
AcDbEntity
  8
0
  6
Continuous
 62
     7
100
AcDbPolyline
 90
        2
 70
     0
 43
0.2
 10
343.902966
 20
26.212289
 10
343.782319
 20
26.212289
  0
LWPOLYLINE
  5
273
330
23D
100
AcDbEntity
  8
0
  6
Continuous
 62
     7
100
AcDbPolyline
 90
        2
 70
     0
 43
0.2
 10
343.782319
 20
26.212289
 10
343.782319
 20
26.005542
  0
LWPOLYLINE
  5
274
330
23D
100
AcDbEntity
  8
0
  6
Continuous
 62
     7
100
AcDbPolyline
 90
        2
 70
     0
 43
0.2
 10
343.782319
 20
26.005542
 10
343.902966
 20
26.005542
  0
LWPOLYLINE
  5
275
330
23D
100
AcDbEntity
  8
0
  6
Continuous
 62
     7
100
AcDbPolyline
 90
        2
 70
     0
 43
0.2
 10
343.902966
 20
26.005542
 10
343.902966
 20
25.059738
  0
LWPOLYLINE
  5
276
330
23D
100
AcDbEntity
  8
0
  6
Continuous
 62
     7
100
AcDbPolyline
 90
        2
 70
     0
 43
0.2
 10
343.902966
 20
25.059738
 10
344.12463
 20
25.059738
  0
LWPOLYLINE
  5
277
330
23D
100
AcDbEntity
  8
0
  6
Continuous
 62
     7
100
AcDbPolyline
 90
        2
 70
     0
 43
0.2
 10
344.12463
 20
25.059738
 10
344.12463
 20
26.005542
  0
SPLINE
  5
278
330
23D
100
AcDbEntity
  8
0
  6
Continuous
 62
     7
100
AcDbSpline
 70
     3
 71
     3
 72
    20
 73
    16
 74
     0
 42
0.000000001
 43
0.0000001
 40
0.0
 40
0.0
 40
0.0
 40
0.0
 40
1.0
 40
1.0
 40
1.0
 40
2.0
 40
2.0
 40
2.0
 40
3.0
 40
3.0
 40
3.0
 40
4.0
 40
4.0
 40
4.0
 40
5.0
 40
5.0
 40
5.0
 40
5.0
 10
331.9066404967
 20
35.4206642332
 30
0.0
 10
331.9066404967
 20
35.4206642332
 30
0.0
 10
334.2229971512
 20
32.5911028109
 30
0.0
 10
334.2229971512
 20
32.5911028109
 30
0.0
 10
333.5713500978
 20
31.9389323462
 30
0.0
 10
332.7944768938
 20
31.2030160755
 30
0.0
 10
331.8232872491
 20
31.2030160755
 30
0.0
 10
330.8247493647
 20
31.2030160755
 30
0.0
 10
329.8814313711
 20
32.1325945228
 30
0.0
 10
329.8814313711
 20
33.1317866713
 30
0.0
 10
329.8814313711
 20
34.1309788198
 30
0.0
 10
331.0602844442
 20
34.8375840585
 30
0.0
 10
331.7818069046
 20
35.3374418384
 30
0.0
 10
331.7818069046
 20
35.3374418384
 30
0.0
 10
331.9066404967
 20
35.4206642332
 30
0.0
 10
331.9066404967
 20
35.4206642332
 30
0.0
  0
SPLINE
  5
279
330
23D
100
AcDbEntity
  8
0
  6
Continuous
 62
     7
100
AcDbSpline
 70
     3
 71
     3
 72
    23
 73
    19
 74
     0
 42
0.000000001
 43
0.0000001
 40
0.0
 40
0.0
 40
0.0
 40
0.0
 40
1.0
 40
1.0
 40
1.0
 40
2.0
 40
2.0
 40
2.0
 40
3.0
 40
3.0
 40
3.0
 40
4.0
 40
4.0
 40
4.0
 40
5.0
 40
5.0
 40
5.0
 40
6.0
 40
6.0
 40
6.0
 40
6.0
 10
332.1840484793
 20
37.0584181529
 30
0.0
 10
332.1840484793
 20
37.0584181529
 30
0.0
 10
331.8375502067
 20
37.5017475137
 30
0.0
 10
331.8375502067
 20
37.5017475137
 30
0.0
 10
331.5317471618
 20
37.8898569837
 30
0.0
 10
331.2128588347
 20
38.2783590121
 30
0.0
 10
331.2128588347
 20
38.8053033262
 30
0.0
 10
331.2128588347
 20
39.4714750428
 30
0.0
 10
331.7541969591
 20
39.9151969621
 30
0.0
 10
332.3781032143
 20
39.9151969621
 30
0.0
 10
333.0718848763
 20
39.9151969621
 30
0.0
 10
333.5990908961
 20
39.5129553874
 30
0.0
 10
333.5990908961
 20
38.7779550864
 30
0.0
 10
333.5990908961
 20
38.0146905758
 30
0.0
 10
332.8778301414
 20
37.58457735
 30
0.0
 10
332.3507549745
 20
37.1688579346
 30
0.0
 10
332.3507549745
 20
37.1688579346
 30
0.0
 10
332.1840484793
 20
37.0584181529
 30
0.0
 10
332.1840484793
 20
37.0584181529
 30
0.0
  0
SPLINE
  5
27A
330
23D
100
AcDbEntity
  8
0
  6
Continuous
 62
     7
100
AcDbSpline
 70
     3
 71
     3
 72
    50
 73
    46
 74
     0
 42
0.000000001
 43
0.0000001
 40
0.0
 40
0.0
 40
0.0
 40
0.0
 40
1.0
 40
1.0
 40
1.0
 40
2.0
 40
2.0
 40
2.0
 40
3.0
 40
3.0
 40
3.0
 40
4.0
 40
4.0
 40
4.0
 40
5.0
 40
5.0
 40
5.0
 40
6.0
 40
6.0
 40
6.0
 40
7.0
 40
7.0
 40
7.0
 40
8.0
 40
8.0
 40
8.0
 40
9.0
 40
9.0
 40
9.0
 40
10.0
 40
10.0
 40
10.0
 40
11.0
 40
11.0
 40
11.0
 40
12.0
 40
12.0
 40
12.0
 40
13.0
 40
13.0
 40
13.0
 40
14.0
 40
14.0
 40
14.0
 40
15.0
 40
15.0
 40
15.0
 40
15.0
 10
336.1376356422
 20
30.2598289348
 30
0.0
 10
336.1376356422
 20
30.2598289348
 30
0.0
 10
337.7468636468
 20
30.2598289348
 30
0.0
 10
337.7468636468
 20
30.2598289348
 30
0.0
 10
337.7468636468
 20
30.2598289348
 30
0.0
 10
335.8738363531
 20
32.5769707062
 30
0.0
 10
335.8738363531
 20
32.5769707062
 30
0.0
 10
335.8738363531
 20
32.5769707062
 30
0.0
 10
337.1501747786
 20
34.0744504008
 30
0.0
 10
337.1501747786
 20
34.0744504008
 30
0.0
 10
337.1501747786
 20
34.0744504008
 30
0.0
 10
336.3179508309
 20
34.9354619693
 30
0.0
 10
336.3179508309
 20
34.9354619693
 30
0.0
 10
336.3179508309
 20
34.9354619693
 30
0.0
 10
335.0973557076
 20
33.5201578469
 30
0.0
 10
335.0973557076
 20
33.5201578469
 30
0.0
 10
335.0973557076
 20
33.5201578469
 30
0.0
 10
332.9194413388
 20
36.1555336813
 30
0.0
 10
332.9194413388
 20
36.1555336813
 30
0.0
 10
333.7930147782
 20
36.7935720412
 30
0.0
 10
334.8196860194
 20
37.58457735
 30
0.0
 10
334.8196860194
 20
38.7634304231
 30
0.0
 10
334.8196860194
 20
40.1371233482
 30
0.0
 10
333.6817898795
 20
40.9416064976
 30
0.0
 10
332.4064982766
 20
40.9416064976
 30
0.0
 10
331.0330670573
 20
40.9416064976
 30
0.0
 10
329.9921328585
 20
40.0953812979
 30
0.0
 10
329.9921328585
 20
38.6527289358
 30
0.0
 10
329.9921328585
 20
37.7651542444
 30
0.0
 10
330.547472235
 20
36.9882810403
 30
0.0
 10
331.1436376918
 20
36.3638513739
 30
0.0
 10
331.1436376918
 20
36.3638513739
 30
0.0
 10
330.4917289328
 20
35.8922578035
 30
0.0
 10
330.4917289328
 20
35.8922578035
 30
0.0
 10
329.4931910484
 20
35.1709970488
 30
0.0
 10
328.6603128365
 20
34.4497362942
 30
0.0
 10
328.6603128365
 20
33.1181779778
 30
0.0
 10
328.6603128365
 20
31.3145026798
 30
0.0
 10
330.1173590091
 20
30.0379025487
 30
0.0
 10
331.8648984465
 20
30.0379025487
 30
0.0
 10
333.0997565274
 20
30.0379025487
 30
0.0
 10
334.2091267521
 20
30.7460780212
 30
0.0
 10
335.000001208
 20
31.6746096459
 30
0.0
 10
335.000001208
 20
31.6746096459
 30
0.0
 10
336.1376356422
 20
30.2598289348
 30
0.0
 10
336.1376356422
 20
30.2598289348
 30
0.0
  0
LINE
  5
27B
330
23D
100
AcDbEntity
  8
0
  6
Continuous
 62
     7
100
AcDbLine
 10
321.940497
 20
28.233704
 30
0.0
 11
344.354408
 21
28.233704
 31
0.0
  0
LINE
  5
27C
330
23D
100
AcDbEntity
  8
0
  6
Continuous
 62
     7
100
AcDbLine
 10
344.354408
 20
28.233704
 30
0.0
 11
344.354408
 21
50.647615
 31
0.0
  0
LINE
  5
27D
330
23D
100
AcDbEntity
  8
0
  6
Continuous
 62
     7
100
AcDbLine
 10
344.354408
 20
50.647615
 30
0.0
 11
321.940497
 21
50.647615
 31
0.0
  0
LINE
  5
27E
330
23D
100
AcDbEntity
  8
0
  6
Continuous
 62
     7
100
AcDbLine
 10
321.940497
 20
50.647615
 30
0.0
 11
321.940497
 21
28.233704
 31
0.0
  0
ENDBLK
  5
27F
330
23D
100
AcDbEntity
  8
0
  6
ByBlock
 62
     0
100
AcDbBlockEnd
  0
BLOCK
  5
2A6
330
23E
100
AcDbEntity
  8
0
100
AcDbBlockBegin
  2
*T6
 70
     1
 10
0.0
 20
0.0
 30
0.0
  3
*T6
  1
*T6
  0
LINE
  5
2A7
330
23E
100
AcDbEntity
  8
0
  6
Continuous
 62
     2
100
AcDbLine
 10
0.0
 20
0.0
 30
0.0
 11
90.0
 21
0.0
 31
0.0
  0
LINE
  5
2A8
330
23E
100
AcDbEntity
  8
0
  6
Continuous
 62
     2
100
AcDbLine
 10
0.0
 20
0.0
 30
0.0
 11
0.0
 21
-40.0
 31
0.0
  0
LINE
  5
2A9
330
23E
100
AcDbEntity
  8
0
  6
Continuous
 62
     2
100
AcDbLine
 10
30.0
 20
-6.0
 30
0.0
 11
90.0
 21
-6.0
 31
0.0
  0
LINE
  5
2AA
330
23E
100
AcDbEntity
  8
0
  6
Continuous
 62
     2
100
AcDbLine
 10
30.0
 20
-12.0
 30
0.0
 11
90.0
 21
-12.0
 31
0.0
  0
LINE
  5
2AB
330
23E
100
AcDbEntity
  8
0
  6
Continuous
 62
     2
100
AcDbLine
 10
30.0
 20
-22.0
 30
0.0
 11
90.0
 21
-22.0
 31
0.0
  0
LINE
  5
2AC
330
23E
100
AcDbEntity
  8
0
  6
Continuous
 62
     2
100
AcDbLine
 10
0.0
 20
-27.0
 30
0.0
 11
90.0
 21
-27.0
 31
0.0
  0
LINE
  5
2AD
330
23E
100
AcDbEntity
  8
0
  6
Continuous
 62
     2
100
AcDbLine
 10
0.0
 20
-40.0
 30
0.0
 11
90.0
 21
-40.0
 31
0.0
  0
LINE
  5
2AE
330
23E
100
AcDbEntity
  8
0
  6
Continuous
 62
     2
100
AcDbLine
 10
30.0
 20
0.0
 30
0.0
 11
30.0
 21
-27.0
 31
0.0
  0
LINE
  5
2AF
330
23E
100
AcDbEntity
  8
0
  6
Continuous
 62
     2
100
AcDbLine
 10
70.0
 20
0.0
 30
0.0
 11
70.0
 21
-12.0
 31
0.0
  0
LINE
  5
2B0
330
23E
100
AcDbEntity
  8
0
  6
Continuous
 62
     2
100
AcDbLine
 10
90.0
 20
0.0
 30
0.0
 11
90.0
 21
-40.0
 31
0.0
  0
MTEXT
  5
2B1
330
23E
100
AcDbEntity
  8
8_ALL_NOTES_BALLOONS_SYMBOLS_GT
  6
Continuous
 62
     2
100
AcDbMText
 10
31.4875
 20
-1.5
 30
0.0
 40
3.0
 41
43.428571
 46
0.0
 71
     1
 72
     1
  1
YJ7_C_080
 73
     1
 44
0.9
  0
MTEXT
  5
2B2
330
23E
100
AcDbEntity
  8
8_ALL_NOTES_BALLOONS_SYMBOLS_GT
  6
Continuous
 62
     2
100
AcDbMText
 10
71.4875
 20
-1.75
 30
0.0
 40
3.5
 41
35.7
 46
0.0
 71
     1
 72
     1
  1
Rev:00
  7
TEXTSTYLE_4
 73
     1
 44
0.9
  0
MTEXT
  5
2B3
330
23E
100
AcDbEntity
  8
8_ALL_NOTES_BALLOONS_SYMBOLS_GT
  6
Continuous
 62
     2
100
AcDbMText
 10
31.4875
 20
-7.75
 30
0.0
 40
3.5
 41
36.5
 46
0.0
 71
     1
 72
     1
  1
Scale:1:1
 73
     1
 44
0.9
  0
MTEXT
  5
2B4
330
23E
100
AcDbEntity
  8
8_ALL_NOTES_BALLOONS_SYMBOLS_GT
  6
Continuous
 62
     2
100
AcDbMText
 10
71.4875
 20
-7.25
 30
0.0
 40
3.5
 41
11.0
 46
0.0
 71
     1
 72
     1
  1
A3
 73
     1
 44
0.9
  0
MTEXT
  5
2B5
330
23E
100
AcDbEntity
  8
8_ALL_NOTES_BALLOONS_SYMBOLS_GT
  6
Continuous
 62
     2
100
AcDbMText
 10
31.4875
 20
-15.25
 30
0.0
 40
3.5
 41
75.5
 46
0.0
 71
     1
 72
     1
  1
LYSS 1.0 6,5W 
 73
     1
 44
0.9
  0
MTEXT
  5
2B6
330
23E
100
AcDbEntity
  8
8_ALL_NOTES_BALLOONS_SYMBOLS_GT
  6
Continuous
 62
     2
100
AcDbMText
 10
31.4875
 20
-23.25
 30
0.0
 40
2.5
 41
57.02381
 46
0.0
 71
     1
 72
     1
  1
DATE:05/06/2014
 73
     1
 44
0.9
  0
MTEXT
  5
2B7
330
23E
100
AcDbEntity
  8
8_ALL_NOTES_BALLOONS_SYMBOLS_GT
  6
Continuous
 62
     2
100
AcDbMText
 10
1.4875
 20
-28.75
 30
0.0
 40
1.85
 41
182.41
 46
0.0
 71
     1
 72
     1
  1
Any integral or partial reproductions are prohibited \Pwithout prior authorisation of L & L Luce & Light s.r.l., \Pin accordance with the law in force. \PAll rights reserved.
  7
TEXTSTYLE_4
 73
     1
 44
0.9
  0
ENDBLK
  5
2B8
330
23E
100
AcDbEntity
  8
0
  6
ByBlock
 62
     0
100
AcDbBlockEnd
  0
ENDSEC
  0
SECTION
  2
ENTITIES
  0
LINE
  5
2B9
330
237
100
AcDbEntity
 67
     1
  8
0
  6
Continuous
 62
     7
100
AcDbLine
 10
0.0
 20
0.0
 30
0.0
 11
420.0
 21
0.0
 31
0.0
  0
LINE
  5
2BA
330
237
100
AcDbEntity
 67
     1
  8
0
  6
Continuous
 62
     7
100
AcDbLine
 10
420.0
 20
0.0
 30
0.0
 11
420.0
 21
297.0
 31
0.0
  0
LINE
  5
2BB
330
237
100
AcDbEntity
 67
     1
  8
0
  6
Continuous
 62
     7
100
AcDbLine
 10
0.0
 20
297.0
 30
0.0
 11
420.0
 21
297.0
 31
0.0
  0
LINE
  5
2BC
330
237
100
AcDbEntity
 67
     1
  8
0
  6
Continuous
 62
     7
100
AcDbLine
 10
0.0
 20
0.0
 30
0.0
 11
0.0
 21
297.0
 31
0.0
  0
LWPOLYLINE
  5
2BD
330
237
100
AcDbEntity
 67
     1
  8
0
  6
Continuous
 62
     7
100
AcDbPolyline
 90
        2
 70
     0
 43
0.5
 10
410.0
 20
10.031844
 10
410.0
 20
287.0
  0
LWPOLYLINE
  5
2BE
330
237
100
AcDbEntity
 67
     1
  8
0
  6
Continuous
 62
     7
100
AcDbPolyline
 90
        2
 70
     0
 43
0.5
 10
10.053631
 20
10.031844
 10
10.053631
 20
287.0
  0
LWPOLYLINE
  5
2BF
330
237
100
AcDbEntity
 67
     1
  8
0
  6
Continuous
 62
     7
100
AcDbPolyline
 90
        2
 70
     0
 43
0.5
 10
10.053631
 20
10.031844
 10
410.0
 20
10.031844
  0
LWPOLYLINE
  5
2C0
330
237
100
AcDbEntity
 67
     1
  8
0
  6
Continuous
 62
     7
100
AcDbPolyline
 90
        2
 70
     0
 43
0.1
 10
210.0
 20
10.0
 10
210.0
 20
0.0
  0
LWPOLYLINE
  5
2C1
330
237
100
AcDbEntity
 67
     1
  8
0
  6
Continuous
 62
     7
100
AcDbPolyline
 90
        2
 70
     0
 43
0.1
 10
210.0
 20
287.0
 10
210.0
 20
297.0
  0
LWPOLYLINE
  5
2C2
330
237
100
AcDbEntity
 67
     1
  8
0
  6
Continuous
 62
     7
100
AcDbPolyline
 90
        2
 70
     0
 43
0.1
 10
410.0
 20
148.5
 10
420.0
 20
148.5
  0
LWPOLYLINE
  5
2C3
330
237
100
AcDbEntity
 67
     1
  8
0
  6
Continuous
 62
     7
100
AcDbPolyline
 90
        2
 70
     0
 43
0.1
 10
10.0
 20
148.5
 10
0.0
 20
148.5
  0
LWPOLYLINE
  5
2C4
330
237
100
AcDbEntity
 67
     1
  8
0
  6
Continuous
 62
     7
100
AcDbPolyline
 90
        2
 70
     0
 43
0.5
 10
10.053631
 20
287.0
 10
410.0
 20
287.0
  0
LWPOLYLINE
  5
2C5
330
237
100
AcDbEntity
 67
     1
  8
0
  6
Continuous
 62
     7
100
AcDbPolyline
 90
        2
 70
     0
 43
0.1
 10
0.0
 20
290.0
 10
420.0
 20
290.0
  0
LWPOLYLINE
  5
2C6
330
237
100
AcDbEntity
 67
     1
  8
0
  6
Continuous
 62
     7
100
AcDbPolyline
 90
        2
 70
     0
 43
0.1
 10
7.053631
 20
0.0
 10
7.053631
 20
297.0
  0
LWPOLYLINE
  5
2C7
330
237
100
AcDbEntity
 67
     1
  8
0
  6
Continuous
 62
     7
100
AcDbPolyline
 90
        2
 70
     0
 43
0.1
 10
413.0
 20
0.0
 10
413.0
 20
297.0
  0
LWPOLYLINE
  5
2C8
330
237
100
AcDbEntity
 67
     1
  8
0
  6
Continuous
 62
     7
100
AcDbPolyline
 90
        2
 70
     0
 43
0.1
 10
0.0
 20
7.031844
 10
420.0
 20
7.031844
  0
LWPOLYLINE
  5
2C9
330
237
100
AcDbEntity
 67
     1
  8
0
  6
Continuous
 62
     7
100
AcDbPolyline
 90
        2
 70
     0
 43
0.1
 10
10.0
 20
202.968156
 10
0.0
 20
202.968156
  0
LINE
  5
2CA
330
237
100
AcDbEntity
 67
     1
  8
0
  6
Continuous
 62
     7
100
AcDbLine
 10
0.0
 20
99.968156
 30
0.0
 11
7.0
 21
99.968156
 31
0.0
  0
LINE
  5
2CB
330
237
100
AcDbEntity
 67
     1
  8
0
  6
Continuous
 62
     7
100
AcDbLine
 10
0.0
 20
199.968156
 30
0.0
 11
7.0
 21
199.968156
 31
0.0
  0
LWPOLYLINE
  5
2CC
330
237
100
AcDbEntity
 67
     1
  8
0
  6
Continuous
 62
     7
100
AcDbPolyline
 90
        2
 70
     0
 43
0.1
 10
410.0
 20
210.0
 10
420.0
 20
210.0
  0
LINE
  5
2CD
330
237
100
AcDbEntity
 67
     1
  8
0
  6
Continuous
 62
     7
100
AcDbLine
 10
413.0
 20
107.0
 30
0.0
 11
420.0
 21
107.0
 31
0.0
  0
LWPOLYLINE
  5
2CE
330
237
100
AcDbEntity
 67
     1
  8
0
  6
Continuous
 62
     7
100
AcDbPolyline
 90
        2
 70
     0
 43
0.1
 10
123.0
 20
10.0
 10
123.0
 20
0.0
  0
LINE
  5
2CF
330
237
100
AcDbEntity
 67
     1
  8
0
  6
Continuous
 62
     7
100
AcDbLine
 10
210.0
 20
0.0
 30
0.0
 11
210.0
 21
10.0
 31
0.0
  0
LINE
  5
2D0
330
237
100
AcDbEntity
 67
     1
  8
0
  6
Continuous
 62
     7
100
AcDbLine
 10
313.0
 20
7.0
 30
0.0
 11
313.0
 21
0.0
 31
0.0
  0
LINE
  5
2D1
330
237
100
AcDbEntity
 67
     1
  8
0
  6
Continuous
 62
     7
100
AcDbLine
 10
113.0
 20
7.0
 30
0.0
 11
113.0
 21
0.0
 31
0.0
  0
LWPOLYLINE
  5
2D2
330
237
100
AcDbEntity
 67
     1
  8
0
  6
Continuous
 62
     7
100
AcDbPolyline
 90
        2
 70
     0
 43
0.1
 10
123.0
 20
287.0
 10
123.0
 20
297.0
  0
LINE
  5
2D3
330
237
100
AcDbEntity
 67
     1
  8
0
  6
Continuous
 62
     7
100
AcDbLine
 10
210.0
 20
287.0
 30
0.0
 11
210.0
 21
297.0
 31
0.0
  0
LINE
  5
2D4
330
237
100
AcDbEntity
 67
     1
  8
0
  6
Continuous
 62
     7
100
AcDbLine
 10
313.0
 20
297.0
 30
0.0
 11
313.0
 21
290.0
 31
0.0
  0
LINE
  5
2D5
330
237
100
AcDbEntity
 67
     1
  8
0
  6
Continuous
 62
     7
100
AcDbLine
 10
113.0
 20
297.0
 30
0.0
 11
113.0
 21
290.0
 31
0.0
  0
MTEXT
  5
2D6
330
237
100
AcDbEntity
 67
     1
  8
0
  6
Continuous
 62
     2
100
AcDbMText
 10
1.646722
 20
53.595027
 30
0.0
 40
4.0
 41
3.428571
 46
0.0
 71
     1
 72
     1
  1
1
  7
TEXTSTYLE_2
 73
     1
 44
0.9
  0
MTEXT
  5
2D7
330
237
100
AcDbEntity
 67
     1
  8
0
  6
Continuous
 62
     2
100
AcDbMText
 10
1.646722
 20
153.595027
 30
0.0
 40
4.0
 41
4.714286
 46
0.0
 71
     1
 72
     1
  1
2
  7
TEXTSTYLE_2
 73
     1
 44
0.9
  0
MTEXT
  5
2D8
330
237
100
AcDbEntity
 67
     1
  8
0
  6
Continuous
 62
     2
100
AcDbMText
 10
1.646722
 20
253.595027
 30
0.0
 40
4.0
 41
4.285714
 46
0.0
 71
     1
 72
     1
  1
3
  7
TEXTSTYLE_2
 73
     1
 44
0.9
  0
MTEXT
  5
2D9
330
237
100
AcDbEntity
 67
     1
  8
0
  6
Continuous
 62
     2
100
AcDbMText
 10
414.646722
 20
60.626871
 30
0.0
 40
4.0
 41
3.428571
 46
0.0
 71
     1
 72
     1
  1
1
  7
TEXTSTYLE_2
 73
     1
 44
0.9
  0
MTEXT
  5
2DA
330
237
100
AcDbEntity
 67
     1
  8
0
  6
Continuous
 62
     2
100
AcDbMText
 10
414.646722
 20
160.626871
 30
0.0
 40
4.0
 41
4.714286
 46
0.0
 71
     1
 72
     1
  1
2
  7
TEXTSTYLE_2
 73
     1
 44
0.9
  0
MTEXT
  5
2DB
330
237
100
AcDbEntity
 67
     1
  8
0
  6
Continuous
 62
     2
100
AcDbMText
 10
414.646722
 20
260.626871
 30
0.0
 40
4.0
 41
4.285714
 46
0.0
 71
     1
 72
     1
  1
3
  7
TEXTSTYLE_2
 73
     1
 44
0.9
  0
MTEXT
  5
2DC
330
237
100
AcDbEntity
 67
     1
  8
0
  6
Continuous
 62
     2
100
AcDbMText
 10
362.154891
 20
5.35876
 30
0.0
 40
4.0
 41
3.6
 46
0.0
 71
     1
 72
     1
  1
A
  7
TEXTSTYLE_3
 73
     1
 44
0.9
  0
MTEXT
  5
2DD
330
237
100
AcDbEntity
 67
     1
  8
0
  6
Continuous
 62
     2
100
AcDbMText
 10
262.154891
 20
5.35876
 30
0.0
 40
4.0
 41
3.6
 46
0.0
 71
     1
 72
     1
  1
B
  7
TEXTSTYLE_3
 73
     1
 44
0.9
  0
MTEXT
  5
2DE
330
237
100
AcDbEntity
 67
     1
  8
0
  6
Continuous
 62
     2
100
AcDbMText
 10
162.154891
 20
5.35876
 30
0.0
 40
4.0
 41
3.6
 46
0.0
 71
     1
 72
     1
  1
C
  7
TEXTSTYLE_3
 73
     1
 44
0.9
  0
MTEXT
  5
2DF
330
237
100
AcDbEntity
 67
     1
  8
0
  6
Continuous
 62
     2
100
AcDbMText
 10
55.797869
 20
5.535344
 30
0.0
 40
4.0
 41
3.6
 46
0.0
 71
     1
 72
     1
  1
D
  7
TEXTSTYLE_3
 73
     1
 44
0.9
  0
MTEXT
  5
2E0
330
237
100
AcDbEntity
 67
     1
  8
0
  6
Continuous
 62
     2
100
AcDbMText
 10
362.154891
 20
295.35876
 30
0.0
 40
4.0
 41
3.6
 46
0.0
 71
     1
 72
     1
  1
A
  7
TEXTSTYLE_3
 73
     1
 44
0.9
  0
MTEXT
  5
2E1
330
237
100
AcDbEntity
 67
     1
  8
0
  6
Continuous
 62
     2
100
AcDbMText
 10
262.154891
 20
295.35876
 30
0.0
 40
4.0
 41
3.6
 46
0.0
 71
     1
 72
     1
  1
B
  7
TEXTSTYLE_3
 73
     1
 44
0.9
  0
MTEXT
  5
2E2
330
237
100
AcDbEntity
 67
     1
  8
0
  6
Continuous
 62
     2
100
AcDbMText
 10
162.154891
 20
295.35876
 30
0.0
 40
4.0
 41
3.6
 46
0.0
 71
     1
 72
     1
  1
C
  7
TEXTSTYLE_3
 73
     1
 44
0.9
  0
MTEXT
  5
2E3
330
237
100
AcDbEntity
 67
     1
  8
0
  6
Continuous
 62
     2
100
AcDbMText
 10
53.987883
 20
295.57949
 30
0.0
 40
4.0
 41
3.6
 46
0.0
 71
     1
 72
     1
  1
D
  7
TEXTSTYLE_3
 73
     1
 44
0.9
  0
VIEWPORT
  5
2E4
330
237
100
AcDbEntity
 67
     1
  8
0
100
AcDbViewport
 10
0.0
 20
0.0
 30
0.0
 40
588.18318
 41
297.0
 68
     1
 69
     1
 12
210.0
 22
148.5
 13
0.0
 23
0.0
 14
10.0
 24
10.0
 15
10.0
 25
10.0
 16
0.0
 26
0.0
 36
1.0
 17
0.0
 27
0.0
 37
0.0
 42
50.0
 43
0.0
 44
0.0
 45
297.0
 50
0.0
 51
0.0
 72
   100
 90
    32880
  1

281
     0
 71
     1
 74
     0
110
0.0
120
0.0
130
0.0
111
1.0
121
0.0
131
0.0
112
0.0
122
1.0
132
0.0
 79
     0
146
0.0
170
     0
 61
     5
292
     1
282
     1
141
0.0
142
0.0
 63
   256
361
4D3
  0
LINE
  5
2E5
330
237
100
AcDbEntity
 67
     1
  8
7_ALL_FEATURES
  6
Continuous
 62
     7
100
AcDbLine
 10
181.623329
 20
45.04332
 30
0.0
 11
59.205708
 21
45.04332
 31
0.0
  0
ARC
  5
2E6
330
237
100
AcDbEntity
 67
     1
  8
7_ALL_FEATURES
  6
Continuous
 62
     7
100
AcDbCircle
 10
-33.571418
 20
338.730179
 30
0.0
 40
364.0889324446
100
AcDbArc
 50
306.231552
 51
306.364337
  0
ARC
  5
2E7
330
237
100
AcDbEntity
 67
     1
  8
7_ALL_FEATURES
  6
Continuous
 62
     7
100
AcDbCircle
 10
274.407032
 20
338.737027
 30
0.0
 40
364.0983431602
100
AcDbArc
 50
233.635081
 51
233.76825
  0
ARC
  5
2E8
330
237
100
AcDbEntity
 67
     1
  8
7_ALL_FEATURES
  6
Continuous
 62
     7
100
AcDbCircle
 10
-33.579131
 20
-167.150289
 30
0.0
 40
364.0981893597
100
AcDbArc
 50
53.635099
 51
53.768257
  0
LINE
  5
2E9
330
237
100
AcDbEntity
 67
     1
  8
7_ALL_FEATURES
  6
Continuous
 62
     7
100
AcDbLine
 10
59.204417
 20
126.54332
 30
0.0
 11
181.622066
 21
126.54332
 31
0.0
  0
ARC
  5
2EA
330
237
100
AcDbEntity
 67
     1
  8
7_ALL_FEATURES
  6
Continuous
 62
     7
100
AcDbCircle
 10
274.39925
 20
-167.143663
 30
0.0
 40
364.0890830164
100
AcDbArc
 50
126.231551
 51
126.364338
  0
ELLIPSE
  5
2EB
330
237
100
AcDbEntity
 67
     1
  8
7_ALL_FEATURES
  6
Continuous
 62
     7
100
AcDbEllipse
 10
120.413869
 20
46.54332
 30
0.0
 11
-59.6962005796
 21
59.6962005796
 31
0.0
210
0.0
220
0.0
230
1.0
 40
0.612372
 41
1.0285233887
 42
1.0356013936
  0
ELLIPSE
  5
2EC
330
237
100
AcDbEntity
 67
     1
  8
7_ALL_FEATURES
  6
Continuous
 62
     7
100
AcDbEllipse
 10
120.413869
 20
46.54332
 30
0.0
 11
59.6962005796
 21
59.6962005796
 31
0.0
210
0.0
220
0.0
230
1.0
 40
0.612372
 41
-1.0356222857
 42
-1.0285233887
  0
LINE
  5
2ED
330
237
100
AcDbEntity
 67
     1
  8
7_ALL_FEATURES
  6
Continuous
 62
     7
100
AcDbLine
 10
182.533996
 20
46.039723
 30
0.0
 11
182.533996
 21
125.546917
 31
0.0
  0
LINE
  5
2EE
330
237
100
AcDbEntity
 67
     1
  8
7_ALL_FEATURES
  6
Continuous
 62
     7
100
AcDbLine
 10
58.293743
 20
46.039723
 30
0.0
 11
58.293743
 21
125.546917
 31
0.0
  0
ELLIPSE
  5
2EF
330
237
100
AcDbEntity
 67
     1
  8
7_ALL_FEATURES
  6
Continuous
 62
     7
100
AcDbEllipse
 10
120.413869
 20
125.04332
 30
0.0
 11
59.6962005796
 21
59.6962005796
 31
0.0
210
0.0
220
0.0
230
1.0
 40
0.612372
 41
-4.1772148323
 42
-4.1701160423
  0
ELLIPSE
  5
2F0
330
237
100
AcDbEntity
 67
     1
  8
7_ALL_FEATURES
  6
Continuous
 62
     7
100
AcDbEllipse
 10
120.413869
 20
125.04332
 30
0.0
 11
-59.6962005796
 21
59.6962005796
 31
0.0
210
0.0
220
0.0
230
1.0
 40
0.612372
 41
-2.1130692649
 42
-2.1059906913
  0
LINE
  5
2F1
330
237
100
AcDbEntity
 67
     1
  8
7_ALL_FEATURES
  6
Continuous
 62
     7
100
AcDbLine
 10
58.523675
 20
45.544292
 30
0.0
 11
182.30338
 21
45.542829
 31
0.0
  0
LINE
  5
2F2
330
237
100
AcDbEntity
 67
     1
  8
7_ALL_FEATURES
  6
Continuous
 62
     7
100
AcDbLine
 10
182.304045
 20
126.042387
 30
0.0
 11
58.524355
 21
126.043802
 31
0.0
  0
ELLIPSE
  5
2F3
330
237
100
AcDbEntity
 67
     1
  8
02___PRT_ALL_AXES
  6
Continuous
 62
     7
100
AcDbEllipse
 10
68.413869
 20
39.910675
 30
0.0
 11
3.6199413925
 21
0.0
 31
0.0
210
0.0
220
0.0
230
1.0
 40
0.021825
 41
0.0218218095
 42
3.1197708441
  0
ELLIPSE
  5
2F4
330
237
100
AcDbEntity
 67
     1
  8
02___PRT_ALL_AXES
  6
Continuous
 62
     7
100
AcDbEllipse
 10
172.413869
 20
39.910675
 30
0.0
 11
3.6199413925
 21
0.0
 31
0.0
210
0.0
220
0.0
230
1.0
 40
0.021825
 41
0.0218218095
 42
3.1197708441
  0
ELLIPSE
  5
2F5
330
237
100
AcDbEntity
 67
     1
  8
02___PRT_ALL_AXES
  6
Continuous
 62
     7
100
AcDbEllipse
 10
120.413869
 20
131.675964
 30
0.0
 11
3.6199413925
 21
0.0
 31
0.0
210
0.0
220
0.0
230
1.0
 40
0.021825
 41
-3.1197708441
 42
-0.0218218095
  0
LWPOLYLINE
  5
2F6
330
237
100
AcDbEntity
 67
     1
  8
7_ALL_FEATURES
  6
Continuous
 62
     7
100
AcDbPolyline
 90
       43
 70
     0
 43
0.0
 10
85.976505
 20
39.938434
 10
85.996813
 20
39.940653
 10
86.043701
 20
39.94483
 10
86.114629
 20
39.950004
 10
86.209753
 20
39.955789
 10
86.329699
 20
39.961958
 10
86.475705
 20
39.968377
 10
86.649821
 20
39.974966
 10
86.854428
 20
39.981659
 10
87.091714
 20
39.988376
 10
87.360247
 20
39.994951
 10
87.655444
 20
40.001195
 10
87.971212
 20
40.006955
 10
88.30378
 20
40.012168
 10
88.652245
 20
40.01683
 10
89.015991
 20
40.020933
 10
89.393756
 20
40.024457
 10
89.783163
 20
40.027376
 10
90.181633
 20
40.029666
 10
90.586645
 20
40.031313
 10
90.996003
 20
40.032308
 10
91.407554
 20
40.032648
 10
91.819136
 20
40.032329
 10
92.228586
 20
40.031353
 10
92.633747
 20
40.029726
 10
93.032428
 20
40.027456
 10
93.422126
 20
40.024556
 10
93.800275
 20
40.02105
 10
94.164496
 20
40.016965
 10
94.51347
 20
40.01232
 10
94.846538
 20
40.007123
 10
95.162784
 20
40.001381
 10
95.458599
 20
39.995153
 10
95.728006
 20
39.988587
 10
95.966463
 20
39.981867
 10
96.172405
 20
39.97516
 10
96.347821
 20
39.968548
 10
96.494967
 20
39.962104
 10
96.61582
 20
39.95591
 10
96.711642
 20
39.950101
 10
96.783122
 20
39.944903
 10
96.830461
 20
39.9407
 10
96.851243
 20
39.938433
  0
LINE
  5
2F7
330
237
100
AcDbEntity
 67
     1
  8
7_ALL_FEATURES
  6
Continuous
 62
     7
100
AcDbLine
 10
85.976327
 20
39.938412
 30
0.0
 11
85.976505
 21
39.938434
 31
0.0
  0
LINE
  5
2F8
330
237
100
AcDbEntity
 67
     1
  8
7_ALL_FEATURES
  6
Continuous
 62
     7
100
AcDbLine
 10
84.947581
 20
39.811107
 30
0.0
 11
85.854475
 21
39.923333
 31
0.0
  0
LINE
  5
2F9
330
237
100
AcDbEntity
 67
     1
  8
7_ALL_FEATURES
  6
Continuous
 62
     7
100
AcDbLine
 10
85.854475
 20
39.923333
 30
0.0
 11
85.976327
 21
39.938412
 31
0.0
  0
LINE
  5
2FA
330
237
100
AcDbEntity
 67
     1
  8
7_ALL_FEATURES
  6
Continuous
 62
     7
100
AcDbLine
 10
84.947591
 20
39.811108
 30
0.0
 11
84.82477
 21
39.803537
 31
0.0
  0
LINE
  5
2FB
330
237
100
AcDbEntity
 67
     1
  8
7_ALL_FEATURES
  6
Continuous
 62
     7
100
AcDbLine
 10
97.880148
 20
39.811108
 30
0.0
 11
98.002969
 21
39.803537
 31
0.0
  0
LINE
  5
2FC
330
237
100
AcDbEntity
 67
     1
  8
7_ALL_FEATURES
  6
Continuous
 62
     7
100
AcDbLine
 10
96.851412
 20
39.938412
 30
0.0
 11
96.851243
 21
39.938433
 31
0.0
  0
LINE
  5
2FD
330
237
100
AcDbEntity
 67
     1
  8
7_ALL_FEATURES
  6
Continuous
 62
     7
100
AcDbLine
 10
96.851412
 20
39.938412
 30
0.0
 11
96.973264
 21
39.923333
 31
0.0
  0
LINE
  5
2FE
330
237
100
AcDbEntity
 67
     1
  8
7_ALL_FEATURES
  6
Continuous
 62
     7
100
AcDbLine
 10
96.973264
 20
39.923333
 30
0.0
 11
97.880158
 21
39.811107
 31
0.0
  0
LINE
  5
2FF
330
237
100
AcDbEntity
 67
     1
  8
7_ALL_FEATURES
  6
Continuous
 62
     7
100
AcDbLine
 10
56.350811
 20
131.783102
 30
0.0
 11
56.350815
 21
131.783102
 31
0.0
  0
LWPOLYLINE
  5
300
330
237
100
AcDbEntity
 67
     1
  8
7_ALL_FEATURES
  6
Continuous
 62
     7
100
AcDbPolyline
 90
       17
 70
     0
 43
0.0
 10
56.350818
 20
131.783099
 10
56.261352
 20
131.781067
 10
56.141395
 20
131.770977
 10
56.029215
 20
131.752107
 10
55.925386
 20
131.724531
 10
55.830527
 20
131.688633
 10
55.745241
 20
131.644787
 10
55.66898
 20
131.593093
 10
55.601195
 20
131.533653
 10
55.541607
 20
131.466081
 10
55.489782
 20
131.390082
 10
55.445775
 20
131.305061
 10
55.409687
 20
131.210427
 10
55.381907
 20
131.106789
 10
55.362828
 20
130.994788
 10
55.352536
 20
130.875019
 10
55.350365
 20
130.782646
  0
LINE
  5
301
330
237
100
AcDbEntity
 67
     1
  8
7_ALL_FEATURES
  6
Continuous
 62
     7
100
AcDbLine
 10
55.350362
 20
40.803987
 30
0.0
 11
55.350362
 21
40.80399
 31
0.0
  0
LWPOLYLINE
  5
302
330
237
100
AcDbEntity
 67
     1
  8
7_ALL_FEATURES
  6
Continuous
 62
     7
100
AcDbPolyline
 90
       17
 70
     0
 43
0.0
 10
55.350365
 20
40.803993
 10
55.352397
 20
40.714528
 10
55.362487
 20
40.594571
 10
55.381357
 20
40.48239
 10
55.408933
 20
40.378561
 10
55.44483
 20
40.283702
 10
55.488676
 20
40.198416
 10
55.540371
 20
40.122155
 10
55.599811
 20
40.05437
 10
55.667383
 20
39.994782
 10
55.743382
 20
39.942958
 10
55.828403
 20
39.89895
 10
55.923037
 20
39.862863
 10
56.026675
 20
39.835082
 10
56.138676
 20
39.816003
 10
56.258445
 20
39.805711
 10
56.350818
 20
39.80354
  0
LINE
  5
303
330
237
100
AcDbEntity
 67
     1
  8
7_ALL_FEATURES
  6
Continuous
 62
     7
100
AcDbLine
 10
185.477377
 20
130.782652
 30
0.0
 11
185.477377
 21
130.782649
 31
0.0
  0
LWPOLYLINE
  5
304
330
237
100
AcDbEntity
 67
     1
  8
7_ALL_FEATURES
  6
Continuous
 62
     7
100
AcDbPolyline
 90
       17
 70
     0
 43
0.0
 10
185.477374
 20
130.782646
 10
185.475342
 20
130.872112
 10
185.465252
 20
130.992069
 10
185.446382
 20
131.104249
 10
185.418806
 20
131.208078
 10
185.382908
 20
131.302937
 10
185.339062
 20
131.388223
 10
185.287368
 20
131.464484
 10
185.227927
 20
131.532269
 10
185.160356
 20
131.591857
 10
185.084357
 20
131.643682
 10
184.999336
 20
131.687689
 10
184.904701
 20
131.723777
 10
184.801063
 20
131.751557
 10
184.689063
 20
131.770636
 10
184.569294
 20
131.780928
 10
184.476921
 20
131.783099
  0
LINE
  5
305
330
237
100
AcDbEntity
 67
     1
  8
7_ALL_FEATURES
  6
Continuous
 62
     7
100
AcDbLine
 10
184.476927
 20
39.803537
 30
0.0
 11
184.476924
 21
39.803537
 31
0.0
  0
LWPOLYLINE
  5
306
330
237
100
AcDbEntity
 67
     1
  8
7_ALL_FEATURES
  6
Continuous
 62
     7
100
AcDbPolyline
 90
       17
 70
     0
 43
0.0
 10
184.476921
 20
39.80354
 10
184.566387
 20
39.805572
 10
184.686343
 20
39.815662
 10
184.798524
 20
39.834533
 10
184.902353
 20
39.862109
 10
184.997212
 20
39.898006
 10
185.082498
 20
39.941852
 10
185.158759
 20
39.993546
 10
185.226544
 20
40.052987
 10
185.286132
 20
40.120558
 10
185.337956
 20
40.196557
 10
185.381964
 20
40.281578
 10
185.418052
 20
40.376213
 10
185.445832
 20
40.479851
 10
185.464911
 20
40.591851
 10
185.475203
 20
40.71162
 10
185.477374
 20
40.803993
  0
LINE
  5
307
330
237
100
AcDbEntity
 67
     1
  8
7_ALL_FEATURES
  6
Continuous
 62
     7
100
AcDbLine
 10
185.477377
 20
40.80399
 30
0.0
 11
185.477377
 21
40.803987
 31
0.0
  0
LINE
  5
308
330
237
100
AcDbEntity
 67
     1
  8
7_ALL_FEATURES
  6
Continuous
 62
     7
100
AcDbLine
 10
185.477377
 20
130.782705
 30
0.0
 11
185.477377
 21
40.803934
 31
0.0
  0
LINE
  5
309
330
237
100
AcDbEntity
 67
     1
  8
7_ALL_FEATURES
  6
Continuous
 62
     7
100
AcDbLine
 10
56.350815
 20
39.803537
 30
0.0
 11
56.350811
 21
39.803537
 31
0.0
  0
LINE
  5
30A
330
237
100
AcDbEntity
 67
     1
  8
7_ALL_FEATURES
  6
Continuous
 62
     7
100
AcDbLine
 10
84.82477
 20
39.803537
 30
0.0
 11
56.350759
 21
39.803537
 31
0.0
  0
LINE
  5
30B
330
237
100
AcDbEntity
 67
     1
  8
7_ALL_FEATURES
  6
Continuous
 62
     7
100
AcDbLine
 10
184.47698
 20
39.803537
 30
0.0
 11
98.002969
 21
39.803537
 31
0.0
  0
LINE
  5
30C
330
237
100
AcDbEntity
 67
     1
  8
7_ALL_FEATURES
  6
Continuous
 62
     7
100
AcDbLine
 10
55.350362
 20
130.782649
 30
0.0
 11
55.350362
 21
130.782653
 31
0.0
  0
LINE
  5
30D
330
237
100
AcDbEntity
 67
     1
  8
7_ALL_FEATURES
  6
Continuous
 62
     7
100
AcDbLine
 10
55.350362
 20
40.803934
 30
0.0
 11
55.350362
 21
130.782705
 31
0.0
  0
LINE
  5
30E
330
237
100
AcDbEntity
 67
     1
  8
7_ALL_FEATURES
  6
Continuous
 62
     7
100
AcDbLine
 10
184.476924
 20
131.783102
 30
0.0
 11
184.476928
 21
131.783102
 31
0.0
  0
LINE
  5
30F
330
237
100
AcDbEntity
 67
     1
  8
7_ALL_FEATURES
  6
Continuous
 62
     7
100
AcDbLine
 10
56.350759
 20
131.783102
 30
0.0
 11
184.47698
 21
131.783102
 31
0.0
  0
SPLINE
  5
310
330
237
100
AcDbEntity
 67
     1
  8
7_ALL_FEATURES
  6
Continuous
 62
     9
100
AcDbSpline
 70
     0
 71
     3
 72
    17
 73
    13
 74
     0
 42
0.000000001
 43
0.0000001
 40
0.0
 40
0.0
 40
0.0
 40
0.0
 40
0.2202662071
 40
0.4147911394
 40
0.5825567658
 40
0.7225521604
 40
0.8339968259
 40
0.9170051212
 40
0.9479747518
 40
0.9720153996
 40
0.989254968
 40
1.0
 40
1.0
 40
1.0
 40
1.0
 10
56.005895199
 20
41.0460396078
 30
0.0
 10
55.9729415089
 20
41.0447618912
 30
0.0
 10
55.910890487
 20
41.0422179284
 30
0.0
 10
55.8237649142
 20
41.038119923
 30
0.0
 10
55.7486761648
 20
41.0339780739
 30
0.0
 10
55.6860458918
 20
41.0298187359
 30
0.0
 10
55.6361506499
 20
41.0256240252
 30
0.0
 10
55.602585461
 20
41.0219102463
 30
0.0
 10
55.5821745945
 20
41.018731048
 30
0.0
 10
55.5715405388
 20
41.0166110381
 30
0.0
 10
55.5640754599
 20
41.0145124637
 30
0.0
 10
55.5601312483
 20
41.0128430423
 30
0.0
 10
55.5588851163
 20
41.01182557
 30
0.0
  0
SPLINE
  5
311
330
237
100
AcDbEntity
 67
     1
  8
7_ALL_FEATURES
  6
Continuous
 62
     9
100
AcDbSpline
 70
     0
 71
     3
 72
    15
 73
    11
 74
     0
 42
0.000000001
 43
0.0000001
 40
0.0
 40
0.0
 40
0.0
 40
0.0
 40
0.1510331041
 40
0.2848810549
 40
0.4051632513
 40
0.516826124
 40
0.6259940906
 40
0.7391972276
 40
0.8623252626
 40
1.0
 40
1.0
 40
1.0
 40
1.0
 10
56.0058987966
 20
130.5405996336
 30
0.0
 10
56.006536966
 20
130.6182347446
 30
0.0
 10
56.0154648037
 20
130.7648582198
 30
0.0
 10
56.0580233379
 20
130.9696398801
 30
0.0
 10
56.1296663387
 20
131.1448966033
 30
0.0
 10
56.2313734424
 20
131.2897930804
 30
0.0
 10
56.3631750738
 20
131.4026699421
 30
0.0
 10
56.5236300175
 20
131.4824877592
 30
0.0
 10
56.7111847743
 20
131.5297652525
 30
0.0
 10
56.8454909847
 20
131.5396600632
 30
0.0
 10
56.9162584461
 20
131.5403616607
 30
0.0
  0
SPLINE
  5
312
330
237
100
AcDbEntity
 67
     1
  8
7_ALL_FEATURES
  6
Continuous
 62
     9
100
AcDbSpline
 70
     0
 71
     3
 72
    17
 73
    13
 74
     0
 42
0.000000001
 43
0.0000001
 40
0.0
 40
0.0
 40
0.0
 40
0.0
 40
0.010745032
 40
0.0279846004
 40
0.0520252482
 40
0.0829948788
 40
0.1660031741
 40
0.2774478396
 40
0.4174432342
 40
0.5852088606
 40
0.7797337929
 40
1.0
 40
1.0
 40
1.0
 40
1.0
 10
55.5588851163
 20
130.5748137007
 30
0.0
 10
55.5601312483
 20
130.5737962284
 30
0.0
 10
55.5640754599
 20
130.572126807
 30
0.0
 10
55.5715405388
 20
130.5700282325
 30
0.0
 10
55.5821745945
 20
130.5679082227
 30
0.0
 10
55.602585461
 20
130.5647290244
 30
0.0
 10
55.6361506499
 20
130.5610152455
 30
0.0
 10
55.6860458918
 20
130.5568205347
 30
0.0
 10
55.7486761648
 20
130.5526611967
 30
0.0
 10
55.8237649142
 20
130.5485193477
 30
0.0
 10
55.910890487
 20
130.5444213423
 30
0.0
 10
55.9729415089
 20
130.5418773795
 30
0.0
 10
56.005895199
 20
130.5405996629
 30
0.0
  0
SPLINE
  5
313
330
237
100
AcDbEntity
 67
     1
  8
7_ALL_FEATURES
  6
Continuous
 62
     9
100
AcDbSpline
 70
     0
 71
     3
 72
    15
 73
    11
 74
     0
 42
0.000000001
 43
0.0000001
 40
0.0
 40
0.0
 40
0.0
 40
0.0
 40
0.1449137545
 40
0.2735396774
 40
0.3900488297
 40
0.5
 40
0.6099511703
 40
0.7264603226
 40
0.8550862455
 40
1.0
 40
1.0
 40
1.0
 40
1.0
 10
185.2688506237
 20
130.5748137276
 30
0.0
 10
185.2688133866
 20
130.653061221
 30
0.0
 10
185.2601877148
 20
130.8010644922
 30
0.0
 10
185.2146159441
 20
131.007796718
 30
0.0
 10
185.1362319435
 20
131.1844892907
 30
0.0
 10
185.0240976913
 20
131.3298228222
 30
0.0
 10
184.8787641597
 20
131.4419570744
 30
0.0
 10
184.702071587
 20
131.520341075
 30
0.0
 10
184.4953393613
 20
131.5659128457
 30
0.0
 10
184.3473360901
 20
131.5745385175
 30
0.0
 10
184.2690885966
 20
131.5745757547
 30
0.0
  0
SPLINE
  5
314
330
237
100
AcDbEntity
 67
     1
  8
7_ALL_FEATURES
  6
Continuous
 62
     9
100
AcDbSpline
 70
     0
 71
     3
 72
    17
 73
    13
 74
     0
 42
0.000000001
 43
0.0000001
 40
0.0
 40
0.0
 40
0.0
 40
0.0
 40
0.2202662071
 40
0.4147911394
 40
0.5825567658
 40
0.7225521604
 40
0.8339968259
 40
0.9170051212
 40
0.9479747518
 40
0.9720153996
 40
0.989254968
 40
1.0
 40
1.0
 40
1.0
 40
1.0
 10
184.8218436385
 20
130.5405996629
 30
0.0
 10
184.8547973285
 20
130.5418773795
 30
0.0
 10
184.9168483505
 20
130.5444213423
 30
0.0
 10
185.0039739233
 20
130.5485193477
 30
0.0
 10
185.0790626727
 20
130.5526611967
 30
0.0
 10
185.1416929456
 20
130.5568205347
 30
0.0
 10
185.1915881876
 20
130.5610152455
 30
0.0
 10
185.2251533765
 20
130.5647290244
 30
0.0
 10
185.2455642429
 20
130.5679082227
 30
0.0
 10
185.2561982987
 20
130.5700282325
 30
0.0
 10
185.2636633776
 20
130.572126807
 30
0.0
 10
185.2676075891
 20
130.5737962284
 30
0.0
 10
185.2688537212
 20
130.5748137007
 30
0.0
  0
SPLINE
  5
315
330
237
100
AcDbEntity
 67
     1
  8
7_ALL_FEATURES
  6
Continuous
 62
     9
100
AcDbSpline
 70
     0
 71
     3
 72
    15
 73
    11
 74
     0
 42
0.000000001
 43
0.0000001
 40
0.0
 40
0.0
 40
0.0
 40
0.0
 40
0.1306283418
 40
0.2609354878
 40
0.3900925043
 40
0.516828928
 40
0.6403804539
 40
0.7613643466
 40
0.8809567703
 40
1.0
 40
1.0
 40
1.0
 40
1.0
 10
184.8218436386
 20
41.0460396296
 30
0.0
 10
184.8212917319
 20
40.9789024791
 30
0.0
 10
184.8140470069
 20
40.8446974845
 30
0.0
 10
184.7781396736
 20
40.6467331349
 30
0.0
 10
184.7087107471
 20
40.459275043
 30
0.0
 10
184.5981788518
 20
40.2957104808
 30
0.0
 10
184.4491183144
 20
40.1724171561
 30
0.0
 10
184.276867283
 20
40.0947589492
 30
0.0
 10
184.0954356978
 20
40.0548953119
 30
0.0
 10
183.9726625266
 20
40.0468841054
 30
0.0
 10
183.9114805467
 20
40.0462776025
 30
0.0
  0
SPLINE
  5
316
330
237
100
AcDbEntity
 67
     1
  8
7_ALL_FEATURES
  6
Continuous
 62
     9
100
AcDbSpline
 70
     0
 71
     3
 72
    17
 73
    13
 74
     0
 42
0.000000001
 43
0.0000001
 40
0.0
 40
0.0
 40
0.0
 40
0.0
 40
0.010745032
 40
0.0279846004
 40
0.0520252482
 40
0.0829948788
 40
0.1660031741
 40
0.2774478396
 40
0.4174432342
 40
0.5852088606
 40
0.7797337929
 40
1.0
 40
1.0
 40
1.0
 40
1.0
 10
185.2688537212
 20
41.01182557
 30
0.0
 10
185.2676075891
 20
41.0128430423
 30
0.0
 10
185.2636633776
 20
41.0145124637
 30
0.0
 10
185.2561982987
 20
41.0166110381
 30
0.0
 10
185.2455642429
 20
41.018731048
 30
0.0
 10
185.2251533765
 20
41.0219102463
 30
0.0
 10
185.1915881876
 20
41.0256240252
 30
0.0
 10
185.1416929456
 20
41.0298187359
 30
0.0
 10
185.0790626727
 20
41.0339780739
 30
0.0
 10
185.0039739233
 20
41.038119923
 30
0.0
 10
184.9168483505
 20
41.0422179284
 30
0.0
 10
184.8547973285
 20
41.0447618912
 30
0.0
 10
184.8218436385
 20
41.0460396078
 30
0.0
  0
LINE
  5
317
330
237
100
AcDbEntity
 67
     1
  8
7_ALL_FEATURES
  6
Continuous
 62
     9
100
AcDbLine
 10
184.057108
 20
46.294315
 30
0.0
 11
183.047624
 21
46.294315
 31
0.0
  0
SPLINE
  5
318
330
237
100
AcDbEntity
 67
     1
  8
7_ALL_FEATURES
  6
Continuous
 62
     9
100
AcDbSpline
 70
     0
 71
     3
 72
    15
 73
    11
 74
     0
 42
0.000000001
 43
0.0000001
 40
0.0
 40
0.0
 40
0.0
 40
0.0
 40
0.1326006286
 40
0.2646258072
 40
0.3949992543
 40
0.5221760926
 40
0.6452543454
 40
0.7649864333
 40
0.8828639731
 40
1.0
 40
1.0
 40
1.0
 40
1.0
 10
182.7957443693
 20
43.5425152646
 30
0.0
 10
182.7957453295
 20
43.5914873054
 30
0.0
 10
182.7913749405
 20
43.6893195033
 30
0.0
 10
182.7671533057
 20
43.8336557353
 30
0.0
 10
182.7196345062
 20
43.9704405385
 30
0.0
 10
182.6439420526
 20
44.0907236611
 30
0.0
 10
182.5414782415
 20
44.1837371711
 30
0.0
 10
182.4219038633
 20
44.2452675666
 30
0.0
 10
182.2948286692
 20
44.2798712883
 30
0.0
 10
182.2082696216
 20
44.289441554
 30
0.0
 10
182.1650685563
 20
44.2917114408
 30
0.0
  0
SPLINE
  5
319
330
237
100
AcDbEntity
 67
     1
  8
7_ALL_FEATURES
  6
Continuous
 62
     9
100
AcDbSpline
 70
     0
 71
     3
 72
    15
 73
    11
 74
     0
 42
0.000000001
 43
0.0000001
 40
0.0
 40
0.0
 40
0.0
 40
0.0
 40
0.1326006089
 40
0.2646257613
 40
0.3949991843
 40
0.5221760206
 40
0.6452542997
 40
0.7649864181
 40
0.8828639737
 40
1.0
 40
1.0
 40
1.0
 40
1.0
 10
58.0319977896
 20
43.5425152011
 30
0.0
 10
58.0319969289
 20
43.5914869853
 30
0.0
 10
58.0363674919
 20
43.689318659
 30
0.0
 10
58.0605892532
 20
43.8336540853
 30
0.0
 10
58.1081079443
 20
43.9704381145
 30
0.0
 10
58.1837999386
 20
44.0907206428
 30
0.0
 10
58.2862629817
 20
44.1837339454
 30
0.0
 10
58.4058365208
 20
44.2452645162
 30
0.0
 10
58.5329109356
 20
44.279868615
 30
0.0
 10
58.6194695103
 20
44.2894391879
 30
0.0
 10
58.6626703466
 20
44.2917092323
 30
0.0
  0
LINE
  5
31A
330
237
100
AcDbEntity
 67
     1
  8
7_ALL_FEATURES
  6
Continuous
 62
     9
100
AcDbLine
 10
56.770631
 20
46.294315
 30
0.0
 11
57.780116
 21
46.294315
 31
0.0
  0
LINE
  5
31B
330
237
100
AcDbEntity
 67
     1
  8
7_ALL_FEATURES
  6
Continuous
 62
     9
100
AcDbLine
 10
56.770631
 20
125.292324
 30
0.0
 11
57.780115
 21
125.292324
 31
0.0
  0
SPLINE
  5
31C
330
237
100
AcDbEntity
 67
     1
  8
7_ALL_FEATURES
  6
Continuous
 62
     9
100
AcDbSpline
 70
     0
 71
     3
 72
    15
 73
    11
 74
     0
 42
0.000000001
 43
0.0000001
 40
0.0
 40
0.0
 40
0.0
 40
0.0
 40
0.1326006282
 40
0.2646258065
 40
0.3949992537
 40
0.5221760925
 40
0.6452543458
 40
0.7649864339
 40
0.8828639735
 40
1.0
 40
1.0
 40
1.0
 40
1.0
 10
58.0319944677
 20
128.0441240397
 30
0.0
 10
58.0319935065
 20
127.995151999
 30
0.0
 10
58.0363638931
 20
127.8973198011
 30
0.0
 10
58.0605855232
 20
127.7529835682
 30
0.0
 10
58.1081043164
 20
127.6161987626
 30
0.0
 10
58.1837967631
 20
127.4959156351
 30
0.0
 10
58.2862605686
 20
127.4029021178
 30
0.0
 10
58.4058349438
 20
127.3413717153
 30
0.0
 10
58.5329101366
 20
127.306767988
 30
0.0
 10
58.6194691839
 20
127.2971977195
 30
0.0
 10
58.6626702491
 20
127.2949278315
 30
0.0
  0
SPLINE
  5
31D
330
237
100
AcDbEntity
 67
     1
  8
7_ALL_FEATURES
  6
Continuous
 62
     9
100
AcDbSpline
 70
     0
 71
     3
 72
    15
 73
    11
 74
     0
 42
0.000000001
 43
0.0000001
 40
0.0
 40
0.0
 40
0.0
 40
0.0
 40
0.1326006092
 40
0.2646257619
 40
0.3949991852
 40
0.5221760216
 40
0.6452543003
 40
0.7649864183
 40
0.8828639737
 40
1.0
 40
1.0
 40
1.0
 40
1.0
 10
182.7957410476
 20
128.0441240735
 30
0.0
 10
182.7957419081
 20
127.9951522873
 30
0.0
 10
182.7913713448
 20
127.8973206097
 30
0.0
 10
182.7671495826
 20
127.7529851775
 30
0.0
 10
182.7196308893
 20
127.6162011428
 30
0.0
 10
182.6439388902
 20
127.4959186107
 30
0.0
 10
182.5414758396
 20
127.4029053085
 30
0.0
 10
182.4219022922
 20
127.3413747428
 30
0.0
 10
182.2948278702
 20
127.306770652
 30
0.0
 10
182.2082692914
 20
127.2972000855
 30
0.0
 10
182.1650684533
 20
127.2949300444
 30
0.0
  0
LINE
  5
31E
330
237
100
AcDbEntity
 67
     1
  8
7_ALL_FEATURES
  6
Continuous
 62
     9
100
AcDbLine
 10
184.057108
 20
125.292324
 30
0.0
 11
183.047623
 21
125.292324
 31
0.0
  0
SPLINE
  5
31F
330
237
100
AcDbEntity
 67
     1
  8
7_ALL_FEATURES
  6
Continuous
 62
     9
100
AcDbSpline
 70
     0
 71
     3
 72
    13
 73
     9
 74
     0
 42
0.000000001
 43
0.0000001
 40
0.0
 40
0.0
 40
0.0
 40
0.0
 40
0.2614478824
 40
0.5144342426
 40
0.6380612093
 40
0.7598965583
 40
0.8803600696
 40
1.0
 40
1.0
 40
1.0
 40
1.0
 10
177.536168854
 20
126.5438464598
 30
0.0
 10
177.5700876715
 20
126.624329251
 30
0.0
 10
177.656680391
 20
126.7752437513
 30
0.0
 10
177.8094867053
 20
126.9278983183
 30
0.0
 10
177.9500176888
 20
127.0181613506
 30
0.0
 10
178.0618210423
 20
127.0687275061
 30
0.0
 10
178.1786292211
 20
127.1016099433
 30
0.0
 10
178.2586229258
 20
127.1113448147
 30
0.0
 10
178.2985510604
 20
127.1130940606
 30
0.0
  0
SPLINE
  5
320
330
237
100
AcDbEntity
 67
     1
  8
7_ALL_FEATURES
  6
Continuous
 62
     9
100
AcDbSpline
 70
     0
 71
     3
 72
    13
 73
     9
 74
     0
 42
0.000000001
 43
0.0000001
 40
0.0
 40
0.0
 40
0.0
 40
0.0
 40
0.2614478882
 40
0.5144342503
 40
0.6380612161
 40
0.759896563
 40
0.8803600717
 40
1.0
 40
1.0
 40
1.0
 40
1.0
 10
177.5361682798
 20
45.0427928072
 30
0.0
 10
177.570087089
 20
44.9623099406
 30
0.0
 10
177.6566798194
 20
44.811395293
 30
0.0
 10
177.8094862178
 20
44.6587405762
 30
0.0
 10
177.9500172998
 20
44.5684774687
 30
0.0
 10
178.0618207376
 20
44.5179112825
 30
0.0
 10
178.178629007
 20
44.4850288427
 30
0.0
 10
178.2586227729
 20
44.4752939895
 30
0.0
 10
178.2985509369
 20
44.4735447577
 30
0.0
  0
SPLINE
  5
321
330
237
100
AcDbEntity
 67
     1
  8
7_ALL_FEATURES
  6
Continuous
 62
     9
100
AcDbSpline
 70
     0
 71
     3
 72
    13
 73
     9
 74
     0
 42
0.000000001
 43
0.0000001
 40
0.0
 40
0.0
 40
0.0
 40
0.0
 40
0.2614478809
 40
0.5144342414
 40
0.6380612087
 40
0.7598965582
 40
0.8803600699
 40
1.0
 40
1.0
 40
1.0
 40
1.0
 10
63.2915699894
 20
45.0427928117
 30
0.0
 10
63.2576511794
 20
44.9623100352
 30
0.0
 10
63.1710584816
 20
44.8113955601
 30
0.0
 10
63.0182522098
 20
44.658741008
 30
0.0
 10
62.8777212638
 20
44.5684779727
 30
0.0
 10
62.7659179389
 20
44.5179118073
 30
0.0
 10
62.6491097878
 20
44.4850293525
 30
0.0
 10
62.5691161
 20
44.4752944641
 30
0.0
 10
62.5291879731
 20
44.4735452087
 30
0.0
  0
SPLINE
  5
322
330
237
100
AcDbEntity
 67
     1
  8
7_ALL_FEATURES
  6
Continuous
 62
     9
100
AcDbSpline
 70
     0
 71
     3
 72
    13
 73
     9
 74
     0
 42
0.000000001
 43
0.0000001
 40
0.0
 40
0.0
 40
0.0
 40
0.0
 40
0.2614478881
 40
0.5144342502
 40
0.6380612161
 40
0.759896563
 40
0.8803600718
 40
1.0
 40
1.0
 40
1.0
 40
1.0
 10
63.2915705577
 20
126.5438464634
 30
0.0
 10
63.257651749
 20
126.6243293287
 30
0.0
 10
63.1710590204
 20
126.7752439741
 30
0.0
 10
63.0182526254
 20
126.9278986894
 30
0.0
 10
62.8777215465
 20
127.0181617971
 30
0.0
 10
62.7659181111
 20
127.068727984
 30
0.0
 10
62.649109844
 20
127.1016104251
 30
0.0
 10
62.5691160795
 20
127.1113452797
 30
0.0
 10
62.5291879162
 20
127.1130945123
 30
0.0
  0
LINE
  5
323
330
237
100
AcDbEntity
 67
     1
  8
7_ALL_FEATURES
  6
Continuous
 62
     9
100
AcDbLine
 10
98.002969
 20
39.803775
 30
0.0
 11
98.002969
 21
39.803537
 31
0.0
  0
LINE
  5
324
330
237
100
AcDbEntity
 67
     1
  8
7_ALL_FEATURES
  6
Continuous
 62
     9
100
AcDbLine
 10
184.477377
 20
39.803775
 30
0.0
 11
184.476927
 21
39.803537
 31
0.0
  0
LINE
  5
325
330
237
100
AcDbEntity
 67
     1
  8
7_ALL_FEATURES
  6
Continuous
 62
     9
100
AcDbLine
 10
185.477139
 20
130.783102
 30
0.0
 11
185.477377
 21
130.782652
 31
0.0
  0
LINE
  5
326
330
237
100
AcDbEntity
 67
     1
  8
7_ALL_FEATURES
  6
Continuous
 62
     9
100
AcDbLine
 10
55.350599
 20
40.803537
 30
0.0
 11
55.350362
 21
40.803987
 31
0.0
  0
LINE
  5
327
330
237
100
AcDbEntity
 67
     1
  8
7_ALL_FEATURES
  6
Continuous
 62
     9
100
AcDbLine
 10
56.350362
 20
131.782864
 30
0.0
 11
56.350811
 21
131.783102
 31
0.0
  0
LINE
  5
328
330
237
100
AcDbEntity
 67
     1
  8
7_ALL_FEATURES
  6
Continuous
 62
     9
100
AcDbLine
 10
182.534
 20
125.266265
 30
0.0
 11
183.047623
 21
125.292372
 31
0.0
  0
LINE
  5
329
330
237
100
AcDbEntity
 67
     1
  8
7_ALL_FEATURES
  6
Continuous
 62
     9
100
AcDbLine
 10
183.047623
 20
125.292372
 30
0.0
 11
183.047623
 21
46.294268
 31
0.0
  0
LINE
  5
32A
330
237
100
AcDbEntity
 67
     1
  8
7_ALL_FEATURES
  6
Continuous
 62
     9
100
AcDbLine
 10
183.047623
 20
46.294268
 30
0.0
 11
182.534006
 21
46.320361
 31
0.0
  0
SPLINE
  5
32B
330
237
100
AcDbEntity
 67
     1
  8
7_ALL_FEATURES
  6
Continuous
 62
     9
100
AcDbSpline
 70
     0
 71
     3
 72
    17
 73
    13
 74
     0
 42
0.000000001
 43
0.0000001
 40
0.0
 40
0.0
 40
0.0
 40
0.0
 40
0.156557455
 40
0.3099172332
 40
0.456947499
 40
0.5946467112
 40
0.7202053079
 40
0.8310634878
 40
0.8802605144
 40
0.9249641949
 40
0.9649434612
 40
1.0
 40
1.0
 40
1.0
 40
1.0
 10
120.4138694577
 20
41.9381808371
 30
0.0
 10
123.7755782749
 20
41.9381808369
 30
0.0
 10
130.4303378655
 20
41.9280290805
 30
0.0
 10
140.2421377686
 20
41.8825234177
 30
0.0
 10
149.6488117604
 20
41.8077774754
 30
0.0
 10
158.4582277189
 20
41.7054646275
 30
0.0
 10
166.4905135953
 20
41.5778055742
 30
0.0
 10
172.6220859651
 20
41.4483124894
 30
0.0
 10
177.0172655321
 20
41.3314430268
 30
0.0
 10
179.8906729381
 20
41.2428257964
 30
0.0
 10
182.4601446959
 20
41.1502123872
 30
0.0
 10
184.069923699
 20
41.0816230735
 30
0.0
 10
184.8218401937
 20
41.0460396254
 30
0.0
  0
SPLINE
  5
32C
330
237
100
AcDbEntity
 67
     1
  8
7_ALL_FEATURES
  6
Continuous
 62
     9
100
AcDbSpline
 70
     0
 71
     3
 72
    17
 73
    13
 74
     0
 42
0.000000001
 43
0.0000001
 40
0.0
 40
0.0
 40
0.0
 40
0.0
 40
0.0350565306
 40
0.0750358
 40
0.1197394813
 40
0.1689365067
 40
0.2797946869
 40
0.4053532839
 40
0.5430524969
 40
0.6900827639
 40
0.8434425434
 40
1.0
 40
1.0
 40
1.0
 40
1.0
 10
56.0058986436
 20
41.0460396256
 30
0.0
 10
56.7578149619
 20
41.0816230674
 30
0.0
 10
58.3675938569
 20
41.1502123736
 30
0.0
 10
60.937065524
 20
41.2428257843
 30
0.0
 10
63.8104729912
 20
41.3314430195
 30
0.0
 10
68.2056525618
 20
41.4483124818
 30
0.0
 10
74.3372249269
 20
41.5778055681
 30
0.0
 10
82.3695108448
 20
41.7054646241
 30
0.0
 10
91.1789268642
 20
41.8077774738
 30
0.0
 10
100.5856009389
 20
41.8825234161
 30
0.0
 10
110.3974009417
 20
41.928029082
 30
0.0
 10
117.0521606022
 20
41.9381808351
 30
0.0
 10
120.4138694577
 20
41.9381808371
 30
0.0
  0
LINE
  5
32D
330
237
100
AcDbEntity
 67
     1
  8
7_ALL_FEATURES
  6
Continuous
 62
     9
100
AcDbLine
 10
56.005898
 20
130.540599
 30
0.0
 11
56.005898
 21
41.046041
 31
0.0
  0
SPLINE
  5
32E
330
237
100
AcDbEntity
 67
     1
  8
7_ALL_FEATURES
  6
Continuous
 62
     9
100
AcDbSpline
 70
     0
 71
     3
 72
    17
 73
    13
 74
     0
 42
0.000000001
 43
0.0000001
 40
0.0
 40
0.0
 40
0.0
 40
0.0
 40
0.1565574549
 40
0.3099172332
 40
0.456947499
 40
0.5946467112
 40
0.7202053079
 40
0.8310634878
 40
0.8802605144
 40
0.9249641949
 40
0.9649434612
 40
1.0
 40
1.0
 40
1.0
 40
1.0
 10
120.4138694577
 20
129.6484584336
 30
0.0
 10
117.052160637
 20
129.6484584339
 30
0.0
 10
110.397401039
 20
129.6586101898
 30
0.0
 10
100.5856011246
 20
129.7041158526
 30
0.0
 10
91.1789271209
 20
129.7788617948
 30
0.0
 10
82.3695111512
 20
129.8811746427
 30
0.0
 10
74.3372252639
 20
130.0088336961
 30
0.0
 10
68.2056528863
 20
130.1383267808
 30
0.0
 10
63.8104733136
 20
130.2551962436
 30
0.0
 10
60.9370659036
 20
130.3438134741
 30
0.0
 10
58.3675941433
 20
130.4364268833
 30
0.0
 10
56.7578151387
 20
130.505016197
 30
0.0
 10
56.0058986444
 20
130.5405996453
 30
0.0
  0
SPLINE
  5
32F
330
237
100
AcDbEntity
 67
     1
  8
7_ALL_FEATURES
  6
Continuous
 62
     9
100
AcDbSpline
 70
     0
 71
     3
 72
    17
 73
    13
 74
     0
 42
0.000000001
 43
0.0000001
 40
0.0
 40
0.0
 40
0.0
 40
0.0
 40
0.0350565306
 40
0.0750358
 40
0.1197394813
 40
0.1689365067
 40
0.2797946869
 40
0.4053532839
 40
0.5430524968
 40
0.6900827639
 40
0.8434425434
 40
1.0
 40
1.0
 40
1.0
 40
1.0
 10
184.8218401945
 20
130.5405996451
 30
0.0
 10
184.069923876
 20
130.5050162034
 30
0.0
 10
182.4601449826
 20
130.4364268972
 30
0.0
 10
179.8906733183
 20
130.3438134865
 30
0.0
 10
177.0172658551
 20
130.2551962514
 30
0.0
 10
172.6220862903
 20
130.1383267893
 30
0.0
 10
166.490513933
 20
130.0088337029
 30
0.0
 10
158.4582280257
 20
129.881174647
 30
0.0
 10
149.6488120176
 20
129.7788617973
 30
0.0
 10
140.2421379545
 20
129.7041158548
 30
0.0
 10
130.4303379631
 20
129.658610189
 30
0.0
 10
123.7755783097
 20
129.6484584355
 30
0.0
 10
120.4138694577
 20
129.6484584335
 30
0.0
  0
LINE
  5
330
330
237
100
AcDbEntity
 67
     1
  8
7_ALL_FEATURES
  6
Continuous
 62
     9
100
AcDbLine
 10
184.821841
 20
41.04604
 30
0.0
 11
184.821841
 21
130.540599
 31
0.0
  0
SPLINE
  5
331
330
237
100
AcDbEntity
 67
     1
  8
7_ALL_FEATURES
  6
Continuous
 62
     9
100
AcDbSpline
 70
     0
 71
     3
 72
    19
 73
    15
 74
     0
 42
0.000000001
 43
0.0000001
 40
0.0
 40
0.0
 40
0.0
 40
0.0
 40
0.1655340184
 40
0.325649771
 40
0.4755781617
 40
0.6114377682
 40
0.6732803333
 40
0.7308072201
 40
0.7840128983
 40
0.833087756
 40
0.8784310712
 40
0.92070879
 40
0.9608463877
 40
1.0
 40
1.0
 40
1.0
 40
1.0
 10
184.0571089167
 20
46.2943154636
 30
0.0
 10
184.0571118675
 20
46.1140250067
 30
0.0
 10
184.0418509321
 20
45.7591473421
 30
0.0
 10
183.9736427064
 20
45.2449431799
 30
0.0
 10
183.8625361647
 20
44.7713099952
 30
0.0
 10
183.7333780039
 20
44.4140448273
 30
0.0
 10
183.60926879
 20
44.1649904393
 30
0.0
 10
183.5110140435
 20
44.0044310912
 30
0.0
 10
183.405365757
 20
43.8656732461
 30
0.0
 10
183.2931401031
 20
43.7499066984
 30
0.0
 10
183.1750469031
 20
43.6583085008
 30
0.0
 10
183.0519771971
 20
43.5918224479
 30
0.0
 10
182.9250011093
 20
43.5515118629
 30
0.0
 10
182.8383849868
 20
43.5425057508
 30
0.0
 10
182.7957410479
 20
43.542512111
 30
0.0
  0
LINE
  5
332
330
237
100
AcDbEntity
 67
     1
  8
7_ALL_FEATURES
  6
Continuous
 62
     9
100
AcDbLine
 10
184.057108
 20
125.292324
 30
0.0
 11
184.057108
 21
46.294315
 31
0.0
  0
SPLINE
  5
333
330
237
100
AcDbEntity
 67
     1
  8
7_ALL_FEATURES
  6
Continuous
 62
     9
100
AcDbSpline
 70
     0
 71
     3
 72
    19
 73
    15
 74
     0
 42
0.000000001
 43
0.0000001
 40
0.0
 40
0.0
 40
0.0
 40
0.0
 40
0.0391536127
 40
0.0792912109
 40
0.1215689304
 40
0.1669122463
 40
0.2159871048
 40
0.2691927837
 40
0.3267196712
 40
0.3885622369
 40
0.5244218441
 40
0.674350234
 40
0.8344659844
 40
1.0
 40
1.0
 40
1.0
 40
1.0
 10
182.7957410475
 20
128.0441272945
 30
0.0
 10
182.838384987
 20
128.0441336543
 30
0.0
 10
182.9250011105
 20
128.0351275413
 30
0.0
 10
183.0519771998
 20
127.9948169544
 30
0.0
 10
183.1750469071
 20
127.9283308993
 30
0.0
 10
183.2931401084
 20
127.8367326993
 30
0.0
 10
183.4053657632
 20
127.7209661489
 30
0.0
 10
183.5110140505
 20
127.5822083011
 30
0.0
 10
183.6092687972
 20
127.4216489502
 30
0.0
 10
183.7333780105
 20
127.172594559
 30
0.0
 10
183.862536169
 20
126.8153293892
 30
0.0
 10
183.973642707
 20
126.3416962056
 30
0.0
 10
184.0418509294
 20
125.8274920487
 30
0.0
 10
184.057111864
 20
125.472614389
 30
0.0
 10
184.0571089132
 20
125.292323935
 30
0.0
  0
LINE
  5
334
330
237
100
AcDbEntity
 67
     1
  8
7_ALL_FEATURES
  6
Continuous
 62
     9
100
AcDbLine
 10
58.031998
 20
128.044124
 30
0.0
 11
182.795741
 21
128.044124
 31
0.0
  0
SPLINE
  5
335
330
237
100
AcDbEntity
 67
     1
  8
7_ALL_FEATURES
  6
Continuous
 62
     9
100
AcDbSpline
 70
     0
 71
     3
 72
    19
 73
    15
 74
     0
 42
0.000000001
 43
0.0000001
 40
0.0
 40
0.0
 40
0.0
 40
0.0
 40
0.1655340185
 40
0.3256497709
 40
0.4755781614
 40
0.6114377681
 40
0.6732803333
 40
0.7308072202
 40
0.7840128985
 40
0.8330877563
 40
0.8784310715
 40
0.9207087903
 40
0.9608463879
 40
1.0
 40
1.0
 40
1.0
 40
1.0
 10
56.7706299222
 20
125.2923238553
 30
0.0
 10
56.7706269714
 20
125.4726143134
 30
0.0
 10
56.7858879067
 20
125.8274919799
 30
0.0
 10
56.8540961317
 20
126.3416961447
 30
0.0
 10
56.9652026722
 20
126.8153293321
 30
0.0
 10
57.0943608319
 20
127.1725945027
 30
0.0
 10
57.2184700454
 20
127.4216488932
 30
0.0
 10
57.3167247917
 20
127.5822082431
 30
0.0
 10
57.4223730783
 20
127.7209660898
 30
0.0
 10
57.5345987323
 20
127.8367326389
 30
0.0
 10
57.6526919327
 20
127.9283308375
 30
0.0
 10
57.7757616391
 20
127.9948168909
 30
0.0
 10
57.9027377274
 20
128.0351274759
 30
0.0
 10
57.9893538501
 20
128.0441335875
 30
0.0
 10
58.0319977891
 20
128.044127227
 30
0.0
  0
LINE
  5
336
330
237
100
AcDbEntity
 67
     1
  8
7_ALL_FEATURES
  6
Continuous
 62
     9
100
AcDbLine
 10
56.770631
 20
46.294315
 30
0.0
 11
56.770631
 21
125.292324
 31
0.0
  0
SPLINE
  5
337
330
237
100
AcDbEntity
 67
     1
  8
7_ALL_FEATURES
  6
Continuous
 62
     9
100
AcDbSpline
 70
     0
 71
     3
 72
    19
 73
    15
 74
     0
 42
0.000000001
 43
0.0000001
 40
0.0
 40
0.0
 40
0.0
 40
0.0
 40
0.0391536125
 40
0.0792912105
 40
0.1215689297
 40
0.1669122453
 40
0.2159871034
 40
0.2691927821
 40
0.3267196693
 40
0.3885622347
 40
0.5244218417
 40
0.6743502319
 40
0.8344659832
 40
1.0
 40
1.0
 40
1.0
 40
1.0
 10
58.0319977897
 20
43.5425119841
 30
0.0
 10
57.9893538505
 20
43.5425056241
 30
0.0
 10
57.9027377274
 20
43.5515117367
 30
0.0
 10
57.7757616388
 20
43.5918223228
 30
0.0
 10
57.6526919321
 20
43.658308377
 30
0.0
 10
57.5345987314
 20
43.7499065761
 30
0.0
 10
57.422373077
 20
43.8656731255
 30
0.0
 10
57.3167247902
 20
44.0044309723
 30
0.0
 10
57.2184700437
 20
44.1649903223
 30
0.0
 10
57.0943608302
 20
44.4140447123
 30
0.0
 10
56.9652026711
 20
44.7713098815
 30
0.0
 10
56.8540961318
 20
45.2449430657
 30
0.0
 10
56.7858879081
 20
45.7591472249
 30
0.0
 10
56.7706269732
 20
46.1140248867
 30
0.0
 10
56.7706299241
 20
46.294315342
 30
0.0
  0
LINE
  5
338
330
237
100
AcDbEntity
 67
     1
  8
7_ALL_FEATURES
  6
Continuous
 62
     9
100
AcDbLine
 10
182.795741
 20
43.542515
 30
0.0
 11
58.031998
 21
43.542515
 31
0.0
  0
LINE
  5
339
330
237
100
AcDbEntity
 67
     1
  8
7_ALL_FEATURES
  6
Continuous
 62
     9
100
AcDbLine
 10
58.293739
 20
46.320376
 30
0.0
 11
57.780116
 21
46.294268
 31
0.0
  0
LINE
  5
33A
330
237
100
AcDbEntity
 67
     1
  8
7_ALL_FEATURES
  6
Continuous
 62
     9
100
AcDbLine
 10
57.780116
 20
46.294268
 30
0.0
 11
57.780116
 21
125.292371
 31
0.0
  0
LINE
  5
33B
330
237
100
AcDbEntity
 67
     1
  8
7_ALL_FEATURES
  6
Continuous
 62
     9
100
AcDbLine
 10
57.780116
 20
125.292371
 30
0.0
 11
58.293733
 21
125.266277
 31
0.0
  0
LINE
  5
33C
330
237
100
AcDbEntity
 67
     1
  8
7_ALL_FEATURES
  6
Continuous
 62
     9
100
AcDbLine
 10
55.350362
 20
130.782653
 30
0.0
 11
55.350599
 21
130.783102
 31
0.0
  0
LINE
  5
33D
330
237
100
AcDbEntity
 67
     1
  8
7_ALL_FEATURES
  6
Continuous
 62
     9
100
AcDbLine
 10
56.350811
 20
39.803537
 30
0.0
 11
56.350362
 21
39.803775
 31
0.0
  0
LINE
  5
33E
330
237
100
AcDbEntity
 67
     1
  8
7_ALL_FEATURES
  6
Continuous
 62
     9
100
AcDbLine
 10
184.476928
 20
131.783102
 30
0.0
 11
184.477377
 21
131.782864
 31
0.0
  0
LINE
  5
33F
330
237
100
AcDbEntity
 67
     1
  8
7_ALL_FEATURES
  6
Continuous
 62
     9
100
AcDbLine
 10
185.477377
 20
40.803987
 30
0.0
 11
185.477139
 21
40.803537
 31
0.0
  0
ELLIPSE
  5
340
330
237
100
AcDbEntity
 67
     1
  8
02___PRT_ALL_AXES
  6
Continuous
 62
     7
100
AcDbEllipse
 10
68.413869
 20
39.910675
 30
0.0
 11
3.6199413925
 21
0.0
 31
0.0
210
0.0
220
0.0
230
1.0
 40
0.021825
 41
3.1197708441
 42
6.3050071167
  0
LINE
  5
341
330
237
100
AcDbEntity
 67
     1
  8
7_ALL_FEATURES
  6
Continuous
 62
     9
100
AcDbLine
 10
84.82477
 20
39.803537
 30
0.0
 11
84.82477
 21
39.803775
 31
0.0
  0
SPLINE
  5
342
330
237
100
AcDbEntity
 67
     1
  8
7_ALL_FEATURES
  6
Continuous
 62
     9
100
AcDbSpline
 70
     0
 71
     3
 72
    23
 73
    19
 74
     0
 42
0.000000001
 43
0.0000001
 40
0.0
 40
0.0
 40
0.0
 40
0.0
 40
0.0192002178
 40
0.0405850704
 40
0.0895091446
 40
0.1458815119
 40
0.2086773727
 40
0.276756491
 40
0.3488836081
 40
0.4999999998
 40
0.6511163915
 40
0.7232435086
 40
0.7913226268
 40
0.8541184877
 40
0.910490855
 40
0.9594149292
 40
0.9807997817
 40
1.0
 40
1.0
 40
1.0
 40
1.0
 10
62.5291941741
 20
127.1130944953
 30
0.0
 10
63.27010109
 20
127.1194560743
 30
0.0
 10
64.836236798
 20
127.1305583466
 30
0.0
 10
68.2903388338
 20
127.1485285295
 30
0.0
 10
73.1789333876
 20
127.1644067194
 30
0.0
 10
79.6655835079
 20
127.1774156367
 30
0.0
 10
86.8914320733
 20
127.1865940348
 30
0.0
 10
94.7252574213
 20
127.1929803945
 30
0.0
 10
105.9673632072
 20
127.1986920256
 30
0.0
 10
120.4138694166
 20
127.2010669993
 30
0.0
 10
134.860375626
 20
127.1986920256
 30
0.0
 10
146.102481412
 20
127.1929803945
 30
0.0
 10
153.9363067603
 20
127.1865940348
 30
0.0
 10
161.162155326
 20
127.1774156369
 30
0.0
 10
167.6488054465
 20
127.164406719
 30
0.0
 10
172.5373999993
 20
127.1485285306
 30
0.0
 10
175.9915020507
 20
127.130558345
 30
0.0
 10
177.5576377743
 20
127.1194560765
 30
0.0
 10
178.2985447069
 20
127.1130944973
 30
0.0
  0
ARC
  5
343
330
237
100
AcDbEntity
 67
     1
  8
7_ALL_FEATURES
  6
Continuous
 62
     9
100
AcDbCircle
 10
80.577796
 20
552.102432
 30
0.0
 40
425.3724117115
100
AcDbArc
 50
267.04682
 51
267.568203
  0
LINE
  5
344
330
237
100
AcDbEntity
 67
     1
  8
7_ALL_FEATURES
  6
Continuous
 62
     9
100
AcDbLine
 10
58.662652
 20
127.294928
 30
0.0
 11
182.165086
 21
127.294928
 31
0.0
  0
ARC
  5
345
330
237
100
AcDbEntity
 67
     1
  8
7_ALL_FEATURES
  6
Continuous
 62
     9
100
AcDbCircle
 10
158.418342
 20
591.049953
 30
0.0
 40
464.3626070453
100
AcDbArc
 50
272.453686
 51
272.93129
  0
SPLINE
  5
346
330
237
100
AcDbEntity
 67
     1
  8
7_ALL_FEATURES
  6
Continuous
 62
     9
100
AcDbSpline
 70
     0
 71
     3
 72
    23
 73
    19
 74
     0
 42
0.000000001
 43
0.0000001
 40
0.0
 40
0.0
 40
0.0
 40
0.0
 40
0.019200218
 40
0.0405850705
 40
0.0895091448
 40
0.1458815121
 40
0.208677373
 40
0.2767564913
 40
0.3488836084
 40
0.5000000003
 40
0.6511163921
 40
0.7232435092
 40
0.7913226275
 40
0.8541184885
 40
0.9104908557
 40
0.95941493
 40
0.9807997826
 40
1.0
 40
1.0
 40
1.0
 40
1.0
 10
178.2985446779
 20
44.4735447747
 30
0.0
 10
177.5576377564
 20
44.4671831956
 30
0.0
 10
175.9915020431
 20
44.4560809246
 30
0.0
 10
172.5374000021
 20
44.4381107408
 30
0.0
 10
167.6488054485
 20
44.4222325514
 30
0.0
 10
161.1621553279
 20
44.4092236339
 30
0.0
 10
153.9363067621
 20
44.4000452358
 30
0.0
 10
146.1024814136
 20
44.3936588762
 30
0.0
 10
134.8603756267
 20
44.3879472451
 30
0.0
 10
120.4138694163
 20
44.3855722714
 30
0.0
 10
105.967363206
 20
44.3879472451
 30
0.0
 10
94.7252574197
 20
44.3936588762
 30
0.0
 10
86.8914320714
 20
44.4000452358
 30
0.0
 10
79.6655835057
 20
44.4092236341
 30
0.0
 10
73.1789333851
 20
44.4222325508
 30
0.0
 10
68.2903388298
 20
44.4381107422
 30
0.0
 10
64.8362368104
 20
44.4560809224
 30
0.0
 10
63.2701011191
 20
44.4671831986
 30
0.0
 10
62.5291942211
 20
44.4735447776
 30
0.0
  0
ARC
  5
347
330
237
100
AcDbEntity
 67
     1
  8
7_ALL_FEATURES
  6
Continuous
 62
     9
100
AcDbCircle
 10
160.249963
 20
-380.515369
 30
0.0
 40
425.3719879452
100
AcDbArc
 50
87.04682
 51
87.568204
  0
LINE
  5
348
330
237
100
AcDbEntity
 67
     1
  8
7_ALL_FEATURES
  6
Continuous
 62
     9
100
AcDbLine
 10
182.165086
 20
44.291711
 30
0.0
 11
58.662652
 21
44.291711
 31
0.0
  0
ARC
  5
349
330
237
100
AcDbEntity
 67
     1
  8
7_ALL_FEATURES
  6
Continuous
 62
     9
100
AcDbCircle
 10
82.4095
 20
-419.465517
 30
0.0
 40
464.3648131822
100
AcDbArc
 50
92.453687
 51
92.931289
  0
LINE
  5
34A
330
237
100
AcDbEntity
 67
     1
  8
7_ALL_FEATURES
  6
Continuous
 62
     9
100
AcDbLine
 10
55.350599
 20
40.803537
 30
0.0
 11
55.350599
 21
130.783102
 31
0.0
  0
LINE
  5
34B
330
237
100
AcDbEntity
 67
     1
  8
7_ALL_FEATURES
  6
Continuous
 62
     9
100
AcDbLine
 10
55.350599
 20
130.783102
 30
0.0
 11
55.558888
 21
130.574814
 31
0.0
  0
LINE
  5
34C
330
237
100
AcDbEntity
 67
     1
  8
7_ALL_FEATURES
  6
Continuous
 62
     9
100
AcDbLine
 10
55.558888
 20
130.574814
 30
0.0
 11
55.558888
 21
41.011826
 31
0.0
  0
LINE
  5
34D
330
237
100
AcDbEntity
 67
     1
  8
7_ALL_FEATURES
  6
Continuous
 62
     9
100
AcDbLine
 10
55.350599
 20
40.803537
 30
0.0
 11
55.558888
 21
41.011826
 31
0.0
  0
LINE
  5
34E
330
237
100
AcDbEntity
 67
     1
  8
7_ALL_FEATURES
  6
Continuous
 62
     9
100
AcDbLine
 10
185.477139
 20
130.783102
 30
0.0
 11
185.477139
 21
40.803537
 31
0.0
  0
LINE
  5
34F
330
237
100
AcDbEntity
 67
     1
  8
7_ALL_FEATURES
  6
Continuous
 62
     9
100
AcDbLine
 10
185.477139
 20
40.803537
 30
0.0
 11
185.268851
 21
41.011826
 31
0.0
  0
LINE
  5
350
330
237
100
AcDbEntity
 67
     1
  8
7_ALL_FEATURES
  6
Continuous
 62
     9
100
AcDbLine
 10
185.268851
 20
41.011826
 30
0.0
 11
185.268851
 21
130.574814
 31
0.0
  0
LINE
  5
351
330
237
100
AcDbEntity
 67
     1
  8
7_ALL_FEATURES
  6
Continuous
 62
     9
100
AcDbLine
 10
185.477139
 20
130.783102
 30
0.0
 11
185.268851
 21
130.574814
 31
0.0
  0
LINE
  5
352
330
237
100
AcDbEntity
 67
     1
  8
7_ALL_FEATURES
  6
Continuous
 62
     9
100
AcDbLine
 10
96.974223
 20
39.93108
 30
0.0
 11
97.881107
 21
39.818855
 31
0.0
  0
LINE
  5
353
330
237
100
AcDbEntity
 67
     1
  8
7_ALL_FEATURES
  6
Continuous
 62
     9
100
AcDbLine
 10
97.881107
 20
39.818855
 30
0.0
 11
98.002969
 21
39.803775
 31
0.0
  0
SPLINE
  5
354
330
237
100
AcDbEntity
 67
     1
  8
7_ALL_FEATURES
  6
Continuous
 62
     9
100
AcDbSpline
 70
     0
 71
     3
 72
     9
 73
     5
 74
     0
 42
0.000000001
 43
0.0000001
 40
0.0
 40
0.0
 40
0.0
 40
0.0
 40
0.2183515313
 40
1.0
 40
1.0
 40
1.0
 40
1.0
 10
85.8535159597
 20
39.9310798693
 30
0.0
 10
85.8597824654
 20
39.9318553383
 30
0.0
 10
85.8885060005
 20
39.9352099218
 30
0.0
 10
85.9173007529
 20
39.9379262932
 30
0.0
 10
85.9398207216
 20
39.9398708245
 30
0.0
  0
ARC
  5
355
330
237
100
AcDbEntity
 67
     1
  8
7_ALL_FEATURES
  6
Continuous
 62
     9
100
AcDbCircle
 10
86.308899
 20
35.661203
 30
0.0
 40
4.2945563241
100
AcDbArc
 50
94.485372
 51
94.930137
  0
SPLINE
  5
356
330
237
100
AcDbEntity
 67
     1
  8
7_ALL_FEATURES
  6
Continuous
 62
     9
100
AcDbSpline
 70
     0
 71
     3
 72
    23
 73
    19
 74
     0
 42
0.000000001
 43
0.0000001
 40
0.0
 40
0.0
 40
0.0
 40
0.0
 40
0.0129301632
 40
0.0290670811
 40
0.0705235938
 40
0.1232888222
 40
0.1859778635
 40
0.2569417936
 40
0.3343120624
 40
0.5000011505
 40
0.6656900737
 40
0.7430601405
 40
0.8140237953
 40
0.8767124952
 40
0.9294773256
 40
0.9709333939
 40
0.9870700739
 40
1.0
 40
1.0
 40
1.0
 40
1.0
 10
85.9730451788
 20
39.9426068993
 30
0.0
 10
86.0198129501
 20
39.9462869757
 30
0.0
 10
86.1250539709
 20
39.9531871823
 30
0.0
 10
86.3805872856
 20
39.966356267
 30
0.0
 10
86.7807350118
 20
39.9809615855
 30
0.0
 10
87.3498330168
 20
39.995972837
 30
0.0
 10
88.026064884
 20
40.0088994842
 30
0.0
 10
88.791615681
 20
40.0193950301
 30
0.0
 10
89.9308881762
 20
40.029915095
 30
0.0
 10
91.4138859392
 20
40.0349106015
 30
0.0
 10
92.8968829685
 20
40.0299149069
 30
0.0
 10
94.036153132
 20
40.0193946886
 30
0.0
 10
94.8017009568
 20
40.0088990444
 30
0.0
 10
95.4779291408
 20
39.9959723134
 30
0.0
 10
96.0470228477
 20
39.9809609939
 30
0.0
 10
96.447166651
 20
39.9663556292
 30
0.0
 10
96.7026966231
 20
39.9531865002
 30
0.0
 10
96.8079359153
 20
39.9462862677
 30
0.0
 10
96.8547028226
 20
39.9426061759
 30
0.0
  0
ARC
  5
357
330
237
100
AcDbEntity
 67
     1
  8
7_ALL_FEATURES
  6
Continuous
 62
     9
100
AcDbCircle
 10
96.50329
 20
35.472367
 30
0.0
 40
4.4840300927
100
AcDbArc
 50
85.079422
 51
85.505126
  0
SPLINE
  5
358
330
237
100
AcDbEntity
 67
     1
  8
7_ALL_FEATURES
  6
Continuous
 62
     9
100
AcDbSpline
 70
     0
 71
     3
 72
     9
 73
     5
 74
     0
 42
0.000000001
 43
0.0000001
 40
0.0
 40
0.0
 40
0.0
 40
0.0
 40
0.281588554
 40
1.0
 40
1.0
 40
1.0
 40
1.0
 10
96.887906354
 20
39.9398718411
 30
0.0
 10
96.896020228
 20
39.9391712588
 30
0.0
 10
96.9248260162
 20
39.9365882953
 30
0.0
 10
96.9536023746
 20
39.9336316282
 30
0.0
 10
96.9742228777
 20
39.9310798693
 30
0.0
  0
LINE
  5
359
330
237
100
AcDbEntity
 67
     1
  8
7_ALL_FEATURES
  6
Continuous
 62
     9
100
AcDbLine
 10
84.82477
 20
39.803775
 30
0.0
 11
84.946622
 21
39.818854
 31
0.0
  0
LINE
  5
35A
330
237
100
AcDbEntity
 67
     1
  8
7_ALL_FEATURES
  6
Continuous
 62
     9
100
AcDbLine
 10
84.946622
 20
39.818854
 30
0.0
 11
85.853516
 21
39.93108
 31
0.0
  0
LINE
  5
35B
330
237
100
AcDbEntity
 67
     1
  8
7_ALL_FEATURES
  6
Continuous
 62
     9
100
AcDbLine
 10
84.82477
 20
39.803775
 30
0.0
 11
56.350362
 21
39.803775
 31
0.0
  0
LINE
  5
35C
330
237
100
AcDbEntity
 67
     1
  8
7_ALL_FEATURES
  6
Continuous
 62
     9
100
AcDbLine
 10
56.350362
 20
39.803775
 30
0.0
 11
56.55865
 21
40.012064
 31
0.0
  0
ARC
  5
35D
330
237
100
AcDbEntity
 67
     1
  8
7_ALL_FEATURES
  6
Continuous
 62
     9
100
AcDbCircle
 10
85.857193
 20
40.901713
 30
0.0
 40
0.9706401295
100
AcDbArc
 50
269.782926
 51
277.0501
  0
ARC
  5
35E
330
237
100
AcDbEntity
 67
     1
  8
7_ALL_FEATURES
  6
Continuous
 62
     9
100
AcDbCircle
 10
84.828491
 20
40.772974
 30
0.0
 40
0.9692064753
100
AcDbArc
 50
269.779988
 51
271.459755
  0
ARC
  5
35F
330
237
100
AcDbEntity
 67
     1
  8
7_ALL_FEATURES
  6
Continuous
 62
     9
100
AcDbCircle
 10
84.828457
 20
40.774161
 30
0.0
 40
0.9703933731
100
AcDbArc
 50
271.460007
 51
277.051089
  0
ARC
  5
360
330
237
100
AcDbEntity
 67
     1
  8
7_ALL_FEATURES
  6
Continuous
 62
     9
100
AcDbCircle
 10
97.999247
 20
40.772974
 30
0.0
 40
0.9692064754
100
AcDbArc
 50
268.540245
 51
270.220012
  0
ARC
  5
361
330
237
100
AcDbEntity
 67
     1
  8
7_ALL_FEATURES
  6
Continuous
 62
     9
100
AcDbCircle
 10
97.999282
 20
40.774161
 30
0.0
 40
0.9703933731
100
AcDbArc
 50
262.948911
 51
268.539993
  0
ARC
  5
362
330
237
100
AcDbEntity
 67
     1
  8
7_ALL_FEATURES
  6
Continuous
 62
     9
100
AcDbCircle
 10
96.970545
 20
40.901713
 30
0.0
 40
0.9706401294
100
AcDbArc
 50
262.9499
 51
270.217074
  0
SPLINE
  5
363
330
237
100
AcDbEntity
 67
     1
  8
7_ALL_FEATURES
  6
Continuous
 62
     9
100
AcDbSpline
 70
     0
 71
     3
 72
    17
 73
    13
 74
     0
 42
0.000000001
 43
0.0000001
 40
0.0
 40
0.0
 40
0.0
 40
0.0
 40
0.0114024259
 40
0.0290340727
 40
0.0533051373
 40
0.0843814391
 40
0.1672779687
 40
0.2781919448
 40
0.4173099891
 40
0.5843000237
 40
0.7786906969
 40
1.0
 40
1.0
 40
1.0
 40
1.0
 10
56.5586488599
 20
40.012063523
 30
0.0
 10
56.5596143739
 20
40.0130345204
 30
0.0
 10
56.562759318
 20
40.0147336076
 30
0.0
 10
56.5687818118
 20
40.0168321491
 30
0.0
 10
56.5773054832
 20
40.0189651723
 30
0.0
 10
56.5935974665
 20
40.0221381105
 30
0.0
 10
56.6203673127
 20
40.0258570263
 30
0.0
 10
56.6601267885
 20
40.0300532889
 30
0.0
 10
56.7100383396
 20
40.0342205665
 30
0.0
 10
56.7700010495
 20
40.0383664037
 30
0.0
 10
56.8398576429
 20
40.0424673666
 30
0.0
 10
56.8897152532
 20
40.0450039831
 30
0.0
 10
56.9162619058
 20
40.0462778559
 30
0.0
  0
SPLINE
  5
364
330
237
100
AcDbEntity
 67
     1
  8
7_ALL_FEATURES
  6
Continuous
 62
     9
100
AcDbSpline
 70
     0
 71
     3
 72
    17
 73
    13
 74
     0
 42
0.000000001
 43
0.0000001
 40
0.0
 40
0.0
 40
0.0
 40
0.0
 40
0.0350573224
 40
0.0750371823
 40
0.1197412907
 40
0.1689386073
 40
0.2797970358
 40
0.4053555376
 40
0.5430543994
 40
0.6900841315
 40
0.8434432567
 40
1.0
 40
1.0
 40
1.0
 40
1.0
 10
56.9162636405
 20
40.0462778387
 30
0.0
 10
57.6575482848
 20
40.0818610779
 30
0.0
 10
59.2445694263
 20
40.150450212
 30
0.0
 10
61.7777258859
 20
40.2430637201
 30
0.0
 10
64.6105215398
 20
40.3316810102
 30
0.0
 10
68.9435742084
 20
40.4485503538
 30
0.0
 10
74.9884798357
 20
40.5780434557
 30
0.0
 10
82.9072380368
 20
40.7057025671
 30
0.0
 10
91.592140896
 20
40.8080154414
 30
0.0
 10
100.8658590929
 20
40.8827613891
 30
0.0
 10
110.5389765384
 20
40.9282670556
 30
0.0
 10
117.0996763046
 20
40.9384188088
 30
0.0
 10
120.4138694572
 20
40.9384188109
 30
0.0
  0
SPLINE
  5
365
330
237
100
AcDbEntity
 67
     1
  8
7_ALL_FEATURES
  6
Continuous
 62
     9
100
AcDbSpline
 70
     0
 71
     3
 72
    17
 73
    13
 74
     0
 42
0.000000001
 43
0.0000001
 40
0.0
 40
0.0
 40
0.0
 40
0.0
 40
0.1565572093
 40
0.3099167509
 40
0.4569468016
 40
0.59464584
 40
0.7202043376
 40
0.8310625485
 40
0.8802596697
 40
0.9249635192
 40
0.9649430547
 40
1.0
 40
1.0
 40
1.0
 40
1.0
 10
120.4138694572
 20
40.9384188109
 30
0.0
 10
123.7280833715
 20
40.9384188106
 30
0.0
 10
130.288823389
 20
40.9282669286
 30
0.0
 10
139.9619980617
 20
40.8827607054
 30
0.0
 10
149.235766044
 20
40.8080138526
 30
0.0
 10
157.9207078451
 20
40.7056997738
 30
0.0
 10
165.8394911098
 20
40.5780392134
 30
0.0
 10
171.8844077591
 20
40.4485446514
 30
0.0
 10
176.2174604193
 20
40.331673977
 30
0.0
 10
179.0502488759
 20
40.2430557807
 30
0.0
 10
181.5833932972
 20
40.1504413617
 30
0.0
 10
183.1704047715
 20
40.0818514765
 30
0.0
 10
183.9116838476
 20
40.0462678227
 30
0.0
  0
SPLINE
  5
366
330
237
100
AcDbEntity
 67
     1
  8
7_ALL_FEATURES
  6
Continuous
 62
     9
100
AcDbSpline
 70
     0
 71
     3
 72
    17
 73
    13
 74
     0
 42
0.000000001
 43
0.0000001
 40
0.0
 40
0.0
 40
0.0
 40
0.0
 40
0.2213074468
 40
0.4156962395
 40
0.5826845517
 40
0.7218012197
 40
0.8327147592
 40
0.9156122392
 40
0.9466895425
 40
0.9709619742
 40
0.9885953829
 40
1.0
 40
1.0
 40
1.0
 40
1.0
 10
183.9116856167
 20
40.0462678403
 30
0.0
 10
183.9382166338
 20
40.0449943085
 30
0.0
 10
183.988044845
 20
40.0424583806
 30
0.0
 10
184.0578602027
 20
40.0383585581
 30
0.0
 10
184.11778746
 20
40.0342139035
 30
0.0
 10
184.167669543
 20
40.0300478277
 30
0.0
 10
184.2074057359
 20
40.0258527939
 30
0.0
 10
184.2341600986
 20
40.0221349867
 30
0.0
 10
184.2504428813
 20
40.0189630285
 30
0.0
 10
184.2589619607
 20
40.0168306371
 30
0.0
 10
184.2649814563
 20
40.0147327113
 30
0.0
 10
184.268124838
 20
40.0130341439
 30
0.0
 10
184.2690899775
 20
40.012063523
 30
0.0
  0
LINE
  5
367
330
237
100
AcDbEntity
 67
     1
  8
7_ALL_FEATURES
  6
Continuous
 62
     9
100
AcDbLine
 10
184.477377
 20
39.803775
 30
0.0
 11
184.269089
 21
40.012064
 31
0.0
  0
LINE
  5
368
330
237
100
AcDbEntity
 67
     1
  8
7_ALL_FEATURES
  6
Continuous
 62
     9
100
AcDbLine
 10
184.477377
 20
39.803775
 30
0.0
 11
98.002969
 21
39.803775
 31
0.0
  0
ELLIPSE
  5
369
330
237
100
AcDbEntity
 67
     1
  8
02___PRT_ALL_AXES
  6
Continuous
 62
     7
100
AcDbEllipse
 10
172.413869
 20
39.910675
 30
0.0
 11
3.6199413925
 21
0.0
 31
0.0
210
0.0
220
0.0
230
1.0
 40
0.021825
 41
3.1197708441
 42
6.3050071167
  0
LINE
  5
36A
330
237
100
AcDbEntity
 67
     1
  8
7_ALL_FEATURES
  6
Continuous
 62
     9
100
AcDbLine
 10
56.350362
 20
131.782864
 30
0.0
 11
184.477377
 21
131.782864
 31
0.0
  0
LINE
  5
36B
330
237
100
AcDbEntity
 67
     1
  8
7_ALL_FEATURES
  6
Continuous
 62
     9
100
AcDbLine
 10
184.477377
 20
131.782864
 30
0.0
 11
184.269089
 21
131.574576
 31
0.0
  0
SPLINE
  5
36C
330
237
100
AcDbEntity
 67
     1
  8
7_ALL_FEATURES
  6
Continuous
 62
     9
100
AcDbSpline
 70
     0
 71
     3
 72
    17
 73
    13
 74
     0
 42
0.000000001
 43
0.0000001
 40
0.0
 40
0.0
 40
0.0
 40
0.0
 40
0.0114016379
 40
0.0290326511
 40
0.0533032241
 40
0.0843791658
 40
0.1672753537
 40
0.2781894871
 40
0.4173080263
 40
0.5842986804
 40
0.7786900297
 40
1.0
 40
1.0
 40
1.0
 40
1.0
 10
184.2690899775
 20
131.5745757477
 30
0.0
 10
184.2681243289
 20
131.5736046148
 30
0.0
 10
184.2649788225
 20
131.5719053406
 30
0.0
 10
184.25895525
 20
131.5698065776
 30
0.0
 10
184.2504299262
 20
131.5676733271
 30
0.0
 10
184.2341346322
 20
131.5645000363
 30
0.0
 10
184.2073592143
 20
131.5607807216
 30
0.0
 10
184.1675913605
 20
131.5565840171
 30
0.0
 10
184.1176692056
 20
131.552416307
 30
0.0
 10
184.0576937385
 20
131.5482700444
 30
0.0
 10
183.987822307
 20
131.5441686712
 30
0.0
 10
183.9379541179
 20
131.541631807
 30
0.0
 10
183.9114018391
 20
131.5403578116
 30
0.0
  0
SPLINE
  5
36D
330
237
100
AcDbEntity
 67
     1
  8
7_ALL_FEATURES
  6
Continuous
 62
     9
100
AcDbSpline
 70
     0
 71
     3
 72
    17
 73
    13
 74
     0
 42
0.000000001
 43
0.0000001
 40
0.0
 40
0.0
 40
0.0
 40
0.0
 40
0.0350574611
 40
0.0750374366
 40
0.1197416378
 40
0.1689390251
 40
0.2797975318
 40
0.405356035
 40
0.5430548329
 40
0.69008445
 40
0.8434434249
 40
1.0
 40
1.0
 40
1.0
 40
1.0
 10
183.9114001285
 20
131.5403578285
 30
0.0
 10
183.1701134181
 20
131.5047747364
 30
0.0
 10
181.583088762
 20
131.4361858698
 30
0.0
 10
179.0499279421
 20
131.3435726899
 30
0.0
 10
176.2171297244
 20
131.2549557278
 30
0.0
 10
171.8840770599
 20
131.138086863
 30
0.0
 10
165.8391754041
 20
131.0085942868
 30
0.0
 10
157.9204262459
 20
130.8809356979
 30
0.0
 10
149.2355374298
 20
130.7786232575
 30
0.0
 10
139.9618371856
 20
130.7038776353
 30
0.0
 10
130.2887403757
 20
130.6583721703
 30
0.0
 10
123.7280551231
 20
130.6482204618
 30
0.0
 10
120.4138694572
 20
130.6482204598
 30
0.0
  0
SPLINE
  5
36E
330
237
100
AcDbEntity
 67
     1
  8
7_ALL_FEATURES
  6
Continuous
 62
     9
100
AcDbSpline
 70
     0
 71
     3
 72
    17
 73
    13
 74
     0
 42
0.000000001
 43
0.0000001
 40
0.0
 40
0.0
 40
0.0
 40
0.0
 40
0.1565567417
 40
0.3099158656
 40
0.4569455966
 40
0.5946444576
 40
0.7202029591
 40
0.8310613873
 40
0.880258705
 40
0.9249628126
 40
0.9649426694
 40
1.0
 40
1.0
 40
1.0
 40
1.0
 10
120.4138694572
 20
130.6482204598
 30
0.0
 10
117.0996763376
 20
130.6482204601
 30
0.0
 10
110.5389766306
 20
130.6583722163
 30
0.0
 10
100.8658592685
 20
130.7038778797
 30
0.0
 10
91.5921411386
 20
130.7786238273
 30
0.0
 10
82.9072383258
 20
130.8809366999
 30
0.0
 10
74.9884801535
 20
131.0085958088
 30
0.0
 10
68.9435745131
 20
131.1380889092
 30
0.0
 10
64.6105218424
 20
131.2549582534
 30
0.0
 10
61.7777262453
 20
131.3435755388
 30
0.0
 10
59.2445696946
 20
131.4361890454
 30
0.0
 10
57.6575484458
 20
131.5047781872
 30
0.0
 10
56.9162636283
 20
131.5403614328
 30
0.0
  0
SPLINE
  5
36F
330
237
100
AcDbEntity
 67
     1
  8
7_ALL_FEATURES
  6
Continuous
 62
     9
100
AcDbSpline
 70
     0
 71
     3
 72
    17
 73
    13
 74
     0
 42
0.000000001
 43
0.0000001
 40
0.0
 40
0.0
 40
0.0
 40
0.0
 40
0.2213093029
 40
0.415699976
 40
0.5826900105
 40
0.7218080547
 40
0.8327220308
 40
0.9156185604
 40
0.9466948623
 40
0.970965927
 40
0.9885975739
 40
1.0
 40
1.0
 40
1.0
 40
1.0
 10
56.9162618898
 20
131.5403614156
 30
0.0
 10
56.8897152385
 20
131.5416352883
 30
0.0
 10
56.8398576304
 20
131.5441719047
 30
0.0
 10
56.7700010402
 20
131.5482728676
 30
0.0
 10
56.7100383329
 20
131.5524187046
 30
0.0
 10
56.6601267841
 20
131.5565859822
 30
0.0
 10
56.6203673101
 20
131.5607822447
 30
0.0
 10
56.593597465
 20
131.5645011604
 30
0.0
 10
56.5773054824
 20
131.5676740986
 30
0.0
 10
56.5687818114
 20
131.5698071217
 30
0.0
 10
56.5627593179
 20
131.5719056631
 30
0.0
 10
56.5596143738
 20
131.5736047503
 30
0.0
 10
56.5586488599
 20
131.5745757477
 30
0.0
  0
LINE
  5
370
330
237
100
AcDbEntity
 67
     1
  8
7_ALL_FEATURES
  6
Continuous
 62
     9
100
AcDbLine
 10
56.350362
 20
131.782864
 30
0.0
 11
56.55865
 21
131.574576
 31
0.0
  0
ELLIPSE
  5
371
330
237
100
AcDbEntity
 67
     1
  8
02___PRT_ALL_AXES
  6
Continuous
 62
     7
100
AcDbEllipse
 10
120.413869
 20
131.675964
 30
0.0
 11
3.6199413925
 21
0.0
 31
0.0
210
0.0
220
0.0
230
1.0
 40
0.021825
 41
-0.0218218095
 42
3.1634144631
  0
SPLINE
  5
372
330
237
100
AcDbEntity
 67
     1
  8
7_ALL_FEATURES
  6
Continuous
 62
     9
100
AcDbSpline
 70
     0
 71
     3
 72
    13
 73
     9
 74
     0
 42
0.000000001
 43
0.0000001
 40
0.0
 40
0.0
 40
0.0
 40
0.0
 40
0.3086808202
 40
0.5734013736
 40
0.6905919041
 40
0.7992195021
 40
0.9014195255
 40
1.0
 40
1.0
 40
1.0
 40
1.0
 10
61.8846827244
 20
126.5446885044
 30
0.0
 10
61.9250724661
 20
126.6282053176
 30
0.0
 10
62.010564275
 20
126.7786973453
 30
0.0
 10
62.1464632688
 20
126.9382494414
 30
0.0
 10
62.2634097151
 20
127.0288428417
 30
0.0
 10
62.3502999653
 20
127.0764271695
 30
0.0
 10
62.4391209284
 20
127.1057564112
 30
0.0
 10
62.4995680542
 20
127.1127971526
 30
0.0
 10
62.5291938408
 20
127.1130944275
 30
0.0
  0
SPLINE
  5
373
330
237
100
AcDbEntity
 67
     1
  8
7_ALL_FEATURES
  6
Continuous
 62
     9
100
AcDbSpline
 70
     0
 71
     3
 72
    17
 73
    13
 74
     0
 42
0.000000001
 43
0.0000001
 40
0.0
 40
0.0
 40
0.0
 40
0.0
 40
0.1662187049
 40
0.3267510125
 40
0.4767325929
 40
0.6123946746
 40
0.7311589567
 40
0.7841214384
 40
0.8329784635
 40
0.9201188455
 40
0.9604395627
 40
1.0
 40
1.0
 40
1.0
 40
1.0
 10
57.7801142593
 20
125.2923714727
 30
0.0
 10
57.778092535
 20
125.4234973525
 30
0.0
 10
57.7850579103
 20
125.6815696749
 30
0.0
 10
57.8278089703
 20
126.0557624535
 30
0.0
 10
57.9021345251
 20
126.4005446989
 30
0.0
 10
58.0052628613
 20
126.7033464883
 30
0.0
 10
58.1177067618
 20
126.9198414745
 30
0.0
 10
58.2215818966
 20
127.0600042454
 30
0.0
 10
58.3243110682
 20
127.168273854
 30
0.0
 10
58.4418561868
 20
127.2484488995
 30
0.0
 10
58.5682166375
 20
127.2884623015
 30
0.0
 10
58.6314437579
 20
127.2949659707
 30
0.0
 10
58.66265571
 20
127.2949300376
 30
0.0
  0
SPLINE
  5
374
330
237
100
AcDbEntity
 67
     1
  8
7_ALL_FEATURES
  6
Continuous
 62
     9
100
AcDbSpline
 70
     0
 71
     3
 72
    13
 73
     9
 74
     0
 42
0.000000001
 43
0.0000001
 40
0.0
 40
0.0
 40
0.0
 40
0.0
 40
0.0985804203
 40
0.2007804505
 40
0.3094080533
 40
0.4265985911
 40
0.6913191612
 40
1.0
 40
1.0
 40
1.0
 40
1.0
 10
62.5291939414
 20
44.4735447947
 30
0.0
 10
62.4995681701
 20
44.4738420695
 30
0.0
 10
62.4391210583
 20
44.4808828233
 30
0.0
 10
62.3503001037
 20
44.5102120567
 30
0.0
 10
62.2634098464
 20
44.5577963914
 30
0.0
 10
62.146463388
 20
44.6483897977
 30
0.0
 10
62.0105643787
 20
44.8079419071
 30
0.0
 10
61.9250725568
 20
44.9584339459
 30
0.0
 10
61.8846828084
 20
45.0419507656
 30
0.0
  0
SPLINE
  5
375
330
237
100
AcDbEntity
 67
     1
  8
7_ALL_FEATURES
  6
Continuous
 62
     9
100
AcDbSpline
 70
     0
 71
     3
 72
    17
 73
    13
 74
     0
 42
0.000000001
 43
0.0000001
 40
0.0
 40
0.0
 40
0.0
 40
0.0
 40
0.0395604341
 40
0.07988115
 40
0.1670215339
 40
0.2158785612
 40
0.2688410453
 40
0.3876053315
 40
0.523267415
 40
0.6732489946
 40
0.8337812992
 40
1.0
 40
1.0
 40
1.0
 40
1.0
 10
58.6626558465
 20
44.2917091804
 30
0.0
 10
58.6314438967
 20
44.2916732478
 30
0.0
 10
58.5682167794
 20
44.2981769183
 30
0.0
 10
58.4418563303
 20
44.3381903227
 30
0.0
 10
58.3243112083
 20
44.4183653678
 30
0.0
 10
58.2215820248
 20
44.5266349742
 30
0.0
 10
58.1177068724
 20
44.6667977425
 30
0.0
 10
58.0052629443
 20
44.8832927244
 30
0.0
 10
57.9021345754
 20
45.1860945106
 30
0.0
 10
57.827808993
 20
45.5308767525
 30
0.0
 10
57.7850579159
 20
45.905069527
 30
0.0
 10
57.7780925358
 20
46.1631418464
 30
0.0
 10
57.7801142591
 20
46.2942677242
 30
0.0
  0
SPLINE
  5
376
330
237
100
AcDbEntity
 67
     1
  8
7_ALL_FEATURES
  6
Continuous
 62
     9
100
AcDbSpline
 70
     0
 71
     3
 72
    13
 73
     9
 74
     0
 42
0.000000001
 43
0.0000001
 40
0.0
 40
0.0
 40
0.0
 40
0.0
 40
0.3086808153
 40
0.5734013637
 40
0.6905918917
 40
0.799219488
 40
0.9014195089
 40
1.0
 40
1.0
 40
1.0
 40
1.0
 10
178.9430561545
 20
45.041950766
 30
0.0
 10
178.9026664148
 20
44.9584339503
 30
0.0
 10
178.8171746092
 20
44.8079419179
 30
0.0
 10
178.6812756173
 20
44.6483898164
 30
0.0
 10
178.5643291712
 20
44.5577964126
 30
0.0
 10
178.4774389204
 20
44.510212084
 30
0.0
 10
178.3886179514
 20
44.480882838
 30
0.0
 10
178.3281708188
 20
44.4738421001
 30
0.0
 10
178.2985450263
 20
44.4735448251
 30
0.0
  0
SPLINE
  5
377
330
237
100
AcDbEntity
 67
     1
  8
7_ALL_FEATURES
  6
Continuous
 62
     9
100
AcDbSpline
 70
     0
 71
     3
 72
    17
 73
    13
 74
     0
 42
0.000000001
 43
0.0000001
 40
0.0
 40
0.0
 40
0.0
 40
0.0
 40
0.1662187025
 40
0.3267510091
 40
0.4767325889
 40
0.6123946698
 40
0.7311589506
 40
0.7841214317
 40
0.8329784566
 40
0.9201188403
 40
0.9604395596
 40
1.0
 40
1.0
 40
1.0
 40
1.0
 10
183.0476245893
 20
46.2942678444
 30
0.0
 10
183.0496463018
 20
46.163141966
 30
0.0
 10
183.0426809046
 20
45.9050696463
 30
0.0
 10
182.9999298187
 20
45.5308768731
 30
0.0
 10
182.9256042484
 20
45.1860946322
 30
0.0
 10
182.8224759054
 20
44.8832928469
 30
0.0
 10
182.7100320042
 20
44.6667978628
 30
0.0
 10
182.6061568691
 20
44.5266350937
 30
0.0
 10
182.5034276954
 20
44.4183654855
 30
0.0
 10
182.3858825714
 20
44.3381904417
 30
0.0
 10
182.2595221141
 20
44.2981770411
 30
0.0
 10
182.1962949894
 20
44.2916733721
 30
0.0
 10
182.1650830349
 20
44.2917093051
 30
0.0
  0
SPLINE
  5
378
330
237
100
AcDbEntity
 67
     1
  8
7_ALL_FEATURES
  6
Continuous
 62
     9
100
AcDbSpline
 70
     0
 71
     3
 72
    13
 73
     9
 74
     0
 42
0.000000001
 43
0.0000001
 40
0.0
 40
0.0
 40
0.0
 40
0.0
 40
0.0985805254
 40
0.2007805424
 40
0.3094081356
 40
0.4265986588
 40
0.6913191963
 40
1.0
 40
1.0
 40
1.0
 40
1.0
 10
178.2985450857
 20
127.1130944746
 30
0.0
 10
178.3281708902
 20
127.1127971994
 30
0.0
 10
178.3886180364
 20
127.1057564687
 30
0.0
 10
178.4774390176
 20
127.0764272145
 30
0.0
 10
178.56432927
 20
127.0288428851
 30
0.0
 10
178.6812757154
 20
126.9382494754
 30
0.0
 10
178.8171747028
 20
126.7786973652
 30
0.0
 10
178.9026665009
 20
126.6282053249
 30
0.0
 10
178.9430562362
 20
126.544688505
 30
0.0
  0
SPLINE
  5
379
330
237
100
AcDbEntity
 67
     1
  8
7_ALL_FEATURES
  6
Continuous
 62
     9
100
AcDbSpline
 70
     0
 71
     3
 72
    17
 73
    13
 74
     0
 42
0.000000001
 43
0.0000001
 40
0.0
 40
0.0
 40
0.0
 40
0.0
 40
0.03956043
 40
0.0798811437
 40
0.1670215281
 40
0.2158785573
 40
0.2688410437
 40
0.3876053337
 40
0.5232674189
 40
0.6732489982
 40
0.8337813011
 40
1.0
 40
1.0
 40
1.0
 40
1.0
 10
182.1650829337
 20
127.2949300953
 30
0.0
 10
182.1962948805
 20
127.2949660276
 30
0.0
 10
182.2595219933
 20
127.2884623559
 30
0.0
 10
182.3858824378
 20
127.2484489491
 30
0.0
 10
182.5034275598
 20
127.1682739032
 30
0.0
 10
182.6061567516
 20
127.0600042984
 30
0.0
 10
182.7100319178
 20
126.919841531
 30
0.0
 10
182.8224758674
 20
126.7033465512
 30
0.0
 10
182.925604258
 20
126.400544765
 30
0.0
 10
182.9999298535
 20
126.055762523
 30
0.0
 10
183.0426809302
 20
125.6815697483
 30
0.0
 10
183.049646303
 20
125.4234974294
 30
0.0
 10
183.0476245746
 20
125.2923715521
 30
0.0
  0
SPLINE
  5
37A
330
237
100
AcDbEntity
 67
     1
  8
7_ALL_FEATURES
  6
Continuous
 62
     9
100
AcDbSpline
 70
     0
 71
     3
 72
     9
 73
     5
 74
     0
 42
0.000000001
 43
0.0000001
 40
0.0
 40
0.0
 40
0.0
 40
0.0
 40
0.2563078441
 40
1.0
 40
1.0
 40
1.0
 40
1.0
 10
185.4771393558
 20
130.7831024596
 30
0.0
 10
185.4771340976
 20
130.7941515696
 30
0.0
 10
185.476756008
 20
130.8372588711
 30
0.0
 10
185.4749133226
 20
130.8803574863
 30
0.0
 10
185.4726056366
 20
130.9123339642
 30
0.0
  0
SPLINE
  5
37B
330
237
100
AcDbEntity
 67
     1
  8
7_ALL_FEATURES
  6
Continuous
 62
     9
100
AcDbSpline
 70
     0
 71
     3
 72
    15
 73
    11
 74
     0
 42
0.000000001
 43
0.0000001
 40
0.0
 40
0.0
 40
0.0
 40
0.0
 40
0.1410044869
 40
0.2688124296
 40
0.387003514
 40
0.5000745182
 40
0.613134807
 40
0.7312951351
 40
0.8590556718
 40
1.0
 40
1.0
 40
1.0
 40
1.0
 10
185.4726056366
 20
130.9123339642
 30
0.0
 10
185.4680005118
 20
130.9761449296
 30
0.0
 10
185.4521278829
 20
131.0975150509
 30
0.0
 10
185.4030838939
 20
131.2669436447
 30
0.0
 10
185.3295666042
 20
131.4135213036
 30
0.0
 10
185.2312120075
 20
131.5364827997
 30
0.0
 10
185.108349337
 20
131.6349391511
 30
0.0
 10
184.9618666723
 20
131.7085578865
 30
0.0
 10
184.7925311626
 20
131.7577010398
 30
0.0
 10
184.6712177472
 20
131.7736353194
 30
0.0
 10
184.6074363497
 20
131.7782708362
 30
0.0
  0
SPLINE
  5
37C
330
237
100
AcDbEntity
 67
     1
  8
7_ALL_FEATURES
  6
Continuous
 62
     9
100
AcDbSpline
 70
     0
 71
     3
 72
     9
 73
     5
 74
     0
 42
0.000000001
 43
0.0000001
 40
0.0
 40
0.0
 40
0.0
 40
0.0
 40
0.2437717544
 40
1.0
 40
1.0
 40
1.0
 40
1.0
 10
184.6074363497
 20
131.7782708362
 30
0.0
 10
184.5968880356
 20
131.7790374686
 30
0.0
 10
184.5535867369
 20
131.7817621902
 30
0.0
 10
184.5101865932
 20
131.7828488731
 30
0.0
 10
184.4773773287
 20
131.7828644867
 30
0.0
  0
SPLINE
  5
37D
330
237
100
AcDbEntity
 67
     1
  8
7_ALL_FEATURES
  6
Continuous
 62
     9
100
AcDbSpline
 70
     0
 71
     3
 72
    15
 73
    11
 74
     0
 42
0.000000001
 43
0.0000001
 40
0.0
 40
0.0
 40
0.0
 40
0.0
 40
0.1376747574
 40
0.2608028047
 40
0.3740059459
 40
0.4831739097
 40
0.5948367746
 40
0.7151189615
 40
0.848966903
 40
1.0
 40
1.0
 40
1.0
 40
1.0
 10
56.9162588017
 20
40.0462776064
 30
0.0
 10
56.8454913136
 20
40.0469791888
 30
0.0
 10
56.7111850537
 20
40.0568739716
 30
0.0
 10
56.5236302237
 20
40.1041514323
 30
0.0
 10
56.363175216
 20
40.1839692291
 30
0.0
 10
56.2313735303
 20
40.2968460846
 30
0.0
 10
56.1296663844
 20
40.4417425701
 30
0.0
 10
56.0580233545
 20
40.6169993143
 30
0.0
 10
56.0154648035
 20
40.8217810068
 30
0.0
 10
56.0065369626
 20
40.9684045073
 30
0.0
 10
56.0058987928
 20
41.0460396325
 30
0.0
  0
SPLINE
  5
37E
330
237
100
AcDbEntity
 67
     1
  8
7_ALL_FEATURES
  6
Continuous
 62
     9
100
AcDbSpline
 70
     0
 71
     3
 72
    15
 73
    11
 74
     0
 42
0.000000001
 43
0.0000001
 40
0.0
 40
0.0
 40
0.0
 40
0.0
 40
0.1449137545
 40
0.2735396774
 40
0.3900488297
 40
0.5
 40
0.6099511703
 40
0.7264603226
 40
0.8550862455
 40
1.0
 40
1.0
 40
1.0
 40
1.0
 10
184.2690885966
 20
40.012063516
 30
0.0
 10
184.3473360901
 20
40.0121007531
 30
0.0
 10
184.4953393613
 20
40.0207264249
 30
0.0
 10
184.702071587
 20
40.0662981957
 30
0.0
 10
184.8787641597
 20
40.1446821962
 30
0.0
 10
185.0240976913
 20
40.2568164485
 30
0.0
 10
185.1362319435
 20
40.40214998
 30
0.0
 10
185.2146159441
 20
40.5788425527
 30
0.0
 10
185.2601877148
 20
40.7855747785
 30
0.0
 10
185.2688133866
 20
40.9335780496
 30
0.0
 10
185.2688506237
 20
41.0118255431
 30
0.0
  0
SPLINE
  5
37F
330
237
100
AcDbEntity
 67
     1
  8
7_ALL_FEATURES
  6
Continuous
 62
     9
100
AcDbSpline
 70
     0
 71
     3
 72
     9
 73
     5
 74
     0
 42
0.000000001
 43
0.0000001
 40
0.0
 40
0.0
 40
0.0
 40
0.0
 40
0.2563078441
 40
1.0
 40
1.0
 40
1.0
 40
1.0
 10
184.4773773287
 20
39.803774784
 30
0.0
 10
184.4884264386
 20
39.8037800421
 30
0.0
 10
184.5315337402
 20
39.8041581317
 30
0.0
 10
184.5746323554
 20
39.8060008171
 30
0.0
 10
184.6066088332
 20
39.8083085031
 30
0.0
  0
SPLINE
  5
380
330
237
100
AcDbEntity
 67
     1
  8
7_ALL_FEATURES
  6
Continuous
 62
     9
100
AcDbSpline
 70
     0
 71
     3
 72
    15
 73
    11
 74
     0
 42
0.000000001
 43
0.0000001
 40
0.0
 40
0.0
 40
0.0
 40
0.0
 40
0.1410044869
 40
0.2688124296
 40
0.387003514
 40
0.5000745182
 40
0.613134807
 40
0.7312951351
 40
0.8590556718
 40
1.0
 40
1.0
 40
1.0
 40
1.0
 10
184.6066088332
 20
39.8083085031
 30
0.0
 10
184.6704197987
 20
39.8129136279
 30
0.0
 10
184.79178992
 20
39.8287862569
 30
0.0
 10
184.9612185137
 20
39.8778302458
 30
0.0
 10
185.1077961727
 20
39.9513475355
 30
0.0
 10
185.2307576688
 20
40.0497021323
 30
0.0
 10
185.3292140201
 20
40.1725648027
 30
0.0
 10
185.4028327556
 20
40.3190474674
 30
0.0
 10
185.4519759089
 20
40.4883829771
 30
0.0
 10
185.4679101884
 20
40.6096963926
 30
0.0
 10
185.4725457053
 20
40.67347779
 30
0.0
  0
SPLINE
  5
381
330
237
100
AcDbEntity
 67
     1
  8
7_ALL_FEATURES
  6
Continuous
 62
     9
100
AcDbSpline
 70
     0
 71
     3
 72
     9
 73
     5
 74
     0
 42
0.000000001
 43
0.0000001
 40
0.0
 40
0.0
 40
0.0
 40
0.0
 40
0.2437717544
 40
1.0
 40
1.0
 40
1.0
 40
1.0
 10
185.4725457053
 20
40.67347779
 30
0.0
 10
185.4733123377
 20
40.6840261041
 30
0.0
 10
185.4760370593
 20
40.7273274028
 30
0.0
 10
185.4771237422
 20
40.7707275466
 30
0.0
 10
185.4771393558
 20
40.8035368111
 30
0.0
  0
SPLINE
  5
382
330
237
100
AcDbEntity
 67
     1
  8
7_ALL_FEATURES
  6
Continuous
 62
     9
100
AcDbSpline
 70
     0
 71
     3
 72
    15
 73
    11
 74
     0
 42
0.000000001
 43
0.0000001
 40
0.0
 40
0.0
 40
0.0
 40
0.0
 40
0.1190432142
 40
0.2386356336
 40
0.3596195395
 40
0.4831710932
 40
0.6099075369
 40
0.739064551
 40
0.86937168
 40
1.0
 40
1.0
 40
1.0
 40
1.0
 10
183.9114819273
 20
131.5403616545
 30
0.0
 10
183.9726637231
 20
131.5397550374
 30
0.0
 10
184.0954365194
 20
131.5317435824
 30
0.0
 10
184.2768674701
 20
131.4918795015
 30
0.0
 10
184.4491177251
 20
131.414220809
 30
0.0
 10
184.5981773074
 20
131.2909271533
 30
0.0
 10
184.7087082963
 20
131.1273626602
 30
0.0
 10
184.7781366151
 20
130.9399049732
 30
0.0
 10
184.8140436392
 20
130.7419411827
 30
0.0
 10
184.8212883026
 20
130.6077365929
 30
0.0
 10
184.8218402025
 20
130.5405996457
 30
0.0
  0
SPLINE
  5
383
330
237
100
AcDbEntity
 67
     1
  8
7_ALL_FEATURES
  6
Continuous
 62
     9
100
AcDbSpline
 70
     0
 71
     3
 72
    15
 73
    11
 74
     0
 42
0.000000001
 43
0.0000001
 40
0.0
 40
0.0
 40
0.0
 40
0.0
 40
0.1449137545
 40
0.2735396774
 40
0.3900488297
 40
0.5
 40
0.6099511703
 40
0.7264603226
 40
0.8550862455
 40
1.0
 40
1.0
 40
1.0
 40
1.0
 10
56.5586502408
 20
131.5745757547
 30
0.0
 10
56.4804027474
 20
131.5745385175
 30
0.0
 10
56.3323994762
 20
131.5659128457
 30
0.0
 10
56.1256672504
 20
131.520341075
 30
0.0
 10
55.9489746777
 20
131.4419570744
 30
0.0
 10
55.8036411462
 20
131.3298228222
 30
0.0
 10
55.691506894
 20
131.1844892907
 30
0.0
 10
55.6131228934
 20
131.007796718
 30
0.0
 10
55.5675511227
 20
130.8010644922
 30
0.0
 10
55.5589254509
 20
130.653061221
 30
0.0
 10
55.5588882137
 20
130.5748137276
 30
0.0
  0
SPLINE
  5
384
330
237
100
AcDbEntity
 67
     1
  8
7_ALL_FEATURES
  6
Continuous
 62
     9
100
AcDbSpline
 70
     0
 71
     3
 72
     9
 73
     5
 74
     0
 42
0.000000001
 43
0.0000001
 40
0.0
 40
0.0
 40
0.0
 40
0.0
 40
0.2563078441
 40
1.0
 40
1.0
 40
1.0
 40
1.0
 10
56.3503615088
 20
131.7828644867
 30
0.0
 10
56.3393123988
 20
131.7828592285
 30
0.0
 10
56.2962050973
 20
131.782481139
 30
0.0
 10
56.2531064821
 20
131.7806384536
 30
0.0
 10
56.2211300042
 20
131.7783307676
 30
0.0
  0
SPLINE
  5
385
330
237
100
AcDbEntity
 67
     1
  8
7_ALL_FEATURES
  6
Continuous
 62
     9
100
AcDbSpline
 70
     0
 71
     3
 72
    15
 73
    11
 74
     0
 42
0.000000001
 43
0.0000001
 40
0.0
 40
0.0
 40
0.0
 40
0.0
 40
0.1410044869
 40
0.2688124296
 40
0.387003514
 40
0.5000745182
 40
0.613134807
 40
0.7312951351
 40
0.8590556718
 40
1.0
 40
1.0
 40
1.0
 40
1.0
 10
56.2211300042
 20
131.7783307676
 30
0.0
 10
56.1573190388
 20
131.7737256427
 30
0.0
 10
56.0359489175
 20
131.7578530138
 30
0.0
 10
55.8665203237
 20
131.7088090248
 30
0.0
 10
55.7199426648
 20
131.6352917351
 30
0.0
 10
55.5969811687
 20
131.5369371384
 30
0.0
 10
55.4985248173
 20
131.4140744679
 30
0.0
 10
55.4249060819
 20
131.2675918032
 30
0.0
 10
55.3757629286
 20
131.0982562935
 30
0.0
 10
55.359828649
 20
130.9769428781
 30
0.0
 10
55.3551931322
 20
130.9131614806
 30
0.0
  0
SPLINE
  5
386
330
237
100
AcDbEntity
 67
     1
  8
7_ALL_FEATURES
  6
Continuous
 62
     9
100
AcDbSpline
 70
     0
 71
     3
 72
     9
 73
     5
 74
     0
 42
0.000000001
 43
0.0000001
 40
0.0
 40
0.0
 40
0.0
 40
0.0
 40
0.2437717544
 40
1.0
 40
1.0
 40
1.0
 40
1.0
 10
55.3551931322
 20
130.9131614806
 30
0.0
 10
55.3544264998
 20
130.9026131665
 30
0.0
 10
55.3517017782
 20
130.8593118678
 30
0.0
 10
55.3506150953
 20
130.8159117241
 30
0.0
 10
55.3505994817
 20
130.7831024596
 30
0.0
  0
SPLINE
  5
387
330
237
100
AcDbEntity
 67
     1
  8
7_ALL_FEATURES
  6
Continuous
 62
     9
100
AcDbSpline
 70
     0
 71
     3
 72
     9
 73
     5
 74
     0
 42
0.000000001
 43
0.0000001
 40
0.0
 40
0.0
 40
0.0
 40
0.0
 40
0.2563078441
 40
1.0
 40
1.0
 40
1.0
 40
1.0
 10
55.3505994817
 20
40.8035368111
 30
0.0
 10
55.3506047399
 20
40.7924877011
 30
0.0
 10
55.3509828294
 20
40.7493803995
 30
0.0
 10
55.3528255148
 20
40.7062817844
 30
0.0
 10
55.3551332008
 20
40.6743053065
 30
0.0
  0
SPLINE
  5
388
330
237
100
AcDbEntity
 67
     1
  8
7_ALL_FEATURES
  6
Continuous
 62
     9
100
AcDbSpline
 70
     0
 71
     3
 72
    15
 73
    11
 74
     0
 42
0.000000001
 43
0.0000001
 40
0.0
 40
0.0
 40
0.0
 40
0.0
 40
0.1410044869
 40
0.2688124296
 40
0.387003514
 40
0.5000745182
 40
0.613134807
 40
0.7312951351
 40
0.8590556718
 40
1.0
 40
1.0
 40
1.0
 40
1.0
 10
55.3551332008
 20
40.6743053065
 30
0.0
 10
55.3597383257
 20
40.6104943411
 30
0.0
 10
55.3756109546
 20
40.4891242197
 30
0.0
 10
55.4246549436
 20
40.319695626
 30
0.0
 10
55.4981722333
 20
40.1731179671
 30
0.0
 10
55.59652683
 20
40.050156471
 30
0.0
 10
55.7193895005
 20
39.9517001196
 30
0.0
 10
55.8658721652
 20
39.8780813842
 30
0.0
 10
56.0352076749
 20
39.8289382308
 30
0.0
 10
56.1565210903
 20
39.8130039513
 30
0.0
 10
56.2203024878
 20
39.8083684344
 30
0.0
  0
SPLINE
  5
389
330
237
100
AcDbEntity
 67
     1
  8
7_ALL_FEATURES
  6
Continuous
 62
     9
100
AcDbSpline
 70
     0
 71
     3
 72
     9
 73
     5
 74
     0
 42
0.000000001
 43
0.0000001
 40
0.0
 40
0.0
 40
0.0
 40
0.0
 40
0.2437717544
 40
1.0
 40
1.0
 40
1.0
 40
1.0
 10
56.2203024878
 20
39.8083684344
 30
0.0
 10
56.2308508019
 20
39.807601802
 30
0.0
 10
56.2741521006
 20
39.8048770804
 30
0.0
 10
56.3175522443
 20
39.8037903975
 30
0.0
 10
56.3503615088
 20
39.803774784
 30
0.0
  0
SPLINE
  5
38A
330
237
100
AcDbEntity
 67
     1
  8
7_ALL_FEATURES
  6
Continuous
 62
     9
100
AcDbSpline
 70
     0
 71
     3
 72
    15
 73
    11
 74
     0
 42
0.000000001
 43
0.0000001
 40
0.0
 40
0.0
 40
0.0
 40
0.0
 40
0.1449137545
 40
0.2735396774
 40
0.3900488297
 40
0.5
 40
0.6099511703
 40
0.7264603226
 40
0.8550862455
 40
1.0
 40
1.0
 40
1.0
 40
1.0
 10
55.5588882137
 20
41.0118255431
 30
0.0
 10
55.5589254509
 20
40.9335780496
 30
0.0
 10
55.5675511227
 20
40.7855747785
 30
0.0
 10
55.6131228934
 20
40.5788425527
 30
0.0
 10
55.691506894
 20
40.40214998
 30
0.0
 10
55.8036411462
 20
40.2568164485
 30
0.0
 10
55.9489746777
 20
40.1446821962
 30
0.0
 10
56.1256672504
 20
40.0662981957
 30
0.0
 10
56.3323994762
 20
40.0207264249
 30
0.0
 10
56.4804027474
 20
40.0121007531
 30
0.0
 10
56.5586502408
 20
40.012063516
 30
0.0
  0
LINE
  5
38B
330
237
100
AcDbEntity
 67
     1
  8
3_ALL_AXES
  6
Continuous
 62
     7
100
AcDbLine
 10
130.863842
 20
209.88916
 30
0.0
 11
124.863896
 21
209.88916
 31
0.0
  0
LINE
  5
38C
330
237
100
AcDbEntity
 67
     1
  8
3_ALL_AXES
  6
Continuous
 62
     7
100
AcDbLine
 10
130.863842
 20
210.68916
 30
0.0
 11
124.863896
 21
210.68916
 31
0.0
  0
LINE
  5
38D
330
237
100
AcDbEntity
 67
     1
  8
7_ALL_FEATURES
  6
Continuous
 62
     7
100
AcDbLine
 10
69.135557
 20
205.53916
 30
0.0
 11
68.413869
 21
205.53916
 31
0.0
  0
LINE
  5
38E
330
237
100
AcDbEntity
 67
     1
  8
7_ALL_FEATURES
  6
Continuous
 62
     7
100
AcDbLine
 10
68.413869
 20
205.53916
 30
0.0
 11
67.692182
 21
205.53916
 31
0.0
  0
LINE
  5
38F
330
237
100
AcDbEntity
 67
     1
  8
7_ALL_FEATURES
  6
Continuous
 62
     7
100
AcDbLine
 10
66.970494
 20
204.28916
 30
0.0
 11
67.692182
 21
205.53916
 31
0.0
  0
LINE
  5
390
330
237
100
AcDbEntity
 67
     1
  8
7_ALL_FEATURES
  6
Continuous
 62
     7
100
AcDbLine
 10
67.692182
 20
203.03916
 30
0.0
 11
66.970494
 21
204.28916
 31
0.0
  0
LINE
  5
391
330
237
100
AcDbEntity
 67
     1
  8
7_ALL_FEATURES
  6
Continuous
 62
     7
100
AcDbLine
 10
68.413869
 20
203.03916
 30
0.0
 11
69.135557
 21
203.03916
 31
0.0
  0
LINE
  5
392
330
237
100
AcDbEntity
 67
     1
  8
7_ALL_FEATURES
  6
Continuous
 62
     7
100
AcDbLine
 10
67.692182
 20
203.03916
 30
0.0
 11
68.413869
 21
203.03916
 31
0.0
  0
LINE
  5
393
330
237
100
AcDbEntity
 67
     1
  8
7_ALL_FEATURES
  6
Continuous
 62
     7
100
AcDbLine
 10
69.857245
 20
204.28916
 30
0.0
 11
69.135557
 21
203.03916
 31
0.0
  0
LINE
  5
394
330
237
100
AcDbEntity
 67
     1
  8
7_ALL_FEATURES
  6
Continuous
 62
     7
100
AcDbLine
 10
69.135557
 20
205.53916
 30
0.0
 11
69.857245
 21
204.28916
 31
0.0
  0
ARC
  5
395
330
237
100
AcDbEntity
 67
     1
  8
7_ALL_FEATURES
  6
Continuous
 62
     7
100
AcDbCircle
 10
68.413869
 20
204.28916
 30
0.0
 40
1.55
100
AcDbArc
 50
90.0
 51
270.0
  0
ARC
  5
396
330
237
100
AcDbEntity
 67
     1
  8
7_ALL_FEATURES
  6
Continuous
 62
     7
100
AcDbCircle
 10
68.413869
 20
204.28916
 30
0.0
 40
2.1999999424
100
AcDbArc
 50
180.0
 51
360.0
  0
ARC
  5
397
330
237
100
AcDbEntity
 67
     1
  8
7_ALL_FEATURES
  6
Continuous
 62
     7
100
AcDbCircle
 10
68.413869
 20
204.28916
 30
0.0
 40
2.1999999424
100
AcDbArc
 50
0.0
 51
180.0
  0
ARC
  5
398
330
237
100
AcDbEntity
 67
     1
  8
7_ALL_FEATURES
  6
Continuous
 62
     7
100
AcDbCircle
 10
68.413869
 20
204.28916
 30
0.0
 40
1.55
100
AcDbArc
 50
270.0
 51
90.0
  0
LINE
  5
399
330
237
100
AcDbEntity
 67
     1
  8
7_ALL_FEATURES
  6
Continuous
 62
     7
100
AcDbLine
 10
173.135557
 20
205.53916
 30
0.0
 11
172.413869
 21
205.53916
 31
0.0
  0
LINE
  5
39A
330
237
100
AcDbEntity
 67
     1
  8
7_ALL_FEATURES
  6
Continuous
 62
     7
100
AcDbLine
 10
172.413869
 20
205.53916
 30
0.0
 11
171.692182
 21
205.53916
 31
0.0
  0
LINE
  5
39B
330
237
100
AcDbEntity
 67
     1
  8
7_ALL_FEATURES
  6
Continuous
 62
     7
100
AcDbLine
 10
170.970494
 20
204.28916
 30
0.0
 11
171.692182
 21
205.53916
 31
0.0
  0
LINE
  5
39C
330
237
100
AcDbEntity
 67
     1
  8
7_ALL_FEATURES
  6
Continuous
 62
     7
100
AcDbLine
 10
171.692182
 20
203.03916
 30
0.0
 11
170.970494
 21
204.28916
 31
0.0
  0
LINE
  5
39D
330
237
100
AcDbEntity
 67
     1
  8
7_ALL_FEATURES
  6
Continuous
 62
     7
100
AcDbLine
 10
172.413869
 20
203.03916
 30
0.0
 11
173.135557
 21
203.03916
 31
0.0
  0
LINE
  5
39E
330
237
100
AcDbEntity
 67
     1
  8
7_ALL_FEATURES
  6
Continuous
 62
     7
100
AcDbLine
 10
171.692182
 20
203.03916
 30
0.0
 11
172.413869
 21
203.03916
 31
0.0
  0
LINE
  5
39F
330
237
100
AcDbEntity
 67
     1
  8
7_ALL_FEATURES
  6
Continuous
 62
     7
100
AcDbLine
 10
173.857245
 20
204.28916
 30
0.0
 11
173.135557
 21
203.03916
 31
0.0
  0
LINE
  5
3A0
330
237
100
AcDbEntity
 67
     1
  8
7_ALL_FEATURES
  6
Continuous
 62
     7
100
AcDbLine
 10
173.135557
 20
205.53916
 30
0.0
 11
173.857245
 21
204.28916
 31
0.0
  0
ARC
  5
3A1
330
237
100
AcDbEntity
 67
     1
  8
7_ALL_FEATURES
  6
Continuous
 62
     7
100
AcDbCircle
 10
172.413869
 20
204.28916
 30
0.0
 40
1.55
100
AcDbArc
 50
90.0
 51
270.0
  0
ARC
  5
3A2
330
237
100
AcDbEntity
 67
     1
  8
7_ALL_FEATURES
  6
Continuous
 62
     7
100
AcDbCircle
 10
172.413869
 20
204.28916
 30
0.0
 40
2.1999999424
100
AcDbArc
 50
180.0
 51
360.0
  0
ARC
  5
3A3
330
237
100
AcDbEntity
 67
     1
  8
7_ALL_FEATURES
  6
Continuous
 62
     7
100
AcDbCircle
 10
172.413869
 20
204.28916
 30
0.0
 40
2.1999999424
100
AcDbArc
 50
0.0
 51
180.0
  0
ARC
  5
3A4
330
237
100
AcDbEntity
 67
     1
  8
7_ALL_FEATURES
  6
Continuous
 62
     7
100
AcDbCircle
 10
172.413869
 20
204.28916
 30
0.0
 40
1.55
100
AcDbArc
 50
270.0
 51
90.0
  0
LINE
  5
3A5
330
237
100
AcDbEntity
 67
     1
  8
7_ALL_FEATURES
  6
Continuous
 62
     7
100
AcDbLine
 10
86.016523
 20
200.28916
 30
0.0
 11
96.811215
 21
200.28916
 31
0.0
  0
LINE
  5
3A6
330
237
100
AcDbEntity
 67
     1
  8
7_ALL_FEATURES
  6
Continuous
 62
     7
100
AcDbLine
 10
85.689527
 20
198.78916
 30
0.0
 11
97.138212
 21
198.78916
 31
0.0
  0
LINE
  5
3A7
330
237
100
AcDbEntity
 67
     1
  8
3_ALL_AXES
  6
Continuous
 62
     7
100
AcDbLine
 10
93.413869
 20
207.78916
 30
0.0
 11
94.291827
 21
207.78916
 31
0.0
  0
LINE
  5
3A8
330
237
100
AcDbEntity
 67
     1
  8
3_ALL_AXES
  6
Continuous
 62
     7
100
AcDbLine
 10
88.57221
 20
207.78916
 30
0.0
 11
88.645766
 21
207.78916
 31
0.0
  0
LINE
  5
3A9
330
237
100
AcDbEntity
 67
     1
  8
3_ALL_AXES
  6
Continuous
 62
     7
100
AcDbLine
 10
88.645766
 20
207.78916
 30
0.0
 11
89.413869
 21
207.78916
 31
0.0
  0
LINE
  5
3AA
330
237
100
AcDbEntity
 67
     1
  8
3_ALL_AXES
  6
Continuous
 62
     7
100
AcDbLine
 10
89.413869
 20
207.78916
 30
0.0
 11
93.413869
 21
207.78916
 31
0.0
  0
ARC
  5
3AB
330
237
100
AcDbEntity
 67
     1
  8
3_ALL_AXES
  6
Continuous
 62
     7
100
AcDbCircle
 10
88.57221
 20
212.045616
 30
0.0
 40
4.2564563855
100
AcDbArc
 50
269.555203
 51
270.0
  0
LINE
  5
3AC
330
237
100
AcDbEntity
 67
     1
  8
3_ALL_AXES
  6
Continuous
 62
     7
100
AcDbLine
 10
88.57221
 20
207.78916
 30
0.0
 11
88.645766
 21
207.78916
 31
0.0
  0
LINE
  5
3AD
330
237
100
AcDbEntity
 67
     1
  8
3_ALL_AXES
  6
Continuous
 62
     7
100
AcDbLine
 10
88.645766
 20
207.78916
 30
0.0
 11
89.413869
 21
207.78916
 31
0.0
  0
LINE
  5
3AE
330
237
100
AcDbEntity
 67
     1
  8
3_ALL_AXES
  6
Continuous
 62
     7
100
AcDbLine
 10
89.413869
 20
207.78916
 30
0.0
 11
93.413869
 21
207.78916
 31
0.0
  0
LINE
  5
3AF
330
237
100
AcDbEntity
 67
     1
  8
3_ALL_AXES
  6
Continuous
 62
     7
100
AcDbLine
 10
93.413869
 20
207.78916
 30
0.0
 11
94.291827
 21
207.78916
 31
0.0
  0
LINE
  5
3B0
330
237
100
AcDbEntity
 67
     1
  8
7_ALL_FEATURES
  6
Continuous
 62
     7
100
AcDbLine
 10
184.477377
 20
198.28916
 30
0.0
 11
98.002969
 21
198.28916
 31
0.0
  0
LINE
  5
3B1
330
237
100
AcDbEntity
 67
     1
  8
7_ALL_FEATURES
  6
Continuous
 62
     7
100
AcDbLine
 10
84.82477
 20
198.28916
 30
0.0
 11
56.350362
 21
198.28916
 31
0.0
  0
LINE
  5
3B2
330
237
100
AcDbEntity
 67
     1
  8
7_ALL_FEATURES
  6
Continuous
 62
     7
100
AcDbLine
 10
98.002969
 20
198.28916
 30
0.0
 11
84.82477
 21
198.28916
 31
0.0
  0
ARC
  5
3B3
330
237
100
AcDbEntity
 67
     1
  8
7_ALL_FEATURES
  6
Continuous
 62
     7
100
AcDbCircle
 10
120.413869
 20
181.53916
 30
0.0
 40
70.75
100
AcDbArc
 50
24.444849
 51
90.0
  0
ARC
  5
3B4
330
237
100
AcDbEntity
 67
     1
  8
7_ALL_FEATURES
  6
Continuous
 62
     7
100
AcDbCircle
 10
120.413869
 20
181.53916
 30
0.0
 40
70.75
100
AcDbArc
 50
90.0
 51
155.555151
  0
ARC
  5
3B5
330
237
100
AcDbEntity
 67
     1
  8
7_ALL_FEATURES
  6
Continuous
 62
     7
100
AcDbCircle
 10
120.413869
 20
181.53916
 30
0.0
 40
70.75
100
AcDbArc
 50
90.0
 51
90.578888
  0
ARC
  5
3B6
330
237
100
AcDbEntity
 67
     1
  8
7_ALL_FEATURES
  6
Continuous
 62
     7
100
AcDbCircle
 10
120.413869
 20
181.53916
 30
0.0
 40
70.75
100
AcDbArc
 50
90.578888
 51
92.184894
  0
ARC
  5
3B7
330
237
100
AcDbEntity
 67
     1
  8
7_ALL_FEATURES
  6
Continuous
 62
     7
100
AcDbCircle
 10
120.413869
 20
181.53916
 30
0.0
 40
70.75
100
AcDbArc
 50
92.184894
 51
151.522352
  0
ARC
  5
3B8
330
237
100
AcDbEntity
 67
     1
  8
7_ALL_FEATURES
  6
Continuous
 62
     7
100
AcDbCircle
 10
120.413869
 20
181.53916
 30
0.0
 40
70.75
100
AcDbArc
 50
151.522352
 51
151.850675
  0
ARC
  5
3B9
330
237
100
AcDbEntity
 67
     1
  8
7_ALL_FEATURES
  6
Continuous
 62
     7
100
AcDbCircle
 10
120.413869
 20
181.53916
 30
0.0
 40
70.75
100
AcDbArc
 50
154.098605
 51
155.555151
  0
ARC
  5
3BA
330
237
100
AcDbEntity
 67
     1
  8
7_ALL_FEATURES
  6
Continuous
 62
     7
100
AcDbCircle
 10
120.413869
 20
181.53916
 30
0.0
 40
70.75
100
AcDbArc
 50
24.444849
 51
25.900918
  0
ARC
  5
3BB
330
237
100
AcDbEntity
 67
     1
  8
7_ALL_FEATURES
  6
Continuous
 62
     7
100
AcDbCircle
 10
120.413869
 20
181.53916
 30
0.0
 40
70.75
100
AcDbArc
 50
28.149157
 51
28.47547
  0
ARC
  5
3BC
330
237
100
AcDbEntity
 67
     1
  8
7_ALL_FEATURES
  6
Continuous
 62
     7
100
AcDbCircle
 10
120.413869
 20
181.53916
 30
0.0
 40
70.75
100
AcDbArc
 50
28.47547
 51
87.815106
  0
ARC
  5
3BD
330
237
100
AcDbEntity
 67
     1
  8
7_ALL_FEATURES
  6
Continuous
 62
     7
100
AcDbCircle
 10
120.413869
 20
181.53916
 30
0.0
 40
70.75
100
AcDbArc
 50
87.815106
 51
89.421157
  0
ARC
  5
3BE
330
237
100
AcDbEntity
 67
     1
  8
7_ALL_FEATURES
  6
Continuous
 62
     7
100
AcDbCircle
 10
120.413869
 20
181.53916
 30
0.0
 40
70.75
100
AcDbArc
 50
89.421157
 51
90.0
  0
LINE
  5
3BF
330
237
100
AcDbEntity
 67
     1
  8
7_ALL_FEATURES
  6
Continuous
 62
     7
100
AcDbLine
 10
184.057108
 20
212.443863
 30
0.0
 11
184.057108
 21
212.443863
 31
0.0
  0
LINE
  5
3C0
330
237
100
AcDbEntity
 67
     1
  8
7_ALL_FEATURES
  6
Continuous
 62
     7
100
AcDbLine
 10
184.057108
 20
212.443863
 30
0.0
 11
184.057108
 21
212.443863
 31
0.0
  0
ARC
  5
3C1
330
237
100
AcDbEntity
 67
     1
  8
7_ALL_FEATURES
  6
Continuous
 62
     7
100
AcDbCircle
 10
120.413869
 20
181.53916
 30
0.0
 40
70.75
100
AcDbArc
 50
27.859659
 51
27.952282
  0
ARC
  5
3C2
330
237
100
AcDbEntity
 67
     1
  8
7_ALL_FEATURES
  6
Continuous
 62
     7
100
AcDbCircle
 10
120.413869
 20
181.53916
 30
0.0
 40
70.75
100
AcDbArc
 50
151.524438
 51
151.850858
  0
ARC
  5
3C3
330
237
100
AcDbEntity
 67
     1
  8
7_ALL_FEATURES
  6
Continuous
 62
     7
100
AcDbCircle
 10
120.413869
 20
181.53916
 30
0.0
 40
70.75
100
AcDbArc
 50
149.601959
 51
151.524438
  0
ARC
  5
3C4
330
237
100
AcDbEntity
 67
     1
  8
7_ALL_FEATURES
  6
Continuous
 62
     7
100
AcDbCircle
 10
120.413869
 20
181.53916
 30
0.0
 40
70.75
100
AcDbArc
 50
90.578738
 51
149.601959
  0
ARC
  5
3C5
330
237
100
AcDbEntity
 67
     1
  8
7_ALL_FEATURES
  6
Continuous
 62
     7
100
AcDbCircle
 10
120.413869
 20
181.53916
 30
0.0
 40
70.75
100
AcDbArc
 50
90.0
 51
90.578738
  0
ARC
  5
3C6
330
237
100
AcDbEntity
 67
     1
  8
7_ALL_FEATURES
  6
Continuous
 62
     7
100
AcDbCircle
 10
120.413869
 20
181.53916
 30
0.0
 40
70.75
100
AcDbArc
 50
89.421213
 51
90.0
  0
ARC
  5
3C7
330
237
100
AcDbEntity
 67
     1
  8
7_ALL_FEATURES
  6
Continuous
 62
     7
100
AcDbCircle
 10
120.413869
 20
181.53916
 30
0.0
 40
70.75
100
AcDbArc
 50
30.398041
 51
89.421213
  0
ARC
  5
3C8
330
237
100
AcDbEntity
 67
     1
  8
7_ALL_FEATURES
  6
Continuous
 62
     7
100
AcDbCircle
 10
120.413869
 20
181.53916
 30
0.0
 40
70.75
100
AcDbArc
 50
28.477678
 51
30.398041
  0
ARC
  5
3C9
330
237
100
AcDbEntity
 67
     1
  8
7_ALL_FEATURES
  6
Continuous
 62
     7
100
AcDbCircle
 10
120.413869
 20
181.53916
 30
0.0
 40
70.75
100
AcDbArc
 50
28.149142
 51
28.477678
  0
LINE
  5
3CA
330
237
100
AcDbEntity
 67
     1
  8
7_ALL_FEATURES
  6
Continuous
 62
     7
100
AcDbLine
 10
56.770631
 20
212.443863
 30
0.0
 11
56.770631
 21
212.443863
 31
0.0
  0
LINE
  5
3CB
330
237
100
AcDbEntity
 67
     1
  8
7_ALL_FEATURES
  6
Continuous
 62
     7
100
AcDbLine
 10
56.770631
 20
212.443863
 30
0.0
 11
56.770631
 21
212.443863
 31
0.0
  0
ARC
  5
3CC
330
237
100
AcDbEntity
 67
     1
  8
7_ALL_FEATURES
  6
Continuous
 62
     7
100
AcDbCircle
 10
120.413869
 20
181.53916
 30
0.0
 40
70.75
100
AcDbArc
 50
151.850858
 51
153.368776
  0
ARC
  5
3CD
330
237
100
AcDbEntity
 67
     1
  8
7_ALL_FEATURES
  6
Continuous
 62
     7
100
AcDbCircle
 10
120.413869
 20
181.53916
 30
0.0
 40
70.75
100
AcDbArc
 50
153.368776
 51
153.373548
  0
ARC
  5
3CE
330
237
100
AcDbEntity
 67
     1
  8
7_ALL_FEATURES
  6
Continuous
 62
     7
100
AcDbCircle
 10
120.413869
 20
181.53916
 30
0.0
 40
70.75
100
AcDbArc
 50
153.373548
 51
154.09912
  0
ARC
  5
3CF
330
237
100
AcDbEntity
 67
     1
  8
7_ALL_FEATURES
  6
Continuous
 62
     7
100
AcDbCircle
 10
120.413869
 20
181.53916
 30
0.0
 40
70.75
100
AcDbArc
 50
28.149142
 51
28.477678
  0
ARC
  5
3D0
330
237
100
AcDbEntity
 67
     1
  8
7_ALL_FEATURES
  6
Continuous
 62
     7
100
AcDbCircle
 10
120.413869
 20
181.53916
 30
0.0
 40
70.75
100
AcDbArc
 50
89.421215
 51
90.0
  0
ARC
  5
3D1
330
237
100
AcDbEntity
 67
     1
  8
7_ALL_FEATURES
  6
Continuous
 62
     7
100
AcDbCircle
 10
120.413869
 20
181.53916
 30
0.0
 40
70.75
100
AcDbArc
 50
90.0
 51
90.57874
  0
ARC
  5
3D2
330
237
100
AcDbEntity
 67
     1
  8
7_ALL_FEATURES
  6
Continuous
 62
     7
100
AcDbCircle
 10
120.413869
 20
181.53916
 30
0.0
 40
70.75
100
AcDbArc
 50
90.57874
 51
151.524438
  0
ARC
  5
3D3
330
237
100
AcDbEntity
 67
     1
  8
7_ALL_FEATURES
  6
Continuous
 62
     7
100
AcDbCircle
 10
120.413869
 20
181.53916
 30
0.0
 40
70.75
100
AcDbArc
 50
151.524438
 51
151.850858
  0
LINE
  5
3D4
330
237
100
AcDbEntity
 67
     1
  8
7_ALL_FEATURES
  6
Continuous
 62
     7
100
AcDbLine
 10
55.350599
 20
199.310974
 30
0.0
 11
55.558888
 21
208.856712
 31
0.0
  0
LINE
  5
3D5
330
237
100
AcDbEntity
 67
     1
  8
7_ALL_FEATURES
  6
Continuous
 62
     7
100
AcDbLine
 10
55.350599
 20
199.310974
 30
0.0
 11
55.558888
 21
208.856712
 31
0.0
  0
LINE
  5
3D6
330
237
100
AcDbEntity
 67
     1
  8
7_ALL_FEATURES
  6
Continuous
 62
     7
100
AcDbLine
 10
185.477139
 20
199.310974
 30
0.0
 11
185.268851
 21
208.856712
 31
0.0
  0
LINE
  5
3D7
330
237
100
AcDbEntity
 67
     1
  8
7_ALL_FEATURES
  6
Continuous
 62
     7
100
AcDbLine
 10
185.477139
 20
199.310974
 30
0.0
 11
185.268851
 21
208.856712
 31
0.0
  0
SPLINE
  5
3D8
330
237
100
AcDbEntity
 67
     1
  8
7_ALL_FEATURES
  6
Continuous
 62
     7
100
AcDbSpline
 70
     0
 71
     3
 72
     9
 73
     5
 74
     0
 42
0.000000001
 43
0.0000001
 40
0.0
 40
0.0
 40
0.0
 40
0.0
 40
0.5000795097
 40
1.0
 40
1.0
 40
1.0
 40
1.0
 10
56.0058951989
 20
210.8167249523
 30
0.0
 10
55.866425171
 20
210.510083219
 30
0.0
 10
55.6473511525
 20
209.867459051
 30
0.0
 10
55.5661566216
 20
209.1933960892
 30
0.0
 10
55.5588851163
 20
208.8567122513
 30
0.0
  0
ARC
  5
3D9
330
237
100
AcDbEntity
 67
     1
  8
7_ALL_FEATURES
  6
Continuous
 62
     7
100
AcDbCircle
 10
60.640692
 20
208.747254
 30
0.0
 40
5.0829852589
100
AcDbArc
 50
174.907565
 51
178.766088
  0
ARC
  5
3DA
330
237
100
AcDbEntity
 67
     1
  8
7_ALL_FEATURES
  6
Continuous
 62
     7
100
AcDbCircle
 10
60.564559
 20
208.754188
 30
0.0
 40
5.0065378559
100
AcDbArc
 50
171.055428
 51
174.909268
  0
ARC
  5
3DB
330
237
100
AcDbEntity
 67
     1
  8
7_ALL_FEATURES
  6
Continuous
 62
     7
100
AcDbCircle
 10
60.458093
 20
208.771072
 30
0.0
 40
4.8987409072
100
AcDbArc
 50
167.160754
 51
171.056888
  0
ARC
  5
3DC
330
237
100
AcDbEntity
 67
     1
  8
7_ALL_FEATURES
  6
Continuous
 62
     7
100
AcDbCircle
 10
60.457903
 20
208.76967
 30
0.0
 40
4.8988679201
100
AcDbArc
 50
163.24821
 51
167.144274
  0
ARC
  5
3DD
330
237
100
AcDbEntity
 67
     1
  8
7_ALL_FEATURES
  6
Continuous
 62
     7
100
AcDbCircle
 10
60.561144
 20
208.738728
 30
0.0
 40
5.0066455488
100
AcDbArc
 50
159.395905
 51
163.249671
  0
SPLINE
  5
3DE
330
237
100
AcDbEntity
 67
     1
  8
7_ALL_FEATURES
  6
Continuous
 62
     7
100
AcDbSpline
 70
     0
 71
     3
 72
     9
 73
     5
 74
     0
 42
0.000000001
 43
0.0000001
 40
0.0
 40
0.0
 40
0.0
 40
0.0
 40
0.5000795097
 40
1.0
 40
1.0
 40
1.0
 40
1.0
 10
184.8218436386
 20
210.8167249523
 30
0.0
 10
184.9613136665
 20
210.510083219
 30
0.0
 10
185.180387685
 20
209.867459051
 30
0.0
 10
185.2615822159
 20
209.1933960892
 30
0.0
 10
185.2688537211
 20
208.8567122513
 30
0.0
  0
SPLINE
  5
3DF
330
237
100
AcDbEntity
 67
     1
  8
7_ALL_FEATURES
  6
Continuous
 62
     7
100
AcDbSpline
 70
     0
 71
     3
 72
     9
 73
     5
 74
     0
 42
0.000000001
 43
0.0000001
 40
0.0
 40
0.0
 40
0.0
 40
0.0
 40
0.4999204903
 40
1.0
 40
1.0
 40
1.0
 40
1.0
 10
185.2688537211
 20
208.8567122513
 30
0.0
 10
185.2615822159
 20
209.1933960892
 30
0.0
 10
185.180387685
 20
209.867459051
 30
0.0
 10
184.9613136665
 20
210.510083219
 30
0.0
 10
184.8218436386
 20
210.8167249523
 30
0.0
  0
SPLINE
  5
3E0
330
237
100
AcDbEntity
 67
     1
  8
7_ALL_FEATURES
  6
Continuous
 62
     7
100
AcDbSpline
 70
     0
 71
     3
 72
     8
 73
     4
 74
     0
 42
0.000000001
 43
0.0000001
 40
0.0
 40
0.0
 40
0.0
 40
0.0
 40
1.0
 40
1.0
 40
1.0
 40
1.0
 10
56.770630962
 20
212.4438630701
 30
0.0
 10
56.7949984092
 20
212.4940438865
 30
0.0
 10
56.8207759222
 20
212.5400808059
 30
0.0
 10
56.8479635013
 20
212.5819738283
 30
0.0
  0
SPLINE
  5
3E1
330
237
100
AcDbEntity
 67
     1
  8
7_ALL_FEATURES
  6
Continuous
 62
     7
100
AcDbSpline
 70
     0
 71
     3
 72
     8
 73
     4
 74
     0
 42
0.000000001
 43
0.0000001
 40
0.0
 40
0.0
 40
0.0
 40
0.0
 40
1.0
 40
1.0
 40
1.0
 40
1.0
 10
56.8479635013
 20
212.5819738283
 30
0.0
 10
57.0670858855
 20
212.9196169462
 30
0.0
 10
57.3778032846
 20
212.9880809453
 30
0.0
 10
57.7801156982
 20
212.7873658263
 30
0.0
  0
ARC
  5
3E2
330
237
100
AcDbEntity
 67
     1
  8
7_ALL_FEATURES
  6
Continuous
 62
     7
100
AcDbCircle
 10
184.477377
 20
199.28916
 30
0.0
 40
1.0
100
AcDbArc
 50
270.0
 51
1.25
  0
ARC
  5
3E3
330
237
100
AcDbEntity
 67
     1
  8
7_ALL_FEATURES
  6
Continuous
 62
     7
100
AcDbCircle
 10
184.477377
 20
199.28916
 30
0.0
 40
1.0
100
AcDbArc
 50
354.75138
 51
1.25
  0
ARC
  5
3E4
330
237
100
AcDbEntity
 67
     1
  8
7_ALL_FEATURES
  6
Continuous
 62
     7
100
AcDbCircle
 10
184.477377
 20
199.28916
 30
0.0
 40
1.0
100
AcDbArc
 50
276.554569
 51
354.75138
  0
ARC
  5
3E5
330
237
100
AcDbEntity
 67
     1
  8
7_ALL_FEATURES
  6
Continuous
 62
     7
100
AcDbCircle
 10
184.477377
 20
199.28916
 30
0.0
 40
1.0
100
AcDbArc
 50
270.0
 51
276.554569
  0
ARC
  5
3E6
330
237
100
AcDbEntity
 67
     1
  8
7_ALL_FEATURES
  6
Continuous
 62
     7
100
AcDbCircle
 10
56.350362
 20
199.28916
 30
0.0
 40
1.0
100
AcDbArc
 50
178.75
 51
270.0
  0
ARC
  5
3E7
330
237
100
AcDbEntity
 67
     1
  8
7_ALL_FEATURES
  6
Continuous
 62
     7
100
AcDbCircle
 10
56.350362
 20
199.28916
 30
0.0
 40
1.0
100
AcDbArc
 50
263.445431
 51
270.0
  0
ARC
  5
3E8
330
237
100
AcDbEntity
 67
     1
  8
7_ALL_FEATURES
  6
Continuous
 62
     7
100
AcDbCircle
 10
56.350362
 20
199.28916
 30
0.0
 40
1.0
100
AcDbArc
 50
185.248621
 51
263.445431
  0
ARC
  5
3E9
330
237
100
AcDbEntity
 67
     1
  8
7_ALL_FEATURES
  6
Continuous
 62
     7
100
AcDbCircle
 10
56.350362
 20
199.28916
 30
0.0
 40
1.0
100
AcDbArc
 50
178.75
 51
185.248621
  0
LINE
  5
3EA
330
237
100
AcDbEntity
 67
     1
  8
02___PRT_ALL_AXES
  6
Continuous
 62
     7
100
AcDbLine
 10
88.57221
 20
207.78916
 30
0.0
 11
88.535907
 21
207.78916
 31
0.0
  0
LINE
  5
3EB
330
237
100
AcDbEntity
 67
     1
  8
7_ALL_FEATURES
  6
Continuous
 62
     7
100
AcDbLine
 10
184.057108
 20
212.443863
 30
0.0
 11
184.057108
 21
212.443863
 31
0.0
  0
ARC
  5
3EC
330
237
100
AcDbEntity
 67
     1
  8
7_ALL_FEATURES
  6
Continuous
 62
     7
100
AcDbCircle
 10
120.413869
 20
181.53916
 30
0.0
 40
70.75
100
AcDbArc
 50
154.090673
 51
154.09912
  0
LINE
  5
3ED
330
237
100
AcDbEntity
 67
     1
  8
7_ALL_FEATURES
  6
Continuous
 62
     7
100
AcDbLine
 10
56.770631
 20
212.443863
 30
0.0
 11
56.770631
 21
212.443863
 31
0.0
  0
ARC
  5
3EE
330
237
100
AcDbEntity
 67
     1
  8
7_ALL_FEATURES
  6
Continuous
 62
     7
100
AcDbCircle
 10
120.413869
 20
181.53916
 30
0.0
 40
70.75
100
AcDbArc
 50
26.630797
 51
26.635537
  0
ARC
  5
3EF
330
237
100
AcDbEntity
 67
     1
  8
7_ALL_FEATURES
  6
Continuous
 62
     7
100
AcDbCircle
 10
120.413869
 20
181.53916
 30
0.0
 40
70.75
100
AcDbArc
 50
26.635537
 51
28.149142
  0
ARC
  5
3F0
330
237
100
AcDbEntity
 67
     1
  8
02___PRT_ALL_AXES
  6
Continuous
 62
     7
100
AcDbCircle
 10
68.413869
 20
204.28916
 30
0.0
 40
3.0
100
AcDbArc
 50
0.0
 51
180.0
  0
ARC
  5
3F1
330
237
100
AcDbEntity
 67
     1
  8
02___PRT_ALL_AXES
  6
Continuous
 62
     7
100
AcDbCircle
 10
68.413869
 20
204.28916
 30
0.0
 40
3.0
100
AcDbArc
 50
180.0
 51
360.0
  0
ARC
  5
3F2
330
237
100
AcDbEntity
 67
     1
  8
02___PRT_ALL_AXES
  6
Continuous
 62
     7
100
AcDbCircle
 10
172.413869
 20
204.28916
 30
0.0
 40
3.0
100
AcDbArc
 50
0.0
 51
180.0
  0
ARC
  5
3F3
330
237
100
AcDbEntity
 67
     1
  8
02___PRT_ALL_AXES
  6
Continuous
 62
     7
100
AcDbCircle
 10
172.413869
 20
204.28916
 30
0.0
 40
3.0
100
AcDbArc
 50
180.0
 51
360.0
  0
ARC
  5
3F4
330
237
100
AcDbEntity
 67
     1
  8
7_ALL_FEATURES
  6
Continuous
 62
     7
100
AcDbCircle
 10
91.413869
 20
204.143029
 30
0.0
 40
4.6461308737
100
AcDbArc
 50
9.999824
 51
170.000156
  0
LINE
  5
3F5
330
237
100
AcDbEntity
 67
     1
  8
7_ALL_FEATURES
  6
Continuous
 62
     7
100
AcDbLine
 10
95.989418
 20
204.949807
 30
0.0
 11
97.018161
 21
199.115511
 31
0.0
  0
LINE
  5
3F6
330
237
100
AcDbEntity
 67
     1
  8
7_ALL_FEATURES
  6
Continuous
 62
     7
100
AcDbLine
 10
85.809578
 20
199.115511
 30
0.0
 11
86.838322
 21
204.949808
 31
0.0
  0
ARC
  5
3F7
330
237
100
AcDbEntity
 67
     1
  8
7_ALL_FEATURES
  6
Continuous
 62
     7
100
AcDbCircle
 10
98.002969
 20
199.28916
 30
0.0
 40
1.0
100
AcDbArc
 50
190.0
 51
270.0
  0
ARC
  5
3F8
330
237
100
AcDbEntity
 67
     1
  8
7_ALL_FEATURES
  6
Continuous
 62
     7
100
AcDbCircle
 10
98.002969
 20
199.28916
 30
0.0
 40
1.0
100
AcDbArc
 50
263.84995
 51
270.0
  0
ARC
  5
3F9
330
237
100
AcDbEntity
 67
     1
  8
7_ALL_FEATURES
  6
Continuous
 62
     7
100
AcDbCircle
 10
84.82477
 20
199.28916
 30
0.0
 40
1.0
100
AcDbArc
 50
270.0
 51
276.15005
  0
ARC
  5
3FA
330
237
100
AcDbEntity
 67
     1
  8
7_ALL_FEATURES
  6
Continuous
 62
     7
100
AcDbCircle
 10
84.82477
 20
199.28916
 30
0.0
 40
1.0
100
AcDbArc
 50
276.15005
 51
350.0
  0
ARC
  5
3FB
330
237
100
AcDbEntity
 67
     1
  8
7_ALL_FEATURES
  6
Continuous
 62
     7
100
AcDbCircle
 10
84.82477
 20
199.28916
 30
0.0
 40
1.0
100
AcDbArc
 50
270.0
 51
350.0
  0
SPLINE
  5
3FC
330
237
100
AcDbEntity
 67
     1
  8
7_ALL_FEATURES
  6
Continuous
 62
     9
100
AcDbSpline
 70
     0
 71
     3
 72
    22
 73
    18
 74
     0
 42
0.000000001
 43
0.0000001
 40
0.0
 40
0.0
 40
0.0
 40
0.0
 40
0.2340565786
 40
0.4369076846
 40
0.6085562561
 40
0.6826811136
 40
0.7490074607
 40
0.8075365976
 40
0.858270424
 40
0.9012118744
 40
0.9363658345
 40
0.9637413598
 40
0.9833582809
 40
0.9902738185
 40
0.9952823122
 40
0.9984377787
 40
1.0
 40
1.0
 40
1.0
 40
1.0
 10
56.9162588017
 20
210.4247214598
 30
0.0
 10
56.8457731469
 20
210.4567464745
 30
0.0
 10
56.7141312521
 20
210.5163773561
 30
0.0
 10
56.5305083664
 20
210.598853268
 30
0.0
 10
56.3948855948
 20
210.6590801864
 30
0.0
 10
56.3003337595
 20
210.7005210187
 30
0.0
 10
56.2399496883
 20
210.7267078128
 30
0.0
 10
56.1865525237
 20
210.749556744
 30
0.0
 10
56.1401411573
 20
210.7690697987
 30
0.0
 10
56.1007211966
 20
210.7852504703
 30
0.0
 10
56.068280832
 20
210.7981070206
 30
0.0
 10
56.0428572676
 20
210.8076525953
 30
0.0
 10
56.0259337599
 20
210.813401212
 30
0.0
 10
56.0159416137
 20
210.8162481538
 30
0.0
 10
56.0109632643
 20
210.8172433737
 30
0.0
 10
56.0079353176
 20
210.8176526552
 30
0.0
 10
56.0061126296
 20
210.8171941576
 30
0.0
 10
56.0058987928
 20
210.8167237362
 30
0.0
  0
SPLINE
  5
3FD
330
237
100
AcDbEntity
 67
     1
  8
7_ALL_FEATURES
  6
Continuous
 62
     9
100
AcDbSpline
 70
     0
 71
     3
 72
    21
 73
    17
 74
     0
 42
0.000000001
 43
0.0000001
 40
0.0
 40
0.0
 40
0.0
 40
0.0
 40
0.2340005958
 40
0.4368034738
 40
0.6084121764
 40
0.6825205469
 40
0.7488329331
 40
0.8073509023
 40
0.8580767444
 40
0.9010139961
 40
0.9361685449
 40
0.9635512983
 40
0.9831861209
 40
0.9951433579
 40
0.9983430899
 40
1.0
 40
1.0
 40
1.0
 40
1.0
 10
184.2690885966
 20
208.8567118959
 30
0.0
 10
184.3471579364
 20
208.8584145643
 30
0.0
 10
184.4928922875
 20
208.8614110867
 30
0.0
 10
184.6958952412
 20
208.8648775024
 30
0.0
 10
184.8455593571
 20
208.8667366348
 30
0.0
 10
184.9496838523
 20
208.8674757769
 30
0.0
 10
185.0160710506
 20
208.8676644794
 30
0.0
 10
185.0746565463
 20
208.8675174772
 30
0.0
 10
185.1254364809
 20
208.8670392478
 30
0.0
 10
185.1684241845
 20
208.8662270676
 30
0.0
 10
185.2035860045
 20
208.8651088739
 30
0.0
 10
185.2310223538
 20
208.8636481563
 30
0.0
 10
185.2505230986
 20
208.8620150249
 30
0.0
 10
185.262208554
 20
208.8601305334
 30
0.0
 10
185.2673917451
 20
208.8585241401
 30
0.0
 10
185.2688385617
 20
208.8572646887
 30
0.0
 10
185.2688506237
 20
208.8567118959
 30
0.0
  0
SPLINE
  5
3FE
330
237
100
AcDbEntity
 67
     1
  8
7_ALL_FEATURES
  6
Continuous
 62
     9
100
AcDbSpline
 70
     0
 71
     3
 72
    21
 73
    17
 74
     0
 42
0.000000001
 43
0.0000001
 40
0.0
 40
0.0
 40
0.0
 40
0.0
 40
0.2340005958
 40
0.4368034738
 40
0.6084121764
 40
0.6825205469
 40
0.7488329331
 40
0.8073509023
 40
0.8580767444
 40
0.9010139961
 40
0.9361685449
 40
0.9635512983
 40
0.9831861209
 40
0.9951433579
 40
0.9983430899
 40
1.0
 40
1.0
 40
1.0
 40
1.0
 10
184.4773773287
 20
199.31097445
 30
0.0
 10
184.5554466684
 20
199.3126771184
 30
0.0
 10
184.7011810196
 20
199.3156736408
 30
0.0
 10
184.9041839732
 20
199.3191400566
 30
0.0
 10
185.0538480891
 20
199.320999189
 30
0.0
 10
185.1579725843
 20
199.321738331
 30
0.0
 10
185.2243597827
 20
199.3219270335
 30
0.0
 10
185.2829452784
 20
199.3217800313
 30
0.0
 10
185.333725213
 20
199.3213018019
 30
0.0
 10
185.3767129165
 20
199.3204896218
 30
0.0
 10
185.4118747365
 20
199.3193714281
 30
0.0
 10
185.4393110858
 20
199.3179107104
 30
0.0
 10
185.4588118306
 20
199.316277579
 30
0.0
 10
185.4704972861
 20
199.3143930875
 30
0.0
 10
185.4756804771
 20
199.3127866942
 30
0.0
 10
185.4771272938
 20
199.3115272429
 30
0.0
 10
185.4771393558
 20
199.31097445
 30
0.0
  0
SPLINE
  5
3FF
330
237
100
AcDbEntity
 67
     1
  8
7_ALL_FEATURES
  6
Continuous
 62
     9
100
AcDbSpline
 70
     0
 71
     3
 72
    21
 73
    17
 74
     0
 42
0.000000001
 43
0.0000001
 40
0.0
 40
0.0
 40
0.0
 40
0.0
 40
0.0016569101
 40
0.0048566421
 40
0.0168138791
 40
0.0364487017
 40
0.0638314551
 40
0.0989860039
 40
0.1419232556
 40
0.1926490977
 40
0.2511670669
 40
0.3174794531
 40
0.3915878236
 40
0.5631965262
 40
0.7659994042
 40
1.0
 40
1.0
 40
1.0
 40
1.0
 10
55.3505994817
 20
199.31097445
 30
0.0
 10
55.3506115437
 20
199.3115272429
 30
0.0
 10
55.3520583603
 20
199.3127866942
 30
0.0
 10
55.3572415514
 20
199.3143930875
 30
0.0
 10
55.3689270068
 20
199.316277579
 30
0.0
 10
55.3884277517
 20
199.3179107104
 30
0.0
 10
55.415864101
 20
199.3193714281
 30
0.0
 10
55.4510259209
 20
199.3204896218
 30
0.0
 10
55.4940136245
 20
199.3213018019
 30
0.0
 10
55.5447935591
 20
199.3217800313
 30
0.0
 10
55.6033790548
 20
199.3219270335
 30
0.0
 10
55.6697662531
 20
199.321738331
 30
0.0
 10
55.7738907483
 20
199.320999189
 30
0.0
 10
55.9235548643
 20
199.3191400566
 30
0.0
 10
56.1265578179
 20
199.3156736408
 30
0.0
 10
56.272292169
 20
199.3126771184
 30
0.0
 10
56.3503615088
 20
199.31097445
 30
0.0
  0
SPLINE
  5
400
330
237
100
AcDbEntity
 67
     1
  8
7_ALL_FEATURES
  6
Continuous
 62
     9
100
AcDbSpline
 70
     0
 71
     3
 72
    21
 73
    17
 74
     0
 42
0.000000001
 43
0.0000001
 40
0.0
 40
0.0
 40
0.0
 40
0.0
 40
0.0016569101
 40
0.0048566421
 40
0.0168138791
 40
0.0364487017
 40
0.0638314551
 40
0.0989860039
 40
0.1419232556
 40
0.1926490977
 40
0.2511670669
 40
0.3174794531
 40
0.3915878236
 40
0.5631965262
 40
0.7659994042
 40
1.0
 40
1.0
 40
1.0
 40
1.0
 10
55.5588882137
 20
208.8567118959
 30
0.0
 10
55.5589002757
 20
208.8572646887
 30
0.0
 10
55.5603470924
 20
208.8585241401
 30
0.0
 10
55.5655302834
 20
208.8601305334
 30
0.0
 10
55.5772157389
 20
208.8620150249
 30
0.0
 10
55.5967164837
 20
208.8636481563
 30
0.0
 10
55.624152833
 20
208.8651088739
 30
0.0
 10
55.659314653
 20
208.8662270676
 30
0.0
 10
55.7023023565
 20
208.8670392478
 30
0.0
 10
55.7530822911
 20
208.8675174772
 30
0.0
 10
55.8116677868
 20
208.8676644794
 30
0.0
 10
55.8780549852
 20
208.8674757769
 30
0.0
 10
55.9821794804
 20
208.8667366348
 30
0.0
 10
56.1318435963
 20
208.8648775024
 30
0.0
 10
56.3348465499
 20
208.8614110867
 30
0.0
 10
56.4805809011
 20
208.8584145643
 30
0.0
 10
56.5586502408
 20
208.8567118959
 30
0.0
  0
SPLINE
  5
401
330
237
100
AcDbEntity
 67
     1
  8
7_ALL_FEATURES
  6
Continuous
 62
     9
100
AcDbSpline
 70
     0
 71
     3
 72
    21
 73
    17
 74
     0
 42
0.000000001
 43
0.0000001
 40
0.0
 40
0.0
 40
0.0
 40
0.0
 40
0.0012048844
 40
0.0034935001
 40
0.0124706225
 40
0.0283839352
 40
0.0524359735
 40
0.0858556213
 40
0.12974719
 40
0.1848101854
 40
0.2510041381
 40
0.3273627917
 40
0.412149252
 40
0.5988771352
 40
0.7974595026
 40
1.0
 40
1.0
 40
1.0
 40
1.0
 10
184.8218436386
 20
210.8167249523
 30
0.0
 10
184.8216787096
 20
210.8170877772
 30
0.0
 10
184.8204333453
 20
210.8175896911
 30
0.0
 10
184.816403972
 20
210.8173024112
 30
0.0
 10
184.8075249952
 20
210.8151930237
 30
0.0
 10
184.7921913007
 20
210.8102143342
 30
0.0
 10
184.7693426191
 20
210.8019049738
 30
0.0
 10
184.7381206512
 20
210.7897198746
 30
0.0
 10
184.6975555801
 20
210.7732162273
 30
0.0
 10
184.647170913
 20
210.7521114133
 30
0.0
 10
184.5870658367
 20
210.7264127508
 30
0.0
 10
184.5180861716
 20
210.6964672584
 30
0.0
 10
184.412728265
 20
210.6501988404
 30
0.0
 10
184.2706639253
 20
210.5869708869
 30
0.0
 10
184.0933301192
 20
210.5072003192
 30
0.0
 10
183.9724762789
 20
210.4524346489
 30
0.0
 10
183.9114805467
 20
210.4247212796
 30
0.0
  0
SPLINE
  5
402
330
237
100
AcDbEntity
 67
     1
  8
7_ALL_FEATURES
  6
Continuous
 62
     9
100
AcDbSpline
 70
     0
 71
     3
 72
    23
 73
    19
 74
     0
 42
0.000000001
 43
0.0000001
 40
0.0
 40
0.0
 40
0.0
 40
0.0
 40
0.1946946729
 40
0.3820178684
 40
0.554743898
 40
0.6335207996
 40
0.7062075923
 40
0.7721018573
 40
0.8305674264
 40
0.8810406998
 40
0.9230365959
 40
0.9561545577
 40
0.9692845389
 40
0.9800872751
 40
0.9885422758
 40
0.9946408888
 40
0.9984007778
 40
1.0
 40
1.0
 40
1.0
 40
1.0
 10
96.9742228777
 20
205.1452839134
 30
0.0
 10
96.910003244
 20
205.1339656481
 30
0.0
 10
96.784041457
 20
205.1114954939
 30
0.0
 10
96.6012698661
 20
205.0780761716
 30
0.0
 10
96.4568181482
 20
205.0509451391
 30
0.0
 10
96.3501960447
 20
205.0304102073
 30
0.0
 10
96.2787581591
 20
205.0163926835
 30
0.0
 10
96.2140487608
 20
205.0034168948
 30
0.0
 10
96.1566945725
 20
204.9916100932
 30
0.0
 10
96.1072461226
 20
204.9810901729
 30
0.0
 10
96.0661892998
 20
204.9719644637
 30
0.0
 10
96.0374121673
 20
204.9651681111
 30
0.0
 10
96.0189153845
 20
204.9604405239
 30
0.0
 10
96.0084195679
 20
204.9575550043
 30
0.0
 10
96.0003737823
 20
204.9551500675
 30
0.0
 10
95.9943803152
 20
204.9530207644
 30
0.0
 10
95.9912341529
 20
204.9516610294
 30
0.0
 10
95.9893221135
 20
204.9503483432
 30
0.0
 10
95.9894151247
 20
204.9498208507
 30
0.0
  0
SPLINE
  5
403
330
237
100
AcDbEntity
 67
     1
  8
7_ALL_FEATURES
  6
Continuous
 62
     9
100
AcDbSpline
 70
     0
 71
     3
 72
    23
 73
    19
 74
     0
 42
0.000000001
 43
0.0000001
 40
0.0
 40
0.0
 40
0.0
 40
0.0
 40
0.1946945724
 40
0.3820177869
 40
0.554743836
 40
0.6335207475
 40
0.70620755
 40
0.7721018244
 40
0.8305674018
 40
0.8810406823
 40
0.9230365844
 40
0.956154551
 40
0.9692845345
 40
0.9800872719
 40
0.9885422742
 40
0.994640888
 40
0.9984007776
 40
1.0
 40
1.0
 40
1.0
 40
1.0
 10
98.0029690499
 20
199.31097445
 30
0.0
 10
97.9387494494
 20
199.2996561906
 30
0.0
 10
97.8127876892
 20
199.2771860413
 30
0.0
 10
97.6300161186
 20
199.2437667232
 30
0.0
 10
97.4855643847
 20
199.216635688
 30
0.0
 10
97.3789422683
 20
199.1961007539
 30
0.0
 10
97.3075043731
 20
199.1820832284
 30
0.0
 10
97.2427949658
 20
199.1691074382
 30
0.0
 10
97.1854407694
 20
199.157300635
 30
0.0
 10
97.1359923125
 20
199.1467807134
 30
0.0
 10
97.0949354837
 20
199.1376550031
 30
0.0
 10
97.066158347
 20
199.1308586494
 30
0.0
 10
97.0476615614
 20
199.1261310618
 30
0.0
 10
97.0371657431
 20
199.1232455418
 30
0.0
 10
97.0291199564
 20
199.1208406048
 30
0.0
 10
97.0231264882
 20
199.1187113014
 30
0.0
 10
97.0199803257
 20
199.1173515661
 30
0.0
 10
97.0180682857
 20
199.11603888
 30
0.0
 10
97.0181612969
 20
199.1155113873
 30
0.0
  0
SPLINE
  5
404
330
237
100
AcDbEntity
 67
     1
  8
7_ALL_FEATURES
  6
Continuous
 62
     9
100
AcDbSpline
 70
     0
 71
     3
 72
    23
 73
    19
 74
     0
 42
0.000000001
 43
0.0000001
 40
0.0
 40
0.0
 40
0.0
 40
0.0
 40
0.1946945724
 40
0.3820177869
 40
0.554743836
 40
0.6335207475
 40
0.70620755
 40
0.7721018244
 40
0.8305674018
 40
0.8810406823
 40
0.9230365844
 40
0.956154551
 40
0.9692845345
 40
0.9800872719
 40
0.9885422742
 40
0.994640888
 40
0.9984007776
 40
1.0
 40
1.0
 40
1.0
 40
1.0
 10
84.8247697876
 20
199.31097445
 30
0.0
 10
84.8889893881
 20
199.2996561906
 30
0.0
 10
85.0149511483
 20
199.2771860413
 30
0.0
 10
85.1977227188
 20
199.2437667232
 30
0.0
 10
85.3421744527
 20
199.216635688
 30
0.0
 10
85.4487965692
 20
199.1961007539
 30
0.0
 10
85.5202344644
 20
199.1820832284
 30
0.0
 10
85.5849438716
 20
199.1691074382
 30
0.0
 10
85.6422980681
 20
199.157300635
 30
0.0
 10
85.691746525
 20
199.1467807134
 30
0.0
 10
85.7328033537
 20
199.1376550031
 30
0.0
 10
85.7615804905
 20
199.1308586494
 30
0.0
 10
85.7800772761
 20
199.1261310618
 30
0.0
 10
85.7905730944
 20
199.1232455418
 30
0.0
 10
85.7986188811
 20
199.1208406048
 30
0.0
 10
85.8046123493
 20
199.1187113014
 30
0.0
 10
85.8077585118
 20
199.1173515661
 30
0.0
 10
85.8096705517
 20
199.11603888
 30
0.0
 10
85.8095775406
 20
199.1155113873
 30
0.0
  0
SPLINE
  5
405
330
237
100
AcDbEntity
 67
     1
  8
7_ALL_FEATURES
  6
Continuous
 62
     9
100
AcDbSpline
 70
     0
 71
     3
 72
    23
 73
    19
 74
     0
 42
0.000000001
 43
0.0000001
 40
0.0
 40
0.0
 40
0.0
 40
0.0
 40
0.1946946729
 40
0.3820178684
 40
0.554743898
 40
0.6335207996
 40
0.7062075923
 40
0.7721018573
 40
0.8305674264
 40
0.8810406999
 40
0.9230365959
 40
0.9561545577
 40
0.9692845389
 40
0.9800872751
 40
0.9885422758
 40
0.9946408888
 40
0.9984007778
 40
1.0
 40
1.0
 40
1.0
 40
1.0
 10
85.8535159597
 20
205.1452839134
 30
0.0
 10
85.9177355934
 20
205.1339656481
 30
0.0
 10
86.0436973805
 20
205.1114954939
 30
0.0
 10
86.2264689714
 20
205.0780761716
 30
0.0
 10
86.3709206893
 20
205.0509451391
 30
0.0
 10
86.4775427928
 20
205.0304102073
 30
0.0
 10
86.5489806784
 20
205.0163926835
 30
0.0
 10
86.6136900767
 20
205.0034168948
 30
0.0
 10
86.6710442649
 20
204.9916100932
 30
0.0
 10
86.7204927148
 20
204.9810901729
 30
0.0
 10
86.7615495377
 20
204.9719644637
 30
0.0
 10
86.7903266701
 20
204.965168111
 30
0.0
 10
86.8088234529
 20
204.9604405239
 30
0.0
 10
86.8193192695
 20
204.9575550043
 30
0.0
 10
86.8273650551
 20
204.9551500675
 30
0.0
 10
86.8333585223
 20
204.9530207644
 30
0.0
 10
86.8365046845
 20
204.9516610294
 30
0.0
 10
86.8384167239
 20
204.9503483432
 30
0.0
 10
86.8383237128
 20
204.9498208507
 30
0.0
  0
LINE
  5
406
330
237
100
AcDbEntity
 67
     1
  8
7_ALL_FEATURES
  6
Continuous
 62
     9
100
AcDbLine
 10
98.002969
 20
199.310974
 30
0.0
 11
98.002969
 21
198.28916
 31
0.0
  0
LINE
  5
407
330
237
100
AcDbEntity
 67
     1
  8
7_ALL_FEATURES
  6
Continuous
 62
     9
100
AcDbLine
 10
84.82477
 20
198.28916
 30
0.0
 11
84.82477
 21
199.310974
 31
0.0
  0
SPLINE
  5
408
330
237
100
AcDbEntity
 67
     1
  8
7_ALL_FEATURES
  6
Continuous
 62
     9
100
AcDbSpline
 70
     0
 71
     3
 72
    29
 73
    25
 74
     0
 42
0.000000001
 43
0.0000001
 40
0.0
 40
0.0
 40
0.0
 40
0.0
 40
0.1938702924
 40
0.3810010385
 40
0.4696487745
 40
0.5538643782
 40
0.6328334512
 40
0.7057414065
 40
0.7718198229
 40
0.8304854442
 40
0.8812012343
 40
0.9034100992
 40
0.9234300803
 40
0.9412000557
 40
0.9566830094
 40
0.969847944
 40
0.980663853
 40
0.9891025865
 40
0.992425114
 40
0.9951474386
 40
0.9972678262
 40
0.9987845409
 40
0.9996958452
 40
1.0
 40
1.0
 40
1.0
 40
1.0
 10
184.4773773313
 20
199.31097445
 30
0.0
 10
184.4759381105
 20
199.2449530879
 30
0.0
 10
184.4739615152
 20
199.1151863947
 30
0.0
 10
184.4729670296
 20
198.9552143058
 30
0.0
 10
184.4727339108
 20
198.832591474
 30
0.0
 10
184.4727933457
 20
198.7468110094
 30
0.0
 10
184.4730433382
 20
198.6663922993
 30
0.0
 10
184.4734429401
 20
198.5921522636
 30
0.0
 10
184.4739519991
 20
198.5248289476
 30
0.0
 10
184.4745329719
 20
198.4650657384
 30
0.0
 10
184.475066686
 20
198.420245959
 30
0.0
 10
184.4755016918
 20
198.3885896676
 30
0.0
 10
184.4758080173
 20
198.3681549073
 30
0.0
 10
184.4761049092
 20
198.3500111196
 30
0.0
 10
184.476385341
 20
198.3342029212
 30
0.0
 10
184.4766451693
 20
198.320761904
 30
0.0
 10
184.4768719733
 20
198.3097245755
 30
0.0
 10
184.4770540215
 20
198.3020288618
 30
0.0
 10
184.4771618677
 20
198.2971080717
 30
0.0
 10
184.477256113
 20
198.2943040503
 30
0.0
 10
184.4772496938
 20
198.2921996856
 30
0.0
 10
184.4774340334
 20
198.2905125262
 30
0.0
 10
184.477209605
 20
198.2898253918
 30
0.0
 10
184.4774809314
 20
198.289159565
 30
0.0
 10
184.4773773287
 20
198.289159565
 30
0.0
  0
SPLINE
  5
409
330
237
100
AcDbEntity
 67
     1
  8
7_ALL_FEATURES
  6
Continuous
 62
     9
100
AcDbSpline
 70
     0
 71
     3
 72
    29
 73
    25
 74
     0
 42
0.000000001
 43
0.0000001
 40
0.0
 40
0.0
 40
0.0
 40
0.0
 40
0.0003041359
 40
0.0012153801
 40
0.0027319883
 40
0.004852218
 40
0.0075743281
 40
0.0108965794
 40
0.0193345552
 40
0.0301494129
 40
0.0433130343
 40
0.0587944589
 40
0.0765627352
 40
0.0965808948
 40
0.1187878685
 40
0.1694998846
 40
0.228162105
 40
0.2942379281
 40
0.3671444899
 40
0.4461135941
 40
0.5303308365
 40
0.618982002
 40
0.8061234206
 40
1.0
 40
1.0
 40
1.0
 40
1.0
 10
56.3503615088
 20
198.289159565
 30
0.0
 10
56.3502579125
 20
198.2891595493
 30
0.0
 10
56.3505292233
 20
198.2898253711
 30
0.0
 10
56.3503048118
 20
198.2905124219
 30
0.0
 10
56.3504891419
 20
198.2921994816
 30
0.0
 10
56.3504827273
 20
198.2943036787
 30
0.0
 10
56.3505769697
 20
198.2971074808
 30
0.0
 10
56.3506848133
 20
198.3020278449
 30
0.0
 10
56.350866851
 20
198.3097228488
 30
0.0
 10
56.3510936353
 20
198.3207591138
 30
0.0
 10
56.3513534373
 20
198.3341988051
 30
0.0
 10
56.3516338405
 20
198.3500054568
 30
0.0
 10
56.3519307053
 20
198.3681475246
 30
0.0
 10
56.3522370092
 20
198.3885804417
 30
0.0
 10
56.3526719937
 20
198.420234183
 30
0.0
 10
56.353205697
 20
198.4650508741
 30
0.0
 10
56.3537866771
 20
198.5248107558
 30
0.0
 10
56.3542957664
 20
198.592131555
 30
0.0
 10
56.3546954213
 20
198.666370243
 30
0.0
 10
56.3549454748
 20
198.7467890471
 30
0.0
 10
56.3550049635
 20
198.8325712487
 30
0.0
 10
56.3547718839
 20
198.9551994423
 30
0.0
 10
56.3537773744
 20
199.1151784761
 30
0.0
 10
56.3518007738
 20
199.2449509469
 30
0.0
 10
56.3503615063
 20
199.31097445
 30
0.0
  0
LINE
  5
40A
330
237
100
AcDbEntity
 67
     1
  8
7_ALL_FEATURES
  6
Continuous
 62
     9
100
AcDbLine
 10
96.974223
 20
205.145284
 30
0.0
 11
98.002969
 21
199.310974
 31
0.0
  0
ARC
  5
40B
330
237
100
AcDbEntity
 67
     1
  8
7_ALL_FEATURES
  6
Continuous
 62
     9
100
AcDbCircle
 10
91.413869
 20
204.164844
 30
0.0
 40
5.6461308742
100
AcDbArc
 50
10.0
 51
170.0
  0
LINE
  5
40C
330
237
100
AcDbEntity
 67
     1
  8
7_ALL_FEATURES
  6
Continuous
 62
     9
100
AcDbLine
 10
84.82477
 20
199.310974
 30
0.0
 11
85.853516
 21
205.145284
 31
0.0
  0
LINE
  5
40D
330
237
100
AcDbEntity
 67
     1
  8
7_ALL_FEATURES
  6
Continuous
 62
     9
100
AcDbLine
 10
84.82477
 20
199.310974
 30
0.0
 11
56.350362
 21
199.310974
 31
0.0
  0
LINE
  5
40E
330
237
100
AcDbEntity
 67
     1
  8
7_ALL_FEATURES
  6
Continuous
 62
     9
100
AcDbLine
 10
56.350362
 20
199.310974
 30
0.0
 11
56.55865
 21
208.856712
 31
0.0
  0
SPLINE
  5
40F
330
237
100
AcDbEntity
 67
     1
  8
7_ALL_FEATURES
  6
Continuous
 62
     9
100
AcDbSpline
 70
     0
 71
     3
 72
     9
 73
     5
 74
     0
 42
0.000000001
 43
0.0000001
 40
0.0
 40
0.0
 40
0.0
 40
0.0
 40
0.4999209016
 40
1.0
 40
1.0
 40
1.0
 40
1.0
 10
56.5586488599
 20
208.8567122144
 30
0.0
 10
56.5644930356
 20
209.1260681342
 30
0.0
 10
56.6289816566
 20
209.6654162043
 30
0.0
 10
56.804705496
 20
210.1794007104
 30
0.0
 10
56.9162619058
 20
210.4247328931
 30
0.0
  0
SPLINE
  5
410
330
237
100
AcDbEntity
 67
     1
  8
7_ALL_FEATURES
  6
Continuous
 62
     9
100
AcDbSpline
 70
     0
 71
     3
 72
    19
 73
    15
 74
     0
 42
0.000000001
 43
0.0000001
 40
0.0
 40
0.0
 40
0.0
 40
0.0
 40
0.0625110271
 40
0.1250232272
 40
0.1875367927
 40
0.2500517364
 40
0.3750058651
 40
0.4999652596
 40
0.6249293831
 40
0.7498973748
 40
0.812422425
 40
0.8749479762
 40
0.9374738517
 40
1.0
 40
1.0
 40
1.0
 40
1.0
 10
56.9162636405
 20
210.4247321048
 30
0.0
 10
57.604030345
 20
211.9377544155
 30
0.0
 10
59.0884762815
 20
214.9156744823
 30
0.0
 10
61.6276914431
 20
219.2114296213
 30
0.0
 10
64.4680577045
 20
223.3150459076
 30
0.0
 10
68.6337721945
 20
228.4998984417
 30
0.0
 10
74.5217557134
 20
234.4029910368
 30
0.0
 10
82.5215494966
 20
240.4040167536
 30
0.0
 10
91.295053798
 20
245.2042328427
 30
0.0
 10
99.1060731875
 20
248.1224033736
 30
0.0
 10
105.5508422435
 20
249.7696954018
 30
0.0
 10
110.4629057681
 20
250.6576693069
 30
0.0
 10
115.425427651
 20
251.1918519301
 30
0.0
 10
118.751462744
 20
251.3109739698
 30
0.0
 10
120.4138694572
 20
251.3109740165
 30
0.0
  0
SPLINE
  5
411
330
237
100
AcDbEntity
 67
     1
  8
7_ALL_FEATURES
  6
Continuous
 62
     9
100
AcDbSpline
 70
     0
 71
     3
 72
    19
 73
    15
 74
     0
 42
0.000000001
 43
0.0000001
 40
0.0
 40
0.0
 40
0.0
 40
0.0
 40
0.0625261479
 40
0.1250520232
 40
0.1875775741
 40
0.2501026239
 40
0.3750706141
 40
0.500034736
 40
0.624994129
 40
0.7499482561
 40
0.8124632014
 40
0.8749767646
 40
0.9374889586
 40
1.0
 40
1.0
 40
1.0
 40
1.0
 10
120.4138694572
 20
251.310974016
 30
0.0
 10
122.076286651
 20
251.3109740108
 30
0.0
 10
125.4023427347
 20
251.1918504701
 30
0.0
 10
130.3648955884
 20
250.657661035
 30
0.0
 10
135.2769891417
 20
249.769675989
 30
0.0
 10
141.7217962788
 20
248.1223634276
 30
0.0
 10
149.5328586419
 20
245.2041567113
 30
0.0
 10
158.3064034026
 20
240.4038824716
 30
0.0
 10
166.3062235556
 20
234.4027862435
 30
0.0
 10
172.1942151649
 20
228.4996269074
 30
0.0
 10
176.3599266455
 20
223.3147181183
 30
0.0
 10
179.2002858038
 20
219.2110587693
 30
0.0
 10
181.7394890257
 20
214.9152597494
 30
0.0
 10
183.2239235672
 20
211.937310251
 30
0.0
 10
183.9116838476
 20
210.4242730801
 30
0.0
  0
SPLINE
  5
412
330
237
100
AcDbEntity
 67
     1
  8
7_ALL_FEATURES
  6
Continuous
 62
     9
100
AcDbSpline
 70
     0
 71
     3
 72
     9
 73
     5
 74
     0
 42
0.000000001
 43
0.0000001
 40
0.0
 40
0.0
 40
0.0
 40
0.0
 40
0.5000773575
 40
1.0
 40
1.0
 40
1.0
 40
1.0
 10
183.9116856167
 20
210.4242738842
 30
0.0
 10
184.023177316
 20
210.1790051792
 30
0.0
 10
184.1987959941
 20
209.6651654421
 30
0.0
 10
184.263247595
 20
209.1259854879
 30
0.0
 10
184.2690899775
 20
208.8567122144
 30
0.0
  0
LINE
  5
413
330
237
100
AcDbEntity
 67
     1
  8
7_ALL_FEATURES
  6
Continuous
 62
     9
100
AcDbLine
 10
184.477377
 20
199.310974
 30
0.0
 11
184.269089
 21
208.856712
 31
0.0
  0
LINE
  5
414
330
237
100
AcDbEntity
 67
     1
  8
7_ALL_FEATURES
  6
Continuous
 62
     9
100
AcDbLine
 10
184.477377
 20
199.310974
 30
0.0
 11
98.002969
 21
199.310974
 31
0.0
  0
ELLIPSE
  5
415
330
237
100
AcDbEntity
 67
     1
  8
02___PRT_ALL_AXES
  6
Continuous
 62
     7
100
AcDbEllipse
 10
172.413869
 20
204.210153
 30
0.0
 11
0.0
 21
3.620803456
 31
0.0
210
0.0
220
0.0
230
1.0
 40
0.999762
 41
1.5489745173
 42
4.7342107899
  0
ELLIPSE
  5
416
330
237
100
AcDbEntity
 67
     1
  8
02___PRT_ALL_AXES
  6
Continuous
 62
     7
100
AcDbEllipse
 10
172.413869
 20
204.210153
 30
0.0
 11
0.0
 21
3.620803456
 31
0.0
210
0.0
220
0.0
230
1.0
 40
0.999762
 41
-1.5489745173
 42
1.5489745173
  0
ELLIPSE
  5
417
330
237
100
AcDbEntity
 67
     1
  8
02___PRT_ALL_AXES
  6
Continuous
 62
     7
100
AcDbEllipse
 10
68.413869
 20
204.210153
 30
0.0
 11
0.0
 21
3.620803456
 31
0.0
210
0.0
220
0.0
230
1.0
 40
0.999762
 41
1.5489745173
 42
4.7342107899
  0
ELLIPSE
  5
418
330
237
100
AcDbEntity
 67
     1
  8
02___PRT_ALL_AXES
  6
Continuous
 62
     7
100
AcDbEllipse
 10
68.413869
 20
204.210153
 30
0.0
 11
0.0
 21
3.620803456
 31
0.0
210
0.0
220
0.0
230
1.0
 40
0.999762
 41
-1.5489745173
 42
1.5489745173
  0
LINE
  5
419
330
237
100
AcDbEntity
 67
     1
  8
3_ALL_AXES
  6
Continuous
 62
     7
100
AcDbLine
 10
348.700791
 20
209.88916
 30
0.0
 11
348.259558
 21
209.88916
 31
0.0
  0
LINE
  5
41A
330
237
100
AcDbEntity
 67
     1
  8
3_ALL_AXES
  6
Continuous
 62
     7
100
AcDbLine
 10
348.700791
 20
210.68916
 30
0.0
 11
348.242102
 21
210.68916
 31
0.0
  0
LINE
  5
41B
330
237
100
AcDbEntity
 67
     1
  8
3_ALL_AXES
  6
Continuous
 62
     7
100
AcDbLine
 10
348.70083
 20
210.68916
 30
0.0
 11
348.70083
 21
209.88916
 31
0.0
  0
LINE
  5
41C
330
237
100
AcDbEntity
 67
     1
  8
7_ALL_FEATURES
  6
Continuous
 62
     7
100
AcDbLine
 10
261.75083
 20
213.273214
 30
0.0
 11
261.75083
 21
214.209002
 31
0.0
  0
LINE
  5
41D
330
237
100
AcDbEntity
 67
     1
  8
7_ALL_FEATURES
  6
Continuous
 62
     7
100
AcDbLine
 10
343.25083
 20
214.208343
 30
0.0
 11
343.25083
 21
213.2732
 31
0.0
  0
LINE
  5
41E
330
237
100
AcDbEntity
 67
     1
  8
7_ALL_FEATURES
  6
Continuous
 62
     7
100
AcDbLine
 10
343.25083
 20
250.788221
 30
0.0
 11
343.25083
 21
247.789161
 31
0.0
  0
LINE
  5
41F
330
237
100
AcDbEntity
 67
     1
  8
7_ALL_FEATURES
  6
Continuous
 62
     7
100
AcDbLine
 10
343.25083
 20
247.789161
 30
0.0
 11
343.25083
 21
247.327649
 31
0.0
  0
LINE
  5
420
330
237
100
AcDbEntity
 67
     1
  8
7_ALL_FEATURES
  6
Continuous
 62
     7
100
AcDbLine
 10
343.25083
 20
247.327649
 30
0.0
 11
343.25083
 21
214.208343
 31
0.0
  0
LINE
  5
421
330
237
100
AcDbEntity
 67
     1
  8
7_ALL_FEATURES
  6
Continuous
 62
     7
100
AcDbLine
 10
343.25083
 20
250.788635
 30
0.0
 11
342.750329
 21
251.289159
 31
0.0
  0
LINE
  5
422
330
237
100
AcDbEntity
 67
     1
  8
7_ALL_FEATURES
  6
Continuous
 62
     7
100
AcDbLine
 10
261.75083
 20
250.788643
 30
0.0
 11
262.251324
 21
251.289159
 31
0.0
  0
LINE
  5
423
330
237
100
AcDbEntity
 67
     1
  8
7_ALL_FEATURES
  6
Continuous
 62
     7
100
AcDbLine
 10
342.750328
 20
251.28916
 30
0.0
 11
342.750328
 21
251.28916
 31
0.0
  0
LINE
  5
424
330
237
100
AcDbEntity
 67
     1
  8
7_ALL_FEATURES
  6
Continuous
 62
     7
100
AcDbLine
 10
262.251325
 20
251.28916
 30
0.0
 11
262.251325
 21
251.28916
 31
0.0
  0
LINE
  5
425
330
237
100
AcDbEntity
 67
     1
  8
02___PRT_ALL_AXES
  6
Continuous
 62
     7
100
AcDbLine
 10
262.251324
 20
251.28916
 30
0.0
 11
342.750329
 21
251.28916
 31
0.0
  0
LINE
  5
426
330
237
100
AcDbEntity
 67
     1
  8
7_ALL_FEATURES
  6
Continuous
 62
     7
100
AcDbLine
 10
261.75083
 20
214.209002
 30
0.0
 11
261.75083
 21
247.327911
 31
0.0
  0
LINE
  5
427
330
237
100
AcDbEntity
 67
     1
  8
7_ALL_FEATURES
  6
Continuous
 62
     7
100
AcDbLine
 10
261.75083
 20
247.327911
 30
0.0
 11
261.75083
 21
247.789168
 31
0.0
  0
LINE
  5
428
330
237
100
AcDbEntity
 67
     1
  8
7_ALL_FEATURES
  6
Continuous
 62
     7
100
AcDbLine
 10
261.75083
 20
247.789168
 30
0.0
 11
261.75083
 21
250.788228
 31
0.0
  0
ARC
  5
429
330
237
100
AcDbEntity
 67
     1
  8
7_ALL_FEATURES
  6
Continuous
 62
     7
100
AcDbCircle
 10
187.063498
 20
38.985671
 30
0.0
 40
190.476804792
100
AcDbArc
 50
66.750884
 51
66.914319
  0
LINE
  5
42A
330
237
100
AcDbEntity
 67
     1
  8
7_ALL_FEATURES
  6
Continuous
 62
     7
100
AcDbLine
 10
342.254427
 20
213.555084
 30
0.0
 11
262.747233
 21
213.555084
 31
0.0
  0
ELLIPSE
  5
42B
330
237
100
AcDbEntity
 67
     1
  8
7_ALL_FEATURES
  6
Continuous
 62
     7
100
AcDbEllipse
 10
263.25083
 20
181.28916
 30
0.0
 11
68.0608013465
 21
-68.0608013465
 31
0.0
210
0.0
220
0.0
230
1.0
 40
0.240408
 41
1.8139215521
 42
1.8210203421
  0
ARC
  5
42C
330
237
100
AcDbEntity
 67
     1
  8
7_ALL_FEATURES
  6
Continuous
 62
     7
100
AcDbCircle
 10
417.943685
 20
38.974143
 30
0.0
 40
190.4889694076
100
AcDbArc
 50
113.085927
 51
113.249829
  0
LINE
  5
42D
330
237
100
AcDbEntity
 67
     1
  8
7_ALL_FEATURES
  6
Continuous
 62
     7
100
AcDbLine
 10
342.749858
 20
213.993958
 30
0.0
 11
342.750061
 21
246.289163
 31
0.0
  0
LINE
  5
42E
330
237
100
AcDbEntity
 67
     1
  8
7_ALL_FEATURES
  6
Continuous
 62
     7
100
AcDbLine
 10
342.750061
 20
246.289163
 30
0.0
 11
342.750083
 21
247.28916
 31
0.0
  0
LINE
  5
42F
330
237
100
AcDbEntity
 67
     1
  8
7_ALL_FEATURES
  6
Continuous
 62
     7
100
AcDbLine
 10
342.750083
 20
247.28916
 30
0.0
 11
342.750328
 21
251.28916
 31
0.0
  0
ELLIPSE
  5
430
330
237
100
AcDbEntity
 67
     1
  8
7_ALL_FEATURES
  6
Continuous
 62
     7
100
AcDbEllipse
 10
341.75083
 20
181.28916
 30
0.0
 11
68.0608013465
 21
68.0608013465
 31
0.0
210
0.0
220
0.0
230
1.0
 40
0.240408
 41
1.3205930966
 42
1.3276711015
  0
LINE
  5
431
330
237
100
AcDbEntity
 67
     1
  8
7_ALL_FEATURES
  6
Continuous
 62
     7
100
AcDbLine
 10
262.747233
 20
213.555084
 30
0.0
 11
263.152176
 21
213.011646
 31
0.0
  0
LINE
  5
432
330
237
100
AcDbEntity
 67
     1
  8
7_ALL_FEATURES
  6
Continuous
 62
     7
100
AcDbLine
 10
263.152176
 20
213.011646
 30
0.0
 11
263.235657
 21
212.899614
 31
0.0
  0
LINE
  5
433
330
237
100
AcDbEntity
 67
     1
  8
7_ALL_FEATURES
  6
Continuous
 62
     7
100
AcDbLine
 10
341.766004
 20
212.899614
 30
0.0
 11
341.849485
 21
213.011647
 31
0.0
  0
LINE
  5
434
330
237
100
AcDbEntity
 67
     1
  8
7_ALL_FEATURES
  6
Continuous
 62
     7
100
AcDbLine
 10
341.849485
 20
213.011647
 30
0.0
 11
342.254427
 21
213.555084
 31
0.0
  0
LINE
  5
435
330
237
100
AcDbEntity
 67
     1
  8
7_ALL_FEATURES
  6
Continuous
 62
     7
100
AcDbLine
 10
262.251325
 20
251.28916
 30
0.0
 11
262.251031
 21
247.28916
 31
0.0
  0
LINE
  5
436
330
237
100
AcDbEntity
 67
     1
  8
7_ALL_FEATURES
  6
Continuous
 62
     7
100
AcDbLine
 10
262.251031
 20
247.28916
 30
0.0
 11
262.250996
 21
246.289154
 31
0.0
  0
LINE
  5
437
330
237
100
AcDbEntity
 67
     1
  8
7_ALL_FEATURES
  6
Continuous
 62
     7
100
AcDbLine
 10
262.250996
 20
246.289154
 30
0.0
 11
262.250347
 21
213.995245
 31
0.0
  0
LINE
  5
438
330
237
100
AcDbEntity
 67
     1
  8
7_ALL_FEATURES
  6
Continuous
 62
     7
100
AcDbLine
 10
347.490613
 20
198.28916
 30
0.0
 11
257.511047
 21
198.28916
 31
0.0
  0
LINE
  5
439
330
237
100
AcDbEntity
 67
     1
  8
7_ALL_FEATURES
  6
Continuous
 62
     7
100
AcDbLine
 10
348.304468
 20
207.830957
 30
0.0
 11
348.282086
 21
208.856712
 31
0.0
  0
LINE
  5
43A
330
237
100
AcDbEntity
 67
     1
  8
7_ALL_FEATURES
  6
Continuous
 62
     7
100
AcDbLine
 10
348.490375
 20
199.310974
 30
0.0
 11
348.462481
 21
200.589354
 31
0.0
  0
LINE
  5
43B
330
237
100
AcDbEntity
 67
     1
  8
7_ALL_FEATURES
  6
Continuous
 62
     7
100
AcDbLine
 10
348.490375
 20
199.310974
 30
0.0
 11
348.282086
 21
208.856712
 31
0.0
  0
LINE
  5
43C
330
237
100
AcDbEntity
 67
     1
  8
7_ALL_FEATURES
  6
Continuous
 62
     7
100
AcDbLine
 10
348.282086
 20
208.856712
 30
0.0
 11
348.247872
 21
210.424732
 31
0.0
  0
LINE
  5
43D
330
237
100
AcDbEntity
 67
     1
  8
7_ALL_FEATURES
  6
Continuous
 62
     7
100
AcDbLine
 10
348.247872
 20
210.424732
 30
0.0
 11
347.355731
 21
251.310974
 31
0.0
  0
LINE
  5
43E
330
237
100
AcDbEntity
 67
     1
  8
7_ALL_FEATURES
  6
Continuous
 62
     7
100
AcDbLine
 10
347.355731
 20
251.310974
 30
0.0
 11
348.242102
 21
210.68916
 31
0.0
  0
LINE
  5
43F
330
237
100
AcDbEntity
 67
     1
  8
7_ALL_FEATURES
  6
Continuous
 62
     7
100
AcDbLine
 10
256.511285
 20
199.310974
 30
0.0
 11
256.53918
 21
200.589354
 31
0.0
  0
LINE
  5
440
330
237
100
AcDbEntity
 67
     1
  8
7_ALL_FEATURES
  6
Continuous
 62
     7
100
AcDbLine
 10
256.697192
 20
207.830957
 30
0.0
 11
256.719574
 21
208.856712
 31
0.0
  0
LINE
  5
441
330
237
100
AcDbEntity
 67
     1
  8
7_ALL_FEATURES
  6
Continuous
 62
     7
100
AcDbLine
 10
256.753792
 20
210.424901
 30
0.0
 11
257.645929
 21
251.310974
 31
0.0
  0
LINE
  5
442
330
237
100
AcDbEntity
 67
     1
  8
7_ALL_FEATURES
  6
Continuous
 62
     7
100
AcDbLine
 10
257.645929
 20
251.310974
 30
0.0
 11
256.753788
 21
210.424732
 31
0.0
  0
LINE
  5
443
330
237
100
AcDbEntity
 67
     1
  8
7_ALL_FEATURES
  6
Continuous
 62
     7
100
AcDbLine
 10
256.753788
 20
210.424732
 30
0.0
 11
256.719574
 21
208.856712
 31
0.0
  0
LINE
  5
444
330
237
100
AcDbEntity
 67
     1
  8
7_ALL_FEATURES
  6
Continuous
 62
     7
100
AcDbLine
 10
256.511285
 20
199.310974
 30
0.0
 11
256.719574
 21
208.856712
 31
0.0
  0
SPLINE
  5
445
330
237
100
AcDbEntity
 67
     1
  8
7_ALL_FEATURES
  6
Continuous
 62
     7
100
AcDbSpline
 70
     0
 71
     3
 72
    15
 73
    11
 74
     0
 42
0.000000001
 43
0.0000001
 40
0.0
 40
0.0
 40
0.0
 40
0.0
 40
0.1251239578
 40
0.2501902893
 40
0.3751537581
 40
0.5
 40
0.6248462419
 40
0.7498097107
 40
0.8748760422
 40
1.0
 40
1.0
 40
1.0
 40
1.0
 10
346.3559688991
 20
252.2891591252
 30
0.0
 10
346.4224815035
 20
252.2891591253
 30
0.0
 10
346.5556520848
 20
252.2824426667
 30
0.0
 10
346.7523650076
 20
252.2449428662
 30
0.0
 10
346.9390240137
 20
252.1706038456
 30
0.0
 10
347.1017972847
 20
252.0514390836
 30
0.0
 10
347.2244845726
 20
251.8913041165
 30
0.0
 10
347.3028778505
 20
251.7063112286
 30
0.0
 10
347.344659999
 20
251.5104631724
 30
0.0
 10
347.3542799611
 20
251.3774708009
 30
0.0
 10
347.3557309262
 20
251.3109740248
 30
0.0
  0
SPLINE
  5
446
330
237
100
AcDbEntity
 67
     1
  8
7_ALL_FEATURES
  6
Continuous
 62
     7
100
AcDbSpline
 70
     0
 71
     3
 72
    15
 73
    11
 74
     0
 42
0.000000001
 43
0.0000001
 40
0.0
 40
0.0
 40
0.0
 40
0.0
 40
0.1251239578
 40
0.2501902893
 40
0.3751537581
 40
0.5
 40
0.6248462419
 40
0.7498097107
 40
0.8748760422
 40
1.0
 40
1.0
 40
1.0
 40
1.0
 10
258.6456913047
 20
252.2891591252
 30
0.0
 10
258.5791787004
 20
252.2891591252
 30
0.0
 10
258.4460081191
 20
252.2824426667
 30
0.0
 10
258.2492951963
 20
252.2449428662
 30
0.0
 10
258.0626361901
 20
252.1706038455
 30
0.0
 10
257.8998629192
 20
252.0514390835
 30
0.0
 10
257.7771756313
 20
251.8913041165
 30
0.0
 10
257.6987823534
 20
251.7063112286
 30
0.0
 10
257.6570002048
 20
251.5104631724
 30
0.0
 10
257.6473802427
 20
251.3774708009
 30
0.0
 10
257.6459292776
 20
251.3109740248
 30
0.0
  0
ARC
  5
447
330
237
100
AcDbEntity
 67
     1
  8
7_ALL_FEATURES
  6
Continuous
 62
     7
100
AcDbCircle
 10
347.490613
 20
199.28916
 30
0.0
 40
1.0
100
AcDbArc
 50
270.0
 51
354.741866
  0
ARC
  5
448
330
237
100
AcDbEntity
 67
     1
  8
7_ALL_FEATURES
  6
Continuous
 62
     7
100
AcDbCircle
 10
347.490613
 20
199.28916
 30
0.0
 40
1.0
100
AcDbArc
 50
354.741866
 51
1.25
  0
ARC
  5
449
330
237
100
AcDbEntity
 67
     1
  8
7_ALL_FEATURES
  6
Continuous
 62
     7
100
AcDbCircle
 10
347.490613
 20
199.28916
 30
0.0
 40
1.0
100
AcDbArc
 50
270.0
 51
276.536171
  0
ARC
  5
44A
330
237
100
AcDbEntity
 67
     1
  8
7_ALL_FEATURES
  6
Continuous
 62
     7
100
AcDbCircle
 10
257.511047
 20
199.28916
 30
0.0
 40
1.0
100
AcDbArc
 50
263.445431
 51
270.0
  0
ARC
  5
44B
330
237
100
AcDbEntity
 67
     1
  8
7_ALL_FEATURES
  6
Continuous
 62
     7
100
AcDbCircle
 10
257.511047
 20
199.28916
 30
0.0
 40
1.0
100
AcDbArc
 50
185.248621
 51
263.445431
  0
ARC
  5
44C
330
237
100
AcDbEntity
 67
     1
  8
7_ALL_FEATURES
  6
Continuous
 62
     7
100
AcDbCircle
 10
257.511047
 20
199.28916
 30
0.0
 40
1.0
100
AcDbArc
 50
178.75
 51
185.248621
  0
ARC
  5
44D
330
237
100
AcDbEntity
 67
     1
  8
7_ALL_FEATURES
  6
Continuous
 62
     7
100
AcDbCircle
 10
347.490613
 20
199.28916
 30
0.0
 40
1.0
100
AcDbArc
 50
270.0
 51
1.25
  0
ARC
  5
44E
330
237
100
AcDbEntity
 67
     1
  8
7_ALL_FEATURES
  6
Continuous
 62
     7
100
AcDbCircle
 10
257.511047
 20
199.28916
 30
0.0
 40
1.0
100
AcDbArc
 50
178.75
 51
270.0
  0
LINE
  5
44F
330
237
100
AcDbEntity
 67
     1
  8
7_ALL_FEATURES
  6
Continuous
 62
     7
100
AcDbLine
 10
347.490613
 20
198.28916
 30
0.0
 11
257.511047
 21
198.28916
 31
0.0
  0
ARC
  5
450
330
237
100
AcDbEntity
 67
     1
  8
7_ALL_FEATURES
  6
Continuous
 62
     7
100
AcDbCircle
 10
262.093803
 20
247.28916
 30
0.0
 40
1.0
100
AcDbArc
 50
181.25
 51
249.910555
  0
ARC
  5
451
330
237
100
AcDbEntity
 67
     1
  8
7_ALL_FEATURES
  6
Continuous
 62
     7
100
AcDbCircle
 10
342.907857
 20
247.28916
 30
0.0
 40
1.0
100
AcDbArc
 50
290.089445
 51
358.75
  0
LWPOLYLINE
  5
452
330
237
100
AcDbEntity
 67
     1
  8
7_ALL_FEATURES
  6
Continuous
 62
     7
100
AcDbPolyline
 90
       16
 70
     0
 43
0.0
 10
261.000473
 20
251.555521
 10
260.997654
 20
251.618962
 10
260.987932
 20
251.710322
 10
260.971432
 20
251.79595
 10
260.947753
 20
251.876073
 10
260.916393
 20
251.950597
 10
260.877163
 20
252.018647
 10
260.829943
 20
252.079661
 10
260.774716
 20
252.133215
 10
260.712142
 20
252.178644
 10
260.642654
 20
252.215943
 10
260.566858
 20
252.245212
 10
260.485681
 20
252.266654
 10
260.399235
 20
252.280788
 10
260.307333
 20
252.288022
 10
260.250652
 20
252.28916
  0
LINE
  5
453
330
237
100
AcDbEntity
 67
     1
  8
7_ALL_FEATURES
  6
Continuous
 62
     7
100
AcDbLine
 10
261.007491
 20
214.419057
 30
0.0
 11
261.007475
 21
214.419207
 31
0.0
  0
LWPOLYLINE
  5
454
330
237
100
AcDbEntity
 67
     1
  8
7_ALL_FEATURES
  6
Continuous
 62
     7
100
AcDbPolyline
 90
       18
 70
     0
 43
0.0
 10
263.001826
 20
212.899612
 10
262.843102
 20
212.90451
 10
262.658303
 20
212.924032
 10
262.47648
 20
212.95823
 10
262.299308
 20
213.006717
 10
262.128424
 20
213.068929
 10
261.965402
 20
213.144121
 10
261.811704
 20
213.231385
 10
261.668632
 20
213.329695
 10
261.53737
 20
213.437893
 10
261.418971
 20
213.554698
 10
261.314341
 20
213.678705
 10
261.224228
 20
213.808388
 10
261.149147
 20
213.942193
 10
261.089355
 20
214.078682
 10
261.044982
 20
214.216347
 10
261.016036
 20
214.353417
 10
261.00749
 20
214.419071
  0
LINE
  5
455
330
237
100
AcDbEntity
 67
     1
  8
7_ALL_FEATURES
  6
Continuous
 62
     7
100
AcDbLine
 10
341.999834
 20
212.899614
 30
0.0
 11
263.001826
 21
212.899614
 31
0.0
  0
LWPOLYLINE
  5
456
330
237
100
AcDbEntity
 67
     1
  8
7_ALL_FEATURES
  6
Continuous
 62
     7
100
AcDbPolyline
 90
       18
 70
     0
 43
0.0
 10
343.99417
 20
214.419072
 10
343.985639
 20
214.353514
 10
343.956731
 20
214.216546
 10
343.912419
 20
214.078982
 10
343.85271
 20
213.942589
 10
343.777734
 20
213.80887
 10
343.687745
 20
213.679261
 10
343.583258
 20
213.555313
 10
343.465018
 20
213.43855
 10
343.333928
 20
213.330373
 10
343.191036
 20
213.232061
 10
343.037524
 20
213.144771
 10
342.87469
 20
213.069529
 10
342.703992
 20
213.00724
 10
342.526998
 20
212.958649
 10
342.345341
 20
212.924324
 10
342.160692
 20
212.90465
 10
341.999834
 20
212.899612
  0
LWPOLYLINE
  5
457
330
237
100
AcDbEntity
 67
     1
  8
7_ALL_FEATURES
  6
Continuous
 62
     7
100
AcDbPolyline
 90
       16
 70
     0
 43
0.0
 10
344.751009
 20
252.28916
 10
344.694327
 20
252.288022
 10
344.602425
 20
252.280788
 10
344.515979
 20
252.266654
 10
344.434802
 20
252.245212
 10
344.359006
 20
252.215943
 10
344.289518
 20
252.178644
 10
344.226944
 20
252.133215
 10
344.171717
 20
252.079661
 10
344.124497
 20
252.018647
 10
344.085267
 20
251.950597
 10
344.053907
 20
251.876073
 10
344.030228
 20
251.79595
 10
344.013728
 20
251.710322
 10
344.004006
 20
251.618962
 10
344.001187
 20
251.555521
  0
LINE
  5
458
330
237
100
AcDbEntity
 67
     1
  8
7_ALL_FEATURES
  6
Continuous
 62
     7
100
AcDbLine
 10
343.994185
 20
214.419208
 30
0.0
 11
343.99417
 21
214.419058
 31
0.0
  0
LINE
  5
459
330
237
100
AcDbEntity
 67
     1
  8
7_ALL_FEATURES
  6
Continuous
 62
     7
100
AcDbLine
 10
344.001187
 20
251.555521
 30
0.0
 11
343.907619
 21
247.267345
 31
0.0
  0
LINE
  5
45A
330
237
100
AcDbEntity
 67
     1
  8
7_ALL_FEATURES
  6
Continuous
 62
     7
100
AcDbLine
 10
261.094041
 20
247.267345
 30
0.0
 11
261.000473
 21
251.555521
 31
0.0
  0
LINE
  5
45B
330
237
100
AcDbEntity
 67
     1
  8
7_ALL_FEATURES
  6
Continuous
 62
     7
100
AcDbLine
 10
260.25065
 20
252.28916
 30
0.0
 11
258.645691
 21
252.28916
 31
0.0
  0
LINE
  5
45C
330
237
100
AcDbEntity
 67
     1
  8
7_ALL_FEATURES
  6
Continuous
 62
     7
100
AcDbLine
 10
346.355969
 20
252.28916
 30
0.0
 11
344.751011
 21
252.28916
 31
0.0
  0
LINE
  5
45D
330
237
100
AcDbEntity
 67
     1
  8
7_ALL_FEATURES
  6
Continuous
 62
     9
100
AcDbLine
 10
347.248109
 20
210.816724
 30
0.0
 11
346.355969
 21
252.28916
 31
0.0
  0
LINE
  5
45E
330
237
100
AcDbEntity
 67
     1
  8
7_ALL_FEATURES
  6
Continuous
 62
     9
100
AcDbLine
 10
257.753551
 20
210.816724
 30
0.0
 11
347.248109
 21
210.816724
 31
0.0
  0
LINE
  5
45F
330
237
100
AcDbEntity
 67
     1
  8
7_ALL_FEATURES
  6
Continuous
 62
     9
100
AcDbLine
 10
260.250026
 20
214.916767
 30
0.0
 11
260.250651
 21
252.28916
 31
0.0
  0
SPLINE
  5
460
330
237
100
AcDbEntity
 67
     1
  8
7_ALL_FEATURES
  6
Continuous
 62
     9
100
AcDbSpline
 70
     0
 71
     3
 72
    16
 73
    12
 74
     0
 42
0.000000001
 43
0.0000001
 40
0.0
 40
0.0
 40
0.0
 40
0.0
 40
0.1324137242
 40
0.1983256341
 40
0.2638449037
 40
0.3931721786
 40
0.5198997573
 40
0.6437001885
 40
0.7646165905
 40
0.8831011634
 40
1.0
 40
1.0
 40
1.0
 40
1.0
 10
263.0018258819
 20
212.4438601633
 30
0.0
 10
262.820979729
 20
212.4438519031
 30
0.0
 10
262.5492809832
 20
212.4682297658
 30
0.0
 10
262.1976577568
 20
212.5486676434
 30
0.0
 10
261.8586533399
 20
212.6591906927
 30
0.0
 10
261.4610813936
 20
212.8520873317
 30
0.0
 10
261.0421685463
 20
213.1633163607
 30
0.0
 10
260.6985444768
 20
213.5410097325
 30
0.0
 10
260.4431569034
 20
213.9703972358
 30
0.0
 10
260.28570211
 20
214.4345663128
 30
0.0
 10
260.2500097687
 20
214.7571103921
 30
0.0
 10
260.2500225103
 20
214.9167668398
 30
0.0
  0
SPLINE
  5
461
330
237
100
AcDbEntity
 67
     1
  8
7_ALL_FEATURES
  6
Continuous
 62
     9
100
AcDbSpline
 70
     0
 71
     3
 72
    29
 73
    25
 74
     0
 42
0.000000001
 43
0.0000001
 40
0.0
 40
0.0
 40
0.0
 40
0.0
 40
0.0003041359
 40
0.0012153801
 40
0.0027319883
 40
0.004852218
 40
0.0075743281
 40
0.0108965794
 40
0.0193345552
 40
0.0301494129
 40
0.0433130343
 40
0.0587944589
 40
0.0765627352
 40
0.0965808948
 40
0.1187878685
 40
0.1694998846
 40
0.228162105
 40
0.2942379281
 40
0.3671444899
 40
0.4461135941
 40
0.5303308365
 40
0.618982002
 40
0.8061234206
 40
1.0
 40
1.0
 40
1.0
 40
1.0
 10
257.5110472777
 20
198.289159565
 30
0.0
 10
257.5109436814
 20
198.2891595652
 30
0.0
 10
257.5112149922
 20
198.2898253483
 30
0.0
 10
257.5109905806
 20
198.2905124365
 30
0.0
 10
257.5111749107
 20
198.2921994749
 30
0.0
 10
257.5111684962
 20
198.2943036814
 30
0.0
 10
257.5112627386
 20
198.2971074798
 30
0.0
 10
257.5113705821
 20
198.3020278457
 30
0.0
 10
257.5115526199
 20
198.3097228484
 30
0.0
 10
257.5117794041
 20
198.320759114
 30
0.0
 10
257.5120392061
 20
198.334198805
 30
0.0
 10
257.5123196094
 20
198.3500054568
 30
0.0
 10
257.5126164742
 20
198.3681475246
 30
0.0
 10
257.512922778
 20
198.3885804417
 30
0.0
 10
257.5133577626
 20
198.420234183
 30
0.0
 10
257.5138914658
 20
198.4650508741
 30
0.0
 10
257.514472446
 20
198.5248107558
 30
0.0
 10
257.5149815352
 20
198.592131555
 30
0.0
 10
257.5153811902
 20
198.666370243
 30
0.0
 10
257.5156312437
 20
198.7467890471
 30
0.0
 10
257.5156907323
 20
198.8325712487
 30
0.0
 10
257.5154576527
 20
198.9551994423
 30
0.0
 10
257.5144631432
 20
199.1151784761
 30
0.0
 10
257.5124865426
 20
199.2449509469
 30
0.0
 10
257.5110472752
 20
199.31097445
 30
0.0
  0
LINE
  5
462
330
237
100
AcDbEntity
 67
     1
  8
7_ALL_FEATURES
  6
Continuous
 62
     9
100
AcDbLine
 10
341.999834
 20
212.443863
 30
0.0
 11
263.001826
 21
212.443863
 31
0.0
  0
SPLINE
  5
463
330
237
100
AcDbEntity
 67
     1
  8
7_ALL_FEATURES
  6
Continuous
 62
     9
100
AcDbSpline
 70
     0
 71
     3
 72
    16
 73
    12
 74
     0
 42
0.000000001
 43
0.0000001
 40
0.0
 40
0.0
 40
0.0
 40
0.0
 40
0.1168988374
 40
0.2353834112
 40
0.356299814
 40
0.4801002457
 40
0.6068278245
 40
0.7361550989
 40
0.801674368
 40
0.8675862773
 40
1.0
 40
1.0
 40
1.0
 40
1.0
 10
344.7516377532
 20
214.9167668409
 30
0.0
 10
344.7516504937
 20
214.7571103926
 30
0.0
 10
344.7159581507
 20
214.4345663123
 30
0.0
 10
344.5585033561
 20
213.9703972341
 30
0.0
 10
344.3031157824
 20
213.5410097296
 30
0.0
 10
343.9594917134
 20
213.1633163574
 30
0.0
 10
343.5405788673
 20
212.8520873294
 30
0.0
 10
343.143006923
 20
212.6591906922
 30
0.0
 10
342.8040025091
 20
212.5486676447
 30
0.0
 10
342.4523792873
 20
212.468229769
 30
0.0
 10
342.1806805454
 20
212.4438519069
 30
0.0
 10
341.9998343953
 20
212.4438601672
 30
0.0
  0
LINE
  5
464
330
237
100
AcDbEntity
 67
     1
  8
7_ALL_FEATURES
  6
Continuous
 62
     9
100
AcDbLine
 10
344.001187
 20
251.555521
 30
0.0
 11
344.002439
 21
214.579265
 31
0.0
  0
LINE
  5
465
330
237
100
AcDbEntity
 67
     1
  8
7_ALL_FEATURES
  6
Continuous
 62
     9
100
AcDbLine
 10
261.007475
 20
214.419207
 30
0.0
 11
260.999222
 21
214.579263
 31
0.0
  0
SPLINE
  5
466
330
237
100
AcDbEntity
 67
     1
  8
7_ALL_FEATURES
  6
Continuous
 62
     9
100
AcDbSpline
 70
     0
 71
     3
 72
    11
 73
     7
 74
     0
 42
0.000000001
 43
0.0000001
 40
0.0
 40
0.0
 40
0.0
 40
0.0
 40
0.068242166
 40
0.2682459506
 40
0.5861687195
 40
1.0
 40
1.0
 40
1.0
 40
1.0
 10
343.9076187696
 20
247.26734468
 30
0.0
 10
343.906607139
 20
246.508357591
 30
0.0
 10
343.9025014078
 20
243.5249352301
 30
0.0
 10
343.8923040637
 20
237.005588241
 30
0.0
 10
343.8712934715
 20
226.6426209758
 30
0.0
 10
343.8462763894
 20
218.504102031
 30
0.0
 10
343.8262466386
 20
213.9015238143
 30
0.0
  0
LINE
  5
467
330
237
100
AcDbEntity
 67
     1
  8
7_ALL_FEATURES
  6
Continuous
 62
     9
100
AcDbLine
 10
258.645691
 20
252.28916
 30
0.0
 11
257.753551
 21
210.816724
 31
0.0
  0
LINE
  5
468
330
237
100
AcDbEntity
 67
     1
  8
7_ALL_FEATURES
  6
Continuous
 62
     9
100
AcDbLine
 10
344.751009
 20
252.28916
 30
0.0
 11
344.751635
 21
214.916767
 31
0.0
  0
SPLINE
  5
469
330
237
100
AcDbEntity
 67
     1
  8
7_ALL_FEATURES
  6
Continuous
 62
     9
100
AcDbSpline
 70
     0
 71
     3
 72
    11
 73
     7
 74
     0
 42
0.000000001
 43
0.0000001
 40
0.0
 40
0.0
 40
0.0
 40
0.0
 40
0.4138312731
 40
0.7317540437
 40
0.9317578322
 40
1.0
 40
1.0
 40
1.0
 40
1.0
 10
261.1754136028
 20
213.9015149533
 30
0.0
 10
261.1553838445
 20
218.5040943097
 30
0.0
 10
261.1303667437
 20
226.6426153527
 30
0.0
 10
261.1093561451
 20
237.0055853504
 30
0.0
 10
261.0991587976
 20
243.5249341535
 30
0.0
 10
261.0950530651
 20
246.5083573698
 30
0.0
 10
261.0940414343
 20
247.26734468
 30
0.0
  0
LINE
  5
46A
330
237
100
AcDbEntity
 67
     1
  8
7_ALL_FEATURES
  6
Continuous
 62
     9
100
AcDbLine
 10
260.999222
 20
214.579263
 30
0.0
 11
261.015541
 21
214.419815
 31
0.0
  0
LINE
  5
46B
330
237
100
AcDbEntity
 67
     1
  8
7_ALL_FEATURES
  6
Continuous
 62
     9
100
AcDbLine
 10
261.015541
 20
214.419815
 30
0.0
 11
261.027686
 21
214.299312
 31
0.0
  0
LINE
  5
46C
330
237
100
AcDbEntity
 67
     1
  8
7_ALL_FEATURES
  6
Continuous
 62
     9
100
AcDbLine
 10
260.999222
 20
214.579265
 30
0.0
 11
261.000473
 21
251.555521
 31
0.0
  0
LINE
  5
46D
330
237
100
AcDbEntity
 67
     1
  8
7_ALL_FEATURES
  6
Continuous
 62
     9
100
AcDbLine
 10
343.973821
 20
214.297781
 30
0.0
 11
343.986123
 21
214.419856
 31
0.0
  0
LINE
  5
46E
330
237
100
AcDbEntity
 67
     1
  8
7_ALL_FEATURES
  6
Continuous
 62
     9
100
AcDbLine
 10
343.986123
 20
214.419856
 30
0.0
 11
344.002438
 21
214.579263
 31
0.0
  0
LINE
  5
46F
330
237
100
AcDbEntity
 67
     1
  8
7_ALL_FEATURES
  6
Continuous
 62
     9
100
AcDbLine
 10
347.490613
 20
199.310974
 30
0.0
 11
257.511047
 21
199.310974
 31
0.0
  0
LINE
  5
470
330
237
100
AcDbEntity
 67
     1
  8
7_ALL_FEATURES
  6
Continuous
 62
     9
100
AcDbLine
 10
257.511047
 20
199.310974
 30
0.0
 11
257.719336
 21
208.856712
 31
0.0
  0
LINE
  5
471
330
237
100
AcDbEntity
 67
     1
  8
7_ALL_FEATURES
  6
Continuous
 62
     9
100
AcDbLine
 10
257.719336
 20
208.856712
 30
0.0
 11
347.282324
 21
208.856712
 31
0.0
  0
LINE
  5
472
330
237
100
AcDbEntity
 67
     1
  8
7_ALL_FEATURES
  6
Continuous
 62
     9
100
AcDbLine
 10
347.490613
 20
199.310974
 30
0.0
 11
347.282324
 21
208.856712
 31
0.0
  0
LINE
  5
473
330
237
100
AcDbEntity
 67
     1
  8
7_ALL_FEATURES
  6
Continuous
 62
     9
100
AcDbLine
 10
344.002438
 20
214.579263
 30
0.0
 11
343.994185
 21
214.419208
 31
0.0
  0
SPLINE
  5
474
330
237
100
AcDbEntity
 67
     1
  8
7_ALL_FEATURES
  6
Continuous
 62
     9
100
AcDbSpline
 70
     0
 71
     3
 72
    15
 73
    11
 74
     0
 42
0.000000001
 43
0.0000001
 40
0.0
 40
0.0
 40
0.0
 40
0.0
 40
0.0828613463
 40
0.1641235106
 40
0.2533579941
 40
0.3579704399
 40
0.4826558504
 40
0.6302053554
 40
0.8023011958
 40
1.0
 40
1.0
 40
1.0
 40
1.0
 10
348.2478721309
 20
210.4247214598
 30
0.0
 10
348.2471639153
 20
210.4571785179
 30
0.0
 10
348.236170785
 20
210.5220432789
 30
0.0
 10
348.1842597551
 20
210.6091006373
 30
0.0
 10
348.1004715681
 20
210.679341476
 30
0.0
 10
347.987427899
 20
210.7341606243
 30
0.0
 10
347.8450650741
 20
210.7751372006
 30
0.0
 10
347.6728893575
 20
210.8028028105
 30
0.0
 10
347.4705291174
 20
210.8173024311
 30
0.0
 10
347.3255551386
 20
210.8181242139
 30
0.0
 10
347.2481101047
 20
210.8167237362
 30
0.0
  0
SPLINE
  5
475
330
237
100
AcDbEntity
 67
     1
  8
7_ALL_FEATURES
  6
Continuous
 62
     9
100
AcDbSpline
 70
     0
 71
     3
 72
    21
 73
    17
 74
     0
 42
0.000000001
 43
0.0000001
 40
0.0
 40
0.0
 40
0.0
 40
0.0
 40
0.0016569101
 40
0.0048566421
 40
0.0168138791
 40
0.0364487017
 40
0.0638314551
 40
0.0989860039
 40
0.1419232556
 40
0.1926490977
 40
0.2511670669
 40
0.3174794531
 40
0.3915878236
 40
0.5631965262
 40
0.7659994042
 40
1.0
 40
1.0
 40
1.0
 40
1.0
 10
256.7195739826
 20
208.8567118959
 30
0.0
 10
256.7195860446
 20
208.8572646887
 30
0.0
 10
256.7210328612
 20
208.8585241401
 30
0.0
 10
256.7262160523
 20
208.8601305334
 30
0.0
 10
256.7379015077
 20
208.8620150249
 30
0.0
 10
256.7574022526
 20
208.8636481563
 30
0.0
 10
256.7848386019
 20
208.8651088739
 30
0.0
 10
256.8200004218
 20
208.8662270676
 30
0.0
 10
256.8629881254
 20
208.8670392478
 30
0.0
 10
256.91376806
 20
208.8675174772
 30
0.0
 10
256.9723535557
 20
208.8676644794
 30
0.0
 10
257.038740754
 20
208.8674757769
 30
0.0
 10
257.1428652492
 20
208.8667366348
 30
0.0
 10
257.2925293651
 20
208.8648775024
 30
0.0
 10
257.4955323188
 20
208.8614110867
 30
0.0
 10
257.6412666699
 20
208.8584145643
 30
0.0
 10
257.7193360097
 20
208.8567118959
 30
0.0
  0
SPLINE
  5
476
330
237
100
AcDbEntity
 67
     1
  8
7_ALL_FEATURES
  6
Continuous
 62
     9
100
AcDbSpline
 70
     0
 71
     3
 72
    21
 73
    17
 74
     0
 42
0.000000001
 43
0.0000001
 40
0.0
 40
0.0
 40
0.0
 40
0.0
 40
0.0016569101
 40
0.0048566421
 40
0.0168138791
 40
0.0364487017
 40
0.0638314551
 40
0.0989860039
 40
0.1419232556
 40
0.1926490977
 40
0.2511670669
 40
0.3174794531
 40
0.3915878236
 40
0.5631965262
 40
0.7659994042
 40
1.0
 40
1.0
 40
1.0
 40
1.0
 10
256.5112852506
 20
199.31097445
 30
0.0
 10
256.5112973126
 20
199.3115272429
 30
0.0
 10
256.5127441292
 20
199.3127866942
 30
0.0
 10
256.5179273203
 20
199.3143930875
 30
0.0
 10
256.5296127757
 20
199.316277579
 30
0.0
 10
256.5491135205
 20
199.3179107104
 30
0.0
 10
256.5765498698
 20
199.3193714281
 30
0.0
 10
256.6117116898
 20
199.3204896218
 30
0.0
 10
256.6546993934
 20
199.3213018019
 30
0.0
 10
256.705479328
 20
199.3217800313
 30
0.0
 10
256.7640648237
 20
199.3219270335
 30
0.0
 10
256.830452022
 20
199.321738331
 30
0.0
 10
256.9345765172
 20
199.320999189
 30
0.0
 10
257.0842406331
 20
199.3191400566
 30
0.0
 10
257.2872435868
 20
199.3156736408
 30
0.0
 10
257.4329779379
 20
199.3126771184
 30
0.0
 10
257.5110472777
 20
199.31097445
 30
0.0
  0
SPLINE
  5
477
330
237
100
AcDbEntity
 67
     1
  8
7_ALL_FEATURES
  6
Continuous
 62
     9
100
AcDbSpline
 70
     0
 71
     3
 72
    21
 73
    17
 74
     0
 42
0.000000001
 43
0.0000001
 40
0.0
 40
0.0
 40
0.0
 40
0.0
 40
0.2340005958
 40
0.4368034738
 40
0.6084121764
 40
0.6825205469
 40
0.7488329331
 40
0.8073509023
 40
0.8580767444
 40
0.9010139961
 40
0.9361685449
 40
0.9635512983
 40
0.9831861209
 40
0.9951433579
 40
0.9983430899
 40
1.0
 40
1.0
 40
1.0
 40
1.0
 10
347.4906129262
 20
199.31097445
 30
0.0
 10
347.568682266
 20
199.3126771184
 30
0.0
 10
347.7144166171
 20
199.3156736408
 30
0.0
 10
347.9174195707
 20
199.3191400566
 30
0.0
 10
348.0670836867
 20
199.320999189
 30
0.0
 10
348.1712081819
 20
199.321738331
 30
0.0
 10
348.2375953802
 20
199.3219270335
 30
0.0
 10
348.2961808759
 20
199.3217800313
 30
0.0
 10
348.3469608105
 20
199.3213018019
 30
0.0
 10
348.3899485141
 20
199.3204896218
 30
0.0
 10
348.425110334
 20
199.3193714281
 30
0.0
 10
348.4525466833
 20
199.3179107104
 30
0.0
 10
348.4720474282
 20
199.316277579
 30
0.0
 10
348.4837328836
 20
199.3143930875
 30
0.0
 10
348.4889160747
 20
199.3127866942
 30
0.0
 10
348.4903628913
 20
199.3115272429
 30
0.0
 10
348.4903749533
 20
199.31097445
 30
0.0
  0
SPLINE
  5
478
330
237
100
AcDbEntity
 67
     1
  8
7_ALL_FEATURES
  6
Continuous
 62
     9
100
AcDbSpline
 70
     0
 71
     3
 72
    21
 73
    17
 74
     0
 42
0.000000001
 43
0.0000001
 40
0.0
 40
0.0
 40
0.0
 40
0.0
 40
0.2340005958
 40
0.4368034738
 40
0.6084121764
 40
0.6825205469
 40
0.7488329331
 40
0.8073509023
 40
0.8580767444
 40
0.9010139961
 40
0.9361685449
 40
0.9635512983
 40
0.9831861209
 40
0.9951433579
 40
0.9983430899
 40
1.0
 40
1.0
 40
1.0
 40
1.0
 10
347.2823241942
 20
208.8567118959
 30
0.0
 10
347.3603935339
 20
208.8584145643
 30
0.0
 10
347.5061278851
 20
208.8614110867
 30
0.0
 10
347.7091308387
 20
208.8648775024
 30
0.0
 10
347.8587949546
 20
208.8667366348
 30
0.0
 10
347.9629194498
 20
208.8674757769
 30
0.0
 10
348.0293066482
 20
208.8676644794
 30
0.0
 10
348.0878921439
 20
208.8675174772
 30
0.0
 10
348.1386720785
 20
208.8670392478
 30
0.0
 10
348.1816597821
 20
208.8662270676
 30
0.0
 10
348.216821602
 20
208.8651088739
 30
0.0
 10
348.2442579513
 20
208.8636481563
 30
0.0
 10
348.2637586961
 20
208.8620150249
 30
0.0
 10
348.2754441516
 20
208.8601305334
 30
0.0
 10
348.2806273427
 20
208.8585241401
 30
0.0
 10
348.2820741593
 20
208.8572646887
 30
0.0
 10
348.2820862213
 20
208.8567118959
 30
0.0
  0
LINE
  5
479
330
237
100
AcDbEntity
 67
     1
  8
7_ALL_FEATURES
  6
Continuous
 62
     9
100
AcDbLine
 10
347.24811
 20
210.816725
 30
0.0
 11
347.282324
 21
208.856712
 31
0.0
  0
SPLINE
  5
47A
330
237
100
AcDbEntity
 67
     1
  8
7_ALL_FEATURES
  6
Continuous
 62
     9
100
AcDbSpline
 70
     0
 71
     3
 72
    15
 73
    11
 74
     0
 42
0.000000001
 43
0.0000001
 40
0.0
 40
0.0
 40
0.0
 40
0.0
 40
0.1976987948
 40
0.3697946322
 40
0.5173441402
 40
0.6420295582
 40
0.7466420137
 40
0.835876505
 40
0.9171386686
 40
1.0
 40
1.0
 40
1.0
 40
1.0
 10
257.7535501037
 20
210.8167237344
 30
0.0
 10
257.6761050839
 20
210.818124212
 30
0.0
 10
257.5311311294
 20
210.81730243
 30
0.0
 10
257.3287709198
 20
210.802802816
 30
0.0
 10
257.1565952223
 20
210.7751372178
 30
0.0
 10
257.0142324052
 20
210.7341606586
 30
0.0
 10
256.9011887334
 20
210.6793415337
 30
0.0
 10
256.8174005319
 20
210.6091007274
 30
0.0
 10
256.7654894698
 20
210.5220434093
 30
0.0
 10
256.7544963075
 20
210.457178669
 30
0.0
 10
256.7537880765
 20
210.4247216214
 30
0.0
  0
LINE
  5
47B
330
237
100
AcDbEntity
 67
     1
  8
7_ALL_FEATURES
  6
Continuous
 62
     9
100
AcDbLine
 10
257.719336
 20
208.856712
 30
0.0
 11
257.75355
 21
210.816725
 31
0.0
  0
SPLINE
  5
47C
330
237
100
AcDbEntity
 67
     1
  8
7_ALL_FEATURES
  6
Continuous
 62
     9
100
AcDbSpline
 70
     0
 71
     3
 72
    16
 73
    12
 74
     0
 42
0.000000001
 43
0.0000001
 40
0.0
 40
0.0
 40
0.0
 40
0.0
 40
0.1637319719
 40
0.3251395313
 40
0.4795500922
 40
0.5518764731
 40
0.6195450788
 40
0.7382504616
 40
0.8364498305
 40
0.9212407105
 40
1.0
 40
1.0
 40
1.0
 40
1.0
 10
344.7516345361
 20
214.9167668407
 30
0.0
 10
344.7027065239
 20
214.9167649676
 30
0.0
 10
344.6055121934
 20
214.914445234
 30
0.0
 10
344.4626605904
 20
214.9016901144
 30
0.0
 10
344.3482867515
 20
214.8807370972
 30
0.0
 10
344.2637930019
 20
214.855868516
 30
0.0
 10
344.1916950901
 20
214.8278303562
 30
0.0
 10
344.1169182578
 20
214.7856475082
 30
0.0
 10
344.0519727194
 20
214.7212617448
 30
0.0
 10
344.0149463669
 20
214.6510910306
 30
0.0
 10
344.0047408074
 20
214.6027108255
 30
0.0
 10
344.0024405049
 20
214.5792878753
 30
0.0
  0
LINE
  5
47D
330
237
100
AcDbEntity
 67
     1
  8
7_ALL_FEATURES
  6
Continuous
 62
     9
100
AcDbLine
 10
341.999834
 20
212.443863
 30
0.0
 11
341.999834
 21
212.899614
 31
0.0
  0
LINE
  5
47E
330
237
100
AcDbEntity
 67
     1
  8
7_ALL_FEATURES
  6
Continuous
 62
     9
100
AcDbLine
 10
263.001826
 20
212.443863
 30
0.0
 11
263.001826
 21
212.899612
 31
0.0
  0
SPLINE
  5
47F
330
237
100
AcDbEntity
 67
     1
  8
7_ALL_FEATURES
  6
Continuous
 62
     9
100
AcDbSpline
 70
     0
 71
     3
 72
    16
 73
    12
 74
     0
 42
0.000000001
 43
0.0000001
 40
0.0
 40
0.0
 40
0.0
 40
0.0
 40
0.1637321087
 40
0.325139834
 40
0.4795505549
 40
0.5518769857
 40
0.619545601
 40
0.7382508627
 40
0.83645002
 40
0.9212407471
 40
1.0
 40
1.0
 40
1.0
 40
1.0
 10
260.2500256975
 20
214.9167686167
 30
0.0
 10
260.2989539695
 20
214.9167667989
 30
0.0
 10
260.3961488282
 20
214.9144471607
 30
0.0
 10
260.5390012211
 20
214.9016921126
 30
0.0
 10
260.653375699
 20
214.8807390547
 30
0.0
 10
260.7378698906
 20
214.8558703409
 30
0.0
 10
260.8099680889
 20
214.8278320127
 30
0.0
 10
260.8847451061
 20
214.7856488759
 30
0.0
 10
260.949690554
 20
214.7212626155
 30
0.0
 10
260.9867165366
 20
214.6510914288
 30
0.0
 10
260.9969217633
 20
214.6027109864
 30
0.0
 10
260.9992219057
 20
214.5792879256
 30
0.0
  0
SPLINE
  5
480
330
237
100
AcDbEntity
 67
     1
  8
7_ALL_FEATURES
  6
Continuous
 62
     9
100
AcDbSpline
 70
     0
 71
     3
 72
    29
 73
    25
 74
     0
 42
0.000000001
 43
0.0000001
 40
0.0
 40
0.0
 40
0.0
 40
0.0
 40
0.1938702924
 40
0.3810010385
 40
0.4696487745
 40
0.5538643782
 40
0.6328334512
 40
0.7057414065
 40
0.7718198229
 40
0.8304854442
 40
0.8812012343
 40
0.9034100992
 40
0.9234300803
 40
0.9412000557
 40
0.9566830094
 40
0.969847944
 40
0.980663853
 40
0.9891025865
 40
0.992425114
 40
0.9951474386
 40
0.9972678262
 40
0.9987845409
 40
0.9996958452
 40
1.0
 40
1.0
 40
1.0
 40
1.0
 10
347.4906129289
 20
199.31097445
 30
0.0
 10
347.4891737081
 20
199.2449530879
 30
0.0
 10
347.4871971127
 20
199.1151863947
 30
0.0
 10
347.4862026271
 20
198.9552143058
 30
0.0
 10
347.4859695083
 20
198.832591474
 30
0.0
 10
347.4860289432
 20
198.7468110094
 30
0.0
 10
347.4862789357
 20
198.6663922993
 30
0.0
 10
347.4866785376
 20
198.5921522636
 30
0.0
 10
347.4871875967
 20
198.5248289476
 30
0.0
 10
347.4877685694
 20
198.4650657384
 30
0.0
 10
347.4883022835
 20
198.420245959
 30
0.0
 10
347.4887372893
 20
198.3885896676
 30
0.0
 10
347.4890436149
 20
198.3681549073
 30
0.0
 10
347.4893405067
 20
198.3500111196
 30
0.0
 10
347.4896209385
 20
198.3342029212
 30
0.0
 10
347.4898807668
 20
198.320761904
 30
0.0
 10
347.4901075708
 20
198.3097245755
 30
0.0
 10
347.490289619
 20
198.3020288618
 30
0.0
 10
347.4903974652
 20
198.2971080717
 30
0.0
 10
347.4904917106
 20
198.2943040503
 30
0.0
 10
347.4904852913
 20
198.2921996856
 30
0.0
 10
347.4906696309
 20
198.290512526
 30
0.0
 10
347.4904452025
 20
198.289825392
 30
0.0
 10
347.4907165289
 20
198.2891595648
 30
0.0
 10
347.4906129262
 20
198.289159565
 30
0.0
  0
DIMENSION
  5
481
330
237
100
AcDbEntity
 67
     1
  8
0
  6
Continuous
 62
     2
100
AcDbDimension
280
     0
  2
*D1
 10
185.477139
 20
19.849065
 30
0.0
 11
119.985296
 21
19.849065
 31
0.0
 70
   160
 71
     2
 42
130.12654
 73
     0
 74
     0
 75
     0
  3
DIMSTYLE_1
100
AcDbAlignedDimension
 13
55.350599
 23
33.410755
 33
0.0
 14
185.477139
 24
34.466866
 34
0.0
100
AcDbRotatedDimension
  0
DIMENSION
  5
482
330
237
100
AcDbEntity
 67
     1
  8
0
  6
Continuous
 62
     2
100
AcDbDimension
280
     0
  2
*D2
 10
215.271984
 20
39.803775
 30
0.0
 11
215.271984
 21
85.364753
 31
0.0
 70
   160
 71
     2
 42
91.97909
 73
     0
 74
     0
 75
     0
  3
DIMSTYLE_2
100
AcDbAlignedDimension
 13
195.038495
 23
131.782864
 33
0.0
 14
196.094607
 24
39.803775
 34
0.0
 50
270.0
100
AcDbRotatedDimension
  0
DIMENSION
  5
483
330
237
100
AcDbEntity
 67
     1
  8
0
  6
Continuous
 62
     2
100
AcDbDimension
280
     0
  2
*D3
 10
120.413869
 20
181.53916
 30
0.0
 11
158.965896
 21
253.883231
 31
0.0
 70
   164
  1
R<>
 71
     1
 42
70.75
 73
     0
 74
     0
 75
     0
  3
DIMSTYLE_3
100
AcDbRadialDimension
 15
155.388049
 25
243.040129
 35
0.0
 40
0.0
  0
DIMENSION
  5
484
330
237
100
AcDbEntity
 67
     1
  8
0
  6
Continuous
 62
     2
100
AcDbDimension
280
     0
  2
*D4
 10
362.340131
 20
198.28916
 30
0.0
 11
362.340131
 21
224.860591
 31
0.0
 70
   160
 71
     2
 42
54.0
 73
     0
 74
     0
 75
     0
  3
DIMSTYLE_4
100
AcDbAlignedDimension
 13
352.574355
 23
252.28916
 33
0.0
 14
353.033087
 24
198.28916
 34
0.0
 50
270.0
100
AcDbRotatedDimension
  0
INSERT
  5
485
330
237
100
AcDbEntity
 67
     1
  8
0
  6
Continuous
 62
     2
100
AcDbBlockReference
  2
LOGO2_BL0
 10
333.147387
 20
37.523927
 30
0.0
  0
ACAD_TABLE
  5
486
102
{ACAD_XDICTIONARY
360
4DD
102
}
330
237
100
AcDbEntity
 67
     1
  8
0
  6
Continuous
 62
     2
160
              3192
310
780C000017000000880000001D000000000000000000F03F00000000000000000000000000000000D937513524F573400000000000000000000000000000F03F00000000000000008357C90A1083494000000000000000000000000000000000000000000000F03F0000000000000000000000000000000000000000000000
310
000000000000000000000000000000F03F54000000200000000200000000000000000000000000000000000000000000000000000000000000008056400000000000000000000000000000000000000000000000000000000000000000000000000000F03F5400000020000000020000000000000000000000000000000000
310
00000000000000000000000000000000000000000000000044C0000000000000000000000000000000000000000000000000000000000000F03F5400000020000000020000000000000000003E4000000000000018C00000000000000000000000000080564000000000000018C00000000000000000000000000000000000
310
00000000000000000000000000F03F5400000020000000020000000000000000003E4000000000000028C00000000000000000000000000080564000000000000028C0000000000000000000000000000000000000000000000000000000000000F03F5400000020000000020000000000000000003E4000000000000036C0
310
0000000000000000000000000080564000000000000036C0000000000000000000000000000000000000000000000000000000000000F03F54000000200000000200000000000000000000000000000000003BC0000000000000000000000000008056400000000000003BC000000000000000000000000000000000000000
310
0000000000000000000000F03F540000002000000002000000000000000000000000000000000044C00000000000000000000000000080564000000000000044C0000000000000000000000000000000000000000000000000000000000000F03F5400000020000000020000000000000000003E4000000000000000000000
310
0000000000000000000000003E400000000000003BC0000000000000000000000000000000000000000000000000000000000000F03F540000002000000002000000000000000080514000000000000000000000000000000000000000000080514000000000000028C0000000000000000000000000000000000000000000
310
000000000000000000F03F540000002000000002000000000000000080564000000000000000000000000000000000000000000080564000000000000044C0000000000000000000000000000000000000000000000000000000000000F03F0C000000100000002D000000C000000026000000CDCCCCCCCC7C3F4000000000
310
000012C0000000000000000000000000000000000000000000000000000000000000F03F000000000000F03F0000000000000000000000000000000059004A0037005F0043005F00300038003000000012000000010000000000000000000840333333333333EB3F0000000000000000000000000000F03F00000000000000
310
000000000000000000000000000000000000000000000000000000000000000000740078007400000000000000BC000000260000003333333333DF514000000000000015C0000000000000000000000000000000000000000000000000000000000000F03F000000000000F03F000000000000000000000000000000005200
310
650076003A0030003000000000000C000000010000000000000000000C40333333333333EB3F0000000000000000000000000000F03F00000000000000000000000000000000000000000000000000000000000000000000000000000000740078007400000000000000C000000026000000CDCCCCCCCC7C3F400000000000
310
8026C0000000000000000000000000000000000000000000000000000000000000F03F000000000000F03F000000000000000000000000000000005300630061006C0065003A0031003A003100000012000000010000000000000000000C40333333333333EB3F0000000000000000000000000000F03F0000000000000000
310
0000000000000000000000000000000000000000000000000000000000000000740078007400000000000000B4000000260000003333333333DF514000000000008025C0000000000000000000000000000000000000000000000000000000000000F03F000000000000F03F00000000000000000000000000000000410033
310
000000000004000000010000000000000000000C40333333333333EB3F0000000000000000000000000000F03F00000000000000000000000000000000000000000000000000000000000000000000000000000000740078007400000000000000C800000026000000CDCCCCCCCC7C3F400000000000C032C0000000000000
310
000000000000000000000000000000000000000000000000F03F000000000000F03F000000000000000000000000000000004C00590053005300200031002E003000200036002C003500570000001A000000010000000000000000000C40333333333333EB3F0000000000000000000000000000F03F000000000000000000
310
00000000000000000000000000000000000000000000000000000000000000740078007400000000000000CC00000026000000CDCCCCCCCC7C3F400000000000C039C0000000000000000000000000000000000000000000000000000000000000F03F000000000000F03F0000000000000000000000000000000044004100
310
540045003A00300035002F00300036002F00320030003100340000001E000000010000000000000000000440333333333333EB3F0000000000000000000000000000F03F0000000000000000000000000000000000000000000000000000000000000000000000000000000074007800740000000000000018010000260000
310
00CDCCCCCCCCCCF73F9A99999999993EC0000000000000000000000000000000000000000000000000000000000000F03F000000000000F03F0000000000000000000000000000000041006E007900200069006E00740065006700720061006C0020006F00720020007000610072007400690061006C002000720065007000
310
72006F00640075006300740069006F006E00730020006100720065002000700072006F0068006900620069007400650064000000000068000000010000009A9999999999FD3F333333333333EB3F0000000000000000000000000000F03F000000000000000000000000000000000000000000000000000000000000000000
310
000000000000007400780074000000000000002001000026000000CDCCCCCCCCCCF73F0000000000B040C0000000000000000000000000000000000000000000000000000000000000F03F000000000000F03F0000000000000000000000000000000077006900740068006F007500740020007000720069006F0072002000
310
61007500740068006F007200690073006100740069006F006E0020006F00660020004C002000260020004C0020004C007500630065002000260020004C006900670068007400200073002E0072002E006C002E002C00000072000000010000009A9999999999FD3F333333333333EB3F0000000000000000000000000000F0
310
3F00000000000000000000000000000000000000000000000000000000000000000000000000000000740078007400000000000000F800000026000000CDCCCCCCCCCCF73F33333333331342C0000000000000000000000000000000000000000000000000000000000000F03F000000000000F03F00000000000000000000
310
00000000000069006E0020006100630063006F007200640061006E006300650020007700690074006800200074006800650020006C0061007700200069006E00200066006F007200630065002E000000000048000000010000009A9999999999FD3F333333333333EB3F0000000000000000000000000000F03F0000000000
310
0000000000000000000000000000000000000000000000000000000000000000000000740078007400000000000000D800000026000000CDCCCCCCCCCCF73F66666666667643C0000000000000000000000000000000000000000000000000000000000000F03F000000000000F03F00000000000000000000000000000000
310
41006C006C0020007200690067006800740073002000720065007300650072007600650064002E000000000028000000010000009A9999999999FD3F333333333333EB3F0000000000000000000000000000F03F00000000000000000000000000000000000000000000000000000000000000000000000000000000740078
310
007400000000000000080000001F000000
100
AcDbBlockReference
  2
*T6
 10
319.32134
 20
51.023927
 30
0.0
100
AcDbTable
342
4C8
343
23E
 11
1.0
 21
0.0
 31
0.0
 90
       22
 91
        5
 92
        5
 93
        0
 94
        0
 95
        0
 96
        0
141
6.0
141
6.0
141
10.0
141
5.0
141
13.0
142
10.0
142
10.0
142
10.0
142
40.0
142
20.0
171
     1
172
     0
173
     0
174
     0
175
     3
176
     4
 91
       32
178
     0
145
0.0
140
3.5
 92
        0
301
CELL_VALUE
 93
        2
 90
        4
  1
 
 94
        0
300

302
 
304
ACVALUE_END
171
     1
172
     0
173
     1
174
     0
175
     1
176
     1
 91
        0
178
     0
145
0.0
 92
        0
301
CELL_VALUE
 93
        3
 90
        0
 91
        0
 94
        0
300

302

304
ACVALUE_END
171
     1
172
     0
173
     1
174
     0
175
     1
176
     1
 91
        0
178
     0
145
0.0
 92
        0
301
CELL_VALUE
 93
        3
 90
        0
 91
        0
 94
        0
300

302

304
ACVALUE_END
171
     1
172
     0
173
     0
174
     0
175
     1
176
     1
 91
       33
178
     0
145
0.0
170
     4
140
3.0
 92
        0
301
CELL_VALUE
 93
        2
 90
        4
  1
YJ7_C_080
 94
        0
300

302
YJ7_C_080
304
ACVALUE_END
171
     1
172
     0
173
     0
174
     0
175
     1
176
     1
 91
       49
178
     0
145
0.0
170
     1
  7
TEXTSTYLE_4
140
3.5
 92
        0
301
CELL_VALUE
 93
        2
 90
        4
  1
Rev:00
 94
        0
300

302
Rev:00
304
ACVALUE_END
171
     1
172
     0
173
     1
174
     0
175
     1
176
     1
 91
        0
178
     0
145
0.0
 92
        0
301
CELL_VALUE
 93
        3
 90
        0
 91
        0
 94
        0
300

302

304
ACVALUE_END
171
     1
172
     0
173
     1
174
     0
175
     1
176
     1
 91
        0
178
     0
145
0.0
 92
        0
301
CELL_VALUE
 93
        3
 90
        0
 91
        0
 94
        0
300

302

304
ACVALUE_END
171
     1
172
     0
173
     1
174
     0
175
     1
176
     1
 91
        0
178
     0
145
0.0
 92
        0
301
CELL_VALUE
 93
        3
 90
        0
 91
        0
 94
        0
300

302

304
ACVALUE_END
171
     1
172
     0
173
     0
174
     0
175
     1
176
     1
 91
       33
178
     0
145
0.0
170
     1
140
3.5
 92
        0
301
CELL_VALUE
 93
        2
 90
        4
  1
Scale:1:1
 94
        0
300

302
Scale:1:1
304
ACVALUE_END
171
     1
172
     0
173
     0
174
     0
175
     1
176
     1
 91
       33
178
     0
145
0.0
170
     4
140
3.5
 92
        0
301
CELL_VALUE
 93
        2
 90
        4
  1
A3
 94
        0
300

302
A3
304
ACVALUE_END
171
     1
172
     0
173
     1
174
     0
175
     1
176
     1
 91
        0
178
     0
145
0.0
 92
        0
301
CELL_VALUE
 93
        3
 90
        0
 91
        0
 94
        0
300

302

304
ACVALUE_END
171
     1
172
     0
173
     1
174
     0
175
     1
176
     1
 91
        0
178
     0
145
0.0
 92
        0
301
CELL_VALUE
 93
        3
 90
        0
 91
        0
 94
        0
300

302

304
ACVALUE_END
171
     1
172
     0
173
     1
174
     0
175
     1
176
     1
 91
        0
178
     0
145
0.0
 92
        0
301
CELL_VALUE
 93
        3
 90
        0
 91
        0
 94
        0
300

302

304
ACVALUE_END
171
     1
172
     0
173
     0
174
     0
175
     2
176
     1
 91
       33
178
     0
145
0.0
170
     4
140
3.5
 92
        0
301
CELL_VALUE
 93
        2
 90
        4
  1
LYSS 1.0 6,5W 
 94
        0
300

302
LYSS 1.0 6,5W 
304
ACVALUE_END
171
     1
172
     0
173
     1
174
     0
175
     1
176
     1
 91
        0
178
     0
145
0.0
 92
        0
301
CELL_VALUE
 93
        3
 90
        0
 91
        0
 94
        0
300

302

304
ACVALUE_END
171
     1
172
     0
173
     1
174
     0
175
     1
176
     1
 91
        0
178
     0
145
0.0
 92
        0
301
CELL_VALUE
 93
        3
 90
        0
 91
        0
 94
        0
300

302

304
ACVALUE_END
171
     1
172
     0
173
     1
174
     0
175
     1
176
     1
 91
        0
178
     0
145
0.0
 92
        0
301
CELL_VALUE
 93
        3
 90
        0
 91
        0
 94
        0
300

302

304
ACVALUE_END
171
     1
172
     0
173
     1
174
     0
175
     1
176
     1
 91
        0
178
     0
145
0.0
 92
        0
301
CELL_VALUE
 93
        3
 90
        0
 91
        0
 94
        0
300

302

304
ACVALUE_END
171
     1
172
     0
173
     0
174
     0
175
     2
176
     1
 91
       33
178
     0
145
0.0
170
     4
140
2.5
 92
        0
301
CELL_VALUE
 93
        2
 90
        4
  1
DATE:05/06/2014
 94
        0
300

302
DATE:05/06/2014
304
ACVALUE_END
171
     1
172
     0
173
     1
174
     0
175
     1
176
     1
 91
        0
178
     0
145
0.0
 92
        0
301
CELL_VALUE
 93
        3
 90
        0
 91
        0
 94
        0
300

302

304
ACVALUE_END
171
     1
172
     0
173
     0
174
     0
175
     5
176
     1
 91
       49
178
     0
145
0.0
170
     1
  7
TEXTSTYLE_4
140
1.85
 92
        0
301
CELL_VALUE
 93
        2
 90
        4
  1
Any integral or partial reproductions are prohibited \Pwithout prior authorisation of L & L Luce & Light s.r.l., \Pin accordance with the law in force. \PAll rights reserved.
 94
        0
300

302
Any integral or partial reproductions are prohibited \Pwithout prior authorisation of L & L Luce & Light s.r.l., \Pin accordance with the law in force. \PAll rights reserved.
304
ACVALUE_END
171
     1
172
     0
173
     1
174
     0
175
     1
176
     1
 91
        0
178
     0
145
0.0
 92
        0
301
CELL_VALUE
 93
        3
 90
        0
 91
        0
 94
        0
300

302

304
ACVALUE_END
171
     1
172
     0
173
     1
174
     0
175
     1
176
     1
 91
        0
178
     0
145
0.0
 92
        0
301
CELL_VALUE
 93
        3
 90
        0
 91
        0
 94
        0
300

302

304
ACVALUE_END
171
     1
172
     0
173
     1
174
     0
175
     1
176
     1
 91
        0
178
     0
145
0.0
 92
        0
301
CELL_VALUE
 93
        3
 90
        0
 91
        0
 94
        0
300

302

304
ACVALUE_END
171
     1
172
     0
173
     1
174
     0
175
     1
176
     1
 91
        0
178
     0
145
0.0
 92
        0
301
CELL_VALUE
 93
        3
 90
        0
 91
        0
 94
        0
300

302

304
ACVALUE_END
  0
ENDSEC
  0
SECTION
  2
OBJECTS
  0
DICTIONARY
  5
C
330
0
100
AcDbDictionary
281
     1
  3
ACAD_DETAILVIEWSTYLE
350
4E6
  3
ACAD_GROUP
350
D
  3
ACAD_IMAGE_DICT
350
4D6
  3
ACAD_LAYOUT
350
1A
  3
ACAD_MATERIAL
350
4CA
  3
ACAD_MLEADERSTYLE
350
4E5
  3
ACAD_MLINESTYLE
350
17
  3
ACAD_PLOTSETTINGS
350
19
  3
ACAD_PLOTSTYLENAME
350
E
  3
ACAD_SCALELIST
350
48C
  3
ACAD_SECTIONVIEWSTYLE
350
4E7
  3
ACAD_TABLESTYLE
350
4C7
  3
ACAD_VISUALSTYLE
350
4AE
  3
ACDB_RECOMPOSE_DATA
350
4E3
  3
AcDbVariableDictionary
350
4DF
  3
HOST_DOC_SETTINGS
350
4D4
  3
MCS_STREAM_DICT
350
4D0
  0
SUN
  5
4D3
330
2E4
100
AcDbSun
 90
        1
290
     0
 63
     7
421
 16777215
 40
1.0
291
     1
 91
  2455826
 92
 54000000
292
     0
 70
     2
 71
   256
280
     1
  0
DICTIONARY
  5
4DD
330
486
100
AcDbDictionary
280
     1
281
     1
  3
ACAD_XREC_ROUNDTRIP
360
4DE
  0
DICTIONARY
  5
4E6
102
{ACAD_REACTORS
330
C
102
}
330
C
100
AcDbDictionary
281
     1
  0
DICTIONARY
  5
D
102
{ACAD_REACTORS
330
C
102
}
330
C
100
AcDbDictionary
281
     1
  0
DICTIONARY
  5
4D6
102
{ACAD_REACTORS
330
C
102
}
330
C
100
AcDbDictionary
281
     1
  0
DICTIONARY
  5
1A
102
{ACAD_REACTORS
330
C
102
}
330
C
100
AcDbDictionary
281
     1
  3
Model
350
488
  3
YJ7_C_080_1
350
489
  0
DICTIONARY
  5
4CA
102
{ACAD_REACTORS
330
C
102
}
330
C
100
AcDbDictionary
281
     1
  3
ByBlock
350
4CC
  3
ByLayer
350
4CB
  3
Global
350
4CD
  0
DICTIONARY
  5
4E5
102
{ACAD_REACTORS
330
C
102
}
330
C
100
AcDbDictionary
281
     1
  0
DICTIONARY
  5
17
102
{ACAD_REACTORS
330
C
102
}
330
C
100
AcDbDictionary
281
     1
  3
Standard
350
18
  0
DICTIONARY
  5
19
102
{ACAD_REACTORS
330
C
102
}
330
C
100
AcDbDictionary
281
     1
  0
ACDBDICTIONARYWDFLT
  5
E
102
{ACAD_REACTORS
330
C
102
}
330
C
100
AcDbDictionary
281
     1
  3
Normal
350
F
100
AcDbDictionaryWithDefault
340
F
  0
DICTIONARY
  5
48C
102
{ACAD_REACTORS
330
C
102
}
330
C
100
AcDbDictionary
281
     1
  3
A0
350
48D
  3
A1
350
48E
  3
A2
350
48F
  3
A3
350
490
  3
A4
350
491
  3
A5
350
492
  3
A6
350
493
  3
A7
350
494
  3
A8
350
495
  3
A9
350
496
  3
B0
350
497
  3
B1
350
498
  3
B2
350
499
  3
B3
350
49A
  3
B4
350
49B
  3
B5
350
49C
  3
B6
350
49D
  3
B7
350
49E
  3
B8
350
49F
  3
B9
350
4A0
  3
C0
350
4A1
  3
C1
350
4A2
  3
C2
350
4A3
  3
C3
350
4A4
  3
C4
350
4A5
  3
C5
350
4A6
  3
C6
350
4A7
  3
C7
350
4A8
  3
C8
350
4A9
  3
C9
350
4AA
  3
D0
350
4AB
  3
D1
350
4AC
  3
D2
350
4AD
  0
DICTIONARY
  5
4E7
102
{ACAD_REACTORS
330
C
102
}
330
C
100
AcDbDictionary
281
     1
  0
DICTIONARY
  5
4C7
102
{ACAD_REACTORS
330
C
102
}
330
C
100
AcDbDictionary
281
     1
  3
Standard
350
4C8
  0
DICTIONARY
  5
4AE
102
{ACAD_REACTORS
330
C
102
}
330
C
100
AcDbDictionary
281
     1
  3
2dWireframe
350
4B3
  3
Basic
350
4B6
  3
Brighten
350
4BA
  3
ColorChange
350
4BE
  3
Conceptual
350
4B8
  3
Dim
350
4B9
  3
EdgeColorOff
350
4C1
  3
Facepattern
350
4BD
  3
Flat
350
4AF
  3
FlatWithEdges
350
4B0
  3
Gouraud
350
4B1
  3
GouraudWithEdges
350
4B2
  3
Hidden
350
4B5
  3
JitterOff
350
4BF
  3
Linepattern
350
4BC
  3
OverhangOff
350
4C0
  3
Realistic
350
4B7
  3
Shaded
350
4C6
  3
Shaded with edges
350
4C5
  3
Shades of Gray
350
4C2
  3
Sketchy
350
4C3
  3
Thicken
350
4BB
  3
Wireframe
350
4B4
  3
X-Ray
350
4C4
  0
XRECORD
  5
4E3
102
{ACAD_REACTORS
330
C
102
}
330
C
100
AcDbXrecord
280
     1
 90
        1
330
486
330
4C8
  0
DICTIONARY
  5
4DF
102
{ACAD_REACTORS
330
C
102
}
330
C
100
AcDbDictionary
281
     1
  3
CANNOSCALE
350
4E0
  3
CTABLESTYLE
350
4E4
  0
DICTIONARY
  5
4D4
102
{ACAD_REACTORS
330
C
102
}
330
C
100
AcDbDictionary
281
     1
  3
NCDocParameters
350
4D5
  0
DICTIONARY
  5
4D0
102
{ACAD_REACTORS
330
C
102
}
330
C
100
AcDbDictionary
281
     1
  3
MC_VERSION_DATA
350
4D9
  3
MCS_DOCUMENT_ID
350
4D1
  3
MCS_PARAMS_DATA
350
4D7
  0
XRECORD
  5
4DE
102
{ACAD_REACTORS
330
4DD
102
}
330
4DD
100
AcDbXrecord
280
     1
102
ACAD_ROUNDTRIP_2008_TABLE_ENTITY
360
4DB
 70
     2
 90
        1
 10
0.0
 20
0.0
 30
0.0
 90
        0
 90
        4
361
4DC
  0
LAYOUT
  5
488
102
{ACAD_REACTORS
330
1A
102
}
330
1A
100
AcDbPlotSettings
  1

  2
none_device
  4

  6

 40
0.0
 41
0.0
 42
0.0
 43
0.0
 44
420.0
 45
297.0
 46
0.0
 47
0.0
 48
0.0
 49
0.0
140
0.0
141
0.0
142
1.0
143
1.0
 70
  1024
 72
     1
 73
     0
 74
     0
  7

 75
     0
 76
     0
 77
     2
 78
   300
147
1.0
148
0.0
149
0.0
100
AcDbLayout
  1
Model
 70
     0
 71
     0
 10
0.0
 20
0.0
 11
420.0
 21
297.0
 12
0.0
 22
0.0
 32
0.0
 14
0.0
 24
0.0
 34
0.0
 15
0.0
 25
0.0
 35
0.0
146
0.0
 13
0.0
 23
0.0
 33
0.0
 16
1.0
 26
0.0
 36
0.0
 17
0.0
 27
1.0
 37
0.0
 76
     0
330
236
331
1F4
  0
LAYOUT
  5
489
102
{ACAD_REACTORS
330
1A
102
}
330
1A
100
AcDbPlotSettings
  1

  2
none_device
  4
ISO_A3_(420.00_x_297.00_MM)
  6

 40
0.0
 41
0.0
 42
0.0
 43
0.0
 44
420.0
 45
297.0
 46
0.0
 47
0.0
 48
0.0
 49
0.0
140
0.0
141
0.0
142
1.0
143
1.0
 70
     0
 72
     1
 73
     0
 74
     0
  7

 75
     0
 76
     0
 77
     2
 78
   300
147
1.0
148
0.0
149
0.0
100
AcDbLayout
  1
YJ7_C_080_1
 70
     0
 71
     1
 10
0.0
 20
0.0
 11
420.0
 21
297.0
 12
0.0
 22
0.0
 32
0.0
 14
0.0
 24
0.0
 34
0.0
 15
0.0
 25
0.0
 35
0.0
146
0.0
 13
0.0
 23
0.0
 33
0.0
 16
1.0
 26
0.0
 36
0.0
 17
0.0
 27
1.0
 37
0.0
 76
     0
330
237
331
2E4
  0
MATERIAL
  5
4CC
102
{ACAD_REACTORS
330
4CA
102
}
330
4CA
100
AcDbMaterial
  1
ByBlock
 72
     1
 94
      127
  0
MATERIAL
  5
4CB
102
{ACAD_REACTORS
330
4CA
102
}
330
4CA
100
AcDbMaterial
  1
ByLayer
 72
     1
 94
      127
  0
MATERIAL
  5
4CD
102
{ACAD_REACTORS
330
4CA
102
}
330
4CA
100
AcDbMaterial
  1
Global
 72
     1
 94
      127
  0
MLINESTYLE
  5
18
102
{ACAD_REACTORS
330
17
102
}
330
17
100
AcDbMlineStyle
  2
STANDARD
 70
     0
  3

 62
   256
 51
90.0
 52
90.0
 71
     2
 49
0.5
 62
   256
  6
BYLAYER
 49
-0.5
 62
   256
  6
BYLAYER
  0
ACDBPLACEHOLDER
  5
F
102
{ACAD_REACTORS
330
E
102
}
330
E
  0
SCALE
  5
48D
102
{ACAD_REACTORS
330
48C
102
}
330
48C
100
AcDbScale
 70
     0
300
1:1
140
1.0
141
1.0
290
     1
  0
SCALE
  5
48E
102
{ACAD_REACTORS
330
48C
102
}
330
48C
100
AcDbScale
 70
     0
300
1:2
140
1.0
141
2.0
290
     0
  0
SCALE
  5
48F
102
{ACAD_REACTORS
330
48C
102
}
330
48C
100
AcDbScale
 70
     0
300
1:4
140
1.0
141
4.0
290
     0
  0
SCALE
  5
490
102
{ACAD_REACTORS
330
48C
102
}
330
48C
100
AcDbScale
 70
     0
300
1:5
140
1.0
141
5.0
290
     0
  0
SCALE
  5
491
102
{ACAD_REACTORS
330
48C
102
}
330
48C
100
AcDbScale
 70
     0
300
1:8
140
1.0
141
8.0
290
     0
  0
SCALE
  5
492
102
{ACAD_REACTORS
330
48C
102
}
330
48C
100
AcDbScale
 70
     0
300
1:10
140
1.0
141
10.0
290
     0
  0
SCALE
  5
493
102
{ACAD_REACTORS
330
48C
102
}
330
48C
100
AcDbScale
 70
     0
300
1:16
140
1.0
141
16.0
290
     0
  0
SCALE
  5
494
102
{ACAD_REACTORS
330
48C
102
}
330
48C
100
AcDbScale
 70
     0
300
1:20
140
1.0
141
20.0
290
     0
  0
SCALE
  5
495
102
{ACAD_REACTORS
330
48C
102
}
330
48C
100
AcDbScale
 70
     0
300
1:30
140
1.0
141
30.0
290
     0
  0
SCALE
  5
496
102
{ACAD_REACTORS
330
48C
102
}
330
48C
100
AcDbScale
 70
     0
300
1:40
140
1.0
141
40.0
290
     0
  0
SCALE
  5
497
102
{ACAD_REACTORS
330
48C
102
}
330
48C
100
AcDbScale
 70
     0
300
1:50
140
1.0
141
50.0
290
     0
  0
SCALE
  5
498
102
{ACAD_REACTORS
330
48C
102
}
330
48C
100
AcDbScale
 70
     0
300
1:100
140
1.0
141
100.0
290
     0
  0
SCALE
  5
499
102
{ACAD_REACTORS
330
48C
102
}
330
48C
100
AcDbScale
 70
     0
300
2:1
140
2.0
141
1.0
290
     0
  0
SCALE
  5
49A
102
{ACAD_REACTORS
330
48C
102
}
330
48C
100
AcDbScale
 70
     0
300
4:1
140
4.0
141
1.0
290
     0
  0
SCALE
  5
49B
102
{ACAD_REACTORS
330
48C
102
}
330
48C
100
AcDbScale
 70
     0
300
8:1
140
8.0
141
1.0
290
     0
  0
SCALE
  5
49C
102
{ACAD_REACTORS
330
48C
102
}
330
48C
100
AcDbScale
 70
     0
300
10:1
140
10.0
141
1.0
290
     0
  0
SCALE
  5
49D
102
{ACAD_REACTORS
330
48C
102
}
330
48C
100
AcDbScale
 70
     0
300
100:1
140
100.0
141
1.0
290
     0
  0
SCALE
  5
49E
102
{ACAD_REACTORS
330
48C
102
}
330
48C
100
AcDbScale
 70
     0
300
1/128" = 1'-0"
140
0.007812
141
12.0
290
     0
  0
SCALE
  5
49F
102
{ACAD_REACTORS
330
48C
102
}
330
48C
100
AcDbScale
 70
     0
300
1/64" = 1'-0"
140
0.015625
141
12.0
290
     0
  0
SCALE
  5
4A0
102
{ACAD_REACTORS
330
48C
102
}
330
48C
100
AcDbScale
 70
     0
300
1/32" = 1'-0"
140
0.03125
141
12.0
290
     0
  0
SCALE
  5
4A1
102
{ACAD_REACTORS
330
48C
102
}
330
48C
100
AcDbScale
 70
     0
300
1/16" = 1'-0"
140
0.0625
141
12.0
290
     0
  0
SCALE
  5
4A2
102
{ACAD_REACTORS
330
48C
102
}
330
48C
100
AcDbScale
 70
     0
300
3/32" = 1'-0"
140
0.09375
141
12.0
290
     0
  0
SCALE
  5
4A3
102
{ACAD_REACTORS
330
48C
102
}
330
48C
100
AcDbScale
 70
     0
300
1/8" = 1'-0"
140
0.125
141
12.0
290
     0
  0
SCALE
  5
4A4
102
{ACAD_REACTORS
330
48C
102
}
330
48C
100
AcDbScale
 70
     0
300
3/16" = 1'-0"
140
0.1875
141
12.0
290
     0
  0
SCALE
  5
4A5
102
{ACAD_REACTORS
330
48C
102
}
330
48C
100
AcDbScale
 70
     0
300
1/4" = 1'-0"
140
0.25
141
12.0
290
     0
  0
SCALE
  5
4A6
102
{ACAD_REACTORS
330
48C
102
}
330
48C
100
AcDbScale
 70
     0
300
3/8" = 1'-0"
140
0.375
141
12.0
290
     0
  0
SCALE
  5
4A7
102
{ACAD_REACTORS
330
48C
102
}
330
48C
100
AcDbScale
 70
     0
300
1/2" = 1'-0"
140
0.5
141
12.0
290
     0
  0
SCALE
  5
4A8
102
{ACAD_REACTORS
330
48C
102
}
330
48C
100
AcDbScale
 70
     0
300
3/4" = 1'-0"
140
0.75
141
12.0
290
     0
  0
SCALE
  5
4A9
102
{ACAD_REACTORS
330
48C
102
}
330
48C
100
AcDbScale
 70
     0
300
1" = 1'-0"
140
1.0
141
12.0
290
     0
  0
SCALE
  5
4AA
102
{ACAD_REACTORS
330
48C
102
}
330
48C
100
AcDbScale
 70
     0
300
1-1/2" = 1'-0"
140
1.5
141
12.0
290
     0
  0
SCALE
  5
4AB
102
{ACAD_REACTORS
330
48C
102
}
330
48C
100
AcDbScale
 70
     0
300
3" = 1'-0"
140
3.0
141
12.0
290
     0
  0
SCALE
  5
4AC
102
{ACAD_REACTORS
330
48C
102
}
330
48C
100
AcDbScale
 70
     0
300
6" = 1'-0"
140
6.0
141
12.0
290
     0
  0
SCALE
  5
4AD
102
{ACAD_REACTORS
330
48C
102
}
330
48C
100
AcDbScale
 70
     0
300
1'-0" = 1'-0"
140
12.0
141
12.0
290
     0
  0
TABLESTYLE
  5
4C8
102
{ACAD_REACTORS
330
4C7
102
}
102
{ACAD_XDICTIONARY
360
4E1
102
}
330
4C7
100
AcDbTableStyle
  3
Standard
 70
     0
 71
     0
 40
0.06
 41
0.06
280
     0
281
     0
  7
STANDARD
140
4.5
170
     2
 62
     0
 63
   257
283
     0
 90
        4
 91
        0
  1

274
    -2
284
     1
 64
     0
275
    -2
285
     1
 65
     0
276
    -2
286
     1
 66
     0
277
    -2
287
     1
 67
     0
278
    -2
288
     1
 68
     0
279
    -2
289
     1
 69
     0
  7
STANDARD
140
6.0
170
     5
 62
     0
 63
   257
283
     0
 90
        4
 91
        0
  1

274
    -2
284
     1
 64
     0
275
    -2
285
     1
 65
     0
276
    -2
286
     1
 66
     0
277
    -2
287
     1
 67
     0
278
    -2
288
     1
 68
     0
279
    -2
289
     1
 69
     0
  7
STANDARD
140
4.5
170
     5
 62
     0
 63
   257
283
     0
 90
        4
 91
        0
  1

274
    -2
284
     1
 64
     0
275
    -2
285
     1
 65
     0
276
    -2
286
     1
 66
     0
277
    -2
287
     1
 67
     0
278
    -2
288
     1
 68
     0
279
    -2
289
     1
 69
     0
  0
VISUALSTYLE
  5
4B3
102
{ACAD_REACTORS
330
4AE
102
}
330
4AE
100
AcDbVisualStyle
  2
2dWireframe
 70
     4
177
     3
291
     0
 70
    58
 90
        0
176
     1
 90
        2
176
     1
 90
        0
176
     1
 90
        0
176
     1
 40
0.6
176
     1
 40
30.0
176
     1
 62
     7
420
 16777215
176
     1
 90
        1
176
     1
 90
        4
176
     1
 62
     7
176
     1
 62
   257
176
     1
 90
        1
176
     1
 90
        1
176
     1
 40
1.0
176
     1
 90
        0
176
     1
 62
   257
176
     1
 40
1.0
176
     1
 90
        1
176
     1
 90
        6
176
     1
 90
        2
176
     1
 62
     7
176
     1
 90
        5
176
     1
 90
        0
176
     1
 90
        0
176
     1
290
     0
176
     1
 90
        1
176
     1
 40
0.0
176
     1
 90
        0
176
     1
290
     1
176
     1
290
     1
176
     1
290
     0
176
     1
290
     0
176
     1
290
     0
176
     1
290
     0
176
     1
290
     0
176
     1
290
     0
176
     1
290
     0
176
     1
 90
       50
176
     1
 40
0.0
176
     1
 40
1.0
176
     1
 90
        0
176
     1
 62
    18
420
        0
176
     1
 90
       50
176
     1
 90
        3
176
     1
 62
     5
420
      255
176
     1
290
     0
176
     1
 90
       50
176
     1
 90
       50
176
     1
 90
       50
176
     1
290
     0
176
     1
 90
       50
176
     1
 62
   256
176
     0
 40
1.0
176
     0
 90
        2
176
     1
  1
strokes_ogs.tif
176
     1
290
     0
176
     1
 40
1.0
176
     1
 40
1.0
176
     1
  0
VISUALSTYLE
  5
4B6
102
{ACAD_REACTORS
330
4AE
102
}
330
4AE
100
AcDbVisualStyle
  2
Basic
 70
     7
177
     3
291
     1
 70
    58
 90
        1
176
     1
 90
        0
176
     1
 90
        1
176
     1
 90
        0
176
     1
 40
0.6
176
     1
 40
30.0
176
     1
 62
     7
420
 16777215
176
     1
 90
        0
176
     1
 90
        4
176
     1
 62
     7
176
     1
 62
   257
176
     1
 90
        1
176
     1
 90
        1
176
     1
 40
1.0
176
     1
 90
        8
176
     1
 62
     7
176
     1
 40
1.0
176
     1
 90
        1
176
     1
 90
        6
176
     1
 90
        2
176
     1
 62
     7
176
     1
 90
        5
176
     1
 90
        0
176
     1
 90
        0
176
     1
290
     0
176
     1
 90
        1
176
     1
 40
0.0
176
     1
 90
        0
176
     1
290
     0
176
     1
290
     1
176
     1
290
     1
176
     1
290
     0
176
     1
290
     0
176
     1
290
     0
176
     1
290
     0
176
     1
290
     0
176
     1
290
     0
176
     1
 90
       50
176
     1
 40
0.0
176
     1
 40
1.0
176
     1
 90
        0
176
     1
 62
    18
420
        0
176
     1
 90
       50
176
     1
 90
        3
176
     1
 62
     5
420
      255
176
     1
290
     0
176
     1
 90
       50
176
     1
 90
       50
176
     1
 90
       50
176
     1
290
     0
176
     1
 90
       50
176
     1
 62
   256
176
     0
 40
1.0
176
     0
 90
        2
176
     1
  1
strokes_ogs.tif
176
     1
290
     0
176
     1
 40
1.0
176
     1
 40
1.0
176
     1
  0
VISUALSTYLE
  5
4BA
102
{ACAD_REACTORS
330
4AE
102
}
330
4AE
100
AcDbVisualStyle
  2
Brighten
 70
    12
177
     3
291
     1
 70
    58
 90
        2
176
     1
 90
        2
176
     1
 90
        0
176
     1
 90
        0
176
     1
 40
0.6
176
     1
 40
30.0
176
     1
 62
     7
420
 16777215
176
     1
 90
        1
176
     1
 90
        4
176
     1
 62
     7
176
     1
 62
   257
176
     1
 90
        1
176
     1
 90
        1
176
     1
 40
1.0
176
     1
 90
        8
176
     1
 62
     7
176
     1
 40
1.0
176
     1
 90
        1
176
     1
 90
        6
176
     1
 90
        2
176
     1
 62
     7
176
     1
 90
        5
176
     1
 90
        0
176
     1
 90
        0
176
     1
290
     0
176
     1
 90
        1
176
     1
 40
50.0
176
     1
 90
        0
176
     1
290
     0
176
     1
290
     1
176
     1
290
     1
176
     1
290
     0
176
     1
290
     0
176
     1
290
     0
176
     1
290
     0
176
     1
290
     0
176
     1
290
     0
176
     1
 90
       50
176
     1
 40
0.0
176
     1
 40
1.0
176
     1
 90
        0
176
     1
 62
    18
420
        0
176
     1
 90
       50
176
     1
 90
        3
176
     1
 62
     5
420
      255
176
     1
290
     0
176
     1
 90
       50
176
     1
 90
       50
176
     1
 90
       50
176
     1
290
     0
176
     1
 90
       50
176
     1
 62
   256
176
     0
 40
1.0
176
     0
 90
        2
176
     1
  1
strokes_ogs.tif
176
     1
290
     0
176
     1
 40
1.0
176
     1
 40
1.0
176
     1
  0
VISUALSTYLE
  5
4BE
102
{ACAD_REACTORS
330
4AE
102
}
330
4AE
100
AcDbVisualStyle
  2
ColorChange
 70
    16
177
     3
291
     1
 70
    58
 90
        2
176
     1
 90
        2
176
     1
 90
        3
176
     1
 90
        0
176
     1
 40
0.6
176
     1
 40
30.0
176
     1
 62
     8
420
  8421504
176
     1
 90
        1
176
     1
 90
        4
176
     1
 62
     7
176
     1
 62
   257
176
     1
 90
        1
176
     1
 90
        1
176
     1
 40
1.0
176
     1
 90
        8
176
     1
 62
     8
420
  8421504
176
     1
 40
1.0
176
     1
 90
        1
176
     1
 90
        6
176
     1
 90
        2
176
     1
 62
     7
176
     1
 90
        5
176
     1
 90
        0
176
     1
 90
        0
176
     1
290
     0
176
     1
 90
        1
176
     1
 40
0.0
176
     1
 90
        0
176
     1
290
     0
176
     1
290
     1
176
     1
290
     1
176
     1
290
     0
176
     1
290
     0
176
     1
290
     0
176
     1
290
     0
176
     1
290
     0
176
     1
290
     0
176
     1
 90
       50
176
     1
 40
0.0
176
     1
 40
1.0
176
     1
 90
        0
176
     1
 62
    18
420
        0
176
     1
 90
       50
176
     1
 90
        3
176
     1
 62
     5
420
      255
176
     1
290
     0
176
     1
 90
       50
176
     1
 90
       50
176
     1
 90
       50
176
     1
290
     0
176
     1
 90
       50
176
     1
 62
   256
176
     0
 40
1.0
176
     0
 90
        2
176
     1
  1
strokes_ogs.tif
176
     1
290
     0
176
     1
 40
1.0
176
     1
 40
1.0
176
     1
  0
VISUALSTYLE
  5
4B8
102
{ACAD_REACTORS
330
4AE
102
}
330
4AE
100
AcDbVisualStyle
  2
Conceptual
 70
     9
177
     3
291
     0
 70
    58
 90
        3
176
     1
 90
        2
176
     1
 90
        0
176
     1
 90
        0
176
     1
 40
0.6
176
     1
 40
30.0
176
     1
 62
     7
420
 16777215
176
     1
 90
        2
176
     1
 90
        2
176
     1
 62
     7
176
     1
 62
   257
176
     1
 90
        1
176
     1
 90
        1
176
     1
 40
179.0
176
     1
 90
        8
176
     1
 62
     7
176
     1
 40
1.0
176
     1
 90
        1
176
     1
 90
        6
176
     1
 90
        2
176
     1
 62
     7
176
     1
 90
        3
176
     1
 90
        0
176
     1
 90
        0
176
     1
290
     0
176
     1
 90
        1
176
     1
 40
0.0
176
     1
 90
        0
176
     1
290
     0
176
     1
290
     1
176
     1
290
     1
176
     1
290
     0
176
     1
290
     0
176
     1
290
     0
176
     1
290
     0
176
     1
290
     0
176
     1
290
     0
176
     1
 90
       50
176
     1
 40
0.0
176
     1
 40
1.0
176
     1
 90
        0
176
     1
 62
    18
420
        0
176
     1
 90
       50
176
     1
 90
        3
176
     1
 62
     5
420
      255
176
     1
290
     0
176
     1
 90
       50
176
     1
 90
       50
176
     1
 90
       50
176
     1
290
     0
176
     1
 90
       50
176
     1
 62
   256
176
     0
 40
1.0
176
     0
 90
        2
176
     1
  1
strokes_ogs.tif
176
     1
290
     0
176
     1
 40
1.0
176
     1
 40
1.0
176
     1
  0
VISUALSTYLE
  5
4B9
102
{ACAD_REACTORS
330
4AE
102
}
330
4AE
100
AcDbVisualStyle
  2
Dim
 70
    11
177
     3
291
     1
 70
    58
 90
        2
176
     1
 90
        2
176
     1
 90
        0
176
     1
 90
        0
176
     1
 40
0.6
176
     1
 40
30.0
176
     1
 62
     7
420
 16777215
176
     1
 90
        1
176
     1
 90
        4
176
     1
 62
     7
176
     1
 62
   257
176
     1
 90
        1
176
     1
 90
        1
176
     1
 40
1.0
176
     1
 90
        8
176
     1
 62
     7
176
     1
 40
1.0
176
     1
 90
        1
176
     1
 90
        6
176
     1
 90
        2
176
     1
 62
     7
176
     1
 90
        5
176
     1
 90
        0
176
     1
 90
        0
176
     1
290
     0
176
     1
 90
        1
176
     1
 40
-50.0
176
     1
 90
        0
176
     1
290
     0
176
     1
290
     1
176
     1
290
     1
176
     1
290
     0
176
     1
290
     0
176
     1
290
     0
176
     1
290
     0
176
     1
290
     0
176
     1
290
     0
176
     1
 90
       50
176
     1
 40
0.0
176
     1
 40
1.0
176
     1
 90
        0
176
     1
 62
    18
420
        0
176
     1
 90
       50
176
     1
 90
        3
176
     1
 62
     5
420
      255
176
     1
290
     0
176
     1
 90
       50
176
     1
 90
       50
176
     1
 90
       50
176
     1
290
     0
176
     1
 90
       50
176
     1
 62
   256
176
     0
 40
1.0
176
     0
 90
        2
176
     1
  1
strokes_ogs.tif
176
     1
290
     0
176
     1
 40
1.0
176
     1
 40
1.0
176
     1
  0
VISUALSTYLE
  5
4C1
102
{ACAD_REACTORS
330
4AE
102
}
330
4AE
100
AcDbVisualStyle
  2
EdgeColorOff
 70
    22
177
     3
291
     1
 70
    58
 90
        2
176
     0
 90
        2
176
     0
 90
        0
176
     0
 90
        0
176
     0
 40
0.6
176
     0
 40
30.0
176
     0
 62
     7
420
 16777215
176
     0
 90
        1
176
     0
 90
        4
176
     0
 62
     7
176
     0
 62
   257
176
     0
 90
        1
176
     0
 90
        1
176
     0
 40
1.0
176
     0
 90
        8
176
     2
 62
     7
176
     0
 40
1.0
176
     0
 90
        1
176
     0
 90
        6
176
     0
 90
        2
176
     0
 62
     7
176
     0
 90
        5
176
     0
 90
        0
176
     0
 90
        0
176
     0
290
     0
176
     0
 90
        1
176
     0
 40
0.0
176
     0
 90
        0
176
     0
290
     0
176
     0
290
     1
176
     0
290
     1
176
     0
290
     0
176
     0
290
     0
176
     0
290
     0
176
     0
290
     0
176
     0
290
     0
176
     0
290
     0
176
     0
 90
       50
176
     0
 40
0.0
176
     0
 40
1.0
176
     0
 90
        0
176
     0
 62
    18
420
        0
176
     0
 90
       50
176
     0
 90
        3
176
     0
 62
     5
420
      255
176
     0
290
     0
176
     0
 90
       50
176
     0
 90
       50
176
     0
 90
       50
176
     0
290
     0
176
     0
 90
       50
176
     0
 62
   256
176
     0
 40
1.0
176
     0
 90
        2
176
     0
  1
strokes_ogs.tif
176
     0
290
     0
176
     0
 40
1.0
176
     0
 40
1.0
176
     0
  0
VISUALSTYLE
  5
4BD
102
{ACAD_REACTORS
330
4AE
102
}
330
4AE
100
AcDbVisualStyle
  2
Facepattern
 70
    15
177
     3
291
     1
 70
    58
 90
        2
176
     1
 90
        2
176
     1
 90
        0
176
     1
 90
        0
176
     1
 40
0.6
176
     1
 40
30.0
176
     1
 62
     7
420
 16777215
176
     1
 90
        1
176
     1
 90
        4
176
     1
 62
     7
176
     1
 62
   257
176
     1
 90
        1
176
     1
 90
        1
176
     1
 40
1.0
176
     1
 90
        8
176
     1
 62
     7
176
     1
 40
1.0
176
     1
 90
        1
176
     1
 90
        6
176
     1
 90
        2
176
     1
 62
     7
176
     1
 90
        5
176
     1
 90
        0
176
     1
 90
        0
176
     1
290
     0
176
     1
 90
        1
176
     1
 40
0.0
176
     1
 90
        0
176
     1
290
     0
176
     1
290
     1
176
     1
290
     1
176
     1
290
     0
176
     1
290
     0
176
     1
290
     0
176
     1
290
     0
176
     1
290
     0
176
     1
290
     0
176
     1
 90
       50
176
     1
 40
0.0
176
     1
 40
1.0
176
     1
 90
        0
176
     1
 62
    18
420
        0
176
     1
 90
       50
176
     1
 90
        3
176
     1
 62
     5
420
      255
176
     1
290
     0
176
     1
 90
       50
176
     1
 90
       50
176
     1
 90
       50
176
     1
290
     0
176
     1
 90
       50
176
     1
 62
   256
176
     0
 40
1.0
176
     0
 90
        2
176
     1
  1
strokes_ogs.tif
176
     1
290
     0
176
     1
 40
1.0
176
     1
 40
1.0
176
     1
  0
VISUALSTYLE
  5
4AF
102
{ACAD_REACTORS
330
4AE
102
}
330
4AE
100
AcDbVisualStyle
  2
Flat
 70
     0
177
     3
291
     1
 70
    58
 90
        2
176
     1
 90
        1
176
     1
 90
        1
176
     1
 90
        2
176
     1
 40
0.6
176
     1
 40
30.0
176
     1
 62
     7
420
 16777215
176
     1
 90
        0
176
     1
 90
        0
176
     1
 62
     7
176
     1
 62
   257
176
     1
 90
        1
176
     1
 90
        1
176
     1
 40
1.0
176
     1
 90
        8
176
     1
 62
     7
176
     1
 40
1.0
176
     1
 90
        1
176
     1
 90
        6
176
     1
 90
        2
176
     1
 62
     7
176
     1
 90
        5
176
     1
 90
        0
176
     1
 90
        0
176
     1
290
     0
176
     1
 90
       13
176
     1
 40
0.0
176
     1
 90
        0
176
     1
290
     0
176
     1
290
     1
176
     1
290
     1
176
     1
290
     0
176
     1
290
     0
176
     1
290
     0
176
     1
290
     0
176
     1
290
     0
176
     1
290
     0
176
     1
 90
       50
176
     1
 40
0.0
176
     1
 40
1.0
176
     1
 90
        0
176
     1
 62
    18
420
        0
176
     1
 90
       50
176
     1
 90
        3
176
     1
 62
     5
420
      255
176
     1
290
     0
176
     1
 90
       50
176
     1
 90
       50
176
     1
 90
       50
176
     1
290
     0
176
     1
 90
       50
176
     1
 62
   256
176
     0
 40
1.0
176
     0
 90
        2
176
     1
  1
strokes_ogs.tif
176
     1
290
     0
176
     1
 40
1.0
176
     1
 40
1.0
176
     1
  0
VISUALSTYLE
  5
4B0
102
{ACAD_REACTORS
330
4AE
102
}
330
4AE
100
AcDbVisualStyle
  2
FlatWithEdges
 70
     1
177
     3
291
     1
 70
    58
 90
        2
176
     1
 90
        1
176
     1
 90
        1
176
     1
 90
        2
176
     1
 40
0.6
176
     1
 40
30.0
176
     1
 62
     7
420
 16777215
176
     1
 90
        1
176
     1
 90
        0
176
     1
 62
     7
176
     1
 62
   257
176
     1
 90
        1
176
     1
 90
        1
176
     1
 40
1.0
176
     1
 90
        0
176
     1
 62
   257
176
     1
 40
1.0
176
     1
 90
        1
176
     1
 90
        6
176
     1
 90
        2
176
     1
 62
     7
176
     1
 90
        5
176
     1
 90
        0
176
     1
 90
        0
176
     1
290
     0
176
     1
 90
       13
176
     1
 40
0.0
176
     1
 90
        0
176
     1
290
     0
176
     1
290
     1
176
     1
290
     1
176
     1
290
     0
176
     1
290
     0
176
     1
290
     0
176
     1
290
     0
176
     1
290
     0
176
     1
290
     0
176
     1
 90
       50
176
     1
 40
0.0
176
     1
 40
1.0
176
     1
 90
        0
176
     1
 62
    18
420
        0
176
     1
 90
       50
176
     1
 90
        3
176
     1
 62
     5
420
      255
176
     1
290
     0
176
     1
 90
       50
176
     1
 90
       50
176
     1
 90
       50
176
     1
290
     0
176
     1
 90
       50
176
     1
 62
   256
176
     0
 40
1.0
176
     0
 90
        2
176
     1
  1
strokes_ogs.tif
176
     1
290
     0
176
     1
 40
1.0
176
     1
 40
1.0
176
     1
  0
VISUALSTYLE
  5
4B1
102
{ACAD_REACTORS
330
4AE
102
}
330
4AE
100
AcDbVisualStyle
  2
Gouraud
 70
     2
177
     3
291
     1
 70
    58
 90
        2
176
     1
 90
        2
176
     1
 90
        1
176
     1
 90
        2
176
     1
 40
0.6
176
     1
 40
30.0
176
     1
 62
     7
420
 16777215
176
     1
 90
        0
176
     1
 90
        0
176
     1
 62
     7
176
     1
 62
   257
176
     1
 90
        1
176
     1
 90
        1
176
     1
 40
1.0
176
     1
 90
        0
176
     1
 62
     7
176
     1
 40
1.0
176
     1
 90
        1
176
     1
 90
        6
176
     1
 90
        2
176
     1
 62
     7
176
     1
 90
        5
176
     1
 90
        0
176
     1
 90
        0
176
     1
290
     0
176
     1
 90
       13
176
     1
 40
0.0
176
     1
 90
        0
176
     1
290
     0
176
     1
290
     1
176
     1
290
     1
176
     1
290
     0
176
     1
290
     0
176
     1
290
     0
176
     1
290
     0
176
     1
290
     0
176
     1
290
     0
176
     1
 90
       50
176
     1
 40
0.0
176
     1
 40
1.0
176
     1
 90
        0
176
     1
 62
    18
420
        0
176
     1
 90
       50
176
     1
 90
        3
176
     1
 62
     5
420
      255
176
     1
290
     0
176
     1
 90
       50
176
     1
 90
       50
176
     1
 90
       50
176
     1
290
     0
176
     1
 90
       50
176
     1
 62
   256
176
     0
 40
1.0
176
     0
 90
        2
176
     1
  1
strokes_ogs.tif
176
     1
290
     0
176
     1
 40
1.0
176
     1
 40
1.0
176
     1
  0
VISUALSTYLE
  5
4B2
102
{ACAD_REACTORS
330
4AE
102
}
330
4AE
100
AcDbVisualStyle
  2
GouraudWithEdges
 70
     3
177
     3
291
     1
 70
    58
 90
        2
176
     1
 90
        2
176
     1
 90
        1
176
     1
 90
        2
176
     1
 40
0.6
176
     1
 40
30.0
176
     1
 62
     7
420
 16777215
176
     1
 90
        1
176
     1
 90
        0
176
     1
 62
     7
176
     1
 62
   257
176
     1
 90
        1
176
     1
 90
        1
176
     1
 40
1.0
176
     1
 90
        0
176
     1
 62
   257
176
     1
 40
1.0
176
     1
 90
        1
176
     1
 90
        6
176
     1
 90
        2
176
     1
 62
     7
176
     1
 90
        5
176
     1
 90
        0
176
     1
 90
        0
176
     1
290
     0
176
     1
 90
       13
176
     1
 40
0.0
176
     1
 90
        0
176
     1
290
     0
176
     1
290
     1
176
     1
290
     1
176
     1
290
     0
176
     1
290
     0
176
     1
290
     0
176
     1
290
     0
176
     1
290
     0
176
     1
290
     0
176
     1
 90
       50
176
     1
 40
0.0
176
     1
 40
1.0
176
     1
 90
        0
176
     1
 62
    18
420
        0
176
     1
 90
       50
176
     1
 90
        3
176
     1
 62
     5
420
      255
176
     1
290
     0
176
     1
 90
       50
176
     1
 90
       50
176
     1
 90
       50
176
     1
290
     0
176
     1
 90
       50
176
     1
 62
   256
176
     0
 40
1.0
176
     0
 90
        2
176
     1
  1
strokes_ogs.tif
176
     1
290
     0
176
     1
 40
1.0
176
     1
 40
1.0
176
     1
  0
VISUALSTYLE
  5
4B5
102
{ACAD_REACTORS
330
4AE
102
}
330
4AE
100
AcDbVisualStyle
  2
Hidden
 70
     6
177
     3
291
     0
 70
    58
 90
        1
176
     1
 90
        2
176
     1
 90
        2
176
     1
 90
        0
176
     1
 40
0.6
176
     1
 40
30.0
176
     1
 62
     7
420
 16777215
176
     1
 90
        2
176
     1
 90
        2
176
     1
 62
     7
176
     1
 62
   257
176
     1
 90
        2
176
     1
 90
        1
176
     1
 40
40.0
176
     1
 90
        0
176
     1
 62
   257
176
     1
 40
1.0
176
     1
 90
        1
176
     1
 90
        6
176
     1
 90
        2
176
     1
 62
     7
176
     1
 90
        3
176
     1
 90
        0
176
     1
 90
        0
176
     1
290
     0
176
     1
 90
        1
176
     1
 40
0.0
176
     1
 90
        0
176
     1
290
     0
176
     1
290
     1
176
     1
290
     1
176
     1
290
     0
176
     1
290
     0
176
     1
290
     0
176
     1
290
     0
176
     1
290
     0
176
     1
290
     0
176
     1
 90
       50
176
     1
 40
0.0
176
     1
 40
1.0
176
     1
 90
        0
176
     1
 62
    18
420
        0
176
     1
 90
       50
176
     1
 90
        3
176
     1
 62
     5
420
      255
176
     1
290
     0
176
     1
 90
       50
176
     1
 90
       50
176
     1
 90
       50
176
     1
290
     0
176
     1
 90
       50
176
     1
 62
   256
176
     0
 40
1.0
176
     0
 90
        2
176
     1
  1
strokes_ogs.tif
176
     1
290
     0
176
     1
 40
1.0
176
     1
 40
1.0
176
     1
  0
VISUALSTYLE
  5
4BF
102
{ACAD_REACTORS
330
4AE
102
}
330
4AE
100
AcDbVisualStyle
  2
JitterOff
 70
    20
177
     3
291
     1
 70
    58
 90
        2
176
     0
 90
        2
176
     0
 90
        0
176
     0
 90
        0
176
     0
 40
0.6
176
     0
 40
30.0
176
     0
 62
     7
420
 16777215
176
     0
 90
        1
176
     0
 90
        4
176
     0
 62
     7
176
     0
 62
   257
176
     0
 90
        1
176
     0
 90
        1
176
     0
 40
1.0
176
     0
 90
       10
176
     2
 62
     7
176
     0
 40
1.0
176
     0
 90
        1
176
     0
 90
        6
176
     0
 90
        2
176
     0
 62
     7
176
     0
 90
        5
176
     0
 90
        0
176
     0
 90
        0
176
     0
290
     0
176
     0
 90
        1
176
     0
 40
0.0
176
     0
 90
        0
176
     0
290
     0
176
     0
290
     1
176
     0
290
     1
176
     0
290
     0
176
     0
290
     0
176
     0
290
     0
176
     0
290
     0
176
     0
290
     0
176
     0
290
     0
176
     0
 90
       50
176
     0
 40
0.0
176
     0
 40
1.0
176
     0
 90
        0
176
     0
 62
    18
420
        0
176
     0
 90
       50
176
     0
 90
        3
176
     0
 62
     5
420
      255
176
     0
290
     0
176
     0
 90
       50
176
     0
 90
       50
176
     0
 90
       50
176
     0
290
     0
176
     0
 90
       50
176
     0
 62
   256
176
     0
 40
1.0
176
     0
 90
        2
176
     0
  1
strokes_ogs.tif
176
     0
290
     0
176
     0
 40
1.0
176
     0
 40
1.0
176
     0
  0
VISUALSTYLE
  5
4BC
102
{ACAD_REACTORS
330
4AE
102
}
330
4AE
100
AcDbVisualStyle
  2
Linepattern
 70
    14
177
     3
291
     1
 70
    58
 90
        2
176
     1
 90
        2
176
     1
 90
        0
176
     1
 90
        0
176
     1
 40
0.6
176
     1
 40
30.0
176
     1
 62
     7
420
 16777215
176
     1
 90
        1
176
     1
 90
        4
176
     1
 62
     7
176
     1
 62
   257
176
     1
 90
        7
176
     1
 90
        7
176
     1
 40
1.0
176
     1
 90
        8
176
     1
 62
     7
176
     1
 40
1.0
176
     1
 90
        1
176
     1
 90
        6
176
     1
 90
        2
176
     1
 62
     7
176
     1
 90
        5
176
     1
 90
        0
176
     1
 90
        0
176
     1
290
     0
176
     1
 90
        1
176
     1
 40
0.0
176
     1
 90
        0
176
     1
290
     0
176
     1
290
     1
176
     1
290
     1
176
     1
290
     0
176
     1
290
     0
176
     1
290
     0
176
     1
290
     0
176
     1
290
     0
176
     1
290
     0
176
     1
 90
       50
176
     1
 40
0.0
176
     1
 40
1.0
176
     1
 90
        0
176
     1
 62
    18
420
        0
176
     1
 90
       50
176
     1
 90
        3
176
     1
 62
     5
420
      255
176
     1
290
     0
176
     1
 90
       50
176
     1
 90
       50
176
     1
 90
       50
176
     1
290
     0
176
     1
 90
       50
176
     1
 62
   256
176
     0
 40
1.0
176
     0
 90
        2
176
     1
  1
strokes_ogs.tif
176
     1
290
     0
176
     1
 40
1.0
176
     1
 40
1.0
176
     1
  0
VISUALSTYLE
  5
4C0
102
{ACAD_REACTORS
330
4AE
102
}
330
4AE
100
AcDbVisualStyle
  2
OverhangOff
 70
    21
177
     3
291
     1
 70
    58
 90
        2
176
     0
 90
        2
176
     0
 90
        0
176
     0
 90
        0
176
     0
 40
0.6
176
     0
 40
30.0
176
     0
 62
     7
420
 16777215
176
     0
 90
        1
176
     0
 90
        4
176
     0
 62
     7
176
     0
 62
   257
176
     0
 90
        1
176
     0
 90
        1
176
     0
 40
1.0
176
     0
 90
        9
176
     2
 62
     7
176
     0
 40
1.0
176
     0
 90
        1
176
     0
 90
        6
176
     0
 90
        2
176
     0
 62
     7
176
     0
 90
        5
176
     0
 90
        0
176
     0
 90
        0
176
     0
290
     0
176
     0
 90
        1
176
     0
 40
0.0
176
     0
 90
        0
176
     0
290
     0
176
     0
290
     1
176
     0
290
     1
176
     0
290
     0
176
     0
290
     0
176
     0
290
     0
176
     0
290
     0
176
     0
290
     0
176
     0
290
     0
176
     0
 90
       50
176
     0
 40
0.0
176
     0
 40
1.0
176
     0
 90
        0
176
     0
 62
    18
420
        0
176
     0
 90
       50
176
     0
 90
        3
176
     0
 62
     5
420
      255
176
     0
290
     0
176
     0
 90
       50
176
     0
 90
       50
176
     0
 90
       50
176
     0
290
     0
176
     0
 90
       50
176
     0
 62
   256
176
     0
 40
1.0
176
     0
 90
        2
176
     0
  1
strokes_ogs.tif
176
     0
290
     0
176
     0
 40
1.0
176
     0
 40
1.0
176
     0
  0
VISUALSTYLE
  5
4B7
102
{ACAD_REACTORS
330
4AE
102
}
330
4AE
100
AcDbVisualStyle
  2
Realistic
 70
     8
177
     3
291
     0
 70
    58
 90
        2
176
     1
 90
        3
176
     1
 90
        0
176
     1
 90
        2
176
     1
 40
0.6
176
     1
 40
30.0
176
     1
 62
     7
420
 16777215
176
     1
 90
        0
176
     1
 90
        0
176
     1
 62
     7
176
     1
 62
   257
176
     1
 90
        1
176
     1
 90
        1
176
     1
 40
1.0
176
     1
 90
        8
176
     1
 62
   257
176
     1
 40
1.0
176
     1
 90
        1
176
     1
 90
        6
176
     1
 90
        2
176
     1
 62
     7
176
     1
 90
        3
176
     1
 90
        0
176
     1
 90
        0
176
     1
290
     0
176
     1
 90
       13
176
     1
 40
0.0
176
     1
 90
        0
176
     1
290
     0
176
     1
290
     1
176
     1
290
     1
176
     1
290
     0
176
     1
290
     0
176
     1
290
     0
176
     1
290
     0
176
     1
290
     0
176
     1
290
     0
176
     1
 90
       50
176
     1
 40
0.0
176
     1
 40
1.0
176
     1
 90
        0
176
     1
 62
    18
420
        0
176
     1
 90
       50
176
     1
 90
        3
176
     1
 62
     5
420
      255
176
     1
290
     0
176
     1
 90
       50
176
     1
 90
       50
176
     1
 90
       50
176
     1
290
     0
176
     1
 90
       50
176
     1
 62
   256
176
     0
 40
1.0
176
     0
 90
        2
176
     1
  1
strokes_ogs.tif
176
     1
290
     0
176
     1
 40
1.0
176
     1
 40
1.0
176
     1
  0
VISUALSTYLE
  5
4C6
102
{ACAD_REACTORS
330
4AE
102
}
330
4AE
100
AcDbVisualStyle
  2
Shaded
 70
    27
177
     3
291
     0
 70
    58
 90
        2
176
     1
 90
        2
176
     1
 90
        1
176
     1
 90
        2
176
     1
 40
0.6
176
     1
 40
30.0
176
     1
 62
     7
420
 16777215
176
     1
 90
        0
176
     1
 90
        4
176
     1
 62
     7
176
     1
 62
   257
176
     1
 90
        1
176
     1
 90
        1
176
     1
 40
1.0
176
     1
 90
        8
176
     1
 62
   257
176
     1
 40
1.0
176
     1
 90
        1
176
     1
 90
        6
176
     1
 90
        2
176
     1
 62
     8
420
  7895160
176
     1
 90
        3
176
     1
 90
        0
176
     1
 90
        0
176
     1
290
     0
176
     1
 90
        5
176
     1
 40
0.0
176
     1
 90
        0
176
     1
290
     0
176
     1
290
     1
176
     1
290
     1
176
     1
290
     0
176
     1
290
     0
176
     1
290
     0
176
     1
290
     0
176
     1
290
     0
176
     1
290
     0
176
     1
 90
       50
176
     1
 40
0.0
176
     1
 40
1.0
176
     1
 90
        0
176
     1
 62
    18
420
        0
176
     1
 90
       50
176
     1
 90
        3
176
     1
 62
     5
420
      255
176
     1
290
     0
176
     1
 90
       50
176
     1
 90
       50
176
     1
 90
       50
176
     1
290
     0
176
     1
 90
       50
176
     1
 62
   256
176
     0
 40
1.0
176
     0
 90
        2
176
     1
  1
strokes_ogs.tif
176
     1
290
     0
176
     1
 40
1.0
176
     1
 40
1.0
176
     1
  0
VISUALSTYLE
  5
4C5
102
{ACAD_REACTORS
330
4AE
102
}
330
4AE
100
AcDbVisualStyle
  2
Shaded with edges
 70
    26
177
     3
291
     0
 70
    58
 90
        2
176
     1
 90
        2
176
     1
 90
        1
176
     1
 90
        2
176
     1
 40
0.6
176
     1
 40
30.0
176
     1
 62
     7
420
 16777215
176
     1
 90
        1
176
     1
 90
       10
176
     1
 62
     7
176
     1
 62
   257
176
     1
 90
        2
176
     1
 90
        1
176
     1
 40
1.0
176
     1
 90
        8
176
     1
 62
   257
176
     1
 40
1.0
176
     1
 90
        1
176
     1
 90
        6
176
     1
 90
        2
176
     1
 62
     7
176
     1
 90
        3
176
     1
 90
        0
176
     1
 90
        0
176
     1
290
     0
176
     1
 90
        5
176
     1
 40
0.0
176
     1
 90
        0
176
     1
290
     0
176
     1
290
     1
176
     1
290
     1
176
     1
290
     0
176
     1
290
     0
176
     1
290
     0
176
     1
290
     0
176
     1
290
     0
176
     1
290
     0
176
     1
 90
       50
176
     1
 40
0.0
176
     1
 40
1.0
176
     1
 90
        0
176
     1
 62
    18
420
        0
176
     1
 90
       50
176
     1
 90
        3
176
     1
 62
     5
420
      255
176
     1
290
     0
176
     1
 90
       50
176
     1
 90
       50
176
     1
 90
       50
176
     1
290
     0
176
     1
 90
       50
176
     1
 62
   256
176
     0
 40
1.0
176
     0
 90
        2
176
     1
  1
strokes_ogs.tif
176
     1
290
     0
176
     1
 40
1.0
176
     1
 40
1.0
176
     1
  0
VISUALSTYLE
  5
4C2
102
{ACAD_REACTORS
330
4AE
102
}
330
4AE
100
AcDbVisualStyle
  2
Shades of Gray
 70
    23
177
     3
291
     0
 70
    58
 90
        2
176
     1
 90
        2
176
     1
 90
        3
176
     1
 90
        0
176
     1
 40
0.6
176
     1
 40
30.0
176
     1
 62
     7
420
 16777215
176
     1
 90
        2
176
     1
 90
        2
176
     1
 62
     7
176
     1
 62
     7
176
     1
 90
        1
176
     1
 90
        1
176
     1
 40
40.0
176
     1
 90
        8
176
     1
 62
     7
176
     1
 40
1.0
176
     1
 90
        1
176
     1
 90
        6
176
     1
 90
        2
176
     1
 62
     7
176
     1
 90
        3
176
     1
 90
        0
176
     1
 90
        0
176
     1
290
     0
176
     1
 90
        1
176
     1
 40
0.0
176
     1
 90
        0
176
     1
290
     0
176
     1
290
     1
176
     1
290
     1
176
     1
290
     0
176
     1
290
     0
176
     1
290
     0
176
     1
290
     0
176
     1
290
     0
176
     1
290
     0
176
     1
 90
       50
176
     1
 40
0.0
176
     1
 40
1.0
176
     1
 90
        0
176
     1
 62
    18
420
        0
176
     1
 90
       50
176
     1
 90
        3
176
     1
 62
     5
420
      255
176
     1
290
     0
176
     1
 90
       50
176
     1
 90
       50
176
     1
 90
       50
176
     1
290
     0
176
     1
 90
       50
176
     1
 62
   256
176
     0
 40
1.0
176
     0
 90
        2
176
     1
  1
strokes_ogs.tif
176
     1
290
     0
176
     1
 40
1.0
176
     1
 40
1.0
176
     1
  0
VISUALSTYLE
  5
4C3
102
{ACAD_REACTORS
330
4AE
102
}
330
4AE
100
AcDbVisualStyle
  2
Sketchy
 70
    24
177
     3
291
     0
 70
    58
 90
        1
176
     1
 90
        2
176
     1
 90
        2
176
     1
 90
        0
176
     1
 40
0.6
176
     1
 40
30.0
176
     1
 62
     7
420
 16777215
176
     1
 90
        2
176
     1
 90
        2
176
     1
 62
     7
176
     1
 62
     7
176
     1
 90
        1
176
     1
 90
        1
176
     1
 40
40.0
176
     1
 90
       11
176
     1
 62
     7
176
     1
 40
1.0
176
     1
 90
        1
176
     1
 90
        6
176
     1
 90
        2
176
     1
 62
     7
176
     1
 90
        6
176
     1
 90
        0
176
     1
 90
        0
176
     1
290
     0
176
     1
 90
        1
176
     1
 40
0.0
176
     1
 90
        0
176
     1
290
     0
176
     1
290
     1
176
     1
290
     1
176
     1
290
     0
176
     1
290
     0
176
     1
290
     0
176
     1
290
     0
176
     1
290
     0
176
     1
290
     0
176
     1
 90
       50
176
     1
 40
0.0
176
     1
 40
1.0
176
     1
 90
        0
176
     1
 62
    18
420
        0
176
     1
 90
       50
176
     1
 90
        3
176
     1
 62
     5
420
      255
176
     1
290
     0
176
     1
 90
       50
176
     1
 90
       50
176
     1
 90
       50
176
     1
290
     0
176
     1
 90
       50
176
     1
 62
   256
176
     0
 40
1.0
176
     0
 90
        2
176
     1
  1
strokes_ogs.tif
176
     1
290
     0
176
     1
 40
1.0
176
     1
 40
1.0
176
     1
  0
VISUALSTYLE
  5
4BB
102
{ACAD_REACTORS
330
4AE
102
}
330
4AE
100
AcDbVisualStyle
  2
Thicken
 70
    13
177
     3
291
     1
 70
    58
 90
        2
176
     1
 90
        2
176
     1
 90
        0
176
     1
 90
        0
176
     1
 40
0.6
176
     1
 40
30.0
176
     1
 62
     7
420
 16777215
176
     1
 90
        1
176
     1
 90
        4
176
     1
 62
     7
176
     1
 62
   257
176
     1
 90
        1
176
     1
 90
        1
176
     1
 40
1.0
176
     1
 90
       12
176
     1
 62
     7
176
     1
 40
1.0
176
     1
 90
        1
176
     1
 90
        6
176
     1
 90
        2
176
     1
 62
     7
176
     1
 90
        5
176
     1
 90
        0
176
     1
 90
        0
176
     1
290
     0
176
     1
 90
        1
176
     1
 40
0.0
176
     1
 90
        0
176
     1
290
     0
176
     1
290
     1
176
     1
290
     1
176
     1
290
     0
176
     1
290
     0
176
     1
290
     0
176
     1
290
     0
176
     1
290
     0
176
     1
290
     0
176
     1
 90
       50
176
     1
 40
0.0
176
     1
 40
1.0
176
     1
 90
        0
176
     1
 62
    18
420
        0
176
     1
 90
       50
176
     1
 90
        3
176
     1
 62
     5
420
      255
176
     1
290
     0
176
     1
 90
       50
176
     1
 90
       50
176
     1
 90
       50
176
     1
290
     0
176
     1
 90
       50
176
     1
 62
   256
176
     0
 40
1.0
176
     0
 90
        2
176
     1
  1
strokes_ogs.tif
176
     1
290
     0
176
     1
 40
1.0
176
     1
 40
1.0
176
     1
  0
VISUALSTYLE
  5
4B4
102
{ACAD_REACTORS
330
4AE
102
}
330
4AE
100
AcDbVisualStyle
  2
Wireframe
 70
     5
177
     3
291
     0
 70
    58
 90
        0
176
     1
 90
        2
176
     1
 90
        0
176
     1
 90
        0
176
     1
 40
0.6
176
     1
 40
30.0
176
     1
 62
     7
420
 16777215
176
     1
 90
        1
176
     1
 90
        4
176
     1
 62
     7
176
     1
 62
   257
176
     1
 90
        1
176
     1
 90
        1
176
     1
 40
1.0
176
     1
 90
        0
176
     1
 62
   257
176
     1
 40
1.0
176
     1
 90
        1
176
     1
 90
        6
176
     1
 90
        2
176
     1
 62
     7
176
     1
 90
        3
176
     1
 90
        0
176
     1
 90
        0
176
     1
290
     0
176
     1
 90
        1
176
     1
 40
0.0
176
     1
 90
        0
176
     1
290
     0
176
     1
290
     1
176
     1
290
     1
176
     1
290
     0
176
     1
290
     0
176
     1
290
     0
176
     1
290
     0
176
     1
290
     0
176
     1
290
     0
176
     1
 90
       50
176
     1
 40
0.0
176
     1
 40
1.0
176
     1
 90
        0
176
     1
 62
    18
420
        0
176
     1
 90
       50
176
     1
 90
        3
176
     1
 62
     5
420
      255
176
     1
290
     0
176
     1
 90
       50
176
     1
 90
       50
176
     1
 90
       50
176
     1
290
     0
176
     1
 90
       50
176
     1
 62
   256
176
     0
 40
1.0
176
     0
 90
        2
176
     1
  1
strokes_ogs.tif
176
     1
290
     0
176
     1
 40
1.0
176
     1
 40
1.0
176
     1
  0
VISUALSTYLE
  5
4C4
102
{ACAD_REACTORS
330
4AE
102
}
330
4AE
100
AcDbVisualStyle
  2
X-Ray
 70
    25
177
     3
291
     0
 70
    58
 90
        2
176
     1
 90
        2
176
     1
 90
        1
176
     1
 90
        1
176
     1
 40
0.5
176
     1
 40
30.0
176
     1
 62
     7
420
 16777215
176
     1
 90
        1
176
     1
 90
        0
176
     1
 62
     7
176
     1
 62
   257
176
     1
 90
        1
176
     1
 90
        1
176
     1
 40
1.0
176
     1
 90
        8
176
     1
 62
     7
176
     1
 40
1.0
176
     1
 90
        1
176
     1
 90
        6
176
     1
 90
        2
176
     1
 62
     7
176
     1
 90
        3
176
     1
 90
        0
176
     1
 90
        0
176
     1
290
     0
176
     1
 90
       13
176
     1
 40
0.0
176
     1
 90
        0
176
     1
290
     0
176
     1
290
     1
176
     1
290
     1
176
     1
290
     0
176
     1
290
     0
176
     1
290
     0
176
     1
290
     0
176
     1
290
     0
176
     1
290
     0
176
     1
 90
       50
176
     1
 40
0.0
176
     1
 40
1.0
176
     1
 90
        0
176
     1
 62
    18
420
        0
176
     1
 90
       50
176
     1
 90
        3
176
     1
 62
     5
420
      255
176
     1
290
     0
176
     1
 90
       50
176
     1
 90
       50
176
     1
 90
       50
176
     1
290
     0
176
     1
 90
       50
176
     1
 62
   256
176
     0
 40
1.0
176
     0
 90
        2
176
     1
  1
strokes_ogs.tif
176
     1
290
     0
176
     1
 40
1.0
176
     1
 40
1.0
176
     1
  0
DICTIONARYVAR
  5
4E0
102
{ACAD_REACTORS
330
4DF
102
}
330
4DF
100
DictionaryVariables
280
     0
  1
1:1
  0
DICTIONARYVAR
  5
4E4
102
{ACAD_REACTORS
330
4DF
102
}
330
4DF
100
DictionaryVariables
280
     0
  1
Standard
  0
CSACDOCUMENTOPTIONS
  5
4D5
102
{ACAD_REACTORS
330
4D4
102
}
330
4D4
  0
XRECORD
  5
4D9
102
{ACAD_REACTORS
330
4D0
102
}
330
4D0
100
AcDbXrecord
280
     1
300
MC_VERSION_DATA
 90
       95
310
0600000002000000570000001C000000E404000000000000000000007801936764E5D8CF7A8393818115C460606066E0646662626666706006F214793899F8DE3171E725E6E53B3BBA2878E6951050AF75FEFFFFFF520032DE0F3057000000
  0
XRECORD
  5
4D1
102
{ACAD_REACTORS
330
4D0
102
}
330
4D0
100
AcDbXrecord
280
     1
300
MCS_DOCUMENT_ID
 90
       61
310
0600000002000000150000001C000000E404000000000000000000007801E3BD39E933D30D895EFFFE39B74FED4A5EF5ED3F100000811E0DC315000000
  0
XRECORD
  5
4D7
102
{ACAD_REACTORS
330
4D0
102
}
330
4D0
100
AcDbXrecord
280
     1
300
MCS_PARAMS_DATA
 90
     3313
310
0600000002000000F64B00001C000000E404000000000000000000007801C55C5B905C45199EE99EBDCCE67E5DA218172C303B91307B4B8C459531245054850D55591F78B236BB49B9BAC9E6B22A082A9655BE5865596569A965F9209288CF16503EC8834088C10B092404211702988430422E9084CDAEFFD7A7FBF4DFA7CF
310
D9D99D9D39930798FF3F7DCEF7DFFAFBBBFBCC6CDBFC46297252EECB48F9CDF5ED5234493921A5206D76815820B252E4F3225F128D7D5F59BF69E3162948D9A2D485B3131313747328BF06593E960915079422437734AA3BDAA5CCD053F5ED4FD2557D257BAB94DF007A03479F859BB2B22193C9108EC1CDCADC0464C27506
310
28605703E48886E0B986E10F03BF91E33707F8E3140E7A9091C8268236920C1C662240B94888A1C8E07600AE99C32D5131CA8B3925D172EFE62D7D6D9DABBA8ADDD6F17CE16D13F0457AE8AC9268DE32DABF73B07FCFA013F9BF8491D7C17E2550D8E8FFCA8DFE4E98B3929B331718B291824FFF72EB941D9E8E2211D5A93C
310
784A44C557923911258BD0C8640531AEEC61A924855B11378280384364A422680C0A928DB9C10CD89D581114199665B722B26E4590C82B0222AB08FAA8A60626C028E0044F81BA246F5360E167F2D27C56A10E05C058C13C59DEC6207679103AFC5DEADF992F2B284F67B31C8EE359B64A9665A62453228F64269D98455E3B
310
A4B35817F7EC92C86FB8EFFE8DBD5BEEDBDCAB0CD3B5FC8E99065A7E55D536E39DE7826237F1C8BBBCB3CFADFC93302087C80397EE69C2FF69CA32234F0763E41851010DA578E8294D435524988818E84710A7B2643B4F7C034F6CE5C9368F203BE8094C6268541D70D35EE4B585DAE170F4942EB8D2D422560A9917F34B62
310
CE86919D9F1F6DDBB36DD770FFC0B6BC682E898607BEB5737424F8D83B323AF07529CFC0B69BB96D9FD3CFF9B410ED79B1A42416161FEA29AEEDEEEC5ADF532C76DEF3C5AEEEB5CAECF97A60330D2C1C3579EAD0DA7621F20269BD6768746FDBF0D0DE51F3B0EE356B3ABBD6F474F7740D76770EACED08FCFC92BEAF13F701
310
B5AF7FEBF0B6B691ED6D7D23C3DBF6F4EF840FDA9AD583C58E81E240FFEAADDD5BD70EAC0E669D2A25F27FB610851F9335859F059541B9E5971EC7A5A7E83F2CE53DB9A4040555A2661A4DDBF2C560B2E54E7D5483931EF871F7C88E5DFDA3435B878687461F6EDB313248FE3596847C70DBDEBC682809D13B22E56A5856E4
310
E9998738519B6E2A89DCE6EDDBDB542AF4E4380F8F61A4965F57116093E5A052A06AF588670205D9A715FB49B140D81A90855F902680EBB8B3A3187EEA96F2B224E392BAF898328CB1AD47DA34C1601A1B421AD816D190715CC3F276A5DE067C546F03AED6DB808FEB6DC0B57A1BB00853B49EB3E0937A47E07ABD0D188301
310
71CB797197D3603B1D06BFCB6DB024827C0C834324E60945463B3712E196397079076E990B47228783C8E09631B8F129C211385B3E540C97413DC70673C524DEAD70BD23917B079179B782793791AE77D944EFDCDC5529988B13E1069D6092C472A7F777A6F648E4C184C88239C8822913E16AE29D48176E29E0727C316496
310
EF2A967C95165E504B0C2B218EEE82DD5C63513CD614C5091F6D6FA7551865CC5C5030A1E0A3E84BEC86CFD04EC5DD01AA74CBDB05AB8C403295A124BB2908C4B032B4682A032283FB103E391B4E03172C7199C4E0F88E871E8855ADA1482D3238FA1846E0B807A77785BFF935FE1D74369F5647D0D171CA5F4F09337C2559
310
105132935A503D6DBC7A94B54D2B6DF1E0339960F436A97441791E5EC104D40283580888C4FDED577B1FD8B4B9AF6FE30605D8AAD7F1F34A62F6DD5BBEC62E92057A31FEA25A9DB3F5FBD3C1729D9CD723B0BF0DE8402BB05A67160DDE4416E59079C0D9EAA575B7321F67115FC018C76AB5B3A33D06B68CBD9BFBDC93C073
310
800CC384FD360C544F539B6F02B1820953BE9D01DE01C0D85A6C50369A5AC4065C7760793B965800321749E4B50891C0C2AB0CAE9808178444974C70F875952A9381563C01BE9D08EAFA481283ABD8C7EF7870DAABE068E68833DFAC8EA0A3E3F87C0B07AA507B2311F0889285BDC333294C4E2DB27C67BA70ABD2857B688A
310
70552AA7873DB8489E55063D5D2DCBE9BB9E49F1E554A5083C922EDCA3E9C27D2F5DB8EF7B705EE9D87E1E920E88313AAE6AECF4FBD668D3D30DB4E51ADA9BEDB0D7AFCEB4DDED85F7C4ECF6551B3BCE2AFF6E835E49458EC94883D6E73C45753FAE614C3C0A0362777435D915EC025C33F7578776011DE6F3D066954C59D6
310
D76F86AC9CD58A53F4122CF0552BAE070AEA3B5AF15752304F1F47569D50AB71F41A31FA5A51C904CD43C6B0F51D2ACEFC112ACC4CC1B0FF086CE7AD5A4D096A005126387AAD451EE384D9C035A925859E39C1AA865EE9A9B8DA21CEE289167F7CF1D4C4BC7A125EC5AED5D8BB0B5A9D9144D134CFA71BF85A8D44BE568348
310
F6AA55A2F3CAEA4F6982FD21118CC249D3CBF852A586F244BA70FBD285DB9F085793EDE56E143F0AD06C6B4CB2242BDD3DD1419166C2865E81F9CE1648F3CBD84597B22E28992A3DDCE24C77F3F311A01C8A722828EC3CF15F7D987933F818F8E59BC138E5CD4CE8AC24C94E68BA32F5C3CBAB808B6B06B9936E642F9F804C
310
903AF2F3709D37832318A078E4B37AEBDCFAA66859945B9EBB25776BAE2DD3995995E9CA1433DDFA4DAC7ECE6FE93696E96BB06712968ED2661884A9EE40230F60D0D73DE8C858453B9E8E4212D5A9B0784A762662599FEDD18C9299F4094C728A91F536658E91CDA6DFC8E89F363B15B4CB31404FD2581CF722BBF229B517
310
430944E56AB2E2A8E3461950730F2B7ECA7BC570E389706E8BA9D241C744225C40C29385944F707279EA277D998065D9EAD604B1263E66D38513E9C2490F4EE7CC6E8AA89C3D9DA588701CA708AB6414C194931EE3FC0D4515D71A4FBFE712F8CB4A26532A6E8DCF01CA61A3745BE3F3C09F6E6B442F0CD7BAD36A8D2F002E
310
AE359E3BE646F6B8926D6BBC0CD9926FBEF08C5220B9BAE91D0E14769FF44B52301E3C00E8FA74C117BD24F396E22C7F1005F2DA2902EB76053DE720B0D3EE397F2F036AE8B24A3DE750225C4DF8F8A544B81AF69C7F2482D6C4C77F067093EF36FE359541FF8E0E8A50399BA22F63681CEF0EBDEBB2C3834A9E09EF1E0654
310
1D79F708F0A7CBBB956F495E015C1CEFEE3EEC46B65FC996771F856C09285F58A7148C77872F6104D6DC9A8897D30896D457015D1FDE3DEA25B91CEFF2EBD6EB0A68F718A0D3A6DDD7CA805699768F27C2D584925E4F84AB9476A39B03E744D09CD6610FF59F44E89A78FA46BA70DDDE0ADC144A4DBCEBF1E0221D416DC23D
310
1D715254A766A8A7AC60C1FF26021ED7783E889CD89C52F24C1ACF0940D5B1F19C047E7A8DE714E0E21ACFD5436EE339AB64DB78E44B91C6730003ECCB897CE1D28548E3798246B0C6731AD0536D3CB3E90740046E0B5FD5161351555C247A084506FA9607AAEBD39C44F1E2B63A5BDCA18E17B755B2E2664A322602C34C3A
310
0393625B51C09BC60D77315EF1E1C8DB80730A9C37D5B8CD0EBF3EA3A6FB4EA2A7C18B1B2746D53A5F7BB70C687C78291FE10E3A386EE3054657F9CB297E9CF703B0E71DFC4DA3397B4068C3CF33A1A81F02C2C920DB8E7ABF712005813923946BAE06DE453454B45CC32AF6311810C751E3F85A979E7874424F9299B34AB2
310
210DC430A45A3473162283FB2F3218C7FE178FBB1CF59692CDAD957C0DECAC3739580882F7E26636C4FC0874E66F42CE013F2EB274A4C323CBB88082C5B980AE4CFD4DC879C0C5B1FFF5E7DDC89E57324556799F2F34BC006EC70CD18A8318C0D9FF0AB6807CDBB19F46B0A4BE07E8B4D9FF8207EA504E3D7E65FA3E4C7226
310
B329B0E8D703AAFEBAA304E869379E693123CD68457958A4FF2F11AE86ECFF4119D078F6E7138AD87FF2370F86D6E1E38789702D76FED2134932CCA824CB8C811832A3160D33426421BD980847AF6F0C11D33DEECB1CFE9B7175D1F926045DE5BD8DBFBDBE94081764D0049324E6DDB40A8607F372225C4D16463974B5B836
310
F393232E193EA2E499B49986C93A780A6DA631A981D7A6CD34012EAECDFCFC5937B23F52B26D33BF83CCDBCC56A5C0ECD07DE7A7A7226D661D8D6033A419D0536D33E07F56B8C4CA7C0D48229F9610695A461A0883CE7B494E8DD95B004DF38E8247AB09FE45AC1A52EDAC32A0861DD8DA85D8A76276989D08579353913989
310
700119397510D9BB4CAB9DF096393711B4263ECE4B176E7EBA700B3C389DB3F0B5335AA6A7234288EA142D784A9083AFB414616018456CF24C3293C4CD2F49D3E5A5F0410CEE7E0F2E6A6FEA11580893E29AEE529C2FC11C4DF48D4AA628982DB44A422820F8563073C8F989CF2240392BED74F7768B819FDEDE6E09E0E29A
310
EE72FA030B3CB273954C91D5916E87CC9BEEFB4FAB1E6B73B10CFB6CBEB73B4423589D2D05F4CC9AAE2E4C768646F0614DBB4BD40606DDEA2539B5A67B13A0D36EBACBCA809A9055A7E9E24B8E0D79912B896C91FE0C1655C17843E129FA335B3277F4E8510807513CB9CC44868E210AF7FE19028691B0917E39482B125CF8
310
D4FF01F0B312DAF64B0000
  0
TABLECONTENT
  5
4DB
330
4DE
100
AcDbLinkedData
  1

300

100
AcDbLinkedTableData
 90
        5
300
COLUMN
  1
LINKEDTABLEDATACOLUMN_BEGIN
300

 91
        0
301
CUSTOMDATA
  1
DATAMAP_BEGIN
 90
        0
309
DATAMAP_END
309
LINKEDTABLEDATACOLUMN_END
  1
FORMATTEDTABLEDATACOLUMN_BEGIN
300
COLUMNTABLEFORMAT
  1
TABLEFORMAT_BEGIN
 90
        3
170
     0
309
TABLEFORMAT_END
309
FORMATTEDTABLEDATACOLUMN_END
  1
TABLECOLUMN_BEGIN
 90
        0
 40
10.0
309
TABLECOLUMN_END
300
COLUMN
  1
LINKEDTABLEDATACOLUMN_BEGIN
300

 91
        0
301
CUSTOMDATA
  1
DATAMAP_BEGIN
 90
        0
309
DATAMAP_END
309
LINKEDTABLEDATACOLUMN_END
  1
FORMATTEDTABLEDATACOLUMN_BEGIN
300
COLUMNTABLEFORMAT
  1
TABLEFORMAT_BEGIN
 90
        3
170
     0
309
TABLEFORMAT_END
309
FORMATTEDTABLEDATACOLUMN_END
  1
TABLECOLUMN_BEGIN
 90
        0
 40
10.0
309
TABLECOLUMN_END
300
COLUMN
  1
LINKEDTABLEDATACOLUMN_BEGIN
300

 91
        0
301
CUSTOMDATA
  1
DATAMAP_BEGIN
 90
        0
309
DATAMAP_END
309
LINKEDTABLEDATACOLUMN_END
  1
FORMATTEDTABLEDATACOLUMN_BEGIN
300
COLUMNTABLEFORMAT
  1
TABLEFORMAT_BEGIN
 90
        3
170
     0
309
TABLEFORMAT_END
309
FORMATTEDTABLEDATACOLUMN_END
  1
TABLECOLUMN_BEGIN
 90
        0
 40
10.0
309
TABLECOLUMN_END
300
COLUMN
  1
LINKEDTABLEDATACOLUMN_BEGIN
300

 91
        0
301
CUSTOMDATA
  1
DATAMAP_BEGIN
 90
        0
309
DATAMAP_END
309
LINKEDTABLEDATACOLUMN_END
  1
FORMATTEDTABLEDATACOLUMN_BEGIN
300
COLUMNTABLEFORMAT
  1
TABLEFORMAT_BEGIN
 90
        3
170
     0
309
TABLEFORMAT_END
309
FORMATTEDTABLEDATACOLUMN_END
  1
TABLECOLUMN_BEGIN
 90
        0
 40
40.0
309
TABLECOLUMN_END
300
COLUMN
  1
LINKEDTABLEDATACOLUMN_BEGIN
300

 91
        0
301
CUSTOMDATA
  1
DATAMAP_BEGIN
 90
        0
309
DATAMAP_END
309
LINKEDTABLEDATACOLUMN_END
  1
FORMATTEDTABLEDATACOLUMN_BEGIN
300
COLUMNTABLEFORMAT
  1
TABLEFORMAT_BEGIN
 90
        3
170
     0
309
TABLEFORMAT_END
309
FORMATTEDTABLEDATACOLUMN_END
  1
TABLECOLUMN_BEGIN
 90
        0
 40
20.0
309
TABLECOLUMN_END
 91
        5
301
ROW
  1
LINKEDTABLEDATAROW_BEGIN
 90
        5
300
CELL
  1
LINKEDTABLEDATACELL_BEGIN
 90
        0
300

 91
        0
301
CUSTOMDATA
  1
DATAMAP_BEGIN
 90
        1
300
ACAD_ROUNDTRIP_2008_CELL_CHECKSUM
301
DATAMAP_VALUE
 93
        2
 90
        2
140
32.0
 94
        0
300

302

304
ACVALUE_END
309
DATAMAP_END
 92
        0
 95
        1
302
CONTENT
  1
CELLCONTENT_BEGIN
 90
        1
300
VALUE
 93
        2
 90
        4
  1
 
 94
        0
300

302
 
304
ACVALUE_END
 91
        0
309
CELLCONTENT_END
  1
FORMATTEDCELLCONTENT_BEGIN
170
     1
300
CONTENTFORMAT
  1
CONTENTFORMAT_BEGIN
 90
      132
 91
        0
 92
      512
 93
        0
300

 40
0.0
140
1.0
 94
        1
 62
     0
340
0
144
3.5
309
CONTENTFORMAT_END
309
FORMATTEDCELLCONTENT_END
309
LINKEDTABLEDATACELL_END
  1
FORMATTEDTABLEDATACELL_BEGIN
300
CELLTABLEFORMAT
  1
TABLEFORMAT_BEGIN
 90
        1
170
     1
 91
        0
 92
        0
 62
   257
 93
        1
300
CONTENTFORMAT
  1
CONTENTFORMAT_BEGIN
 90
        0
 91
        0
 92
      512
 93
        0
300

 40
0.0
140
1.0
 94
        1
 62
     0
340
0
144
0.18
309
CONTENTFORMAT_END
171
     0
 94
        0
309
TABLEFORMAT_END
309
FORMATTEDTABLEDATACELL_END
  1
TABLECELL_BEGIN
 90
        0
 91
        0
309
TABLECELL_END
300
CELL
  1
LINKEDTABLEDATACELL_BEGIN
 90
        0
300

 91
        0
301
CUSTOMDATA
  1
DATAMAP_BEGIN
 90
        0
309
DATAMAP_END
 92
        0
 95
        0
309
LINKEDTABLEDATACELL_END
  1
FORMATTEDTABLEDATACELL_BEGIN
300
CELLTABLEFORMAT
  1
TABLEFORMAT_BEGIN
 90
        1
170
     1
 91
        0
 92
        0
 62
   257
 93
        1
300
CONTENTFORMAT
  1
CONTENTFORMAT_BEGIN
 90
        0
 91
        0
 92
      512
 93
        0
300

 40
0.0
140
1.0
 94
        1
 62
     0
340
0
144
0.18
309
CONTENTFORMAT_END
171
     0
 94
        0
309
TABLEFORMAT_END
309
FORMATTEDTABLEDATACELL_END
  1
TABLECELL_BEGIN
 90
        0
 91
        0
309
TABLECELL_END
300
CELL
  1
LINKEDTABLEDATACELL_BEGIN
 90
        0
300

 91
        0
301
CUSTOMDATA
  1
DATAMAP_BEGIN
 90
        0
309
DATAMAP_END
 92
        0
 95
        0
309
LINKEDTABLEDATACELL_END
  1
FORMATTEDTABLEDATACELL_BEGIN
300
CELLTABLEFORMAT
  1
TABLEFORMAT_BEGIN
 90
        1
170
     1
 91
        0
 92
        0
 62
   257
 93
        1
300
CONTENTFORMAT
  1
CONTENTFORMAT_BEGIN
 90
        0
 91
        0
 92
      512
 93
        0
300

 40
0.0
140
1.0
 94
        1
 62
     0
340
0
144
0.18
309
CONTENTFORMAT_END
171
     0
 94
        0
309
TABLEFORMAT_END
309
FORMATTEDTABLEDATACELL_END
  1
TABLECELL_BEGIN
 90
        0
 91
        0
309
TABLECELL_END
300
CELL
  1
LINKEDTABLEDATACELL_BEGIN
 90
        0
300

 91
        0
301
CUSTOMDATA
  1
DATAMAP_BEGIN
 90
        1
300
ACAD_ROUNDTRIP_2008_CELL_CHECKSUM
301
DATAMAP_VALUE
 93
        2
 90
        2
140
2903.0
 94
        0
300

302

304
ACVALUE_END
309
DATAMAP_END
 92
        0
 95
        1
302
CONTENT
  1
CELLCONTENT_BEGIN
 90
        1
300
VALUE
 93
        2
 90
        4
  1
YJ7_C_080
 94
        0
300

302
YJ7_C_080
304
ACVALUE_END
 91
        0
309
CELLCONTENT_END
  1
FORMATTEDCELLCONTENT_BEGIN
170
     1
300
CONTENTFORMAT
  1
CONTENTFORMAT_BEGIN
 90
      132
 91
        0
 92
      512
 93
        0
300

 40
0.0
140
1.0
 94
        1
 62
     0
340
0
144
3.0
309
CONTENTFORMAT_END
309
FORMATTEDCELLCONTENT_END
309
LINKEDTABLEDATACELL_END
  1
FORMATTEDTABLEDATACELL_BEGIN
300
CELLTABLEFORMAT
  1
TABLEFORMAT_BEGIN
 90
        1
170
     1
 91
       16
 92
        0
 62
   257
 93
        1
300
CONTENTFORMAT
  1
CONTENTFORMAT_BEGIN
 90
       16
 91
        0
 92
      512
 93
        0
300

 40
0.0
140
1.0
 94
        4
 62
     0
340
0
144
0.18
309
CONTENTFORMAT_END
171
     0
 94
        4
 95
        1
302
GRIDFORMAT
  1
GRIDFORMAT_BEGIN
 90
       26
 91
        1
 62
     0
 92
       -2
340
0
 93
        0
 40
0.045
309
GRIDFORMAT_END
 95
        4
302
GRIDFORMAT
  1
GRIDFORMAT_BEGIN
 90
       26
 91
        1
 62
     0
 92
       -2
340
0
 93
        0
 40
0.045
309
GRIDFORMAT_END
 95
        8
302
GRIDFORMAT
  1
GRIDFORMAT_BEGIN
 90
       26
 91
        1
 62
     0
 92
       -2
340
0
 93
        0
 40
0.045
309
GRIDFORMAT_END
 95
       32
302
GRIDFORMAT
  1
GRIDFORMAT_BEGIN
 90
       26
 91
        1
 62
     0
 92
       -2
340
0
 93
        0
 40
0.045
309
GRIDFORMAT_END
309
TABLEFORMAT_END
309
FORMATTEDTABLEDATACELL_END
  1
TABLECELL_BEGIN
 90
        0
 91
        0
309
TABLECELL_END
300
CELL
  1
LINKEDTABLEDATACELL_BEGIN
 90
        0
300

 91
        0
301
CUSTOMDATA
  1
DATAMAP_BEGIN
 90
        1
300
ACAD_ROUNDTRIP_2008_CELL_CHECKSUM
301
DATAMAP_VALUE
 93
        2
 90
        2
140
1398.0
 94
        0
300

302

304
ACVALUE_END
309
DATAMAP_END
 92
        0
 95
        1
302
CONTENT
  1
CELLCONTENT_BEGIN
 90
        1
300
VALUE
 93
        2
 90
        4
  1
Rev:00
 94
        0
300

302
Rev:00
304
ACVALUE_END
 91
        0
309
CELLCONTENT_END
  1
FORMATTEDCELLCONTENT_BEGIN
170
     1
300
CONTENTFORMAT
  1
CONTENTFORMAT_BEGIN
 90
      196
 91
        0
 92
      512
 93
        0
300

 40
0.0
140
1.0
 94
        1
 62
     0
340
234
144
3.5
309
CONTENTFORMAT_END
309
FORMATTEDCELLCONTENT_END
309
LINKEDTABLEDATACELL_END
  1
FORMATTEDTABLEDATACELL_BEGIN
300
CELLTABLEFORMAT
  1
TABLEFORMAT_BEGIN
 90
        1
170
     1
 91
       16
 92
        0
 62
   257
 93
        1
300
CONTENTFORMAT
  1
CONTENTFORMAT_BEGIN
 90
       16
 91
        0
 92
      512
 93
        0
300

 40
0.0
140
1.0
 94
        1
 62
     0
340
0
144
0.18
309
CONTENTFORMAT_END
171
     0
 94
        4
 95
        1
302
GRIDFORMAT
  1
GRIDFORMAT_BEGIN
 90
       26
 91
        1
 62
     0
 92
       -2
340
0
 93
        0
 40
0.045
309
GRIDFORMAT_END
 95
        4
302
GRIDFORMAT
  1
GRIDFORMAT_BEGIN
 90
       26
 91
        1
 62
     0
 92
       -2
340
0
 93
        0
 40
0.045
309
GRIDFORMAT_END
 95
        8
302
GRIDFORMAT
  1
GRIDFORMAT_BEGIN
 90
       26
 91
        1
 62
     0
 92
       -2
340
0
 93
        0
 40
0.045
309
GRIDFORMAT_END
 95
       32
302
GRIDFORMAT
  1
GRIDFORMAT_BEGIN
 90
       26
 91
        1
 62
     0
 92
       -2
340
0
 93
        0
 40
0.045
309
GRIDFORMAT_END
309
TABLEFORMAT_END
309
FORMATTEDTABLEDATACELL_END
  1
TABLECELL_BEGIN
 90
        0
 91
        0
309
TABLECELL_END
 91
        0
301
CUSTOMDATA
  1
DATAMAP_BEGIN
 90
        0
309
DATAMAP_END
309
LINKEDTABLEDATAROW_END
  1
FORMATTEDTABLEDATAROW_BEGIN
300
ROWTABLEFORMAT
  1
TABLEFORMAT_BEGIN
 90
        2
170
     0
309
TABLEFORMAT_END
309
FORMATTEDTABLEDATAROW_END
  1
TABLEROW_BEGIN
 90
        1
 40
6.0
309
TABLEROW_END
301
ROW
  1
LINKEDTABLEDATAROW_BEGIN
 90
        5
300
CELL
  1
LINKEDTABLEDATACELL_BEGIN
 90
        0
300

 91
        0
301
CUSTOMDATA
  1
DATAMAP_BEGIN
 90
        0
309
DATAMAP_END
 92
        0
 95
        0
309
LINKEDTABLEDATACELL_END
  1
FORMATTEDTABLEDATACELL_BEGIN
300
CELLTABLEFORMAT
  1
TABLEFORMAT_BEGIN
 90
        1
170
     1
 91
        0
 92
        0
 62
   257
 93
        1
300
CONTENTFORMAT
  1
CONTENTFORMAT_BEGIN
 90
        0
 91
        0
 92
      512
 93
        0
300

 40
0.0
140
1.0
 94
        1
 62
     0
340
0
144
0.18
309
CONTENTFORMAT_END
171
     0
 94
        0
309
TABLEFORMAT_END
309
FORMATTEDTABLEDATACELL_END
  1
TABLECELL_BEGIN
 90
        0
 91
        0
309
TABLECELL_END
300
CELL
  1
LINKEDTABLEDATACELL_BEGIN
 90
        0
300

 91
        0
301
CUSTOMDATA
  1
DATAMAP_BEGIN
 90
        0
309
DATAMAP_END
 92
        0
 95
        0
309
LINKEDTABLEDATACELL_END
  1
FORMATTEDTABLEDATACELL_BEGIN
300
CELLTABLEFORMAT
  1
TABLEFORMAT_BEGIN
 90
        1
170
     1
 91
        0
 92
        0
 62
   257
 93
        1
300
CONTENTFORMAT
  1
CONTENTFORMAT_BEGIN
 90
        0
 91
        0
 92
      512
 93
        0
300

 40
0.0
140
1.0
 94
        1
 62
     0
340
0
144
0.18
309
CONTENTFORMAT_END
171
     0
 94
        0
309
TABLEFORMAT_END
309
FORMATTEDTABLEDATACELL_END
  1
TABLECELL_BEGIN
 90
        0
 91
        0
309
TABLECELL_END
300
CELL
  1
LINKEDTABLEDATACELL_BEGIN
 90
        0
300

 91
        0
301
CUSTOMDATA
  1
DATAMAP_BEGIN
 90
        0
309
DATAMAP_END
 92
        0
 95
        0
309
LINKEDTABLEDATACELL_END
  1
FORMATTEDTABLEDATACELL_BEGIN
300
CELLTABLEFORMAT
  1
TABLEFORMAT_BEGIN
 90
        1
170
     1
 91
        0
 92
        0
 62
   257
 93
        1
300
CONTENTFORMAT
  1
CONTENTFORMAT_BEGIN
 90
        0
 91
        0
 92
      512
 93
        0
300

 40
0.0
140
1.0
 94
        1
 62
     0
340
0
144
0.18
309
CONTENTFORMAT_END
171
     0
 94
        0
309
TABLEFORMAT_END
309
FORMATTEDTABLEDATACELL_END
  1
TABLECELL_BEGIN
 90
        0
 91
        0
309
TABLECELL_END
300
CELL
  1
LINKEDTABLEDATACELL_BEGIN
 90
        0
300

 91
        0
301
CUSTOMDATA
  1
DATAMAP_BEGIN
 90
        1
300
ACAD_ROUNDTRIP_2008_CELL_CHECKSUM
301
DATAMAP_VALUE
 93
        2
 90
        2
140
3105.0
 94
        0
300

302

304
ACVALUE_END
309
DATAMAP_END
 92
        0
 95
        1
302
CONTENT
  1
CELLCONTENT_BEGIN
 90
        1
300
VALUE
 93
        2
 90
        4
  1
Scale:1:1
 94
        0
300

302
Scale:1:1
304
ACVALUE_END
 91
        0
309
CELLCONTENT_END
  1
FORMATTEDCELLCONTENT_BEGIN
170
     1
300
CONTENTFORMAT
  1
CONTENTFORMAT_BEGIN
 90
      132
 91
        0
 92
      512
 93
        0
300

 40
0.0
140
1.0
 94
        1
 62
     0
340
0
144
3.5
309
CONTENTFORMAT_END
309
FORMATTEDCELLCONTENT_END
309
LINKEDTABLEDATACELL_END
  1
FORMATTEDTABLEDATACELL_BEGIN
300
CELLTABLEFORMAT
  1
TABLEFORMAT_BEGIN
 90
        1
170
     1
 91
       16
 92
        0
 62
   257
 93
        1
300
CONTENTFORMAT
  1
CONTENTFORMAT_BEGIN
 90
       16
 91
        0
 92
      512
 93
        0
300

 40
0.0
140
1.0
 94
        1
 62
     0
340
0
144
0.18
309
CONTENTFORMAT_END
171
     0
 94
        4
 95
        1
302
GRIDFORMAT
  1
GRIDFORMAT_BEGIN
 90
       26
 91
        1
 62
     0
 92
       -2
340
0
 93
        0
 40
0.045
309
GRIDFORMAT_END
 95
        4
302
GRIDFORMAT
  1
GRIDFORMAT_BEGIN
 90
       26
 91
        1
 62
     0
 92
       -2
340
0
 93
        0
 40
0.045
309
GRIDFORMAT_END
 95
        8
302
GRIDFORMAT
  1
GRIDFORMAT_BEGIN
 90
       26
 91
        1
 62
     0
 92
       -2
340
0
 93
        0
 40
0.045
309
GRIDFORMAT_END
 95
       32
302
GRIDFORMAT
  1
GRIDFORMAT_BEGIN
 90
       26
 91
        1
 62
     0
 92
       -2
340
0
 93
        0
 40
0.045
309
GRIDFORMAT_END
309
TABLEFORMAT_END
309
FORMATTEDTABLEDATACELL_END
  1
TABLECELL_BEGIN
 90
        0
 91
        0
309
TABLECELL_END
300
CELL
  1
LINKEDTABLEDATACELL_BEGIN
 90
        0
300

 91
        0
301
CUSTOMDATA
  1
DATAMAP_BEGIN
 90
        1
300
ACAD_ROUNDTRIP_2008_CELL_CHECKSUM
301
DATAMAP_VALUE
 93
        2
 90
        2
140
167.0
 94
        0
300

302

304
ACVALUE_END
309
DATAMAP_END
 92
        0
 95
        1
302
CONTENT
  1
CELLCONTENT_BEGIN
 90
        1
300
VALUE
 93
        2
 90
        4
  1
A3
 94
        0
300

302
A3
304
ACVALUE_END
 91
        0
309
CELLCONTENT_END
  1
FORMATTEDCELLCONTENT_BEGIN
170
     1
300
CONTENTFORMAT
  1
CONTENTFORMAT_BEGIN
 90
      132
 91
        0
 92
      512
 93
        0
300

 40
0.0
140
1.0
 94
        1
 62
     0
340
0
144
3.5
309
CONTENTFORMAT_END
309
FORMATTEDCELLCONTENT_END
309
LINKEDTABLEDATACELL_END
  1
FORMATTEDTABLEDATACELL_BEGIN
300
CELLTABLEFORMAT
  1
TABLEFORMAT_BEGIN
 90
        1
170
     1
 91
       16
 92
        0
 62
   257
 93
        1
300
CONTENTFORMAT
  1
CONTENTFORMAT_BEGIN
 90
       16
 91
        0
 92
      512
 93
        0
300

 40
0.0
140
1.0
 94
        4
 62
     0
340
0
144
0.18
309
CONTENTFORMAT_END
171
     0
 94
        4
 95
        1
302
GRIDFORMAT
  1
GRIDFORMAT_BEGIN
 90
       26
 91
        1
 62
     0
 92
       -2
340
0
 93
        0
 40
0.045
309
GRIDFORMAT_END
 95
        4
302
GRIDFORMAT
  1
GRIDFORMAT_BEGIN
 90
       26
 91
        1
 62
     0
 92
       -2
340
0
 93
        0
 40
0.045
309
GRIDFORMAT_END
 95
        8
302
GRIDFORMAT
  1
GRIDFORMAT_BEGIN
 90
       26
 91
        1
 62
     0
 92
       -2
340
0
 93
        0
 40
0.045
309
GRIDFORMAT_END
 95
       32
302
GRIDFORMAT
  1
GRIDFORMAT_BEGIN
 90
       26
 91
        1
 62
     0
 92
       -2
340
0
 93
        0
 40
0.045
309
GRIDFORMAT_END
309
TABLEFORMAT_END
309
FORMATTEDTABLEDATACELL_END
  1
TABLECELL_BEGIN
 90
        0
 91
        0
309
TABLECELL_END
 91
        0
301
CUSTOMDATA
  1
DATAMAP_BEGIN
 90
        0
309
DATAMAP_END
309
LINKEDTABLEDATAROW_END
  1
FORMATTEDTABLEDATAROW_BEGIN
300
ROWTABLEFORMAT
  1
TABLEFORMAT_BEGIN
 90
        2
170
     0
309
TABLEFORMAT_END
309
FORMATTEDTABLEDATAROW_END
  1
TABLEROW_BEGIN
 90
        2
 40
6.0
309
TABLEROW_END
301
ROW
  1
LINKEDTABLEDATAROW_BEGIN
 90
        5
300
CELL
  1
LINKEDTABLEDATACELL_BEGIN
 90
        0
300

 91
        0
301
CUSTOMDATA
  1
DATAMAP_BEGIN
 90
        0
309
DATAMAP_END
 92
        0
 95
        0
309
LINKEDTABLEDATACELL_END
  1
FORMATTEDTABLEDATACELL_BEGIN
300
CELLTABLEFORMAT
  1
TABLEFORMAT_BEGIN
 90
        1
170
     1
 91
        0
 92
        0
 62
   257
 93
        1
300
CONTENTFORMAT
  1
CONTENTFORMAT_BEGIN
 90
        0
 91
        0
 92
      512
 93
        0
300

 40
0.0
140
1.0
 94
        1
 62
     0
340
0
144
0.18
309
CONTENTFORMAT_END
171
     0
 94
        0
309
TABLEFORMAT_END
309
FORMATTEDTABLEDATACELL_END
  1
TABLECELL_BEGIN
 90
        0
 91
        0
309
TABLECELL_END
300
CELL
  1
LINKEDTABLEDATACELL_BEGIN
 90
        0
300

 91
        0
301
CUSTOMDATA
  1
DATAMAP_BEGIN
 90
        0
309
DATAMAP_END
 92
        0
 95
        0
309
LINKEDTABLEDATACELL_END
  1
FORMATTEDTABLEDATACELL_BEGIN
300
CELLTABLEFORMAT
  1
TABLEFORMAT_BEGIN
 90
        1
170
     1
 91
        0
 92
        0
 62
   257
 93
        1
300
CONTENTFORMAT
  1
CONTENTFORMAT_BEGIN
 90
        0
 91
        0
 92
      512
 93
        0
300

 40
0.0
140
1.0
 94
        1
 62
     0
340
0
144
0.18
309
CONTENTFORMAT_END
171
     0
 94
        0
309
TABLEFORMAT_END
309
FORMATTEDTABLEDATACELL_END
  1
TABLECELL_BEGIN
 90
        0
 91
        0
309
TABLECELL_END
300
CELL
  1
LINKEDTABLEDATACELL_BEGIN
 90
        0
300

 91
        0
301
CUSTOMDATA
  1
DATAMAP_BEGIN
 90
        0
309
DATAMAP_END
 92
        0
 95
        0
309
LINKEDTABLEDATACELL_END
  1
FORMATTEDTABLEDATACELL_BEGIN
300
CELLTABLEFORMAT
  1
TABLEFORMAT_BEGIN
 90
        1
170
     1
 91
        0
 92
        0
 62
   257
 93
        1
300
CONTENTFORMAT
  1
CONTENTFORMAT_BEGIN
 90
        0
 91
        0
 92
      512
 93
        0
300

 40
0.0
140
1.0
 94
        1
 62
     0
340
0
144
0.18
309
CONTENTFORMAT_END
171
     0
 94
        0
309
TABLEFORMAT_END
309
FORMATTEDTABLEDATACELL_END
  1
TABLECELL_BEGIN
 90
        0
 91
        0
309
TABLECELL_END
300
CELL
  1
LINKEDTABLEDATACELL_BEGIN
 90
        0
300

 91
        0
301
CUSTOMDATA
  1
DATAMAP_BEGIN
 90
        1
300
ACAD_ROUNDTRIP_2008_CELL_CHECKSUM
301
DATAMAP_VALUE
 93
        2
 90
        2
140
5522.0
 94
        0
300

302

304
ACVALUE_END
309
DATAMAP_END
 92
        0
 95
        1
302
CONTENT
  1
CELLCONTENT_BEGIN
 90
        1
300
VALUE
 93
        2
 90
        4
  1
LYSS 1.0 6,5W 
 94
        0
300

302
LYSS 1.0 6,5W 
304
ACVALUE_END
 91
        0
309
CELLCONTENT_END
  1
FORMATTEDCELLCONTENT_BEGIN
170
     1
300
CONTENTFORMAT
  1
CONTENTFORMAT_BEGIN
 90
      132
 91
        0
 92
      512
 93
        0
300

 40
0.0
140
1.0
 94
        1
 62
     0
340
0
144
3.5
309
CONTENTFORMAT_END
309
FORMATTEDCELLCONTENT_END
309
LINKEDTABLEDATACELL_END
  1
FORMATTEDTABLEDATACELL_BEGIN
300
CELLTABLEFORMAT
  1
TABLEFORMAT_BEGIN
 90
        1
170
     1
 91
       16
 92
        0
 62
   257
 93
        1
300
CONTENTFORMAT
  1
CONTENTFORMAT_BEGIN
 90
       16
 91
        0
 92
      512
 93
        0
300

 40
0.0
140
1.0
 94
        4
 62
     0
340
0
144
0.18
309
CONTENTFORMAT_END
171
     0
 94
        4
 95
        1
302
GRIDFORMAT
  1
GRIDFORMAT_BEGIN
 90
       26
 91
        1
 62
     0
 92
       -2
340
0
 93
        0
 40
0.045
309
GRIDFORMAT_END
 95
        4
302
GRIDFORMAT
  1
GRIDFORMAT_BEGIN
 90
       26
 91
        1
 62
     0
 92
       -2
340
0
 93
        0
 40
0.045
309
GRIDFORMAT_END
 95
        8
302
GRIDFORMAT
  1
GRIDFORMAT_BEGIN
 90
       26
 91
        1
 62
     0
 92
       -2
340
0
 93
        0
 40
0.045
309
GRIDFORMAT_END
 95
       32
302
GRIDFORMAT
  1
GRIDFORMAT_BEGIN
 90
       26
 91
        1
 62
     0
 92
       -2
340
0
 93
        0
 40
0.045
309
GRIDFORMAT_END
309
TABLEFORMAT_END
309
FORMATTEDTABLEDATACELL_END
  1
TABLECELL_BEGIN
 90
        0
 91
        0
309
TABLECELL_END
300
CELL
  1
LINKEDTABLEDATACELL_BEGIN
 90
        0
300

 91
        0
301
CUSTOMDATA
  1
DATAMAP_BEGIN
 90
        0
309
DATAMAP_END
 92
        0
 95
        0
309
LINKEDTABLEDATACELL_END
  1
FORMATTEDTABLEDATACELL_BEGIN
300
CELLTABLEFORMAT
  1
TABLEFORMAT_BEGIN
 90
        1
170
     1
 91
        0
 92
        0
 62
   257
 93
        1
300
CONTENTFORMAT
  1
CONTENTFORMAT_BEGIN
 90
        0
 91
        0
 92
      512
 93
        0
300

 40
0.0
140
1.0
 94
        1
 62
     0
340
0
144
0.18
309
CONTENTFORMAT_END
171
     0
 94
        0
309
TABLEFORMAT_END
309
FORMATTEDTABLEDATACELL_END
  1
TABLECELL_BEGIN
 90
        0
 91
        0
309
TABLECELL_END
 91
        0
301
CUSTOMDATA
  1
DATAMAP_BEGIN
 90
        0
309
DATAMAP_END
309
LINKEDTABLEDATAROW_END
  1
FORMATTEDTABLEDATAROW_BEGIN
300
ROWTABLEFORMAT
  1
TABLEFORMAT_BEGIN
 90
        2
170
     0
309
TABLEFORMAT_END
309
FORMATTEDTABLEDATAROW_END
  1
TABLEROW_BEGIN
 90
        3
 40
10.0
309
TABLEROW_END
301
ROW
  1
LINKEDTABLEDATAROW_BEGIN
 90
        5
300
CELL
  1
LINKEDTABLEDATACELL_BEGIN
 90
        0
300

 91
        0
301
CUSTOMDATA
  1
DATAMAP_BEGIN
 90
        0
309
DATAMAP_END
 92
        0
 95
        0
309
LINKEDTABLEDATACELL_END
  1
FORMATTEDTABLEDATACELL_BEGIN
300
CELLTABLEFORMAT
  1
TABLEFORMAT_BEGIN
 90
        1
170
     1
 91
        0
 92
        0
 62
   257
 93
        1
300
CONTENTFORMAT
  1
CONTENTFORMAT_BEGIN
 90
        0
 91
        0
 92
      512
 93
        0
300

 40
0.0
140
1.0
 94
        1
 62
     0
340
0
144
0.18
309
CONTENTFORMAT_END
171
     0
 94
        0
309
TABLEFORMAT_END
309
FORMATTEDTABLEDATACELL_END
  1
TABLECELL_BEGIN
 90
        0
 91
        0
309
TABLECELL_END
300
CELL
  1
LINKEDTABLEDATACELL_BEGIN
 90
        0
300

 91
        0
301
CUSTOMDATA
  1
DATAMAP_BEGIN
 90
        0
309
DATAMAP_END
 92
        0
 95
        0
309
LINKEDTABLEDATACELL_END
  1
FORMATTEDTABLEDATACELL_BEGIN
300
CELLTABLEFORMAT
  1
TABLEFORMAT_BEGIN
 90
        1
170
     1
 91
        0
 92
        0
 62
   257
 93
        1
300
CONTENTFORMAT
  1
CONTENTFORMAT_BEGIN
 90
        0
 91
        0
 92
      512
 93
        0
300

 40
0.0
140
1.0
 94
        1
 62
     0
340
0
144
0.18
309
CONTENTFORMAT_END
171
     0
 94
        0
309
TABLEFORMAT_END
309
FORMATTEDTABLEDATACELL_END
  1
TABLECELL_BEGIN
 90
        0
 91
        0
309
TABLECELL_END
300
CELL
  1
LINKEDTABLEDATACELL_BEGIN
 90
        0
300

 91
        0
301
CUSTOMDATA
  1
DATAMAP_BEGIN
 90
        0
309
DATAMAP_END
 92
        0
 95
        0
309
LINKEDTABLEDATACELL_END
  1
FORMATTEDTABLEDATACELL_BEGIN
300
CELLTABLEFORMAT
  1
TABLEFORMAT_BEGIN
 90
        1
170
     1
 91
        0
 92
        0
 62
   257
 93
        1
300
CONTENTFORMAT
  1
CONTENTFORMAT_BEGIN
 90
        0
 91
        0
 92
      512
 93
        0
300

 40
0.0
140
1.0
 94
        1
 62
     0
340
0
144
0.18
309
CONTENTFORMAT_END
171
     0
 94
        0
309
TABLEFORMAT_END
309
FORMATTEDTABLEDATACELL_END
  1
TABLECELL_BEGIN
 90
        0
 91
        0
309
TABLECELL_END
300
CELL
  1
LINKEDTABLEDATACELL_BEGIN
 90
        0
300

 91
        0
301
CUSTOMDATA
  1
DATAMAP_BEGIN
 90
        1
300
ACAD_ROUNDTRIP_2008_CELL_CHECKSUM
301
DATAMAP_VALUE
 93
        2
 90
        2
140
6230.0
 94
        0
300

302

304
ACVALUE_END
309
DATAMAP_END
 92
        0
 95
        1
302
CONTENT
  1
CELLCONTENT_BEGIN
 90
        1
300
VALUE
 93
        2
 90
        4
  1
DATE:05/06/2014
 94
        0
300

302
DATE:05/06/2014
304
ACVALUE_END
 91
        0
309
CELLCONTENT_END
  1
FORMATTEDCELLCONTENT_BEGIN
170
     1
300
CONTENTFORMAT
  1
CONTENTFORMAT_BEGIN
 90
      132
 91
        0
 92
      512
 93
        0
300

 40
0.0
140
1.0
 94
        1
 62
     0
340
0
144
2.5
309
CONTENTFORMAT_END
309
FORMATTEDCELLCONTENT_END
309
LINKEDTABLEDATACELL_END
  1
FORMATTEDTABLEDATACELL_BEGIN
300
CELLTABLEFORMAT
  1
TABLEFORMAT_BEGIN
 90
        1
170
     1
 91
       16
 92
        0
 62
   257
 93
        1
300
CONTENTFORMAT
  1
CONTENTFORMAT_BEGIN
 90
       16
 91
        0
 92
      512
 93
        0
300

 40
0.0
140
1.0
 94
        4
 62
     0
340
0
144
0.18
309
CONTENTFORMAT_END
171
     0
 94
        4
 95
        1
302
GRIDFORMAT
  1
GRIDFORMAT_BEGIN
 90
       26
 91
        1
 62
     0
 92
       -2
340
0
 93
        0
 40
0.045
309
GRIDFORMAT_END
 95
        4
302
GRIDFORMAT
  1
GRIDFORMAT_BEGIN
 90
       26
 91
        1
 62
     0
 92
       -2
340
0
 93
        0
 40
0.045
309
GRIDFORMAT_END
 95
        8
302
GRIDFORMAT
  1
GRIDFORMAT_BEGIN
 90
       26
 91
        1
 62
     0
 92
       -2
340
0
 93
        0
 40
0.045
309
GRIDFORMAT_END
 95
       32
302
GRIDFORMAT
  1
GRIDFORMAT_BEGIN
 90
       26
 91
        1
 62
     0
 92
       -2
340
0
 93
        0
 40
0.045
309
GRIDFORMAT_END
309
TABLEFORMAT_END
309
FORMATTEDTABLEDATACELL_END
  1
TABLECELL_BEGIN
 90
        0
 91
        0
309
TABLECELL_END
300
CELL
  1
LINKEDTABLEDATACELL_BEGIN
 90
        0
300

 91
        0
301
CUSTOMDATA
  1
DATAMAP_BEGIN
 90
        0
309
DATAMAP_END
 92
        0
 95
        0
309
LINKEDTABLEDATACELL_END
  1
FORMATTEDTABLEDATACELL_BEGIN
300
CELLTABLEFORMAT
  1
TABLEFORMAT_BEGIN
 90
        1
170
     1
 91
        0
 92
        0
 62
   257
 93
        1
300
CONTENTFORMAT
  1
CONTENTFORMAT_BEGIN
 90
        0
 91
        0
 92
      512
 93
        0
300

 40
0.0
140
1.0
 94
        1
 62
     0
340
0
144
0.18
309
CONTENTFORMAT_END
171
     0
 94
        0
309
TABLEFORMAT_END
309
FORMATTEDTABLEDATACELL_END
  1
TABLECELL_BEGIN
 90
        0
 91
        0
309
TABLECELL_END
 91
        0
301
CUSTOMDATA
  1
DATAMAP_BEGIN
 90
        0
309
DATAMAP_END
309
LINKEDTABLEDATAROW_END
  1
FORMATTEDTABLEDATAROW_BEGIN
300
ROWTABLEFORMAT
  1
TABLEFORMAT_BEGIN
 90
        2
170
     0
309
TABLEFORMAT_END
309
FORMATTEDTABLEDATAROW_END
  1
TABLEROW_BEGIN
 90
        3
 40
5.0
309
TABLEROW_END
301
ROW
  1
LINKEDTABLEDATAROW_BEGIN
 90
        5
300
CELL
  1
LINKEDTABLEDATACELL_BEGIN
 90
        0
300

 91
        0
301
CUSTOMDATA
  1
DATAMAP_BEGIN
 90
        1
300
ACAD_ROUNDTRIP_2008_CELL_CHECKSUM
301
DATAMAP_VALUE
 93
        2
 90
        2
140
1361482.0
 94
        0
300

302

304
ACVALUE_END
309
DATAMAP_END
 92
        0
 95
        1
302
CONTENT
  1
CELLCONTENT_BEGIN
 90
        1
300
VALUE
 93
        2
 90
        4
  1
Any integral or partial reproductions are prohibited \Pwithout prior authorisation of L & L Luce & Light s.r.l., \Pin accordance with the law in force. \PAll rights reserved.
 94
        0
300

302
Any integral or partial reproductions are prohibited \Pwithout prior authorisation of L & L Luce & Light s.r.l., \Pin accordance with the law in force. \PAll rights reserved.
304
ACVALUE_END
 91
        0
309
CELLCONTENT_END
  1
FORMATTEDCELLCONTENT_BEGIN
170
     1
300
CONTENTFORMAT
  1
CONTENTFORMAT_BEGIN
 90
      196
 91
        0
 92
      512
 93
        0
300

 40
0.0
140
1.0
 94
        1
 62
     0
340
234
144
1.85
309
CONTENTFORMAT_END
309
FORMATTEDCELLCONTENT_END
309
LINKEDTABLEDATACELL_END
  1
FORMATTEDTABLEDATACELL_BEGIN
300
CELLTABLEFORMAT
  1
TABLEFORMAT_BEGIN
 90
        1
170
     1
 91
       16
 92
        0
 62
   257
 93
        1
300
CONTENTFORMAT
  1
CONTENTFORMAT_BEGIN
 90
       16
 91
        0
 92
      512
 93
        0
300

 40
0.0
140
1.0
 94
        1
 62
     0
340
0
144
0.18
309
CONTENTFORMAT_END
171
     0
 94
        4
 95
        1
302
GRIDFORMAT
  1
GRIDFORMAT_BEGIN
 90
       26
 91
        1
 62
     0
 92
       -2
340
0
 93
        0
 40
0.045
309
GRIDFORMAT_END
 95
        4
302
GRIDFORMAT
  1
GRIDFORMAT_BEGIN
 90
       26
 91
        1
 62
     0
 92
       -2
340
0
 93
        0
 40
0.045
309
GRIDFORMAT_END
 95
        8
302
GRIDFORMAT
  1
GRIDFORMAT_BEGIN
 90
       26
 91
        1
 62
     0
 92
       -2
340
0
 93
        0
 40
0.045
309
GRIDFORMAT_END
 95
       32
302
GRIDFORMAT
  1
GRIDFORMAT_BEGIN
 90
       26
 91
        1
 62
     0
 92
       -2
340
0
 93
        0
 40
0.045
309
GRIDFORMAT_END
309
TABLEFORMAT_END
309
FORMATTEDTABLEDATACELL_END
  1
TABLECELL_BEGIN
 90
        0
 91
        0
309
TABLECELL_END
300
CELL
  1
LINKEDTABLEDATACELL_BEGIN
 90
        0
300

 91
        0
301
CUSTOMDATA
  1
DATAMAP_BEGIN
 90
        0
309
DATAMAP_END
 92
        0
 95
        0
309
LINKEDTABLEDATACELL_END
  1
FORMATTEDTABLEDATACELL_BEGIN
300
CELLTABLEFORMAT
  1
TABLEFORMAT_BEGIN
 90
        1
170
     1
 91
        0
 92
        0
 62
   257
 93
        1
300
CONTENTFORMAT
  1
CONTENTFORMAT_BEGIN
 90
        0
 91
        0
 92
      512
 93
        0
300

 40
0.0
140
1.0
 94
        1
 62
     0
340
0
144
0.18
309
CONTENTFORMAT_END
171
     0
 94
        0
309
TABLEFORMAT_END
309
FORMATTEDTABLEDATACELL_END
  1
TABLECELL_BEGIN
 90
        0
 91
        0
309
TABLECELL_END
300
CELL
  1
LINKEDTABLEDATACELL_BEGIN
 90
        0
300

 91
        0
301
CUSTOMDATA
  1
DATAMAP_BEGIN
 90
        0
309
DATAMAP_END
 92
        0
 95
        0
309
LINKEDTABLEDATACELL_END
  1
FORMATTEDTABLEDATACELL_BEGIN
300
CELLTABLEFORMAT
  1
TABLEFORMAT_BEGIN
 90
        1
170
     1
 91
        0
 92
        0
 62
   257
 93
        1
300
CONTENTFORMAT
  1
CONTENTFORMAT_BEGIN
 90
        0
 91
        0
 92
      512
 93
        0
300

 40
0.0
140
1.0
 94
        1
 62
     0
340
0
144
0.18
309
CONTENTFORMAT_END
171
     0
 94
        0
309
TABLEFORMAT_END
309
FORMATTEDTABLEDATACELL_END
  1
TABLECELL_BEGIN
 90
        0
 91
        0
309
TABLECELL_END
300
CELL
  1
LINKEDTABLEDATACELL_BEGIN
 90
        0
300

 91
        0
301
CUSTOMDATA
  1
DATAMAP_BEGIN
 90
        0
309
DATAMAP_END
 92
        0
 95
        0
309
LINKEDTABLEDATACELL_END
  1
FORMATTEDTABLEDATACELL_BEGIN
300
CELLTABLEFORMAT
  1
TABLEFORMAT_BEGIN
 90
        1
170
     1
 91
        0
 92
        0
 62
   257
 93
        1
300
CONTENTFORMAT
  1
CONTENTFORMAT_BEGIN
 90
        0
 91
        0
 92
      512
 93
        0
300

 40
0.0
140
1.0
 94
        1
 62
     0
340
0
144
0.18
309
CONTENTFORMAT_END
171
     0
 94
        0
309
TABLEFORMAT_END
309
FORMATTEDTABLEDATACELL_END
  1
TABLECELL_BEGIN
 90
        0
 91
        0
309
TABLECELL_END
300
CELL
  1
LINKEDTABLEDATACELL_BEGIN
 90
        0
300

 91
        0
301
CUSTOMDATA
  1
DATAMAP_BEGIN
 90
        0
309
DATAMAP_END
 92
        0
 95
        0
309
LINKEDTABLEDATACELL_END
  1
FORMATTEDTABLEDATACELL_BEGIN
300
CELLTABLEFORMAT
  1
TABLEFORMAT_BEGIN
 90
        1
170
     1
 91
        0
 92
        0
 62
   257
 93
        1
300
CONTENTFORMAT
  1
CONTENTFORMAT_BEGIN
 90
        0
 91
        0
 92
      512
 93
        0
300

 40
0.0
140
1.0
 94
        1
 62
     0
340
0
144
0.18
309
CONTENTFORMAT_END
171
     0
 94
        0
309
TABLEFORMAT_END
309
FORMATTEDTABLEDATACELL_END
  1
TABLECELL_BEGIN
 90
        0
 91
        0
309
TABLECELL_END
 91
        0
301
CUSTOMDATA
  1
DATAMAP_BEGIN
 90
        0
309
DATAMAP_END
309
LINKEDTABLEDATAROW_END
  1
FORMATTEDTABLEDATAROW_BEGIN
300
ROWTABLEFORMAT
  1
TABLEFORMAT_BEGIN
 90
        2
170
     0
309
TABLEFORMAT_END
309
FORMATTEDTABLEDATAROW_END
  1
TABLEROW_BEGIN
 90
        3
 40
13.0
309
TABLEROW_END
100
AcDbFormattedTableData
300
TABLEFORMAT
  1
TABLEFORMAT_BEGIN
 90
        4
170
     1
 91
    15360
 92
        0
 62
   257
 93
        1
300
CONTENTFORMAT
  1
CONTENTFORMAT_BEGIN
 90
        0
 91
        0
 92
      512
 93
        0
300

 40
0.0
140
1.0
 94
        1
 62
     0
340
0
144
0.18
309
CONTENTFORMAT_END
171
     1
301
MARGIN
  1
CELLMARGIN_BEGIN
 40
0.06
 40
0.06
 40
0.06
 40
0.06
 40
0.06
 40
0.06
309
CELLMARGIN_END
 94
        0
309
TABLEFORMAT_END
 90
        4
 91
        0
 92
        0
 93
        3
 94
        2
 91
        2
 92
        3
 93
        2
 94
        4
 91
        3
 92
        3
 93
        3
 94
        4
 91
        4
 92
        0
 93
        4
 94
        4
100
AcDbTableContent
340
4C8
  0
TABLEGEOMETRY
  5
4DC
330
4DE
100
AcDbTableGeometry
 90
        5
 91
        5
 92
       25
 93
        0
 40
0.0
 41
0.0
330
0
 94
        0
 93
        0
 40
0.0
 41
0.0
330
0
 94
        0
 93
        0
 40
0.0
 41
0.0
330
0
 94
        0
 93
        0
 40
0.0
 41
0.0
330
0
 94
        0
 93
        0
 40
0.0
 41
0.0
330
0
 94
        0
 93
        0
 40
0.0
 41
0.0
330
0
 94
        0
 93
        0
 40
0.0
 41
0.0
330
0
 94
        0
 93
        0
 40
0.0
 41
0.0
330
0
 94
        0
 93
        0
 40
0.0
 41
0.0
330
0
 94
        0
 93
        0
 40
0.0
 41
0.0
330
0
 94
        0
 93
        0
 40
0.0
 41
0.0
330
0
 94
        0
 93
        0
 40
0.0
 41
0.0
330
0
 94
        0
 93
        0
 40
0.0
 41
0.0
330
0
 94
        0
 93
        0
 40
0.0
 41
0.0
330
0
 94
        0
 93
        0
 40
0.0
 41
0.0
330
0
 94
        0
 93
        0
 40
0.0
 41
0.0
330
0
 94
        0
 93
        0
 40
0.0
 41
0.0
330
0
 94
        0
 93
        0
 40
0.0
 41
0.0
330
0
 94
        0
 93
        0
 40
0.0
 41
0.0
330
0
 94
        0
 93
        0
 40
0.0
 41
0.0
330
0
 94
        0
 93
        0
 40
0.0
 41
0.0
330
0
 94
        0
 93
        0
 40
0.0
 41
0.0
330
0
 94
        0
 93
        0
 40
0.0
 41
0.0
330
0
 94
        0
 93
        0
 40
0.0
 41
0.0
330
0
 94
        0
 93
        0
 40
0.0
 41
0.0
330
0
 94
        0
  0
DICTIONARY
  5
4E1
330
4C8
100
AcDbDictionary
280
     1
281
     1
  3
ACAD_ROUNDTRIP_2008_TABLESTYLE_CELLSTYLEMAP
360
4E2
  0
CELLSTYLEMAP
  5
4E2
102
{ACAD_REACTORS
330
4E1
102
}
330
4E1
100
AcDbCellStyleMap
 90
        3
300
CELLSTYLE
  1
TABLEFORMAT_BEGIN
 90
        5
170
     1
 91
        0
 92
        0
 62
   257
 93
        1
300
CONTENTFORMAT
  1
CONTENTFORMAT_BEGIN
 90
        0
 91
        0
 92
        4
 93
        0
300

 40
0.0
140
1.0
 94
        5
 62
     0
340
11
144
6.0
309
CONTENTFORMAT_END
171
     1
301
MARGIN
  1
CELLMARGIN_BEGIN
 40
1.5
 40
1.5
 40
1.5
 40
1.5
 40
1.5
 40
1.5
309
CELLMARGIN_END
 94
        6
 95
        1
302
GRIDFORMAT
  1
GRIDFORMAT_BEGIN
 90
        0
 91
        1
 62
     0
 92
       -2
340
14
 93
        0
 40
0.045
309
GRIDFORMAT_END
 95
        2
302
GRIDFORMAT
  1
GRIDFORMAT_BEGIN
 90
        0
 91
        1
 62
     0
 92
       -2
340
14
 93
        0
 40
0.045
309
GRIDFORMAT_END
 95
        4
302
GRIDFORMAT
  1
GRIDFORMAT_BEGIN
 90
        0
 91
        1
 62
     0
 92
       -2
340
14
 93
        0
 40
0.045
309
GRIDFORMAT_END
 95
        8
302
GRIDFORMAT
  1
GRIDFORMAT_BEGIN
 90
        0
 91
        1
 62
     0
 92
       -2
340
14
 93
        0
 40
0.045
309
GRIDFORMAT_END
 95
       16
302
GRIDFORMAT
  1
GRIDFORMAT_BEGIN
 90
        0
 91
        1
 62
     0
 92
       -2
340
14
 93
        0
 40
0.045
309
GRIDFORMAT_END
 95
       32
302
GRIDFORMAT
  1
GRIDFORMAT_BEGIN
 90
        0
 91
        1
 62
     0
 92
       -2
340
14
 93
        0
 40
0.045
309
GRIDFORMAT_END
309
TABLEFORMAT_END
  1
CELLSTYLE_BEGIN
 90
        1
 91
        1
300
_TITLE
309
CELLSTYLE_END
300
CELLSTYLE
  1
TABLEFORMAT_BEGIN
 90
        5
170
     1
 91
        0
 92
        0
 62
   257
 93
        1
300
CONTENTFORMAT
  1
CONTENTFORMAT_BEGIN
 90
        0
 91
        0
 92
        4
 93
        0
300

 40
0.0
140
1.0
 94
        5
 62
     0
340
11
144
4.5
309
CONTENTFORMAT_END
171
     1
301
MARGIN
  1
CELLMARGIN_BEGIN
 40
1.5
 40
1.5
 40
1.5
 40
1.5
 40
1.5
 40
1.5
309
CELLMARGIN_END
 94
        6
 95
        1
302
GRIDFORMAT
  1
GRIDFORMAT_BEGIN
 90
        0
 91
        1
 62
     0
 92
       -2
340
14
 93
        0
 40
0.045
309
GRIDFORMAT_END
 95
        2
302
GRIDFORMAT
  1
GRIDFORMAT_BEGIN
 90
        0
 91
        1
 62
     0
 92
       -2
340
14
 93
        0
 40
0.045
309
GRIDFORMAT_END
 95
        4
302
GRIDFORMAT
  1
GRIDFORMAT_BEGIN
 90
        0
 91
        1
 62
     0
 92
       -2
340
14
 93
        0
 40
0.045
309
GRIDFORMAT_END
 95
        8
302
GRIDFORMAT
  1
GRIDFORMAT_BEGIN
 90
        0
 91
        1
 62
     0
 92
       -2
340
14
 93
        0
 40
0.045
309
GRIDFORMAT_END
 95
       16
302
GRIDFORMAT
  1
GRIDFORMAT_BEGIN
 90
        0
 91
        1
 62
     0
 92
       -2
340
14
 93
        0
 40
0.045
309
GRIDFORMAT_END
 95
       32
302
GRIDFORMAT
  1
GRIDFORMAT_BEGIN
 90
        0
 91
        1
 62
     0
 92
       -2
340
14
 93
        0
 40
0.045
309
GRIDFORMAT_END
309
TABLEFORMAT_END
  1
CELLSTYLE_BEGIN
 90
        2
 91
        1
300
_HEADER
309
CELLSTYLE_END
300
CELLSTYLE
  1
TABLEFORMAT_BEGIN
 90
        5
170
     1
 91
        0
 92
        0
 62
   257
 93
        1
300
CONTENTFORMAT
  1
CONTENTFORMAT_BEGIN
 90
        0
 91
        0
 92
        4
 93
        0
300

 40
0.0
140
1.0
 94
        2
 62
     0
340
11
144
4.5
309
CONTENTFORMAT_END
171
     1
301
MARGIN
  1
CELLMARGIN_BEGIN
 40
1.5
 40
1.5
 40
1.5
 40
1.5
 40
1.5
 40
1.5
309
CELLMARGIN_END
 94
        6
 95
        1
302
GRIDFORMAT
  1
GRIDFORMAT_BEGIN
 90
        0
 91
        1
 62
     0
 92
       -2
340
14
 93
        0
 40
0.045
309
GRIDFORMAT_END
 95
        2
302
GRIDFORMAT
  1
GRIDFORMAT_BEGIN
 90
        0
 91
        1
 62
     0
 92
       -2
340
14
 93
        0
 40
0.045
309
GRIDFORMAT_END
 95
        4
302
GRIDFORMAT
  1
GRIDFORMAT_BEGIN
 90
        0
 91
        1
 62
     0
 92
       -2
340
14
 93
        0
 40
0.045
309
GRIDFORMAT_END
 95
        8
302
GRIDFORMAT
  1
GRIDFORMAT_BEGIN
 90
        0
 91
        1
 62
     0
 92
       -2
340
14
 93
        0
 40
0.045
309
GRIDFORMAT_END
 95
       16
302
GRIDFORMAT
  1
GRIDFORMAT_BEGIN
 90
        0
 91
        1
 62
     0
 92
       -2
340
14
 93
        0
 40
0.045
309
GRIDFORMAT_END
 95
       32
302
GRIDFORMAT
  1
GRIDFORMAT_BEGIN
 90
        0
 91
        1
 62
     0
 92
       -2
340
14
 93
        0
 40
0.045
309
GRIDFORMAT_END
309
TABLEFORMAT_END
  1
CELLSTYLE_BEGIN
 90
        3
 91
        2
300
_DATA
309
CELLSTYLE_END
  0
ENDSEC
  0
EOF
