999
DXF file: 2f7_c_001.dxf
999
Pro/ENGINEER 2016360 by Parametric Technology Corporation
  0
SECTION
  2
HEADER
  9
$ACADVER
  1
AC1014
  9
$DWGCODEPAGE
  3
ANSI_1252
  9
$EXTMAX
 10
420.0
 20
297.0
 30
0.0
  9
$EXTMIN
 10
0.0
 20
0.0
 30
0.0
  9
$LIMMIN
 10
0.0
 20
0.0
  9
$LIMMAX
 10
420.0
 20
297.0
  9
$VIEWCTR
 10
210.0
 20
148.5
  9
$VIEWSIZE
 40
297.0
  9
$CLAYER
  8
0
  9
$LTSCALE
 40
23.1
  9
$CELTYPE
  6
BYLAYER
  9
$DIMSCALE
 40
1.0
  9
$DIMASZ
 40
2.5
  9
$DIMEXO
 40
0.75
  9
$DIMDLI
 40
15.96
  9
$DIMEXE
 40
0.75
  9
$DIMCEN
 40
3.78
  9
$DIMLFAC
 40
1.0
  9
$DIMBLK
  1
_CLOSED
  9
$DIMALT
 70
0
  9
$DIMALTF
 40
25.4
  9
$DIMTXT
 40
3.0
  9
$DIMTOL
 70
1
  9
$DIMLIM
 70
0
  9
$DIMTFAC
 40
1.0
  9
$DIMTP
 40
0.01
  9
$DIMTM
 40
0.01
  9
$DIMGAP
 40
0.625
  9
$AUNITS
 70
0
  9
$PDMODE
 70
3
  9
$PDSIZE
 40
0.3125
  9
$HANDSEED
  5
4DA
  9
$TILEMODE
 70
1
  9
$MEASUREMENT
 70
1
  0
ENDSEC
  0
SECTION
  2
CLASSES
  0
ENDSEC
  0
SECTION
  2
TABLES
  0
TABLE
  2
VPORT
  5
8
100
AcDbSymbolTable
 70
2
  0
VPORT
  5
1F4
100
AcDbSymbolTableRecord
100
AcDbViewportTableRecord
  2
*ACTIVE
 70
0
 10
0.0
 20
0.0
 11
1.0
 21
1.0
 12
210.0
 22
148.5
 13
0.0
 23
0.0
 14
1.0
 24
1.0
 15
0.0
 25
0.0
 16
0.0
 26
0.0
 36
1.0
 17
0.0
 27
0.0
 37
0.0
 40
297.0
 41
1.4141414141
 42
50.0
 43
0.0
 44
0.0
 50
0.0
 51
0.0
 71
0
 72
100
 73
1
 74
1
 75
0
 76
0
 77
0
 78
0
  0
ENDTAB
  0
TABLE
  2
LTYPE
  5
5
100
AcDbSymbolTable
 70
6
  0
LTYPE
  5
14
100
AcDbSymbolTableRecord
100
AcDbLinetypeTableRecord
  2
BYBLOCK
 70
0
  3

 72
65
 73
0
 40
0.0
  0
LTYPE
  5
15
100
AcDbSymbolTableRecord
100
AcDbLinetypeTableRecord
  2
BYLAYER
 70
0
  3

 72
65
 73
0
 40
0.0
  0
LTYPE
  5
16
100
AcDbSymbolTableRecord
100
AcDbLinetypeTableRecord
  2
CONTINUOUS
 70
64
  3
Solid line
 72
65
 73
0
 40
0.0
  0
LTYPE
  5
1F5
100
AcDbSymbolTableRecord
100
AcDbLinetypeTableRecord
  2
CENTER
 70
64
  3
____ _ ____ _ ____ _ ____ _ ____ _ ____ _ ____
 72
65
 73
4
 40
0.6
 49
0.375
 74
0
 49
-0.075
 74
0
 49
0.075
 74
0
 49
-0.075
 74
0
  0
LTYPE
  5
1F6
100
AcDbSymbolTableRecord
100
AcDbLinetypeTableRecord
  2
HIDDEN
 70
64
  3
- - - - - - - - - - - - - - - - - - - -
 72
65
 73
2
 40
0.2
 49
0.1
 74
0
 49
-0.1
 74
0
  0
LTYPE
  5
1F7
100
AcDbSymbolTableRecord
100
AcDbLinetypeTableRecord
  2
PHANTOM
 70
64
  3
_____ _ _ _____ _ _ _____ _ _ _____
 72
65
 73
6
 40
0.8
 49
0.45
 74
0
 49
-0.05
 74
0
 49
0.1
 74
0
 49
-0.05
 74
0
 49
0.1
 74
0
 49
-0.05
 74
0
  0
LTYPE
  5
1F8
100
AcDbSymbolTableRecord
100
AcDbLinetypeTableRecord
  2
DOT
 70
64
  3
. . . . . . . . . . . . . . . . . . . .
 72
65
 73
2
 40
0.2
 49
0.1
 74
0
 49
-0.1
 74
0
  0
LTYPE
  5
1F9
100
AcDbSymbolTableRecord
100
AcDbLinetypeTableRecord
  2
DASHED
 70
64
  3
- - - - - - - - - - - - - - - - - - - -
 72
65
 73
2
 40
0.2
 49
0.1
 74
0
 49
-0.1
 74
0
  0
ENDTAB
  0
TABLE
  2
LAYER
  5
2
100
AcDbSymbolTable
 70
36
  0
LAYER
  5
10
100
AcDbSymbolTableRecord
100
AcDbLayerTableRecord
  2
0
 70
0
 62
7
  6
CONTINUOUS
  0
LAYER
  5
1FA
100
AcDbSymbolTableRecord
100
AcDbLayerTableRecord
  2
DEFAULT_1
 70
0
 62
7
  6
CENTER
  0
LAYER
  5
1FB
100
AcDbSymbolTableRecord
100
AcDbLayerTableRecord
  2
DEFAULT_2
 70
0
 62
8
  6
HIDDEN
  0
LAYER
  5
1FC
100
AcDbSymbolTableRecord
100
AcDbLayerTableRecord
  2
DEFAULT_3
 70
0
 62
7
  6
PHANTOM
  0
LAYER
  5
1FD
100
AcDbSymbolTableRecord
100
AcDbLayerTableRecord
  2
01_ALL_DTM_PLN
 70
0
 62
7
  6
CONTINUOUS
  0
LAYER
  5
1FE
100
AcDbSymbolTableRecord
100
AcDbLayerTableRecord
  2
01__ASM_ALL_DTM_PLN
 70
0
 62
7
  6
CONTINUOUS
  0
LAYER
  5
1FF
100
AcDbSymbolTableRecord
100
AcDbLayerTableRecord
  2
01__ASM_DEF_DTM_PLN
 70
0
 62
7
  6
CONTINUOUS
  0
LAYER
  5
200
100
AcDbSymbolTableRecord
100
AcDbLayerTableRecord
  2
01___PRT_ALL_DTM_PLN
 70
0
 62
7
  6
CONTINUOUS
  0
LAYER
  5
201
100
AcDbSymbolTableRecord
100
AcDbLayerTableRecord
  2
01___PRT_DEF_DTM_PLN
 70
0
 62
7
  6
CONTINUOUS
  0
LAYER
  5
202
100
AcDbSymbolTableRecord
100
AcDbLayerTableRecord
  2
02_ALL_AXES
 70
0
 62
7
  6
CONTINUOUS
  0
LAYER
  5
203
100
AcDbSymbolTableRecord
100
AcDbLayerTableRecord
  2
02__ASM_ALL_AXES
 70
0
 62
7
  6
CONTINUOUS
  0
LAYER
  5
204
100
AcDbSymbolTableRecord
100
AcDbLayerTableRecord
  2
02___PRT_ALL_AXES
 70
0
 62
7
  6
CONTINUOUS
  0
LAYER
  5
205
100
AcDbSymbolTableRecord
100
AcDbLayerTableRecord
  2
03_ALL_CURVES
 70
0
 62
7
  6
CONTINUOUS
  0
LAYER
  5
206
100
AcDbSymbolTableRecord
100
AcDbLayerTableRecord
  2
03__ASM_ALL_CURVES
 70
0
 62
7
  6
CONTINUOUS
  0
LAYER
  5
207
100
AcDbSymbolTableRecord
100
AcDbLayerTableRecord
  2
03___PRT_ALL_CURVES
 70
0
 62
7
  6
CONTINUOUS
  0
LAYER
  5
208
100
AcDbSymbolTableRecord
100
AcDbLayerTableRecord
  2
04_ALL_DTM_PNT
 70
0
 62
7
  6
CONTINUOUS
  0
LAYER
  5
209
100
AcDbSymbolTableRecord
100
AcDbLayerTableRecord
  2
04__ASM_ALL_DTM_PNT
 70
0
 62
7
  6
CONTINUOUS
  0
LAYER
  5
20A
100
AcDbSymbolTableRecord
100
AcDbLayerTableRecord
  2
04___PRT_ALL_DTM_PNT
 70
0
 62
7
  6
CONTINUOUS
  0
LAYER
  5
20B
100
AcDbSymbolTableRecord
100
AcDbLayerTableRecord
  2
05_ALL_DTM_CSYS
 70
0
 62
7
  6
CONTINUOUS
  0
LAYER
  5
20C
100
AcDbSymbolTableRecord
100
AcDbLayerTableRecord
  2
05__ASM_ALL_DTM_CSYS
 70
0
 62
7
  6
CONTINUOUS
  0
LAYER
  5
20D
100
AcDbSymbolTableRecord
100
AcDbLayerTableRecord
  2
05__ASM_DEF_DTM_CSYS
 70
0
 62
7
  6
CONTINUOUS
  0
LAYER
  5
20E
100
AcDbSymbolTableRecord
100
AcDbLayerTableRecord
  2
05___PRT_ALL_DTM_CSYS
 70
0
 62
7
  6
CONTINUOUS
  0
LAYER
  5
20F
100
AcDbSymbolTableRecord
100
AcDbLayerTableRecord
  2
05___PRT_DEF_DTM_CSYS
 70
0
 62
7
  6
CONTINUOUS
  0
LAYER
  5
210
100
AcDbSymbolTableRecord
100
AcDbLayerTableRecord
  2
06_ALL_SURFS
 70
0
 62
7
  6
CONTINUOUS
  0
LAYER
  5
211
100
AcDbSymbolTableRecord
100
AcDbLayerTableRecord
  2
06__ASM_ALL_SURFS
 70
0
 62
7
  6
CONTINUOUS
  0
LAYER
  5
212
100
AcDbSymbolTableRecord
100
AcDbLayerTableRecord
  2
06___PRT_ALL_SURFS
 70
0
 62
7
  6
CONTINUOUS
  0
LAYER
  5
213
100
AcDbSymbolTableRecord
100
AcDbLayerTableRecord
  2
07__ASM_ALL_SKELETONS
 70
0
 62
7
  6
CONTINUOUS
  0
LAYER
  5
214
100
AcDbSymbolTableRecord
100
AcDbLayerTableRecord
  2
1_ALL_PLANES
 70
0
 62
7
  6
CONTINUOUS
  0
LAYER
  5
215
100
AcDbSymbolTableRecord
100
AcDbLayerTableRecord
  2
2_ALL_CSYS
 70
0
 62
7
  6
CONTINUOUS
  0
LAYER
  5
216
100
AcDbSymbolTableRecord
100
AcDbLayerTableRecord
  2
3_ALL_AXES
 70
0
 62
7
  6
CONTINUOUS
  0
LAYER
  5
217
100
AcDbSymbolTableRecord
100
AcDbLayerTableRecord
  2
4_ALL_POINTS
 70
0
 62
7
  6
CONTINUOUS
  0
LAYER
  5
218
100
AcDbSymbolTableRecord
100
AcDbLayerTableRecord
  2
5_ALL_CURVES
 70
0
 62
7
  6
CONTINUOUS
  0
LAYER
  5
219
100
AcDbSymbolTableRecord
100
AcDbLayerTableRecord
  2
5__COSTRUZIONE
 70
0
 62
7
  6
CONTINUOUS
  0
LAYER
  5
21A
100
AcDbSymbolTableRecord
100
AcDbLayerTableRecord
  2
6_ALL_SURFS
 70
0
 62
7
  6
CONTINUOUS
  0
LAYER
  5
21B
100
AcDbSymbolTableRecord
100
AcDbLayerTableRecord
  2
7_ALL_FEATURES
 70
0
 62
7
  6
CONTINUOUS
  0
LAYER
  5
21C
100
AcDbSymbolTableRecord
100
AcDbLayerTableRecord
  2
9_SOLID
 70
0
 62
7
  6
CONTINUOUS
  0
LAYER
  5
21D
100
AcDbSymbolTableRecord
100
AcDbLayerTableRecord
  2
CLOSED_SHELL
 70
0
 62
7
  6
CONTINUOUS
  0
LAYER
  5
21E
100
AcDbSymbolTableRecord
100
AcDbLayerTableRecord
  2
F15255
 70
0
 62
7
  6
CONTINUOUS
  0
LAYER
  5
21F
100
AcDbSymbolTableRecord
100
AcDbLayerTableRecord
  2
F15340_001
 70
0
 62
7
  6
CONTINUOUS
  0
LAYER
  5
220
100
AcDbSymbolTableRecord
100
AcDbLayerTableRecord
  2
FP_001
 70
0
 62
7
  6
CONTINUOUS
  0
LAYER
  5
221
100
AcDbSymbolTableRecord
100
AcDbLayerTableRecord
  2
FP_HEKLA-PIC-X_001
 70
0
 62
7
  6
CONTINUOUS
  0
LAYER
  5
222
100
AcDbSymbolTableRecord
100
AcDbLayerTableRecord
  2
INTFCLR_2
 70
0
 62
7
  6
CONTINUOUS
  0
LAYER
  5
223
100
AcDbSymbolTableRecord
100
AcDbLayerTableRecord
  2
INTFCLR_3
 70
0
 62
7
  6
CONTINUOUS
  0
LAYER
  5
224
100
AcDbSymbolTableRecord
100
AcDbLayerTableRecord
  2
INTF_CYAN
 70
0
 62
7
  6
CONTINUOUS
  0
LAYER
  5
225
100
AcDbSymbolTableRecord
100
AcDbLayerTableRecord
  2
XXX_SOLIDO
 70
0
 62
7
  6
CONTINUOUS
  0
ENDTAB
  0
TABLE
  2
STYLE
  5
3
100
AcDbSymbolTable
 70
1
  0
STYLE
  5
11
100
AcDbSymbolTableRecord
100
AcDbTextStyleTableRecord
  2
STANDARD
 70
0
 40
0.0
 41
1.0
 50
0.0
 71
0
 42
0.2
  3
arial.ttf
  4

  0
STYLE
  5
226
100
AcDbSymbolTableRecord
100
AcDbTextStyleTableRecord
  2
TEXTSTYLE_1
 70
0
 40
0.0
 41
0.8
 50
0.0
 71
0
 42
0.2
  3
gdt
  4

  0
STYLE
  5
227
100
AcDbSymbolTableRecord
100
AcDbTextStyleTableRecord
  2
TEXTSTYLE_2
 70
0
 40
0.0
 41
0.85
 50
0.0
 71
0
 42
0.2
  3
gdt
  4

  0
STYLE
  5
228
100
AcDbSymbolTableRecord
100
AcDbTextStyleTableRecord
  2
TEXTSTYLE_3
 70
0
 40
0.0
 41
0.85
 50
0.0
 71
0
 42
0.2
  3
txt
  4

  0
ENDTAB
  0
TABLE
  2
VIEW
  5
6
100
AcDbSymbolTable
 70
0
  0
ENDTAB
  0
TABLE
  2
UCS
  5
7
100
AcDbSymbolTable
 70
0
  0
ENDTAB
  0
TABLE
  2
APPID
  5
9
100
AcDbSymbolTable
 70
1
  0
APPID
  5
229
100
AcDbSymbolTableRecord
100
AcDbRegAppTableRecord
  2
ACAD
 70
0
  0
ENDTAB
  0
TABLE
  2
BLOCK_RECORD
  5
1
100
AcDbSymbolTable
 70
0
  0
BLOCK_RECORD
  5
1F
100
AcDbSymbolTableRecord
100
AcDbBlockTableRecord
  2
*MODEL_SPACE
  0
BLOCK_RECORD
  5
1B
100
AcDbSymbolTableRecord
100
AcDbBlockTableRecord
  2
*PAPER_SPACE
  0
BLOCK_RECORD
  5
22A
100
AcDbSymbolTableRecord
100
AcDbBlockTableRecord
  2
_CLOSED
  0
BLOCK_RECORD
  5
22B
100
AcDbSymbolTableRecord
100
AcDbBlockTableRecord
  2
*D0
  0
BLOCK_RECORD
  5
22C
100
AcDbSymbolTableRecord
100
AcDbBlockTableRecord
  2
*D1
  0
BLOCK_RECORD
  5
22D
100
AcDbSymbolTableRecord
100
AcDbBlockTableRecord
  2
*D2
  0
BLOCK_RECORD
  5
22E
100
AcDbSymbolTableRecord
100
AcDbBlockTableRecord
  2
*D3
  0
BLOCK_RECORD
  5
22F
100
AcDbSymbolTableRecord
100
AcDbBlockTableRecord
  2
*D4
  0
BLOCK_RECORD
  5
230
100
AcDbSymbolTableRecord
100
AcDbBlockTableRecord
  2
*D5
  0
BLOCK_RECORD
  5
231
100
AcDbSymbolTableRecord
100
AcDbBlockTableRecord
  2
LOGO2_BL0
  0
ENDTAB
  0
TABLE
  2
DIMSTYLE
  5
A
100
AcDbSymbolTable
 70
1
  0
DIMSTYLE
105
232
100
AcDbSymbolTableRecord
100
AcDbDimStyleTableRecord
  2
STANDARD
 70
0
  3

  4

  5
_CLOSED
  6
_CLOSED
  7
_CLOSED
 40
1.0
 41
2.5
 42
0.75
 43
0.38
 44
0.75
 45
0.0
 46
0.0
 47
0.01
 48
0.01
140
3.0
141
0.09
142
0.0
143
25.4
144
1.0
145
0.0
146
1.0
147
0.625
 71
1.0
 72
0.0
 73
0
 74
0
 75
0
 76
0
 77
1
 78
8
 79
2
170
0
171
1
172
0
173
0
174
0
175
0
176
0
177
0
178
0
270
2
179
2
271
2
272
2
273
2
274
2
275
0
280
0
281
0
282
0
283
1
284
8
285
0
286
0
287
3
288
0
340
11
  0
DIMSTYLE
105
233
100
AcDbSymbolTableRecord
100
AcDbDimStyleTableRecord
  2
DIMSTYLE_1
 70
0
  3

  4

  5
_CLOSED
  6
_CLOSED
  7
_CLOSED
 40
1.0
 41
2.5
 42
0.75
 43
0.38
 44
0.75
 45
0.0
 46
0.0
 47
0.3
 48
0.3
140
3.0
141
0.09
142
0.0
143
25.4
144
1.0
145
0.0
146
1.0
147
0.75
 71
0.0
 72
0.0
 73
0
 74
0
 75
0
 76
0
 77
1
 78
8
 79
2
170
0
171
1
172
0
173
0
174
0
175
0
176
0
177
0
178
0
270
2
179
2
271
2
272
2
273
2
274
2
275
0
280
0
281
0
282
0
283
1
284
8
285
0
286
0
287
3
288
0
340
11
  0
DIMSTYLE
105
234
100
AcDbSymbolTableRecord
100
AcDbDimStyleTableRecord
  2
DIMSTYLE_2
 70
0
  3

  4

  5
_CLOSED
  6
_CLOSED
  7
_CLOSED
 40
1.0
 41
2.5
 42
0.75
 43
0.38
 44
0.75
 45
0.0
 46
0.0
 47
0.2
 48
0.2
140
3.0
141
0.09
142
0.0
143
25.4
144
1.0
145
0.0
146
1.0
147
0.75
 71
0.0
 72
0.0
 73
0
 74
0
 75
0
 76
0
 77
1
 78
8
 79
2
170
0
171
1
172
0
173
0
174
0
175
0
176
0
177
0
178
0
270
2
179
2
271
2
272
2
273
2
274
2
275
0
280
0
281
0
282
0
283
1
284
8
285
0
286
0
287
3
288
0
340
11
  0
ENDTAB
  0
ENDSEC
  0
SECTION
  2
BLOCKS
  0
BLOCK
  5
20
100
AcDbEntity
  8
0
100
AcDbBlockBegin
  2
*MODEL_SPACE
 70
0
 10
0.0
 20
0.0
 30
0.0
  3
*MODEL_SPACE
  1

  0
ENDBLK
  5
21
100
AcDbEntity
  8
0
100
AcDbBlockEnd
  0
BLOCK
  5
1C
100
AcDbEntity
  8
0
100
AcDbBlockBegin
  2
*PAPER_SPACE
 70
0
 10
0.0
 20
0.0
 30
0.0
  3
*PAPER_SPACE
  1

  0
ENDBLK
  5
1D
100
AcDbEntity
  8
0
100
AcDbBlockEnd
  0
BLOCK
  5
235
100
AcDbEntity
  8
0
100
AcDbBlockBegin
 62
2
  6
CONTINUOUS
  2
LOGO2_BL0
 70
64
 10
333.6475659158
 20
36.9217920391
  3
LOGO2_BL0
  1

  0
LINE
  5
236
100
AcDbEntity
  8
0
100
AcDbLine
 62
7
  6
CONTINUOUS
 10
325.390491144
 20
40.1172833779
 11
324.0861502147
 21
40.1172833779
  0
LINE
  5
237
100
AcDbEntity
  8
0
100
AcDbLine
 62
7
  6
CONTINUOUS
 10
324.0861502147
 20
40.1172833779
 11
324.0861502147
 21
29.6582173181
  0
LINE
  5
238
100
AcDbEntity
  8
0
100
AcDbLine
 62
7
  6
CONTINUOUS
 10
324.0861502147
 20
29.6582173181
 11
328.567205103
 21
29.6582173181
  0
LINE
  5
239
100
AcDbEntity
  8
0
100
AcDbLine
 62
7
  6
CONTINUOUS
 10
328.567205103
 20
29.6582173181
 11
328.567205103
 21
30.8510716431
  0
LINE
  5
23A
100
AcDbEntity
  8
0
100
AcDbLine
 62
7
  6
CONTINUOUS
 10
328.567205103
 20
30.8510716431
 11
325.390491144
 21
30.8510716431
  0
LINE
  5
23B
100
AcDbEntity
  8
0
100
AcDbLine
 62
7
  6
CONTINUOUS
 10
325.390491144
 20
30.8510716431
 11
325.390491144
 21
40.1172833779
  0
LINE
  5
23C
100
AcDbEntity
  8
0
100
AcDbLine
 62
7
  6
CONTINUOUS
 10
340.3268173604
 20
40.1172833779
 11
339.0229998423
 21
40.1172833779
  0
LINE
  5
23D
100
AcDbEntity
  8
0
100
AcDbLine
 62
7
  6
CONTINUOUS
 10
339.0229998423
 20
40.1172833779
 11
339.0229998423
 21
29.6582173181
  0
LINE
  5
23E
100
AcDbEntity
  8
0
100
AcDbLine
 62
7
  6
CONTINUOUS
 10
339.0229998423
 20
29.6582173181
 11
343.5041855834
 21
29.6582173181
  0
LINE
  5
23F
100
AcDbEntity
  8
0
100
AcDbLine
 62
7
  6
CONTINUOUS
 10
343.5041855834
 20
29.6582173181
 11
343.5041855834
 21
30.8510716431
  0
LINE
  5
240
100
AcDbEntity
  8
0
100
AcDbLine
 62
7
  6
CONTINUOUS
 10
343.5041855834
 20
30.8510716431
 11
340.3268173604
 21
30.8510716431
  0
LINE
  5
241
100
AcDbEntity
  8
0
100
AcDbLine
 62
7
  6
CONTINUOUS
 10
340.3268173604
 20
30.8510716431
 11
340.3268173604
 21
40.1172833779
  0
LWPOLYLINE
  5
242
100
AcDbEntity
  8
0
100
AcDbPolyline
 62
7
  6
CONTINUOUS
 90
2
 70
0
 43
0.2
 10
322.4405451256
 20
26.3146660112
 10
322.4405451256
 20
24.4576027618
  0
LWPOLYLINE
  5
243
100
AcDbEntity
  8
0
100
AcDbPolyline
 62
7
  6
CONTINUOUS
 90
2
 70
0
 43
0.2
 10
322.4405451256
 20
24.4576027618
 10
323.236261136
 20
24.4576027618
  0
LWPOLYLINE
  5
244
100
AcDbEntity
  8
0
100
AcDbPolyline
 62
7
  6
CONTINUOUS
 90
2
 70
0
 43
0.2
 10
323.236261136
 20
24.4576027618
 10
323.236261136
 20
24.6695843334
  0
LWPOLYLINE
  5
245
100
AcDbEntity
  8
0
100
AcDbPolyline
 62
7
  6
CONTINUOUS
 90
2
 70
0
 43
0.2
 10
323.236261136
 20
24.6695843334
 10
322.6721546205
 20
24.6695843334
  0
LWPOLYLINE
  5
246
100
AcDbEntity
  8
0
100
AcDbPolyline
 62
7
  6
CONTINUOUS
 90
2
 70
0
 43
0.2
 10
322.6721546205
 20
24.6695843334
 10
322.6721546205
 20
26.3146660112
  0
LWPOLYLINE
  5
247
100
AcDbEntity
  8
0
100
AcDbPolyline
 62
7
  6
CONTINUOUS
 90
2
 70
0
 43
0.2
 10
322.6721546205
 20
26.3146660112
 10
322.4405451256
 20
26.3146660112
  0
SPLINE
  5
248
100
AcDbEntity
  8
0
100
AcDbSpline
 62
7
  6
CONTINUOUS
 70
2
 71
3
 72
35
 73
31
 74
0
 42
0.0000001
 43
0.0000001
 44
0.0000000001
 40
0.0
 40
0.0
 40
0.0
 40
0.0
 40
1.0
 40
1.0
 40
1.0
 40
2.0
 40
2.0
 40
2.0
 40
3.0
 40
3.0
 40
3.0
 40
4.0
 40
4.0
 40
4.0
 40
5.0
 40
5.0
 40
5.0
 40
6.0
 40
6.0
 40
6.0
 40
7.0
 40
7.0
 40
7.0
 40
8.0
 40
8.0
 40
8.0
 40
9.0
 40
9.0
 40
9.0
 40
10.0
 40
10.0
 40
10.0
 40
10.0
 10
324.6345543915
 20
25.6101544177
 30
0.0
 10
324.6345543915
 20
25.6101544177
 30
0.0
 10
324.6345543915
 20
24.9480391385
 30
0.0
 10
324.6345543915
 20
24.9480391385
 30
0.0
 10
324.6345543915
 20
24.6329455432
 30
0.0
 10
324.7824180804
 20
24.4183469152
 30
0.0
 10
325.1225045647
 20
24.4183469152
 30
0.0
 10
325.4620676377
 20
24.4183469152
 30
0.0
 10
325.6101930321
 20
24.6329455432
 30
0.0
 10
325.6101930321
 20
24.9480391385
 30
0.0
 10
325.6101930321
 20
24.9480391385
 30
0.0
 10
325.6101930321
 20
25.6101544177
 30
0.0
 10
325.6101930321
 20
25.6101544177
 30
0.0
 10
325.6101930321
 20
25.6101544177
 30
0.0
 10
325.3881357933
 20
25.6101544177
 30
0.0
 10
325.3881357933
 20
25.6101544177
 30
0.0
 10
325.3881357933
 20
25.6101544177
 30
0.0
 10
325.3881357933
 20
24.9731628803
 30
0.0
 10
325.3881357933
 20
24.9731628803
 30
0.0
 10
325.3881357933
 20
24.7873518732
 30
0.0
 10
325.3414213358
 20
24.6245709626
 30
0.0
 10
325.1225045647
 20
24.6245709626
 30
0.0
 10
324.9030643822
 20
24.6245709626
 30
0.0
 10
324.8563499248
 20
24.7873518732
 30
0.0
 10
324.8563499248
 20
24.9731628803
 30
0.0
 10
324.8563499248
 20
24.9731628803
 30
0.0
 10
324.8563499248
 20
25.6101544177
 30
0.0
 10
324.8563499248
 20
25.6101544177
 30
0.0
 10
324.8563499248
 20
25.6101544177
 30
0.0
 10
324.6345543915
 20
25.6101544177
 30
0.0
 10
324.6345543915
 20
25.6101544177
 30
0.0
  0
SPLINE
  5
249
100
AcDbEntity
  8
0
100
AcDbSpline
 62
7
  6
CONTINUOUS
 70
2
 71
3
 72
35
 73
31
 74
0
 42
0.0000001
 43
0.0000001
 44
0.0000000001
 40
0.0
 40
0.0
 40
0.0
 40
0.0
 40
1.0
 40
1.0
 40
1.0
 40
2.0
 40
2.0
 40
2.0
 40
3.0
 40
3.0
 40
3.0
 40
4.0
 40
4.0
 40
4.0
 40
5.0
 40
5.0
 40
5.0
 40
6.0
 40
6.0
 40
6.0
 40
7.0
 40
7.0
 40
7.0
 40
8.0
 40
8.0
 40
8.0
 40
9.0
 40
9.0
 40
9.0
 40
10.0
 40
10.0
 40
10.0
 40
10.0
 10
328.0333255893
 20
25.5688049259
 30
0.0
 10
327.9448690817
 20
25.6200992322
 30
0.0
 10
327.831419685
 20
25.645222974
 30
0.0
 10
327.72778425
 20
25.645222974
 30
0.0
 10
327.3729113969
 20
25.645222974
 30
0.0
 10
327.0974662066
 20
25.3814236849
 30
0.0
 10
327.0974662066
 20
25.0239337753
 30
0.0
 10
327.0974662066
 20
24.6790057366
 30
0.0
 10
327.3759210118
 20
24.4188703265
 30
0.0
 10
327.7154840848
 20
24.4188703265
 30
0.0
 10
327.831419685
 20
24.4188703265
 30
0.0
 10
327.9321763579
 20
24.4408536006
 30
0.0
 10
328.0333255893
 20
24.4947649632
 30
0.0
 10
328.0333255893
 20
24.4947649632
 30
0.0
 10
328.0333255893
 20
24.7774070587
 30
0.0
 10
328.0333255893
 20
24.7774070587
 30
0.0
 10
327.9494489304
 20
24.6842398494
 30
0.0
 10
327.8459443483
 20
24.6250943739
 30
0.0
 10
327.7178394356
 20
24.6250943739
 30
0.0
 10
327.4841362955
 20
24.6250943739
 30
0.0
 10
327.3188691814
 20
24.7972966876
 30
0.0
 10
327.3188691814
 20
25.0338785897
 30
0.0
 10
327.3188691814
 20
25.2458601613
 30
0.0
 10
327.4866224991
 20
25.437952104
 30
0.0
 10
327.7034456251
 20
25.437952104
 30
0.0
 10
327.8362612394
 20
25.437952104
 30
0.0
 10
327.9448690817
 20
25.3840407413
 30
0.0
 10
328.0333255893
 20
25.2830223628
 30
0.0
 10
328.0333255893
 20
25.2830223628
 30
0.0
 10
328.0333255893
 20
25.5688049259
 30
0.0
 10
328.0333255893
 20
25.5688049259
 30
0.0
  0
SPLINE
  5
24A
100
AcDbEntity
  8
0
100
AcDbSpline
 62
7
  6
CONTINUOUS
 70
2
 71
3
 72
32
 73
28
 74
0
 42
0.0000001
 43
0.0000001
 44
0.0000000001
 40
0.0
 40
0.0
 40
0.0
 40
0.0
 40
1.0
 40
1.0
 40
1.0
 40
2.0
 40
2.0
 40
2.0
 40
3.0
 40
3.0
 40
3.0
 40
4.0
 40
4.0
 40
4.0
 40
5.0
 40
5.0
 40
5.0
 40
6.0
 40
6.0
 40
6.0
 40
7.0
 40
7.0
 40
7.0
 40
8.0
 40
8.0
 40
8.0
 40
9.0
 40
9.0
 40
9.0
 40
9.0
 10
330.5651968416
 20
24.9972397996
 30
0.0
 10
330.5651968416
 20
24.9972397996
 30
0.0
 10
330.5651968416
 20
25.0312615333
 30
0.0
 10
330.5651968416
 20
25.0312615333
 30
0.0
 10
330.5651968416
 20
25.3735725156
 30
0.0
 10
330.3923402638
 20
25.645222974
 30
0.0
 10
330.0256906566
 20
25.645222974
 30
0.0
 10
329.6540686422
 20
25.645222974
 30
0.0
 10
329.4643320504
 20
25.3788066284
 30
0.0
 10
329.4643320504
 20
25.0239337753
 30
0.0
 10
329.4643320504
 20
24.6842398494
 30
0.0
 10
329.6784072671
 20
24.4183469152
 30
0.0
 10
330.030532211
 20
24.4183469152
 30
0.0
 10
330.2545522422
 20
24.4183469152
 30
0.0
 10
330.4567198522
 20
24.5340208098
 30
0.0
 10
330.5651968416
 20
24.7334405105
 30
0.0
 10
330.5651968416
 20
24.7334405105
 30
0.0
 10
330.3775538949
 20
24.8402164132
 30
0.0
 10
330.3775538949
 20
24.8402164132
 30
0.0
 10
330.2940697945
 20
24.7015124219
 30
0.0
 10
330.2028653775
 20
24.6156729707
 30
0.0
 10
330.0332801203
 20
24.6156729707
 30
0.0
 10
329.8212985487
 20
24.6156729707
 30
0.0
 10
329.6883520816
 20
24.8004371554
 30
0.0
 10
329.6859967308
 20
24.9972397996
 30
0.0
 10
329.6859967308
 20
24.9972397996
 30
0.0
 10
330.5651968416
 20
24.9972397996
 30
0.0
 10
330.5651968416
 20
24.9972397996
 30
0.0
  0
SPLINE
  5
24B
100
AcDbEntity
  8
0
100
AcDbSpline
 62
7
  6
CONTINUOUS
 70
2
 71
3
 72
14
 73
10
 74
0
 42
0.0000001
 43
0.0000001
 44
0.0000000001
 40
0.0
 40
0.0
 40
0.0
 40
0.0
 40
1.0
 40
1.0
 40
1.0
 40
2.0
 40
2.0
 40
2.0
 40
3.0
 40
3.0
 40
3.0
 40
3.0
 10
329.6980351904
 20
25.1647314117
 30
0.0
 10
329.7256451358
 20
25.3296059674
 30
0.0
 10
329.8534883429
 20
25.45260762
 30
0.0
 10
330.0256906566
 20
25.45260762
 30
0.0
 10
330.2028653775
 20
25.45260762
 30
0.0
 10
330.3163147742
 20
25.3369337254
 30
0.0
 10
330.3435321612
 20
25.1647314117
 30
0.0
 10
330.3435321612
 20
25.1647314117
 30
0.0
 10
329.6980351904
 20
25.1647314117
 30
0.0
 10
329.6980351904
 20
25.1647314117
 30
0.0
  0
SPLINE
  5
24C
100
AcDbEntity
  8
0
100
AcDbSpline
 62
7
  6
CONTINUOUS
 70
2
 71
3
 72
20
 73
16
 74
0
 42
0.0000001
 43
0.0000001
 44
0.0000000001
 40
0.0
 40
0.0
 40
0.0
 40
0.0
 40
1.0
 40
1.0
 40
1.0
 40
2.0
 40
2.0
 40
2.0
 40
3.0
 40
3.0
 40
3.0
 40
4.0
 40
4.0
 40
4.0
 40
5.0
 40
5.0
 40
5.0
 40
5.0
 10
332.5892282918
 20
25.3740959269
 30
0.0
 10
332.5892282918
 20
25.3740959269
 30
0.0
 10
333.0003678584
 20
24.8716210905
 30
0.0
 10
333.0003678584
 20
24.8716210905
 30
0.0
 10
332.8843014053
 20
24.7559471959
 30
0.0
 10
332.7465133838
 20
24.6256177852
 30
0.0
 10
332.5745727757
 20
24.6256177852
 30
0.0
 10
332.3971363491
 20
24.6256177852
 30
0.0
 10
332.229644737
 20
24.7899689296
 30
0.0
 10
332.229644737
 20
24.9668819449
 30
0.0
 10
332.229644737
 20
25.1448417828
 30
0.0
 10
332.4394018106
 20
25.2709839031
 30
0.0
 10
332.566983312
 20
25.3589169995
 30
0.0
 10
332.566983312
 20
25.3589169995
 30
0.0
 10
332.5892282918
 20
25.3740959269
 30
0.0
 10
332.5892282918
 20
25.3740959269
 30
0.0
  0
SPLINE
  5
24D
100
AcDbEntity
  8
0
100
AcDbSpline
 62
7
  6
CONTINUOUS
 70
2
 71
3
 72
23
 73
19
 74
0
 42
0.0000001
 43
0.0000001
 44
0.0000000001
 40
0.0
 40
0.0
 40
0.0
 40
0.0
 40
1.0
 40
1.0
 40
1.0
 40
2.0
 40
2.0
 40
2.0
 40
3.0
 40
3.0
 40
3.0
 40
4.0
 40
4.0
 40
4.0
 40
5.0
 40
5.0
 40
5.0
 40
6.0
 40
6.0
 40
6.0
 40
6.0
 10
332.6385598056
 20
25.6651126029
 30
0.0
 10
332.6385598056
 20
25.6651126029
 30
0.0
 10
332.5769281265
 20
25.7436242961
 30
0.0
 10
332.5769281265
 20
25.7436242961
 30
0.0
 10
332.5230167639
 20
25.8121911748
 30
0.0
 10
332.4662266391
 20
25.8812814648
 30
0.0
 10
332.4662266391
 20
25.9749720853
 30
0.0
 10
332.4662266391
 20
26.0937864477
 30
0.0
 10
332.5621417576
 20
26.1712513183
 30
0.0
 10
332.6731049506
 20
26.1712513183
 30
0.0
 10
332.7963683089
 20
26.1712513183
 30
0.0
 10
332.889666371
 20
26.1000673831
 30
0.0
 10
332.889666371
 20
25.9697379725
 30
0.0
 10
332.889666371
 20
25.8346978602
 30
0.0
 10
332.7615614583
 20
25.7582798122
 30
0.0
 10
332.6680016906
 20
25.6844788206
 30
0.0
 10
332.6680016906
 20
25.6844788206
 30
0.0
 10
332.6385598056
 20
25.6651126029
 30
0.0
 10
332.6385598056
 20
25.6651126029
 30
0.0
  0
SPLINE
  5
24E
100
AcDbEntity
  8
0
100
AcDbSpline
 62
7
  6
CONTINUOUS
 70
2
 71
3
 72
50
 73
46
 74
0
 42
0.0000001
 43
0.0000001
 44
0.0000000001
 40
0.0
 40
0.0
 40
0.0
 40
0.0
 40
1.0
 40
1.0
 40
1.0
 40
2.0
 40
2.0
 40
2.0
 40
3.0
 40
3.0
 40
3.0
 40
4.0
 40
4.0
 40
4.0
 40
5.0
 40
5.0
 40
5.0
 40
6.0
 40
6.0
 40
6.0
 40
7.0
 40
7.0
 40
7.0
 40
8.0
 40
8.0
 40
8.0
 40
9.0
 40
9.0
 40
9.0
 40
10.0
 40
10.0
 40
10.0
 40
11.0
 40
11.0
 40
11.0
 40
12.0
 40
12.0
 40
12.0
 40
13.0
 40
13.0
 40
13.0
 40
14.0
 40
14.0
 40
14.0
 40
15.0
 40
15.0
 40
15.0
 40
15.0
 10
333.3407160483
 20
24.4581261731
 30
0.0
 10
333.3407160483
 20
24.4581261731
 30
0.0
 10
333.626106053
 20
24.4581261731
 30
0.0
 10
333.626106053
 20
24.4581261731
 30
0.0
 10
333.626106053
 20
24.4581261731
 30
0.0
 10
333.2937398852
 20
24.8690040341
 30
0.0
 10
333.2937398852
 20
24.8690040341
 30
0.0
 10
333.2937398852
 20
24.8690040341
 30
0.0
 10
333.5202461201
 20
25.1348969683
 30
0.0
 10
333.5202461201
 20
25.1348969683
 30
0.0
 10
333.5202461201
 20
25.1348969683
 30
0.0
 10
333.3719898728
 20
25.2877330644
 30
0.0
 10
333.3719898728
 20
25.2877330644
 30
0.0
 10
333.3719898728
 20
25.2877330644
 30
0.0
 10
333.1560827165
 20
25.0364956462
 30
0.0
 10
333.1560827165
 20
25.0364956462
 30
0.0
 10
333.1560827165
 20
25.0364956462
 30
0.0
 10
332.7690200692
 20
25.5044253375
 30
0.0
 10
332.7690200692
 20
25.5044253375
 30
0.0
 10
332.9244732216
 20
25.6185289983
 30
0.0
 10
333.1067512026
 20
25.7582798122
 30
0.0
 10
333.1067512026
 20
25.9676443273
 30
0.0
 10
333.1067512026
 20
26.2115539874
 30
0.0
 10
332.9047144455
 20
26.3549686803
 30
0.0
 10
332.6782082107
 20
26.3549686803
 30
0.0
 10
332.4340368449
 20
26.3549686803
 30
0.0
 10
332.2496652188
 20
26.2042262294
 30
0.0
 10
332.2496652188
 20
25.9477546984
 30
0.0
 10
332.2496652188
 20
25.7902079007
 30
0.0
 10
332.3483282465
 20
25.652550732
 30
0.0
 10
332.4536647682
 20
25.541587539
 30
0.0
 10
332.4536647682
 20
25.541587539
 30
0.0
 10
332.3381217264
 20
25.4578417329
 30
0.0
 10
332.3381217264
 20
25.4578417329
 30
0.0
 10
332.1604235942
 20
25.3296059674
 30
0.0
 10
332.0130833166
 20
25.2018936131
 30
0.0
 10
332.0130833166
 20
24.9647882997
 30
0.0
 10
332.0130833166
 20
24.6444605916
 30
0.0
 10
332.2716484929
 20
24.4183469152
 30
0.0
 10
332.5820313866
 20
24.4183469152
 30
0.0
 10
332.8009481577
 20
24.4183469152
 30
0.0
 10
332.9981433604
 20
24.543442213
 30
0.0
 10
333.1384175856
 20
24.7093635913
 30
0.0
 10
333.1384175856
 20
24.7093635913
 30
0.0
 10
333.3407160483
 20
24.4581261731
 30
0.0
 10
333.3407160483
 20
24.4581261731
 30
0.0
  0
LWPOLYLINE
  5
24F
100
AcDbEntity
  8
0
100
AcDbPolyline
 62
7
  6
CONTINUOUS
 90
2
 70
0
 43
0.2
 10
335.276160138
 20
26.3146660112
 10
335.0448123488
 20
26.3146660112
  0
LWPOLYLINE
  5
250
100
AcDbEntity
  8
0
100
AcDbPolyline
 62
7
  6
CONTINUOUS
 90
2
 70
0
 43
0.2
 10
335.0448123488
 20
26.3146660112
 10
335.0448123488
 20
24.4576027618
  0
LWPOLYLINE
  5
251
100
AcDbEntity
  8
0
100
AcDbPolyline
 62
7
  6
CONTINUOUS
 90
2
 70
0
 43
0.2
 10
335.0448123488
 20
24.4576027618
 10
335.8401358007
 20
24.4576027618
  0
LWPOLYLINE
  5
252
100
AcDbEntity
  8
0
100
AcDbPolyline
 62
7
  6
CONTINUOUS
 90
2
 70
0
 43
0.2
 10
335.8401358007
 20
24.4576027618
 10
335.8401358007
 20
24.6695843334
  0
LWPOLYLINE
  5
253
100
AcDbEntity
  8
0
100
AcDbPolyline
 62
7
  6
CONTINUOUS
 90
2
 70
0
 43
0.2
 10
335.8401358007
 20
24.6695843334
 10
335.276160138
 20
24.6695843334
  0
LWPOLYLINE
  5
254
100
AcDbEntity
  8
0
100
AcDbPolyline
 62
7
  6
CONTINUOUS
 90
2
 70
0
 43
0.2
 10
335.276160138
 20
24.6695843334
 10
335.276160138
 20
26.3146660112
  0
LWPOLYLINE
  5
255
100
AcDbEntity
  8
0
100
AcDbPolyline
 62
7
  6
CONTINUOUS
 90
2
 70
0
 43
0.2
 10
337.5192392122
 20
25.6101544177
 10
337.2980979431
 20
25.6101544177
  0
LWPOLYLINE
  5
256
100
AcDbEntity
  8
0
100
AcDbPolyline
 62
7
  6
CONTINUOUS
 90
2
 70
0
 43
0.2
 10
337.2980979431
 20
25.6101544177
 10
337.2980979431
 20
24.4581261731
  0
LWPOLYLINE
  5
257
100
AcDbEntity
  8
0
100
AcDbPolyline
 62
7
  6
CONTINUOUS
 90
2
 70
0
 43
0.2
 10
337.2980979431
 20
24.4581261731
 10
337.5192392122
 20
24.4581261731
  0
LWPOLYLINE
  5
258
100
AcDbEntity
  8
0
100
AcDbPolyline
 62
7
  6
CONTINUOUS
 90
2
 70
0
 43
0.2
 10
337.5192392122
 20
24.4581261731
 10
337.5192392122
 20
25.6101544177
  0
LWPOLYLINE
  5
259
100
AcDbEntity
  8
0
100
AcDbPolyline
 62
7
  6
CONTINUOUS
 90
2
 70
1
 43
0.2
 10
337.256215935
 20
26.1401083467
 42
1.0
 10
337.5613829259
 20
26.1401083467
 42
1.0
  0
SPLINE
  5
25A
100
AcDbEntity
  8
0
100
AcDbSpline
 62
7
  6
CONTINUOUS
 70
2
 71
3
 72
17
 73
13
 74
0
 42
0.0000001
 43
0.0000001
 44
0.0000000001
 40
0.0
 40
0.0
 40
0.0
 40
0.0
 40
1.0
 40
1.0
 40
1.0
 40
2.0
 40
2.0
 40
2.0
 40
3.0
 40
3.0
 40
3.0
 40
4.0
 40
4.0
 40
4.0
 40
4.0
 10
339.6495231538
 20
24.6156729707
 30
0.0
 10
339.4155583082
 20
24.6156729707
 30
0.0
 10
339.2852288975
 20
24.8177097279
 30
0.0
 10
339.2852288975
 20
25.0338785897
 30
0.0
 10
339.2852288975
 20
25.2484772178
 30
0.0
 10
339.4210541267
 20
25.4473735072
 30
0.0
 10
339.6495231538
 20
25.4473735072
 30
0.0
 10
339.888983818
 20
25.4473735072
 30
0.0
 10
340.0245473416
 20
25.2584220322
 30
0.0
 10
340.0245473416
 20
25.0338785897
 30
0.0
 10
340.0245473416
 20
24.8077649134
 30
0.0
 10
339.8913391688
 20
24.6156729707
 30
0.0
 10
339.6495231538
 20
24.6156729707
 30
0.0
  0
SPLINE
  5
25B
100
AcDbEntity
  8
0
100
AcDbSpline
 62
7
  6
CONTINUOUS
 70
2
 71
3
 72
50
 73
46
 74
0
 42
0.0000001
 43
0.0000001
 44
0.0000000001
 40
0.0
 40
0.0
 40
0.0
 40
0.0
 40
1.0
 40
1.0
 40
1.0
 40
2.0
 40
2.0
 40
2.0
 40
3.0
 40
3.0
 40
3.0
 40
4.0
 40
4.0
 40
4.0
 40
5.0
 40
5.0
 40
5.0
 40
6.0
 40
6.0
 40
6.0
 40
7.0
 40
7.0
 40
7.0
 40
8.0
 40
8.0
 40
8.0
 40
9.0
 40
9.0
 40
9.0
 40
10.0
 40
10.0
 40
10.0
 40
11.0
 40
11.0
 40
11.0
 40
12.0
 40
12.0
 40
12.0
 40
13.0
 40
13.0
 40
13.0
 40
14.0
 40
14.0
 40
14.0
 40
15.0
 40
15.0
 40
15.0
 40
15.0
 10
340.2336501511
 20
25.610677829
 30
0.0
 10
340.2336501511
 20
25.610677829
 30
0.0
 10
340.0119854707
 20
25.610677829
 30
0.0
 10
340.0119854707
 20
25.610677829
 30
0.0
 10
340.0119854707
 20
25.610677829
 30
0.0
 10
340.0119854707
 20
25.4133517734
 30
0.0
 10
340.0119854707
 20
25.4133517734
 30
0.0
 10
340.0119854707
 20
25.4133517734
 30
0.0
 10
340.0072747691
 20
25.4133517734
 30
0.0
 10
340.0072747691
 20
25.4133517734
 30
0.0
 10
339.9159394994
 20
25.556243055
 30
0.0
 10
339.778020625
 20
25.6446995627
 30
0.0
 10
339.6052949
 20
25.6446995627
 30
0.0
 10
339.2729287322
 20
25.6446995627
 30
0.0
 10
339.0638259227
 20
25.3568233544
 30
0.0
 10
339.0638259227
 20
25.0412063478
 30
0.0
 10
339.0638259227
 20
24.7114572364
 30
0.0
 10
339.2608902726
 20
24.4183469152
 30
0.0
 10
339.6157631258
 20
24.4183469152
 30
0.0
 10
339.778020625
 20
24.4183469152
 30
0.0
 10
339.9180331445
 20
24.5068034229
 30
0.0
 10
340.0072747691
 20
24.6376562448
 30
0.0
 10
340.0072747691
 20
24.6376562448
 30
0.0
 10
340.0119854707
 20
24.6376562448
 30
0.0
 10
340.0119854707
 20
24.6376562448
 30
0.0
 10
340.0119854707
 20
24.6376562448
 30
0.0
 10
340.0119854707
 20
24.4183469152
 30
0.0
 10
340.0119854707
 20
24.4183469152
 30
0.0
 10
340.0119854707
 20
24.1817650131
 30
0.0
 10
339.9554570516
 20
23.9949071833
 30
0.0
 10
339.6822363593
 20
23.9949071833
 30
0.0
 10
339.4799378966
 20
23.9949071833
 30
0.0
 10
339.3373083206
 20
24.1131981344
 30
0.0
 10
339.3373083206
 20
24.3194221818
 30
0.0
 10
339.3373083206
 20
24.3194221818
 30
0.0
 10
339.1156436402
 20
24.3194221818
 30
0.0
 10
339.1156436402
 20
24.3194221818
 30
0.0
 10
339.1206160475
 20
23.9949071833
 30
0.0
 10
339.351702131
 20
23.7981045391
 30
0.0
 10
339.6720298392
 20
23.7981045391
 30
0.0
 10
340.1200699016
 20
23.7981045391
 30
0.0
 10
340.2336501511
 20
24.083363691
 30
0.0
 10
340.2336501511
 20
24.4801094472
 30
0.0
 10
340.2336501511
 20
24.4801094472
 30
0.0
 10
340.2336501511
 20
25.610677829
 30
0.0
 10
340.2336501511
 20
25.610677829
 30
0.0
  0
SPLINE
  5
25C
100
AcDbEntity
  8
0
100
AcDbSpline
 62
7
  6
CONTINUOUS
 70
2
 71
3
 72
44
 73
40
 74
0
 42
0.0000001
 43
0.0000001
 44
0.0000000001
 40
0.0
 40
0.0
 40
0.0
 40
0.0
 40
1.0
 40
1.0
 40
1.0
 40
2.0
 40
2.0
 40
2.0
 40
3.0
 40
3.0
 40
3.0
 40
4.0
 40
4.0
 40
4.0
 40
5.0
 40
5.0
 40
5.0
 40
6.0
 40
6.0
 40
6.0
 40
7.0
 40
7.0
 40
7.0
 40
8.0
 40
8.0
 40
8.0
 40
9.0
 40
9.0
 40
9.0
 40
10.0
 40
10.0
 40
10.0
 40
11.0
 40
11.0
 40
11.0
 40
12.0
 40
12.0
 40
12.0
 40
13.0
 40
13.0
 40
13.0
 40
13.0
 10
341.8025754865
 20
26.5957378727
 30
0.0
 10
341.8025754865
 20
26.5957378727
 30
0.0
 10
341.8025754865
 20
24.4576027618
 30
0.0
 10
341.8025754865
 20
24.4576027618
 30
0.0
 10
341.8025754865
 20
24.4576027618
 30
0.0
 10
342.0239784613
 20
24.4576027618
 30
0.0
 10
342.0239784613
 20
24.4576027618
 30
0.0
 10
342.0239784613
 20
24.4576027618
 30
0.0
 10
342.0239784613
 20
24.9872949851
 30
0.0
 10
342.0239784613
 20
24.9872949851
 30
0.0
 10
342.0239784613
 20
25.1971829116
 30
0.0
 10
342.0239784613
 20
25.4478969184
 30
0.0
 10
342.3092376132
 20
25.4478969184
 30
0.0
 10
342.5361364065
 20
25.4478969184
 30
0.0
 10
342.5630920878
 20
25.3149504513
 30
0.0
 10
342.5630920878
 20
25.1186712184
 30
0.0
 10
342.5630920878
 20
25.1186712184
 30
0.0
 10
342.5630920878
 20
24.4576027618
 30
0.0
 10
342.5630920878
 20
24.4576027618
 30
0.0
 10
342.5630920878
 20
24.4576027618
 30
0.0
 10
342.7850184738
 20
24.4576027618
 30
0.0
 10
342.7850184738
 20
24.4576027618
 30
0.0
 10
342.7850184738
 20
24.4576027618
 30
0.0
 10
342.7850184738
 20
25.1448417828
 30
0.0
 10
342.7850184738
 20
25.1448417828
 30
0.0
 10
342.7850184738
 20
25.4253902331
 30
0.0
 10
342.7010109621
 20
25.645222974
 30
0.0
 10
342.3759725524
 20
25.645222974
 30
0.0
 10
342.2362217385
 20
25.645222974
 30
0.0
 10
342.0980411585
 20
25.5787497404
 30
0.0
 10
342.0286891629
 20
25.4557480878
 30
0.0
 10
342.0286891629
 20
25.4557480878
 30
0.0
 10
342.0239784613
 20
25.4557480878
 30
0.0
 10
342.0239784613
 20
25.4557480878
 30
0.0
 10
342.0239784613
 20
25.4557480878
 30
0.0
 10
342.0239784613
 20
26.5957378727
 30
0.0
 10
342.0239784613
 20
26.5957378727
 30
0.0
 10
342.0239784613
 20
26.5957378727
 30
0.0
 10
341.8025754865
 20
26.5957378727
 30
0.0
 10
341.8025754865
 20
26.5957378727
 30
0.0
  0
LWPOLYLINE
  5
25D
100
AcDbEntity
  8
0
100
AcDbPolyline
 62
7
  6
CONTINUOUS
 90
2
 70
0
 43
0.2
 10
344.6248091507
 20
25.403406959
 10
344.8412397182
 20
25.403406959
  0
LWPOLYLINE
  5
25E
100
AcDbEntity
  8
0
100
AcDbPolyline
 62
7
  6
CONTINUOUS
 90
2
 70
0
 43
0.2
 10
344.8412397182
 20
25.403406959
 10
344.8412397182
 20
25.6101544177
  0
LWPOLYLINE
  5
25F
100
AcDbEntity
  8
0
100
AcDbPolyline
 62
7
  6
CONTINUOUS
 90
2
 70
0
 43
0.2
 10
344.8412397182
 20
25.6101544177
 10
344.6248091507
 20
25.6101544177
  0
LWPOLYLINE
  5
260
100
AcDbEntity
  8
0
100
AcDbPolyline
 62
7
  6
CONTINUOUS
 90
2
 70
0
 43
0.2
 10
344.6248091507
 20
25.6101544177
 10
344.6248091507
 20
26.0508667221
  0
LWPOLYLINE
  5
261
100
AcDbEntity
  8
0
100
AcDbPolyline
 62
7
  6
CONTINUOUS
 90
2
 70
0
 43
0.2
 10
344.6248091507
 20
26.0508667221
 10
344.4031444703
 20
26.0508667221
  0
LWPOLYLINE
  5
262
100
AcDbEntity
  8
0
100
AcDbPolyline
 62
7
  6
CONTINUOUS
 90
2
 70
0
 43
0.2
 10
344.4031444703
 20
26.0508667221
 10
344.4031444703
 20
25.6101544177
  0
LWPOLYLINE
  5
263
100
AcDbEntity
  8
0
100
AcDbPolyline
 62
7
  6
CONTINUOUS
 90
2
 70
0
 43
0.2
 10
344.4031444703
 20
25.6101544177
 10
344.2824981684
 20
25.6101544177
  0
LWPOLYLINE
  5
264
100
AcDbEntity
  8
0
100
AcDbPolyline
 62
7
  6
CONTINUOUS
 90
2
 70
0
 43
0.2
 10
344.2824981684
 20
25.6101544177
 10
344.2824981684
 20
25.403406959
  0
LWPOLYLINE
  5
265
100
AcDbEntity
  8
0
100
AcDbPolyline
 62
7
  6
CONTINUOUS
 90
2
 70
0
 43
0.2
 10
344.2824981684
 20
25.403406959
 10
344.4031444703
 20
25.403406959
  0
LWPOLYLINE
  5
266
100
AcDbEntity
  8
0
100
AcDbPolyline
 62
7
  6
CONTINUOUS
 90
2
 70
0
 43
0.2
 10
344.4031444703
 20
25.403406959
 10
344.4031444703
 20
24.4576027618
  0
LWPOLYLINE
  5
267
100
AcDbEntity
  8
0
100
AcDbPolyline
 62
7
  6
CONTINUOUS
 90
2
 70
0
 43
0.2
 10
344.4031444703
 20
24.4576027618
 10
344.6248091507
 20
24.4576027618
  0
LWPOLYLINE
  5
268
100
AcDbEntity
  8
0
100
AcDbPolyline
 62
7
  6
CONTINUOUS
 90
2
 70
0
 43
0.2
 10
344.6248091507
 20
24.4576027618
 10
344.6248091507
 20
25.403406959
  0
SPLINE
  5
269
100
AcDbEntity
  8
0
100
AcDbSpline
 62
7
  6
CONTINUOUS
 70
2
 71
3
 72
20
 73
16
 74
0
 42
0.0000001
 43
0.0000001
 44
0.0000000001
 40
0.0
 40
0.0
 40
0.0
 40
0.0
 40
1.0
 40
1.0
 40
1.0
 40
2.0
 40
2.0
 40
2.0
 40
3.0
 40
3.0
 40
3.0
 40
4.0
 40
4.0
 40
4.0
 40
5.0
 40
5.0
 40
5.0
 40
5.0
 10
332.4068194579
 20
34.8185292052
 30
0.0
 10
332.4068194579
 20
34.8185292052
 30
0.0
 10
334.7231761124
 20
31.988967783
 30
0.0
 10
334.7231761124
 20
31.988967783
 30
0.0
 10
334.071529059
 20
31.3367973183
 30
0.0
 10
333.294655855
 20
30.6008810475
 30
0.0
 10
332.3234662104
 20
30.6008810475
 30
0.0
 10
331.3249283259
 20
30.6008810475
 30
0.0
 10
330.3816103324
 20
31.5304594948
 30
0.0
 10
330.3816103324
 20
32.5296516433
 30
0.0
 10
330.3816103324
 20
33.5288437919
 30
0.0
 10
331.5604634055
 20
34.2354490305
 30
0.0
 10
332.2819858658
 20
34.7353068104
 30
0.0
 10
332.2819858658
 20
34.7353068104
 30
0.0
 10
332.4068194579
 20
34.8185292052
 30
0.0
 10
332.4068194579
 20
34.8185292052
 30
0.0
  0
SPLINE
  5
26A
100
AcDbEntity
  8
0
100
AcDbSpline
 62
7
  6
CONTINUOUS
 70
2
 71
3
 72
23
 73
19
 74
0
 42
0.0000001
 43
0.0000001
 44
0.0000000001
 40
0.0
 40
0.0
 40
0.0
 40
0.0
 40
1.0
 40
1.0
 40
1.0
 40
2.0
 40
2.0
 40
2.0
 40
3.0
 40
3.0
 40
3.0
 40
4.0
 40
4.0
 40
4.0
 40
5.0
 40
5.0
 40
5.0
 40
6.0
 40
6.0
 40
6.0
 40
6.0
 10
332.6842274405
 20
36.4562831249
 30
0.0
 10
332.6842274405
 20
36.4562831249
 30
0.0
 10
332.3377291679
 20
36.8996124858
 30
0.0
 10
332.3377291679
 20
36.8996124858
 30
0.0
 10
332.031926123
 20
37.2877219557
 30
0.0
 10
331.7130377959
 20
37.6762239841
 30
0.0
 10
331.7130377959
 20
38.2031682982
 30
0.0
 10
331.7130377959
 20
38.8693400148
 30
0.0
 10
332.2543759204
 20
39.3130619341
 30
0.0
 10
332.8782821755
 20
39.3130619341
 30
0.0
 10
333.5720638376
 20
39.3130619341
 30
0.0
 10
334.0992698573
 20
38.9108203594
 30
0.0
 10
334.0992698573
 20
38.1758200584
 30
0.0
 10
334.0992698573
 20
37.4125555479
 30
0.0
 10
333.3780091026
 20
36.9824423221
 30
0.0
 10
332.8509339357
 20
36.5667229067
 30
0.0
 10
332.8509339357
 20
36.5667229067
 30
0.0
 10
332.6842274405
 20
36.4562831249
 30
0.0
 10
332.6842274405
 20
36.4562831249
 30
0.0
  0
SPLINE
  5
26B
100
AcDbEntity
  8
0
100
AcDbSpline
 62
7
  6
CONTINUOUS
 70
2
 71
3
 72
50
 73
46
 74
0
 42
0.0000001
 43
0.0000001
 44
0.0000000001
 40
0.0
 40
0.0
 40
0.0
 40
0.0
 40
1.0
 40
1.0
 40
1.0
 40
2.0
 40
2.0
 40
2.0
 40
3.0
 40
3.0
 40
3.0
 40
4.0
 40
4.0
 40
4.0
 40
5.0
 40
5.0
 40
5.0
 40
6.0
 40
6.0
 40
6.0
 40
7.0
 40
7.0
 40
7.0
 40
8.0
 40
8.0
 40
8.0
 40
9.0
 40
9.0
 40
9.0
 40
10.0
 40
10.0
 40
10.0
 40
11.0
 40
11.0
 40
11.0
 40
12.0
 40
12.0
 40
12.0
 40
13.0
 40
13.0
 40
13.0
 40
14.0
 40
14.0
 40
14.0
 40
15.0
 40
15.0
 40
15.0
 40
15.0
 10
336.6378146034
 20
29.6576939068
 30
0.0
 10
336.6378146034
 20
29.6576939068
 30
0.0
 10
338.247042608
 20
29.6576939068
 30
0.0
 10
338.247042608
 20
29.6576939068
 30
0.0
 10
338.247042608
 20
29.6576939068
 30
0.0
 10
336.3740153144
 20
31.9748356782
 30
0.0
 10
336.3740153144
 20
31.9748356782
 30
0.0
 10
336.3740153144
 20
31.9748356782
 30
0.0
 10
337.6503537398
 20
33.4723153728
 30
0.0
 10
337.6503537398
 20
33.4723153728
 30
0.0
 10
337.6503537398
 20
33.4723153728
 30
0.0
 10
336.8181297921
 20
34.3333269413
 30
0.0
 10
336.8181297921
 20
34.3333269413
 30
0.0
 10
336.8181297921
 20
34.3333269413
 30
0.0
 10
335.5975346688
 20
32.9180228189
 30
0.0
 10
335.5975346688
 20
32.9180228189
 30
0.0
 10
335.5975346688
 20
32.9180228189
 30
0.0
 10
333.4196203
 20
35.5533986534
 30
0.0
 10
333.4196203
 20
35.5533986534
 30
0.0
 10
334.2931937394
 20
36.1914370133
 30
0.0
 10
335.3198649806
 20
36.9824423221
 30
0.0
 10
335.3198649806
 20
38.1612953952
 30
0.0
 10
335.3198649806
 20
39.5349883202
 30
0.0
 10
334.1819688408
 20
40.3394714696
 30
0.0
 10
332.9066772379
 20
40.3394714696
 30
0.0
 10
331.5332460185
 20
40.3394714696
 30
0.0
 10
330.4923118197
 20
39.49324627
 30
0.0
 10
330.4923118197
 20
38.0505939078
 30
0.0
 10
330.4923118197
 20
37.1630192164
 30
0.0
 10
331.0476511962
 20
36.3861460124
 30
0.0
 10
331.6438166531
 20
35.7617163459
 30
0.0
 10
331.6438166531
 20
35.7617163459
 30
0.0
 10
330.991907894
 20
35.2901227756
 30
0.0
 10
330.991907894
 20
35.2901227756
 30
0.0
 10
329.9933700096
 20
34.5688620209
 30
0.0
 10
329.1604917978
 20
33.8476012662
 30
0.0
 10
329.1604917978
 20
32.5160429498
 30
0.0
 10
329.1604917978
 20
30.7123676518
 30
0.0
 10
330.6175379704
 20
29.4357675207
 30
0.0
 10
332.3650774077
 20
29.4357675207
 30
0.0
 10
333.5999354886
 20
29.4357675207
 30
0.0
 10
334.7093057133
 20
30.1439429932
 30
0.0
 10
335.5001801693
 20
31.0724746179
 30
0.0
 10
335.5001801693
 20
31.0724746179
 30
0.0
 10
336.6378146034
 20
29.6576939068
 30
0.0
 10
336.6378146034
 20
29.6576939068
 30
0.0
  0
LINE
  5
26C
100
AcDbEntity
  8
0
100
AcDbLine
 62
7
  6
CONTINUOUS
 10
322.4406759784
 20
27.6315688114
 11
344.8545867061
 21
27.6315688114
  0
LINE
  5
26D
100
AcDbEntity
  8
0
100
AcDbLine
 62
7
  6
CONTINUOUS
 10
344.8545867061
 20
27.6315688114
 11
344.8545867061
 21
50.0454795391
  0
LINE
  5
26E
100
AcDbEntity
  8
0
100
AcDbLine
 62
7
  6
CONTINUOUS
 10
344.8545867061
 20
50.0454795391
 11
322.4406759784
 21
50.0454795391
  0
LINE
  5
26F
100
AcDbEntity
  8
0
100
AcDbLine
 62
7
  6
CONTINUOUS
 10
322.4406759784
 20
50.0454795391
 11
322.4406759784
 21
27.6315688114
  0
ENDBLK
  5
270
100
AcDbEntity
  8
0
  6
BYBLOCK
 62
0
100
AcDbBlockEnd
  0
BLOCK
  5
271
100
AcDbEntity
  8
0
100
AcDbBlockBegin
  2
_CLOSED
 70
64
 10
0.0
 20
0.0
  3
_CLOSED
  1

  0
LINE
  5
272
100
AcDbEntity
  8
0
  6
BYBLOCK
 62
0
100
AcDbLine
 10
0.0
 20
0.0
 11
-1.0
 21
0.2
  0
LINE
  5
273
100
AcDbEntity
  8
0
  6
BYBLOCK
 62
0
100
AcDbLine
 10
-1.0
 20
0.2
 11
-1.0
 21
-0.2
  0
LINE
  5
274
100
AcDbEntity
  8
0
  6
BYBLOCK
 62
0
100
AcDbLine
 10
-1.0
 20
-0.2
 11
0.0
 21
0.0
  0
LINE
  5
275
100
AcDbEntity
  8
0
  6
BYBLOCK
 62
0
100
AcDbLine
 10
-1.0
 20
0.0
 11
0.0
 21
0.0
  0
ENDBLK
  5
276
100
AcDbEntity
  8
0
  6
BYBLOCK
 62
0
100
AcDbBlockEnd
  0
BLOCK
  5
277
100
AcDbEntity
  8
0
100
AcDbBlockBegin
 62
2
  6
CONTINUOUS
  2
*D0
 70
65
 10
0.0
 20
0.0
  3
*D0
  1

  0
MTEXT
  5
278
100
AcDbEntity
  8
0
100
AcDbMText
 62
2
  6
CONTINUOUS
  7
STANDARD
 71
2
 72
1
 10
120.8938056174
 20
142.8247019945
 30
0.0
 11
1.0
 21
0.0
 31
0.0
  1
95
 40
3.0
 41
4.6617100372
  0
LINE
  5
279
100
AcDbEntity
  8
0
100
AcDbLine
 62
2
  6
CONTINUOUS
 10
73.3938056174
 20
127.6619210233
 11
73.3938056174
 21
139.8247019945
  0
LINE
  5
27A
100
AcDbEntity
  8
0
100
AcDbLine
 62
2
  6
CONTINUOUS
 10
168.3938056174
 20
126.9451487127
 11
168.3938056174
 21
139.8247019945
  0
LINE
  5
27B
100
AcDbEntity
  8
0
100
AcDbLine
 62
2
  6
CONTINUOUS
 10
73.3938056174
 20
139.0747019945
 11
120.8938056174
 21
139.0747019945
  0
LINE
  5
27C
100
AcDbEntity
  8
0
100
AcDbLine
 62
2
  6
CONTINUOUS
 10
168.3938056174
 20
139.0747019945
 11
120.8938056174
 21
139.0747019945
  0
INSERT
  5
27D
100
AcDbEntity
  8
0
100
AcDbBlockReference
 62
2
  6
CONTINUOUS
  2
_CLOSED
 10
73.3938056174
 20
139.0747019945
 41
2.5
 42
2.5
 43
2.5
 50
180.0
  0
INSERT
  5
27E
100
AcDbEntity
  8
0
100
AcDbBlockReference
 62
2
  6
CONTINUOUS
  2
_CLOSED
 10
168.3938056174
 20
139.0747019945
 41
2.5
 42
2.5
 43
2.5
  0
ENDBLK
  5
27F
100
AcDbEntity
  8
0
  6
BYBLOCK
 62
0
100
AcDbBlockEnd
  0
BLOCK
  5
280
100
AcDbEntity
  8
0
100
AcDbBlockBegin
 62
2
  6
CONTINUOUS
  2
*D1
 70
65
 10
0.0
 20
0.0
  3
*D1
  1

  0
MTEXT
  5
281
100
AcDbEntity
  8
0
100
AcDbMText
 62
2
  6
CONTINUOUS
  7
STANDARD
 71
2
 72
1
 10
52.1807460695
 20
76.5212736374
 30
0.0
 11
0.0
 21
1.0
 31
0.0
  1
95
 40
3.0
 41
4.6617100372
  0
LINE
  5
282
100
AcDbEntity
  8
0
100
AcDbLine
 62
2
  6
CONTINUOUS
 10
69.611881257
 20
124.0212736374
 11
55.1807460695
 21
124.0212736374
  0
LINE
  5
283
100
AcDbEntity
  8
0
100
AcDbLine
 62
2
  6
CONTINUOUS
 10
69.107320634
 20
29.0212736374
 11
55.1807460695
 21
29.0212736374
  0
LINE
  5
284
100
AcDbEntity
  8
0
100
AcDbLine
 62
2
  6
CONTINUOUS
 10
55.9307460695
 20
124.0212736374
 11
55.9307460695
 21
76.5212736374
  0
LINE
  5
285
100
AcDbEntity
  8
0
100
AcDbLine
 62
2
  6
CONTINUOUS
 10
55.9307460695
 20
29.0212736374
 11
55.9307460695
 21
76.5212736374
  0
INSERT
  5
286
100
AcDbEntity
  8
0
100
AcDbBlockReference
 62
2
  6
CONTINUOUS
  2
_CLOSED
 10
55.9307460695
 20
124.0212736374
 41
2.5
 42
2.5
 43
2.5
 50
90.0
  0
INSERT
  5
287
100
AcDbEntity
  8
0
100
AcDbBlockReference
 62
2
  6
CONTINUOUS
  2
_CLOSED
 10
55.9307460695
 20
29.0212736374
 41
2.5
 42
2.5
 43
2.5
 50
270.0
  0
ENDBLK
  5
288
100
AcDbEntity
  8
0
  6
BYBLOCK
 62
0
100
AcDbBlockEnd
  0
BLOCK
  5
289
100
AcDbEntity
  8
0
100
AcDbBlockBegin
 62
2
  6
CONTINUOUS
  2
*D2
 70
65
 10
0.0
 20
0.0
  3
*D2
  1

  0
MTEXT
  5
28A
100
AcDbEntity
  8
0
100
AcDbMText
 62
2
  6
CONTINUOUS
  7
STANDARD
 71
2
 72
1
 10
51.8213664588
 20
219.5868760441
 30
0.0
 11
0.0
 21
1.0
 31
0.0
  1
70,1
 40
3.0
 41
8.1524163569
  0
LINE
  5
28B
100
AcDbEntity
  8
0
100
AcDbLine
 62
2
  6
CONTINUOUS
 10
69.6118812569
 20
254.6368760441
 11
54.8213664588
 21
254.6368760441
  0
LINE
  5
28C
100
AcDbEntity
  8
0
100
AcDbLine
 62
2
  6
CONTINUOUS
 10
70.1862972747
 20
184.5368760441
 11
54.8213664588
 21
184.5368760441
  0
LINE
  5
28D
100
AcDbEntity
  8
0
100
AcDbLine
 62
2
  6
CONTINUOUS
 10
55.5713664588
 20
254.6368760441
 11
55.5713664588
 21
219.5868760441
  0
LINE
  5
28E
100
AcDbEntity
  8
0
100
AcDbLine
 62
2
  6
CONTINUOUS
 10
55.5713664588
 20
184.5368760441
 11
55.5713664588
 21
219.5868760441
  0
INSERT
  5
28F
100
AcDbEntity
  8
0
100
AcDbBlockReference
 62
2
  6
CONTINUOUS
  2
_CLOSED
 10
55.5713664588
 20
254.6368760441
 41
2.5
 42
2.5
 43
2.5
 50
90.0
  0
INSERT
  5
290
100
AcDbEntity
  8
0
100
AcDbBlockReference
 62
2
  6
CONTINUOUS
  2
_CLOSED
 10
55.5713664588
 20
184.5368760441
 41
2.5
 42
2.5
 43
2.5
 50
270.0
  0
ENDBLK
  5
291
100
AcDbEntity
  8
0
  6
BYBLOCK
 62
0
100
AcDbBlockEnd
  0
BLOCK
  5
292
100
AcDbEntity
  8
0
100
AcDbBlockBegin
 62
2
  6
CONTINUOUS
  2
*D3
 70
65
 10
0.0
 20
0.0
  3
*D3
  1

  0
MTEXT
  5
293
100
AcDbEntity
  8
0
100
AcDbMText
 62
2
  6
CONTINUOUS
  7
STANDARD
 71
2
 72
1
 10
180.8331028326
 20
248.8368760441
 30
0.0
 11
0.0
 21
1.0
 31
0.0
  1
11,6
 40
3.0
 41
8.1524163569
  0
LINE
  5
294
100
AcDbEntity
  8
0
100
AcDbLine
 62
2
  6
CONTINUOUS
 10
171.7764855714
 20
254.6368760441
 11
185.3331028326
 21
254.6368760441
  0
LINE
  5
295
100
AcDbEntity
  8
0
100
AcDbLine
 62
2
  6
CONTINUOUS
 10
171.4693451057
 20
243.0368760441
 11
185.3331028326
 21
243.0368760441
  0
LINE
  5
296
100
AcDbEntity
  8
0
100
AcDbLine
 62
2
  6
CONTINUOUS
 10
184.5831028326
 20
254.6368760441
 11
184.5831028326
 21
255.6368760441
  0
LINE
  5
297
100
AcDbEntity
  8
0
100
AcDbLine
 62
2
  6
CONTINUOUS
 10
184.5831028326
 20
255.6368760441
 11
184.5831028326
 21
248.8368760441
  0
LINE
  5
298
100
AcDbEntity
  8
0
100
AcDbLine
 62
2
  6
CONTINUOUS
 10
184.5831028326
 20
243.0368760441
 11
184.5831028326
 21
242.0368760441
  0
LINE
  5
299
100
AcDbEntity
  8
0
100
AcDbLine
 62
2
  6
CONTINUOUS
 10
184.5831028326
 20
242.0368760441
 11
184.5831028326
 21
248.8368760441
  0
INSERT
  5
29A
100
AcDbEntity
  8
0
100
AcDbBlockReference
 62
2
  6
CONTINUOUS
  2
_CLOSED
 10
184.5831028326
 20
254.6368760441
 41
2.5
 42
2.5
 43
2.5
 50
270.0
  0
INSERT
  5
29B
100
AcDbEntity
  8
0
100
AcDbBlockReference
 62
2
  6
CONTINUOUS
  2
_CLOSED
 10
184.5831028326
 20
243.0368760441
 41
2.5
 42
2.5
 43
2.5
 50
90.0
  0
ENDBLK
  5
29C
100
AcDbEntity
  8
0
  6
BYBLOCK
 62
0
100
AcDbBlockEnd
  0
BLOCK
  5
29D
100
AcDbEntity
  8
0
100
AcDbBlockBegin
 62
2
  6
CONTINUOUS
  2
*D4
 70
65
 10
0.0
 20
0.0
  3
*D4
  1

  0
MTEXT
  5
29E
100
AcDbEntity
  8
0
100
AcDbMText
 62
2
  6
CONTINUOUS
  7
STANDARD
 71
2
 72
1
 10
180.8331028326
 20
213.7868760441
 30
0.0
 11
0.0
 21
1.0
 31
0.0
  1
58,5
 40
3.0
 41
8.1524163569
  0
LINE
  5
29F
100
AcDbEntity
  8
0
100
AcDbLine
 62
2
  6
CONTINUOUS
 10
171.7764855714
 20
184.5368760441
 11
185.3331028326
 21
184.5368760441
  0
LINE
  5
2A0
100
AcDbEntity
  8
0
100
AcDbLine
 62
2
  6
CONTINUOUS
 10
171.7764855714
 20
243.0368760441
 11
185.3331028326
 21
243.0368760441
  0
LINE
  5
2A1
100
AcDbEntity
  8
0
100
AcDbLine
 62
2
  6
CONTINUOUS
 10
184.5831028326
 20
184.5368760441
 11
184.5831028326
 21
213.7868760441
  0
LINE
  5
2A2
100
AcDbEntity
  8
0
100
AcDbLine
 62
2
  6
CONTINUOUS
 10
184.5831028326
 20
243.0368760441
 11
184.5831028326
 21
213.7868760441
  0
INSERT
  5
2A3
100
AcDbEntity
  8
0
100
AcDbBlockReference
 62
2
  6
CONTINUOUS
  2
_CLOSED
 10
184.5831028326
 20
184.5368760441
 41
2.5
 42
2.5
 43
2.5
 50
270.0
  0
INSERT
  5
2A4
100
AcDbEntity
  8
0
100
AcDbBlockReference
 62
2
  6
CONTINUOUS
  2
_CLOSED
 10
184.5831028326
 20
243.0368760441
 41
2.5
 42
2.5
 43
2.5
 50
90.0
  0
ENDBLK
  5
2A5
100
AcDbEntity
  8
0
  6
BYBLOCK
 62
0
100
AcDbBlockEnd
  0
BLOCK
  5
2A6
100
AcDbEntity
  8
0
100
AcDbBlockBegin
 62
2
  6
CONTINUOUS
  2
*D5
 70
65
 10
0.0
 20
0.0
  3
*D5
  1

  0
MTEXT
  5
2A7
100
AcDbEntity
  8
0
100
AcDbMText
 62
2
  6
CONTINUOUS
  7
TEXTSTYLE_2
 71
2
 72
1
 10
120.8938056174
 20
172.1561856976
 30
0.0
 11
1.0
 21
0.0
 31
0.0
  1
{\Fgdt;n}\Farial.ttf;56
 40
3.0
 41
8.6617100372
  0
LINE
  5
2A8
100
AcDbEntity
  8
0
100
AcDbLine
 62
2
  6
CONTINUOUS
 10
92.8938056174
 20
180.7503910608
 11
92.8938056174
 21
167.6561856976
  0
LINE
  5
2A9
100
AcDbEntity
  8
0
100
AcDbLine
 62
2
  6
CONTINUOUS
 10
148.8938056174
 20
181.3558638083
 11
148.8938056174
 21
167.6561856976
  0
LINE
  5
2AA
100
AcDbEntity
  8
0
100
AcDbLine
 62
2
  6
CONTINUOUS
 10
92.8938056174
 20
168.4061856976
 11
120.8938056174
 21
168.4061856976
  0
LINE
  5
2AB
100
AcDbEntity
  8
0
100
AcDbLine
 62
2
  6
CONTINUOUS
 10
148.8938056174
 20
168.4061856976
 11
120.8938056174
 21
168.4061856976
  0
INSERT
  5
2AC
100
AcDbEntity
  8
0
100
AcDbBlockReference
 62
2
  6
CONTINUOUS
  2
_CLOSED
 10
92.8938056174
 20
168.4061856976
 41
2.5
 42
2.5
 43
2.5
 50
180.0
  0
INSERT
  5
2AD
100
AcDbEntity
  8
0
100
AcDbBlockReference
 62
2
  6
CONTINUOUS
  2
_CLOSED
 10
148.8938056174
 20
168.4061856976
 41
2.5
 42
2.5
 43
2.5
  0
ENDBLK
  5
2AE
100
AcDbEntity
  8
0
  6
BYBLOCK
 62
0
100
AcDbBlockEnd
  0
ENDSEC
  0
SECTION
  2
ENTITIES
  0
DIMENSION
  5
2AF
100
AcDbEntity
  8
0
100
AcDbDimension
 62
2
  6
CONTINUOUS
  2
*D0
 10
168.3938056174
 20
139.0747019945
 11
120.8969128418
 21
139.0747019945
 70
160
  3
DIMSTYLE_1
100
AcDbAlignedDimension
 13
73.3938056174
 23
126.9119210233
 14
168.3938056174
 24
126.1951487127
100
AcDbRotatedDimension
  0
DIMENSION
  5
2B0
100
AcDbEntity
  8
0
100
AcDbDimension
 62
2
  6
CONTINUOUS
  2
*D1
 10
55.9307460695
 20
29.0212736374
 11
55.9307460695
 21
76.5243806486
 70
160
  3
DIMSTYLE_1
100
AcDbAlignedDimension
 13
70.361881257
 23
124.0212736374
 14
69.857320634
 24
29.0212736374
 50
270.0
100
AcDbRotatedDimension
  0
DIMENSION
  5
2B1
100
AcDbEntity
  8
0
100
AcDbDimension
 62
2
  6
CONTINUOUS
  2
*D2
 10
55.5713664588
 20
184.5368760441
 11
55.5713664588
 21
219.298591568
 70
160
  3
DIMSTYLE_1
100
AcDbAlignedDimension
 13
70.3618812569
 23
254.6368760441
 14
70.9362972747
 24
184.5368760441
 50
270.0
100
AcDbRotatedDimension
  0
DIMENSION
  5
2B2
100
AcDbEntity
  8
0
100
AcDbDimension
 62
2
  6
CONTINUOUS
  2
*D3
 10
184.5831028326
 20
243.0368760441
 11
184.5831028326
 21
248.9668124696
 70
160
  3
DIMSTYLE_2
100
AcDbAlignedDimension
 13
171.0264855714
 23
254.6368760441
 14
170.7193451057
 24
243.0368760441
 50
270.0
100
AcDbRotatedDimension
  0
DIMENSION
  5
2B3
100
AcDbEntity
  8
0
100
AcDbDimension
 62
2
  6
CONTINUOUS
  2
*D4
 10
184.5831028326
 20
243.0368760441
 11
184.5831028326
 21
213.7885553285
 70
160
  3
DIMSTYLE_1
100
AcDbAlignedDimension
 13
171.0264855714
 23
184.5368760441
 14
171.0264855714
 24
243.0368760441
 50
90.0
100
AcDbRotatedDimension
  0
DIMENSION
  5
2B4
100
AcDbEntity
  8
0
100
AcDbDimension
 62
2
  6
CONTINUOUS
  2
*D5
 10
148.8938056174
 20
168.4061856976
 11
120.8938056174
 21
168.4061856976
 70
160
  1
%%c<>
  3
DIMSTYLE_1
100
AcDbAlignedDimension
 13
92.8938056174
 23
181.5003910608
 14
148.8938056174
 24
182.1058638083
100
AcDbRotatedDimension
  0
LINE
  5
2B5
100
AcDbEntity
  8
0
100
AcDbLine
 62
2
  6
CONTINUOUS
 10
319.8215188711
 20
50.4217920391
 11
409.8215188711
 21
50.4217920391
  0
LINE
  5
2B6
100
AcDbEntity
  8
0
100
AcDbLine
 62
2
  6
CONTINUOUS
 10
319.8215188711
 20
50.4217920391
 11
319.8215188711
 21
10.4217920391
  0
LINE
  5
2B7
100
AcDbEntity
  8
0
100
AcDbLine
 62
2
  6
CONTINUOUS
 10
349.8215188711
 20
44.4217920391
 11
409.8215188711
 21
44.4217920391
  0
LINE
  5
2B8
100
AcDbEntity
  8
0
100
AcDbLine
 62
2
  6
CONTINUOUS
 10
349.8215188711
 20
38.4217920391
 11
409.8215188711
 21
38.4217920391
  0
LINE
  5
2B9
100
AcDbEntity
  8
0
100
AcDbLine
 62
2
  6
CONTINUOUS
 10
349.8215188711
 20
28.4217920391
 11
409.8215188711
 21
28.4217920391
  0
LINE
  5
2BA
100
AcDbEntity
  8
0
100
AcDbLine
 62
2
  6
CONTINUOUS
 10
319.8215188711
 20
23.4217920391
 11
409.8215188711
 21
23.4217920391
  0
LINE
  5
2BB
100
AcDbEntity
  8
0
100
AcDbLine
 62
2
  6
CONTINUOUS
 10
319.8215188711
 20
10.4217920391
 11
409.8215188711
 21
10.4217920391
  0
LINE
  5
2BC
100
AcDbEntity
  8
0
100
AcDbLine
 62
2
  6
CONTINUOUS
 10
349.8215188711
 20
50.4217920391
 11
349.8215188711
 21
23.4217920391
  0
LINE
  5
2BD
100
AcDbEntity
  8
0
100
AcDbLine
 62
2
  6
CONTINUOUS
 10
389.8215188711
 20
50.4217920391
 11
389.8215188711
 21
38.4217920391
  0
LINE
  5
2BE
100
AcDbEntity
  8
0
100
AcDbLine
 62
2
  6
CONTINUOUS
 10
409.8215188711
 20
50.4217920391
 11
409.8215188711
 21
10.4217920391
  0
INSERT
  5
2BF
100
AcDbEntity
  8
0
100
AcDbBlockReference
 62
2
  6
CONTINUOUS
  2
LOGO2_BL0
 10
333.6475659158
 20
36.9217920391
  0
MTEXT
  5
2C0
100
AcDbEntity
  8
9_SOLID
100
AcDbMText
 62
2
  6
CONTINUOUS
  7
TEXTSTYLE_3
 71
1
 72
1
 10
351.3090188711
 20
48.9217920391
 30
0.0
 11
1.0
 21
0.0
 31
0.0
  1
2F7_C_001
 40
3.0
 41
31.6071428571
  0
MTEXT
  5
2C1
100
AcDbEntity
  8
0
100
AcDbMText
 62
2
  6
CONTINUOUS
  7
TEXTSTYLE_3
 71
1
 72
1
 10
391.3090188711
 20
49.1717920391
 30
0.0
 11
1.0
 21
0.0
 31
0.0
  1
Rev:00
 40
3.5
 41
22.75
  0
MTEXT
  5
2C2
100
AcDbEntity
  8
9_SOLID
100
AcDbMText
 62
2
  6
CONTINUOUS
  7
TEXTSTYLE_3
 71
1
 72
1
 10
351.3090188711
 20
42.6717920391
 30
0.0
 11
1.0
 21
0.0
 31
0.0
  1
Scale:1:1
 40
3.5
 41
28.375
  0
MTEXT
  5
2C3
100
AcDbEntity
  8
9_SOLID
100
AcDbMText
 62
2
  6
CONTINUOUS
  7
TEXTSTYLE_3
 71
1
 72
1
 10
391.3090188711
 20
43.1717920391
 30
0.0
 11
1.0
 21
0.0
 31
0.0
  1
A3
 40
3.5
 41
9.25
  0
MTEXT
  5
2C4
100
AcDbEntity
  8
0
100
AcDbMText
 62
2
  6
CONTINUOUS
  7
TEXTSTYLE_3
 71
1
 72
1
 10
351.3090188711
 20
35.1717920391
 30
0.0
 11
1.0
 21
0.0
 31
0.0
  1
LITUS 5.5
 40
3.5
 41
35.125
  0
MTEXT
  5
2C5
100
AcDbEntity
  8
0
100
AcDbMText
 62
2
  6
CONTINUOUS
  7
TEXTSTYLE_3
 71
1
 72
1
 10
351.3090188711
 20
27.1717920391
 30
0.0
 11
1.0
 21
0.0
 31
0.0
  1
DATE:06/07/2018
 40
2.5
 41
43.0357142857
  0
MTEXT
  5
2C6
100
AcDbEntity
  8
9_SOLID
100
AcDbMText
 62
2
  6
CONTINUOUS
  7
TEXTSTYLE_3
 71
1
 72
1
 10
321.3090188711
 20
23.1092920391
 30
0.0
 11
1.0
 21
0.0
 31
0.0
  1
Any integral or partial reproductions are prohibited \Pwithout prior authorisation of L {\Ftxt.shx;\W0.190476;\H2.250000; }& L Luce & Light s.r.l., \Pin accordance with the law in force. \PAll rights reserved.
 40
2.25
 41
134.5982142857
  0
LINE
  5
2C7
100
AcDbEntity
  8
0
100
AcDbLine
 62
7
  6
CONTINUOUS
 10
0.0
 20
0.0
 11
0.0
 21
297.0
  0
LINE
  5
2C8
100
AcDbEntity
  8
0
100
AcDbLine
 62
7
  6
CONTINUOUS
 10
0.0
 20
0.0
 11
420.0
 21
0.0
  0
LINE
  5
2C9
100
AcDbEntity
  8
0
100
AcDbLine
 62
7
  6
CONTINUOUS
 10
0.0
 20
297.0
 11
420.0
 21
297.0
  0
LINE
  5
2CA
100
AcDbEntity
  8
0
100
AcDbLine
 62
7
  6
CONTINUOUS
 10
420.0
 20
0.0
 11
420.0
 21
297.0
  0
LINE
  5
2CB
100
AcDbEntity
  8
7_ALL_FEATURES
100
AcDbLine
 62
7
  6
CONTINUOUS
 10
73.3938056174
 20
123.5212736374
 11
73.8938056174
 21
124.0212736374
  0
LINE
  5
2CC
100
AcDbEntity
  8
7_ALL_FEATURES
100
AcDbLine
 62
7
  6
CONTINUOUS
 10
73.3938056174
 20
29.5212736374
 11
73.8938056174
 21
29.0212736374
  0
LINE
  5
2CD
100
AcDbEntity
  8
7_ALL_FEATURES
100
AcDbLine
 62
7
  6
CONTINUOUS
 10
73.3938056174
 20
123.7732577227
 11
73.3938056174
 21
29.269289552
  0
LINE
  5
2CE
100
AcDbEntity
  8
7_ALL_FEATURES
100
AcDbLine
 62
7
  6
CONTINUOUS
 10
73.8938056174
 20
123.5212736374
 11
73.8938056174
 21
29.5212736374
  0
LINE
  5
2CF
100
AcDbEntity
  8
7_ALL_FEATURES
100
AcDbLine
 62
7
  6
CONTINUOUS
 10
73.641821532
 20
29.0212736374
 11
168.1457897027
 21
29.0212736374
  0
LINE
  5
2D0
100
AcDbEntity
  8
7_ALL_FEATURES
100
AcDbLine
 62
7
  6
CONTINUOUS
 10
73.8938056174
 20
29.5212736374
 11
167.8938056174
 21
29.5212736374
  0
LINE
  5
2D1
100
AcDbEntity
  8
7_ALL_FEATURES
100
AcDbLine
 62
7
  6
CONTINUOUS
 10
168.2699599569
 20
123.8974279769
 11
167.8938056174
 21
123.5212736374
  0
LINE
  5
2D2
100
AcDbEntity
  8
7_ALL_FEATURES
100
AcDbLine
 62
7
  6
CONTINUOUS
 10
73.5176512779
 20
29.1451192979
 11
73.8938056174
 21
29.5212736374
  0
LINE
  5
2D3
100
AcDbEntity
  8
7_ALL_FEATURES
100
AcDbLine
 62
7
  6
CONTINUOUS
 10
73.5176512779
 20
123.8974279769
 11
73.8938056174
 21
123.5212736374
  0
LINE
  5
2D4
100
AcDbEntity
  8
7_ALL_FEATURES
100
AcDbLine
 62
7
  6
CONTINUOUS
 10
167.8938056174
 20
29.5212736374
 11
168.2699599569
 21
29.1451192979
  0
LINE
  5
2D5
100
AcDbEntity
  8
7_ALL_FEATURES
100
AcDbLine
 62
7
  6
CONTINUOUS
 10
167.8938056174
 20
29.5212736374
 11
167.8938056174
 21
123.5212736374
  0
LINE
  5
2D6
100
AcDbEntity
  8
7_ALL_FEATURES
100
AcDbLine
 62
7
  6
CONTINUOUS
 10
168.3938056174
 20
29.269289552
 11
168.3938056174
 21
123.7732577227
  0
LINE
  5
2D7
100
AcDbEntity
  8
7_ALL_FEATURES
100
AcDbLine
 62
7
  6
CONTINUOUS
 10
167.8938056174
 20
123.5212736374
 11
73.8938056174
 21
123.5212736374
  0
LINE
  5
2D8
100
AcDbEntity
  8
7_ALL_FEATURES
100
AcDbLine
 62
7
  6
CONTINUOUS
 10
168.1457897027
 20
124.0212736374
 11
73.641821532
 21
124.0212736374
  0
LINE
  5
2D9
100
AcDbEntity
  8
7_ALL_FEATURES
100
AcDbLine
 62
7
  6
CONTINUOUS
 10
168.3938056174
 20
29.5212736374
 11
167.8938056174
 21
29.0212736374
  0
LINE
  5
2DA
100
AcDbEntity
  8
7_ALL_FEATURES
100
AcDbLine
 62
7
  6
CONTINUOUS
 10
167.8938056174
 20
124.0212736374
 11
168.3938056174
 21
123.5212736374
  0
LINE
  5
2DB
100
AcDbEntity
  8
7_ALL_FEATURES
100
AcDbLine
 62
7
  6
CONTINUOUS
 10
73.3938056174
 20
254.1368760441
 11
73.8938056174
 21
254.6368760441
  0
LINE
  5
2DC
100
AcDbEntity
  8
7_ALL_FEATURES
100
AcDbLine
 62
7
  6
CONTINUOUS
 10
73.6438056174
 20
248.8868760441
 11
73.8938056174
 21
249.1368760441
  0
LINE
  5
2DD
100
AcDbEntity
  8
7_ALL_FEATURES
100
AcDbLine
 62
7
  6
CONTINUOUS
 10
73.3938056174
 20
247.0368760441
 11
73.8938056174
 21
247.5368760441
  0
LINE
  5
2DE
100
AcDbEntity
  8
7_ALL_FEATURES
100
AcDbLine
 62
7
  6
CONTINUOUS
 10
73.3938056174
 20
243.5368760441
 11
73.3938056174
 21
247.0368760441
  0
LINE
  5
2DF
100
AcDbEntity
  8
7_ALL_FEATURES
100
AcDbLine
 62
7
  6
CONTINUOUS
 10
73.3938056174
 20
249.1368760441
 11
73.3938056174
 21
254.1368760441
  0
LINE
  5
2E0
100
AcDbEntity
  8
7_ALL_FEATURES
100
AcDbLine
 62
7
  6
CONTINUOUS
 10
73.641821532
 20
243.5368760441
 11
73.641821532
 21
247.0368760441
  0
LINE
  5
2E1
100
AcDbEntity
  8
7_ALL_FEATURES
100
AcDbLine
 62
7
  6
CONTINUOUS
 10
73.8938056174
 20
249.1368760441
 11
73.8938056174
 21
254.1368760441
  0
LINE
  5
2E2
100
AcDbEntity
  8
7_ALL_FEATURES
100
AcDbLine
 62
7
  6
CONTINUOUS
 10
74.1438056174
 20
248.6368760441
 11
74.1438056174
 21
247.5368760441
  0
LINE
  5
2E3
100
AcDbEntity
  8
7_ALL_FEATURES
100
AcDbLine
 62
9
  6
CONTINUOUS
 10
76.1438056174
 20
248.6368760441
 11
76.1438056174
 21
247.5368760441
  0
LINE
  5
2E4
100
AcDbEntity
  8
7_ALL_FEATURES
100
AcDbLine
 62
7
  6
CONTINUOUS
 10
93.8938056174
 20
184.5368760441
 11
92.8938056174
 21
185.5368760441
  0
LINE
  5
2E5
100
AcDbEntity
  8
7_ALL_FEATURES
100
AcDbLine
 62
7
  6
CONTINUOUS
 10
84.3939838741
 20
194.5368760441
 11
83.3938056258
 21
195.5370073666
  0
LINE
  5
2E6
100
AcDbEntity
  8
7_ALL_FEATURES
100
AcDbLine
 62
7
  6
CONTINUOUS
 10
83.3938056174
 20
242.5368760441
 11
83.3938056174
 21
229.5368760441
  0
LINE
  5
2E7
100
AcDbEntity
  8
7_ALL_FEATURES
100
AcDbLine
 62
7
  6
CONTINUOUS
 10
83.3938056174
 20
227.0368760441
 11
83.3938056174
 21
224.5368760441
  0
LINE
  5
2E8
100
AcDbEntity
  8
7_ALL_FEATURES
100
AcDbLine
 62
7
  6
CONTINUOUS
 10
83.3938056174
 20
222.0368760441
 11
83.3938056174
 21
219.5368760441
  0
LINE
  5
2E9
100
AcDbEntity
  8
7_ALL_FEATURES
100
AcDbLine
 62
7
  6
CONTINUOUS
 10
83.3938056174
 20
217.0368760441
 11
83.3938056174
 21
214.5368760441
  0
LINE
  5
2EA
100
AcDbEntity
  8
7_ALL_FEATURES
100
AcDbLine
 62
7
  6
CONTINUOUS
 10
83.3938056174
 20
212.0368760441
 11
83.3938056174
 21
209.5368760441
  0
LINE
  5
2EB
100
AcDbEntity
  8
7_ALL_FEATURES
100
AcDbLine
 62
7
  6
CONTINUOUS
 10
83.3938056174
 20
207.0368760441
 11
83.3938056174
 21
204.5368760441
  0
LINE
  5
2EC
100
AcDbEntity
  8
7_ALL_FEATURES
100
AcDbLine
 62
7
  6
CONTINUOUS
 10
83.3938056174
 20
202.0368760441
 11
83.3938056174
 21
199.5368760441
  0
LINE
  5
2ED
100
AcDbEntity
  8
7_ALL_FEATURES
100
AcDbLine
 62
7
  6
CONTINUOUS
 10
83.3938056174
 20
197.0368760441
 11
83.3938056174
 21
195.5370073835
  0
LINE
  5
2EE
100
AcDbEntity
  8
7_ALL_FEATURES
100
AcDbLine
 62
7
  6
CONTINUOUS
 10
147.8932198271
 20
184.5368760441
 11
93.8943914076
 21
184.5368760441
  0
LINE
  5
2EF
100
AcDbEntity
  8
7_ALL_FEATURES
100
AcDbLine
 62
3
  6
CONTINUOUS
 10
90.3018517314
 20
197.0368760441
 11
89.3736150249
 21
199.5368760441
  0
LINE
  5
2F0
100
AcDbEntity
  8
7_ALL_FEATURES
100
AcDbLine
 62
3
  6
CONTINUOUS
 10
88.4453783183
 20
202.0368760441
 11
87.8916193915
 21
203.5283030769
  0
LINE
  5
2F1
100
AcDbEntity
  8
7_ALL_FEATURES
100
AcDbLine
 62
3
  6
CONTINUOUS
 10
87.9365527098
 20
203.5283030769
 11
91.1836611182
 21
194.6289525695
  0
LINE
  5
2F2
100
AcDbEntity
  8
7_ALL_FEATURES
100
AcDbLine
 62
7
  6
CONTINUOUS
 10
86.3938056174
 20
207.0368760441
 11
86.3938056174
 21
209.5368760441
  0
LINE
  5
2F3
100
AcDbEntity
  8
7_ALL_FEATURES
100
AcDbLine
 62
7
  6
CONTINUOUS
 10
86.3938056174
 20
212.0368760441
 11
86.3938056174
 21
214.5368760441
  0
LINE
  5
2F4
100
AcDbEntity
  8
7_ALL_FEATURES
100
AcDbLine
 62
7
  6
CONTINUOUS
 10
86.3938056174
 20
217.0368760441
 11
86.3938056174
 21
219.5368760441
  0
LINE
  5
2F5
100
AcDbEntity
  8
7_ALL_FEATURES
100
AcDbLine
 62
7
  6
CONTINUOUS
 10
86.3938056174
 20
222.0368760441
 11
86.3938056174
 21
224.5368760441
  0
LINE
  5
2F6
100
AcDbEntity
  8
7_ALL_FEATURES
100
AcDbLine
 62
7
  6
CONTINUOUS
 10
86.3938056174
 20
227.0368760441
 11
86.3938056174
 21
229.5368760441
  0
LINE
  5
2F7
100
AcDbEntity
  8
7_ALL_FEATURES
100
AcDbLine
 62
7
  6
CONTINUOUS
 10
88.2258511438
 20
212.0368760441
 11
88.2258511438
 21
209.5368760441
  0
LINE
  5
2F8
100
AcDbEntity
  8
7_ALL_FEATURES
100
AcDbLine
 62
7
  6
CONTINUOUS
 10
88.2258511438
 20
202.0368760441
 11
88.2258511438
 21
199.5368760441
  0
LINE
  5
2F9
100
AcDbEntity
  8
7_ALL_FEATURES
100
AcDbLine
 62
7
  6
CONTINUOUS
 10
88.2258511438
 20
197.0368760441
 11
88.2258511438
 21
195.5368760441
  0
LINE
  5
2FA
100
AcDbEntity
  8
7_ALL_FEATURES
100
AcDbLine
 62
7
  6
CONTINUOUS
 10
148.8938056174
 20
185.5368760441
 11
92.8938056174
 21
185.5368760441
  0
LINE
  5
2FB
100
AcDbEntity
  8
7_ALL_FEATURES
100
AcDbLine
 62
7
  6
CONTINUOUS
 10
92.8938056174
 20
187.2868760441
 11
148.8938056174
 21
187.2868760441
  0
LINE
  5
2FC
100
AcDbEntity
  8
03___PRT_ALL_CURVES
100
AcDbLine
 62
40
  6
CONTINUOUS
 10
99.0294160589
 20
194.6289525695
 11
87.9365527098
 21
203.5283030769
  0
LINE
  5
2FD
100
AcDbEntity
  8
7_ALL_FEATURES
100
AcDbLine
 62
4
  6
CONTINUOUS
 10
94.9984994607
 20
196.9155040714
 11
93.1345559112
 21
198.7412590583
  0
LINE
  5
2FE
100
AcDbEntity
  8
7_ALL_FEATURES
100
AcDbLine
 62
4
  6
CONTINUOUS
 10
90.3723013945
 20
201.7396603228
 11
92.3141646793
 21
196.4175953237
  0
LINE
  5
2FF
100
AcDbEntity
  8
7_ALL_FEATURES
100
AcDbLine
 62
7
  6
CONTINUOUS
 10
91.6704427434
 20
199.3873075932
 11
92.5129956464
 21
197.0781227241
  0
LINE
  5
300
100
AcDbEntity
  8
7_ALL_FEATURES
100
AcDbLine
 62
7
  6
CONTINUOUS
 10
94.52344454
 20
199.3873075932
 11
95.365997443
 21
197.0781227241
  0
LINE
  5
301
100
AcDbEntity
  8
02___PRT_ALL_AXES
100
AcDbLine
 62
7
  6
CONTINUOUS
 10
92.8938056174
 20
192.0368760441
 11
92.8938056174
 21
189.7868760441
  0
LINE
  5
302
100
AcDbEntity
  8
02___PRT_ALL_AXES
100
AcDbLine
 62
7
  6
CONTINUOUS
 10
92.8938056174
 20
187.2868760441
 11
92.8938056174
 21
185.5368760441
  0
LINE
  5
303
100
AcDbEntity
  8
7_ALL_FEATURES
100
AcDbLine
 62
7
  6
CONTINUOUS
 10
148.8938056174
 20
189.7868760441
 11
92.8938056174
 21
189.7868760441
  0
LINE
  5
304
100
AcDbEntity
  8
3_ALL_AXES
100
AcDbLine
 62
7
  6
CONTINUOUS
 10
96.3014079717
 20
191.8368760441
 11
100.231369267
 21
191.8368760441
  0
LINE
  5
305
100
AcDbEntity
  8
3_ALL_AXES
100
AcDbLine
 62
7
  6
CONTINUOUS
 10
141.5562419677
 20
191.8368760441
 11
145.486203263
 21
191.8368760441
  0
LINE
  5
306
100
AcDbEntity
  8
7_ALL_FEATURES
100
AcDbLine
 62
7
  6
CONTINUOUS
 10
92.8938056174
 20
192.0368760441
 11
95.9559175273
 21
192.0368760441
  0
LINE
  5
307
100
AcDbEntity
  8
7_ALL_FEATURES
100
AcDbLine
 62
7
  6
CONTINUOUS
 10
100.5768597114
 20
192.0368760441
 11
141.2107515233
 21
192.0368760441
  0
LINE
  5
308
100
AcDbEntity
  8
7_ALL_FEATURES
100
AcDbLine
 62
7
  6
CONTINUOUS
 10
145.8316937074
 20
192.0368760441
 11
148.8938056174
 21
192.0368760441
  0
LINE
  5
309
100
AcDbEntity
  8
7_ALL_FEATURES
100
AcDbLine
 62
4
  6
CONTINUOUS
 10
96.5936673742
 20
196.4175953237
 11
94.6518040894
 21
201.7396603228
  0
LINE
  5
30A
100
AcDbEntity
  8
7_ALL_FEATURES
100
AcDbLine
 62
3
  6
CONTINUOUS
 10
99.0294160589
 20
194.6289525695
 11
95.7823076505
 21
203.5283030769
  0
LINE
  5
30B
100
AcDbEntity
  8
7_ALL_FEATURES
100
AcDbLine
 62
7
  6
CONTINUOUS
 10
99.3402731142
 20
194.8598268762
 11
96.0931647058
 21
203.7591773836
  0
LINE
  5
30C
100
AcDbEntity
  8
7_ALL_FEATURES
100
AcDbLine
 62
3
  6
CONTINUOUS
 10
95.9221218385
 20
208.7881523518
 11
95.617335111
 21
209.7784295802
  0
LINE
  5
30D
100
AcDbEntity
  8
3_ALL_AXES
100
AcDbLine
 62
7
  6
CONTINUOUS
 10
94.4663886194
 20
194.0368760441
 11
94.4663886194
 21
193.6568760441
  0
LINE
  5
30E
100
AcDbEntity
  8
7_ALL_FEATURES
100
AcDbLine
 62
7
  6
CONTINUOUS
 10
94.8938056174
 20
187.2868760441
 11
94.8938056174
 21
189.7868760441
  0
LINE
  5
30F
100
AcDbEntity
  8
7_ALL_FEATURES
100
AcDbLine
 62
7
  6
CONTINUOUS
 10
94.8938056174
 20
192.0368760441
 11
94.8938056174
 21
192.9981105472
  0
LINE
  5
310
100
AcDbEntity
  8
3_ALL_AXES
100
AcDbLine
 62
7
  6
CONTINUOUS
 10
94.4663886194
 20
193.6568760441
 11
102.0663886194
 21
193.6568760441
  0
LINE
  5
311
100
AcDbEntity
  8
3_ALL_AXES
100
AcDbLine
 62
7
  6
CONTINUOUS
 10
139.7212226153
 20
193.6568760441
 11
147.3212226153
 21
193.6568760441
  0
LINE
  5
312
100
AcDbEntity
  8
7_ALL_FEATURES
100
AcDbLine
 62
3
  6
CONTINUOUS
 10
104.8527212941
 20
194.0368760441
 11
99.7133015805
 21
194.0368760441
  0
LINE
  5
313
100
AcDbEntity
  8
3_ALL_AXES
100
AcDbLine
 62
7
  6
CONTINUOUS
 10
96.7750828062
 20
194.0368760441
 11
94.8014426113
 21
194.0368760441
  0
LINE
  5
314
100
AcDbEntity
  8
7_ALL_FEATURES
100
AcDbLine
 62
3
  6
CONTINUOUS
 10
91.8675466398
 20
194.0368760441
 11
94.8014426113
 21
194.0368760441
  0
LINE
  5
315
100
AcDbEntity
  8
7_ALL_FEATURES
100
AcDbLine
 62
3
  6
CONTINUOUS
 10
96.7750828062
 20
194.0368760441
 11
99.7032526112
 21
194.0368760441
  0
LINE
  5
316
100
AcDbEntity
  8
7_ALL_FEATURES
100
AcDbLine
 62
3
  6
CONTINUOUS
 10
136.9558699549
 20
194.0368760441
 11
145.0743701958
 21
194.0368760441
  0
LINE
  5
317
100
AcDbEntity
  8
3_ALL_AXES
100
AcDbLine
 62
7
  6
CONTINUOUS
 10
145.0743701958
 20
194.0368760441
 11
147.0115472686
 21
194.0368760441
  0
LINE
  5
318
100
AcDbEntity
  8
7_ALL_FEATURES
100
AcDbLine
 62
3
  6
CONTINUOUS
 10
147.0115472686
 20
194.0368760441
 11
149.9200645949
 21
194.0368760441
  0
LINE
  5
319
100
AcDbEntity
  8
7_ALL_FEATURES
100
AcDbLine
 62
7
  6
CONTINUOUS
 10
157.3933592641
 20
194.5368760441
 11
150.5495351144
 21
194.5368760441
  0
LINE
  5
31A
100
AcDbEntity
  8
7_ALL_FEATURES
100
AcDbLine
 62
7
  6
CONTINUOUS
 10
142.185781451
 20
194.5368760441
 11
99.7133015805
 21
194.5368760441
  0
LINE
  5
31B
100
AcDbEntity
  8
7_ALL_FEATURES
100
AcDbLine
 62
7
  6
CONTINUOUS
 10
91.2251065783
 20
194.5368760441
 11
84.3940486755
 21
194.5368760441
  0
LINE
  5
31C
100
AcDbEntity
  8
7_ALL_FEATURES
100
AcDbLine
 62
9
  6
CONTINUOUS
 10
91.1836611182
 20
194.6289525695
 11
99.0294160589
 21
194.6289525695
  0
LINE
  5
31D
100
AcDbEntity
  8
7_ALL_FEATURES
100
AcDbLine
 62
9
  6
CONTINUOUS
 10
142.8817084137
 20
194.6289525695
 11
150.591710321
 21
194.6289525695
  0
LINE
  5
31E
100
AcDbEntity
  8
7_ALL_FEATURES
100
AcDbLine
 62
7
  6
CONTINUOUS
 10
83.3938056174
 20
195.5370073938
 11
88.2258511438
 21
195.5368760441
  0
LINE
  5
31F
100
AcDbEntity
  8
7_ALL_FEATURES
100
AcDbLine
 62
7
  6
CONTINUOUS
 10
153.5617600909
 20
195.5368760441
 11
158.393805617
 21
195.5369131792
  0
LINE
  5
320
100
AcDbEntity
  8
7_ALL_FEATURES
100
AcDbLine
 62
7
  6
CONTINUOUS
 10
153.5617600909
 20
195.5368760441
 11
150.9288174794
 21
195.5368760441
  0
LINE
  5
321
100
AcDbEntity
  8
7_ALL_FEATURES
100
AcDbLine
 62
7
  6
CONTINUOUS
 10
90.8523868363
 20
195.5368760441
 11
88.2258511438
 21
195.5368760441
  0
LINE
  5
322
100
AcDbEntity
  8
7_ALL_FEATURES
100
AcDbLine
 62
7
  6
CONTINUOUS
 10
99.0932380025
 20
195.5368760441
 11
142.8167627321
 21
195.5368760441
  0
LINE
  5
323
100
AcDbEntity
  8
7_ALL_FEATURES
100
AcDbLine
 62
4
  6
CONTINUOUS
 10
92.3141646793
 20
196.4175953237
 11
96.5936673742
 21
196.4175953237
  0
LINE
  5
324
100
AcDbEntity
  8
7_ALL_FEATURES
100
AcDbLine
 62
4
  6
CONTINUOUS
 10
145.2980951182
 20
196.4175953237
 11
149.503550704
 21
196.4175953237
  0
LINE
  5
325
100
AcDbEntity
  8
7_ALL_FEATURES
100
AcDbLine
 62
7
  6
CONTINUOUS
 10
96.3228043122
 20
207.9787114964
 11
96.0724833393
 21
208.335848983
  0
LINE
  5
326
100
AcDbEntity
  8
7_ALL_FEATURES
100
AcDbLine
 62
7
  6
CONTINUOUS
 10
95.8651439579
 20
209.4248761896
 11
95.617335111
 21
209.7784295802
  0
LINE
  5
327
100
AcDbEntity
  8
7_ALL_FEATURES
100
AcDbLine
 62
7
  6
CONTINUOUS
 10
95.8651439579
 20
209.4248761896
 11
96.1699306854
 21
208.4345989612
  0
LINE
  5
328
100
AcDbEntity
  8
7_ALL_FEATURES
100
AcDbLine
 62
9
  6
CONTINUOUS
 10
99.7133015805
 20
194.0368760441
 11
99.7133015805
 21
194.5368760441
  0
LINE
  5
329
100
AcDbEntity
  8
0
100
AcDbLine
 62
2
  6
CONTINUOUS
 10
100.2663886194
 20
199.5368760441
 11
100.2663886194
 21
197.0368760441
  0
LINE
  5
32A
100
AcDbEntity
  8
3_ALL_AXES
100
AcDbLine
 62
7
  6
CONTINUOUS
 10
100.2663886194
 20
199.5368760441
 11
100.2663886194
 21
197.0368760441
  0
LINE
  5
32B
100
AcDbEntity
  8
7_ALL_FEATURES
100
AcDbLine
 62
7
  6
CONTINUOUS
 10
83.3942113434
 20
197.0368760441
 11
90.3050814337
 21
197.0368760441
  0
LINE
  5
32C
100
AcDbEntity
  8
7_ALL_FEATURES
100
AcDbLine
 62
7
  6
CONTINUOUS
 10
98.5459325999
 20
197.0368760441
 11
143.373704756
 21
197.0368760441
  0
LINE
  5
32D
100
AcDbEntity
  8
7_ALL_FEATURES
100
AcDbLine
 62
7
  6
CONTINUOUS
 10
151.4857595033
 20
197.0368760441
 11
158.3933998913
 21
197.0368760441
  0
LINE
  5
32E
100
AcDbEntity
  8
7_ALL_FEATURES
100
AcDbLine
 62
7
  6
CONTINUOUS
 10
149.4871282235
 20
197.0781227241
 11
148.7792098666
 21
197.0781227241
  0
LINE
  5
32F
100
AcDbEntity
  8
7_ALL_FEATURES
100
AcDbLine
 62
7
  6
CONTINUOUS
 10
146.6834911663
 20
197.0781227241
 11
145.9755728094
 21
197.0781227241
  0
LINE
  5
330
100
AcDbEntity
  8
7_ALL_FEATURES
100
AcDbLine
 62
7
  6
CONTINUOUS
 10
96.0863803966
 20
197.0781227241
 11
95.365997443
 21
197.0781227241
  0
LINE
  5
331
100
AcDbEntity
  8
7_ALL_FEATURES
100
AcDbLine
 62
7
  6
CONTINUOUS
 10
93.2333786
 20
197.0781227241
 11
92.5129956464
 21
197.0781227241
  0
LINE
  5
332
100
AcDbEntity
  8
7_ALL_FEATURES
100
AcDbLine
 62
7
  6
CONTINUOUS
 10
83.3942113434
 20
199.5368760441
 11
89.3929057627
 21
199.5368760441
  0
LINE
  5
333
100
AcDbEntity
  8
7_ALL_FEATURES
100
AcDbLine
 62
7
  6
CONTINUOUS
 10
97.6337569288
 20
199.5368760441
 11
144.3019414626
 21
199.5368760441
  0
LINE
  5
334
100
AcDbEntity
  8
7_ALL_FEATURES
100
AcDbLine
 62
7
  6
CONTINUOUS
 10
152.4139962098
 20
199.5368760441
 11
158.3933998913
 21
199.5368760441
  0
LINE
  5
335
100
AcDbEntity
  8
3_ALL_AXES
100
AcDbLine
 62
7
  6
CONTINUOUS
 10
102.0663886194
 20
194.0368760441
 11
102.0663886194
 21
193.6568760441
  0
LINE
  5
336
100
AcDbEntity
  8
7_ALL_FEATURES
100
AcDbLine
 62
7
  6
CONTINUOUS
 10
102.480366218
 20
212.0368760441
 11
102.480366218
 21
209.5368760441
  0
LINE
  5
337
100
AcDbEntity
  8
7_ALL_FEATURES
100
AcDbLine
 62
7
  6
CONTINUOUS
 10
102.480366218
 20
207.0368760441
 11
102.480366218
 21
204.5368760441
  0
LINE
  5
338
100
AcDbEntity
  8
7_ALL_FEATURES
100
AcDbLine
 62
7
  6
CONTINUOUS
 10
102.480366218
 20
202.0368760441
 11
102.480366218
 21
199.5368760441
  0
LINE
  5
339
100
AcDbEntity
  8
7_ALL_FEATURES
100
AcDbLine
 62
7
  6
CONTINUOUS
 10
102.480366218
 20
197.0368760441
 11
102.480366218
 21
195.5368760441
  0
LINE
  5
33A
100
AcDbEntity
  8
7_ALL_FEATURES
100
AcDbLine
 62
7
  6
CONTINUOUS
 10
104.8527212941
 20
194.0368760441
 11
104.8527212941
 21
194.5368760441
  0
LINE
  5
33B
100
AcDbEntity
  8
7_ALL_FEATURES
100
AcDbLine
 62
4
  6
CONTINUOUS
 10
94.3964774299
 20
197.3817591102
 11
94.5615949743
 21
197.894704442
  0
LINE
  5
33C
100
AcDbEntity
  8
7_ALL_FEATURES
100
AcDbLine
 62
4
  6
CONTINUOUS
 10
151.4796051387
 20
201.7396603228
 11
147.2741495529
 21
201.7396603228
  0
LINE
  5
33D
100
AcDbEntity
  8
7_ALL_FEATURES
100
AcDbLine
 62
4
  6
CONTINUOUS
 10
94.6518040894
 20
201.7396603228
 11
90.3723013945
 21
201.7396603228
  0
LINE
  5
33E
100
AcDbEntity
  8
7_ALL_FEATURES
100
AcDbLine
 62
7
  6
CONTINUOUS
 10
83.3942113434
 20
202.0368760441
 11
88.4807300916
 21
202.0368760441
  0
LINE
  5
33F
100
AcDbEntity
  8
7_ALL_FEATURES
100
AcDbLine
 62
7
  6
CONTINUOUS
 10
96.7215812578
 20
202.0368760441
 11
145.2301781691
 21
202.0368760441
  0
LINE
  5
340
100
AcDbEntity
  8
7_ALL_FEATURES
100
AcDbLine
 62
7
  6
CONTINUOUS
 10
153.3422329164
 20
202.0368760441
 11
158.3933998913
 21
202.0368760441
  0
LINE
  5
341
100
AcDbEntity
  8
7_ALL_FEATURES
100
AcDbLine
 62
9
  6
CONTINUOUS
 10
87.9365527098
 20
203.5283030769
 11
95.7823076505
 21
203.5283030769
  0
LINE
  5
342
100
AcDbEntity
  8
7_ALL_FEATURES
100
AcDbLine
 62
9
  6
CONTINUOUS
 10
146.1859899359
 20
203.5283030769
 11
153.8959918432
 21
203.5283030769
  0
LINE
  5
343
100
AcDbEntity
  8
7_ALL_FEATURES
100
AcDbLine
 62
7
  6
CONTINUOUS
 10
73.3938056174
 20
243.5368760441
 11
73.8938056174
 21
243.0368760441
  0
LINE
  5
344
100
AcDbEntity
  8
7_ALL_FEATURES
100
AcDbLine
 62
4
  6
CONTINUOUS
 10
93.308207566
 20
198.0267627304
 11
93.7150453018
 21
198.6822026255
  0
LINE
  5
345
100
AcDbEntity
  8
7_ALL_FEATURES
100
AcDbLine
 62
7
  6
CONTINUOUS
 10
158.3933998913
 20
204.5368760441
 11
154.1596738895
 21
204.5368760441
  0
LINE
  5
346
100
AcDbEntity
  8
7_ALL_FEATURES
100
AcDbLine
 62
7
  6
CONTINUOUS
 10
87.6774330845
 20
204.5368760441
 11
83.3942113434
 21
204.5368760441
  0
LINE
  5
347
100
AcDbEntity
  8
7_ALL_FEATURES
100
AcDbLine
 62
7
  6
CONTINUOUS
 10
95.885477831
 20
204.5368760441
 11
146.0810031974
 21
204.5368760441
  0
LINE
  5
348
100
AcDbEntity
  8
7_ALL_FEATURES
100
AcDbLine
 62
7
  6
CONTINUOUS
 10
158.3933998913
 20
207.0368760441
 11
154.0847955425
 21
207.0368760441
  0
LINE
  5
349
100
AcDbEntity
  8
7_ALL_FEATURES
100
AcDbLine
 62
7
  6
CONTINUOUS
 10
87.7510158312
 20
207.0368760441
 11
83.3942113434
 21
207.0368760441
  0
LINE
  5
34A
100
AcDbEntity
  8
7_ALL_FEATURES
100
AcDbLine
 62
7
  6
CONTINUOUS
 10
95.9637715324
 20
207.0368760441
 11
146.0013309481
 21
207.0368760441
  0
LINE
  5
34B
100
AcDbEntity
  8
7_ALL_FEATURES
100
AcDbLine
 62
7
  6
CONTINUOUS
 10
73.8938056174
 20
248.6368760441
 11
73.3938056174
 21
249.1368760441
  0
LINE
  5
34C
100
AcDbEntity
  8
7_ALL_FEATURES
100
AcDbLine
 62
9
  6
CONTINUOUS
 10
88.9316062724
 20
208.7881523518
 11
95.9221218385
 21
208.7881523518
  0
LINE
  5
34D
100
AcDbEntity
  8
7_ALL_FEATURES
100
AcDbLine
 62
9
  6
CONTINUOUS
 10
146.0287857258
 20
208.7881523518
 11
152.8983462403
 21
208.7881523518
  0
LINE
  5
34E
100
AcDbEntity
  8
7_ALL_FEATURES
100
AcDbLine
 62
7
  6
CONTINUOUS
 10
83.3942113434
 20
209.5368760441
 11
90.2116225917
 21
209.5368760441
  0
LINE
  5
34F
100
AcDbEntity
  8
7_ALL_FEATURES
100
AcDbLine
 62
7
  6
CONTINUOUS
 10
95.7866422223
 20
209.5368760441
 11
146.131779712
 21
209.5368760441
  0
LINE
  5
350
100
AcDbEntity
  8
7_ALL_FEATURES
100
AcDbLine
 62
7
  6
CONTINUOUS
 10
151.6221573112
 20
209.5368760441
 11
158.3933998913
 21
209.5368760441
  0
LINE
  5
351
100
AcDbEntity
  8
7_ALL_FEATURES
100
AcDbLine
 62
3
  6
CONTINUOUS
 10
151.2104327302
 20
209.7784295802
 11
146.3040678801
 21
209.7784295802
  0
LINE
  5
352
100
AcDbEntity
  8
7_ALL_FEATURES
100
AcDbLine
 62
3
  6
CONTINUOUS
 10
95.617335111
 20
209.7784295802
 11
90.6245819669
 21
209.7784295802
  0
LINE
  5
353
100
AcDbEntity
  8
7_ALL_FEATURES
100
AcDbLine
 62
7
  6
CONTINUOUS
 10
83.3942113434
 20
212.0368760441
 11
158.3933998913
 21
212.0368760441
  0
LINE
  5
354
100
AcDbEntity
  8
7_ALL_FEATURES
100
AcDbLine
 62
7
  6
CONTINUOUS
 10
83.3938056174
 20
242.5368760441
 11
82.8938056174
 21
243.0368760441
  0
LINE
  5
355
100
AcDbEntity
  8
7_ALL_FEATURES
100
AcDbLine
 62
7
  6
CONTINUOUS
 10
73.8938056174
 20
254.1368760441
 11
73.6438056174
 21
254.3868760441
  0
LINE
  5
356
100
AcDbEntity
  8
7_ALL_FEATURES
100
AcDbLine
 62
9
  6
CONTINUOUS
 10
87.8916193915
 20
203.5283030769
 11
87.9283942676
 21
203.5551432827
  0
LINE
  5
357
100
AcDbEntity
  8
7_ALL_FEATURES
100
AcDbLine
 62
3
  6
CONTINUOUS
 10
90.6245819669
 20
209.7784295802
 11
88.9316062724
 21
208.7881523518
  0
LINE
  5
358
100
AcDbEntity
  8
7_ALL_FEATURES
100
AcDbLine
 62
7
  6
CONTINUOUS
 10
158.3935577449
 20
214.5368760441
 11
83.3940534898
 21
214.5368760441
  0
LINE
  5
359
100
AcDbEntity
  8
7_ALL_FEATURES
100
AcDbLine
 62
9
  6
CONTINUOUS
 10
142.8817084137
 20
194.6289525695
 11
142.5653779761
 21
194.8598268762
  0
LINE
  5
35A
100
AcDbEntity
  8
7_ALL_FEATURES
100
AcDbLine
 62
9
  6
CONTINUOUS
 10
95.7823076505
 20
203.5283030769
 11
96.0931647058
 21
203.7591773836
  0
LINE
  5
35B
100
AcDbEntity
  8
7_ALL_FEATURES
100
AcDbLine
 62
7
  6
CONTINUOUS
 10
83.3940534898
 20
217.0368760441
 11
158.3935577449
 21
217.0368760441
  0
LINE
  5
35C
100
AcDbEntity
  8
7_ALL_FEATURES
100
AcDbLine
 62
7
  6
CONTINUOUS
 10
158.3935577449
 20
219.5368760441
 11
83.3940534898
 21
219.5368760441
  0
LINE
  5
35D
100
AcDbEntity
  8
7_ALL_FEATURES
100
AcDbLine
 62
7
  6
CONTINUOUS
 10
83.3940534898
 20
222.0368760441
 11
158.3935577449
 21
222.0368760441
  0
LINE
  5
35E
100
AcDbEntity
  8
7_ALL_FEATURES
100
AcDbLine
 62
9
  6
CONTINUOUS
 10
146.1859899359
 20
203.5283030769
 11
145.8696594983
 21
203.7591773836
  0
LINE
  5
35F
100
AcDbEntity
  8
7_ALL_FEATURES
100
AcDbLine
 62
9
  6
CONTINUOUS
 10
99.0294160589
 20
194.6289525695
 11
99.3402731142
 21
194.8598268762
  0
LINE
  5
360
100
AcDbEntity
  8
7_ALL_FEATURES
100
AcDbLine
 62
7
  6
CONTINUOUS
 10
158.3935577449
 20
224.5368760441
 11
83.3940534898
 21
224.5368760441
  0
LINE
  5
361
100
AcDbEntity
  8
7_ALL_FEATURES
100
AcDbLine
 62
7
  6
CONTINUOUS
 10
83.3940534898
 20
227.0368760441
 11
158.3935577449
 21
227.0368760441
  0
LINE
  5
362
100
AcDbEntity
  8
7_ALL_FEATURES
100
AcDbLine
 62
3
  6
CONTINUOUS
 10
152.8983462403
 20
208.7881523518
 11
151.2104327302
 21
209.7784295802
  0
LINE
  5
363
100
AcDbEntity
  8
7_ALL_FEATURES
100
AcDbLine
 62
7
  6
CONTINUOUS
 10
168.1438056174
 20
254.3868760441
 11
167.8938056174
 21
254.1368760441
  0
LINE
  5
364
100
AcDbEntity
  8
7_ALL_FEATURES
100
AcDbLine
 62
7
  6
CONTINUOUS
 10
158.3938056174
 20
242.5368760441
 11
158.8938056174
 21
243.0368760441
  0
LINE
  5
365
100
AcDbEntity
  8
7_ALL_FEATURES
100
AcDbLine
 62
7
  6
CONTINUOUS
 10
158.3935577449
 20
229.5368760441
 11
83.3940534898
 21
229.5368760441
  0
LINE
  5
366
100
AcDbEntity
  8
7_ALL_FEATURES
100
AcDbLine
 62
7
  6
CONTINUOUS
 10
136.9558699549
 20
194.0368760441
 11
136.9558699549
 21
194.5368760441
  0
LINE
  5
367
100
AcDbEntity
  8
7_ALL_FEATURES
100
AcDbLine
 62
7
  6
CONTINUOUS
 10
168.3938056174
 20
249.1368760441
 11
167.8938056174
 21
248.6368760441
  0
LINE
  5
368
100
AcDbEntity
  8
03___PRT_ALL_CURVES
100
AcDbLine
 62
40
  6
CONTINUOUS
 10
150.591710321
 20
194.6289525695
 11
146.1859899359
 21
203.5283030769
  0
LINE
  5
369
100
AcDbEntity
  8
7_ALL_FEATURES
100
AcDbLine
 62
7
  6
CONTINUOUS
 10
139.3072450167
 20
212.0368760441
 11
139.3072450167
 21
209.5368760441
  0
LINE
  5
36A
100
AcDbEntity
  8
7_ALL_FEATURES
100
AcDbLine
 62
7
  6
CONTINUOUS
 10
139.3072450167
 20
207.0368760441
 11
139.3072450167
 21
204.5368760441
  0
LINE
  5
36B
100
AcDbEntity
  8
7_ALL_FEATURES
100
AcDbLine
 62
7
  6
CONTINUOUS
 10
139.3072450167
 20
202.0368760441
 11
139.3072450167
 21
199.5368760441
  0
LINE
  5
36C
100
AcDbEntity
  8
7_ALL_FEATURES
100
AcDbLine
 62
7
  6
CONTINUOUS
 10
139.3072450167
 20
197.0368760441
 11
139.3072450167
 21
195.5368760441
  0
LINE
  5
36D
100
AcDbEntity
  8
3_ALL_AXES
100
AcDbLine
 62
7
  6
CONTINUOUS
 10
139.7212226153
 20
194.0368760441
 11
139.7212226153
 21
193.6568760441
  0
LINE
  5
36E
100
AcDbEntity
  8
7_ALL_FEATURES
100
AcDbLine
 62
7
  6
CONTINUOUS
 10
167.8938056174
 20
243.0368760441
 11
168.3938056174
 21
243.5368760441
  0
LINE
  5
36F
100
AcDbEntity
  8
0
100
AcDbLine
 62
2
  6
CONTINUOUS
 10
141.5212226153
 20
199.5368760441
 11
141.5212226153
 21
197.0368760441
  0
LINE
  5
370
100
AcDbEntity
  8
3_ALL_AXES
100
AcDbLine
 62
7
  6
CONTINUOUS
 10
141.5212226153
 20
199.5368760441
 11
141.5212226153
 21
197.0368760441
  0
LINE
  5
371
100
AcDbEntity
  8
7_ALL_FEATURES
100
AcDbLine
 62
9
  6
CONTINUOUS
 10
142.185781451
 20
194.0368760441
 11
142.185781451
 21
194.5368760441
  0
LINE
  5
372
100
AcDbEntity
  8
7_ALL_FEATURES
100
AcDbLine
 62
7
  6
CONTINUOUS
 10
83.3938056174
 20
242.5368760441
 11
158.3938056174
 21
242.5368760441
  0
LINE
  5
373
100
AcDbEntity
  8
7_ALL_FEATURES
100
AcDbLine
 62
7
  6
CONTINUOUS
 10
167.8938056174
 20
243.0368760441
 11
73.8938056174
 21
243.0368760441
  0
LINE
  5
374
100
AcDbEntity
  8
7_ALL_FEATURES
100
AcDbLine
 62
7
  6
CONTINUOUS
 10
168.1457897027
 20
243.5368760441
 11
73.641821532
 21
243.5368760441
  0
LINE
  5
375
100
AcDbEntity
  8
7_ALL_FEATURES
100
AcDbLine
 62
4
  6
CONTINUOUS
 10
148.2993831055
 20
196.9155040714
 11
147.800221256
 21
198.7412590583
  0
LINE
  5
376
100
AcDbEntity
  8
7_ALL_FEATURES
100
AcDbLine
 62
7
  6
CONTINUOUS
 10
146.8938056174
 20
187.2868760441
 11
146.8938056174
 21
189.7868760441
  0
LINE
  5
377
100
AcDbEntity
  8
7_ALL_FEATURES
100
AcDbLine
 62
7
  6
CONTINUOUS
 10
146.8938056174
 20
192.0368760441
 11
146.8938056174
 21
192.9981105472
  0
LINE
  5
378
100
AcDbEntity
  8
3_ALL_AXES
100
AcDbLine
 62
7
  6
CONTINUOUS
 10
147.3212226153
 20
194.0368760441
 11
147.3212226153
 21
193.6568760441
  0
LINE
  5
379
100
AcDbEntity
  8
02___PRT_ALL_AXES
100
AcDbLine
 62
7
  6
CONTINUOUS
 10
148.8938056174
 20
192.0368760441
 11
148.8938056174
 21
189.7868760441
  0
LINE
  5
37A
100
AcDbEntity
  8
02___PRT_ALL_AXES
100
AcDbLine
 62
7
  6
CONTINUOUS
 10
148.8938056174
 20
187.2868760441
 11
148.8938056174
 21
185.5368760441
  0
LINE
  5
37B
100
AcDbEntity
  8
7_ALL_FEATURES
100
AcDbLine
 62
7
  6
CONTINUOUS
 10
145.7766136111
 20
208.4345989612
 11
146.0518957655
 21
209.4248761896
  0
LINE
  5
37C
100
AcDbEntity
  8
7_ALL_FEATURES
100
AcDbLine
 62
3
  6
CONTINUOUS
 10
146.3040678801
 20
209.7784295802
 11
146.0287857258
 21
208.7881523518
  0
LINE
  5
37D
100
AcDbEntity
  8
7_ALL_FEATURES
100
AcDbLine
 62
7
  6
CONTINUOUS
 10
146.0518957655
 20
209.4248761896
 11
146.3040678801
 21
209.7784295802
  0
LINE
  5
37E
100
AcDbEntity
  8
7_ALL_FEATURES
100
AcDbLine
 62
7
  6
CONTINUOUS
 10
145.635976537
 20
207.9787114964
 11
145.8907050098
 21
208.335848983
  0
LINE
  5
37F
100
AcDbEntity
  8
7_ALL_FEATURES
100
AcDbLine
 62
7
  6
CONTINUOUS
 10
73.641821532
 20
247.0368760441
 11
168.1457897027
 21
247.0368760441
  0
LINE
  5
380
100
AcDbEntity
  8
7_ALL_FEATURES
100
AcDbLine
 62
7
  6
CONTINUOUS
 10
73.8938056174
 20
247.5368760441
 11
167.8938056174
 21
247.5368760441
  0
LINE
  5
381
100
AcDbEntity
  8
7_ALL_FEATURES
100
AcDbLine
 62
7
  6
CONTINUOUS
 10
145.8696594983
 20
203.7591773836
 11
142.5653779761
 21
194.8598268762
  0
LINE
  5
382
100
AcDbEntity
  8
7_ALL_FEATURES
100
AcDbLine
 62
3
  6
CONTINUOUS
 10
146.1859899359
 20
203.5283030769
 11
142.8817084137
 21
194.6289525695
  0
LINE
  5
383
100
AcDbEntity
  8
7_ALL_FEATURES
100
AcDbLine
 62
4
  6
CONTINUOUS
 10
147.2741495529
 20
201.7396603228
 11
145.2980951182
 21
196.4175953237
  0
LINE
  5
384
100
AcDbEntity
  8
7_ALL_FEATURES
100
AcDbLine
 62
7
  6
CONTINUOUS
 10
146.8329608724
 20
199.3873075932
 11
145.9755728094
 21
197.0781227241
  0
LINE
  5
385
100
AcDbEntity
  8
7_ALL_FEATURES
100
AcDbLine
 62
7
  6
CONTINUOUS
 10
167.8938056174
 20
248.6368760441
 11
73.8938056174
 21
248.6368760441
  0
LINE
  5
386
100
AcDbEntity
  8
06___PRT_ALL_SURFS
100
AcDbLine
 62
7
  6
CONTINUOUS
 10
167.8938056174
 20
248.6368760441
 11
73.8938056174
 21
248.6368760441
  0
LINE
  5
387
100
AcDbEntity
  8
7_ALL_FEATURES
100
AcDbLine
 62
7
  6
CONTINUOUS
 10
167.8938056174
 20
249.1368760441
 11
73.8938056174
 21
249.1368760441
  0
LINE
  5
388
100
AcDbEntity
  8
7_ALL_FEATURES
100
AcDbLine
 62
7
  6
CONTINUOUS
 10
153.5617600909
 20
212.0368760441
 11
153.5617600909
 21
209.5368760441
  0
LINE
  5
389
100
AcDbEntity
  8
7_ALL_FEATURES
100
AcDbLine
 62
7
  6
CONTINUOUS
 10
153.5617600909
 20
202.0368760441
 11
153.5617600909
 21
199.5368760441
  0
LINE
  5
38A
100
AcDbEntity
  8
7_ALL_FEATURES
100
AcDbLine
 62
7
  6
CONTINUOUS
 10
153.5617600909
 20
197.0368760441
 11
153.5617600909
 21
195.5368760441
  0
LINE
  5
38B
100
AcDbEntity
  8
7_ALL_FEATURES
100
AcDbLine
 62
7
  6
CONTINUOUS
 10
155.3938056174
 20
207.0368760441
 11
155.3938056174
 21
209.5368760441
  0
LINE
  5
38C
100
AcDbEntity
  8
7_ALL_FEATURES
100
AcDbLine
 62
7
  6
CONTINUOUS
 10
155.3938056174
 20
212.0368760441
 11
155.3938056174
 21
214.5368760441
  0
LINE
  5
38D
100
AcDbEntity
  8
7_ALL_FEATURES
100
AcDbLine
 62
7
  6
CONTINUOUS
 10
155.3938056174
 20
217.0368760441
 11
155.3938056174
 21
219.5368760441
  0
LINE
  5
38E
100
AcDbEntity
  8
7_ALL_FEATURES
100
AcDbLine
 62
7
  6
CONTINUOUS
 10
155.3938056174
 20
222.0368760441
 11
155.3938056174
 21
224.5368760441
  0
LINE
  5
38F
100
AcDbEntity
  8
7_ALL_FEATURES
100
AcDbLine
 62
7
  6
CONTINUOUS
 10
155.3938056174
 20
227.0368760441
 11
155.3938056174
 21
229.5368760441
  0
LINE
  5
390
100
AcDbEntity
  8
7_ALL_FEATURES
100
AcDbLine
 62
7
  6
CONTINUOUS
 10
149.6365979296
 20
199.3873075932
 11
148.7792098666
 21
197.0781227241
  0
LINE
  5
391
100
AcDbEntity
  8
7_ALL_FEATURES
100
AcDbLine
 62
4
  6
CONTINUOUS
 10
149.503550704
 20
196.4175953237
 11
151.4796051387
 21
201.7396603228
  0
LINE
  5
392
100
AcDbEntity
  8
7_ALL_FEATURES
100
AcDbLine
 62
4
  6
CONTINUOUS
 10
148.0480747347
 20
197.3817591102
 11
148.5847093145
 21
197.894704442
  0
LINE
  5
393
100
AcDbEntity
  8
7_ALL_FEATURES
100
AcDbLine
 62
4
  6
CONTINUOUS
 10
147.4493919045
 20
198.0267627304
 11
148.3275641537
 21
198.6822026255
  0
LINE
  5
394
100
AcDbEntity
  8
7_ALL_FEATURES
100
AcDbLine
 62
7
  6
CONTINUOUS
 10
73.8938056174
 20
254.1368760441
 11
167.8938056174
 21
254.1368760441
  0
LINE
  5
395
100
AcDbEntity
  8
7_ALL_FEATURES
100
AcDbLine
 62
7
  6
CONTINUOUS
 10
73.8938056174
 20
254.6368760441
 11
167.8938056174
 21
254.6368760441
  0
LINE
  5
396
100
AcDbEntity
  8
7_ALL_FEATURES
100
AcDbLine
 62
7
  6
CONTINUOUS
 10
158.3938056174
 20
242.5368760441
 11
158.3938056174
 21
229.5368760441
  0
LINE
  5
397
100
AcDbEntity
  8
7_ALL_FEATURES
100
AcDbLine
 62
7
  6
CONTINUOUS
 10
158.3938056174
 20
227.0368760441
 11
158.3938056174
 21
224.5368760441
  0
LINE
  5
398
100
AcDbEntity
  8
7_ALL_FEATURES
100
AcDbLine
 62
7
  6
CONTINUOUS
 10
158.3938056174
 20
222.0368760441
 11
158.3938056174
 21
219.5368760441
  0
LINE
  5
399
100
AcDbEntity
  8
7_ALL_FEATURES
100
AcDbLine
 62
7
  6
CONTINUOUS
 10
158.3938056174
 20
217.0368760441
 11
158.3938056174
 21
214.5368760441
  0
LINE
  5
39A
100
AcDbEntity
  8
7_ALL_FEATURES
100
AcDbLine
 62
7
  6
CONTINUOUS
 10
158.3938056174
 20
212.0368760441
 11
158.3938056174
 21
209.5368760441
  0
LINE
  5
39B
100
AcDbEntity
  8
7_ALL_FEATURES
100
AcDbLine
 62
7
  6
CONTINUOUS
 10
158.3938056174
 20
207.0368760441
 11
158.3938056174
 21
204.5368760441
  0
LINE
  5
39C
100
AcDbEntity
  8
7_ALL_FEATURES
100
AcDbLine
 62
7
  6
CONTINUOUS
 10
158.3938056174
 20
202.0368760441
 11
158.3938056174
 21
199.5368760441
  0
LINE
  5
39D
100
AcDbEntity
  8
7_ALL_FEATURES
100
AcDbLine
 62
7
  6
CONTINUOUS
 10
158.3938056174
 20
197.0368760441
 11
158.3938056174
 21
195.5369131794
  0
LINE
  5
39E
100
AcDbEntity
  8
7_ALL_FEATURES
100
AcDbLine
 62
3
  6
CONTINUOUS
 10
150.591710321
 20
194.6289525695
 11
153.8959918432
 21
203.5283030769
  0
LINE
  5
39F
100
AcDbEntity
  8
7_ALL_FEATURES
100
AcDbLine
 62
7
  6
CONTINUOUS
 10
157.3937433267
 20
194.5368760441
 11
158.393805617
 21
195.5369131786
  0
LINE
  5
3A0
100
AcDbEntity
  8
7_ALL_FEATURES
100
AcDbLine
 62
9
  6
CONTINUOUS
 10
165.6438056174
 20
248.6368760441
 11
165.6438056174
 21
247.5368760441
  0
LINE
  5
3A1
100
AcDbEntity
  8
7_ALL_FEATURES
100
AcDbLine
 62
7
  6
CONTINUOUS
 10
167.6438056174
 20
248.6368760441
 11
167.6438056174
 21
247.5368760441
  0
LINE
  5
3A2
100
AcDbEntity
  8
7_ALL_FEATURES
100
AcDbLine
 62
7
  6
CONTINUOUS
 10
167.8938056174
 20
249.1368760441
 11
167.8938056174
 21
254.1368760441
  0
LINE
  5
3A3
100
AcDbEntity
  8
7_ALL_FEATURES
100
AcDbLine
 62
7
  6
CONTINUOUS
 10
168.1457897027
 20
243.5368760441
 11
168.1457897027
 21
247.0368760441
  0
LINE
  5
3A4
100
AcDbEntity
  8
7_ALL_FEATURES
100
AcDbLine
 62
7
  6
CONTINUOUS
 10
168.3938056174
 20
243.5368760441
 11
168.3938056174
 21
247.0368760441
  0
LINE
  5
3A5
100
AcDbEntity
  8
7_ALL_FEATURES
100
AcDbLine
 62
7
  6
CONTINUOUS
 10
168.3938056174
 20
249.1368760441
 11
168.3938056174
 21
254.1368760441
  0
LINE
  5
3A6
100
AcDbEntity
  8
7_ALL_FEATURES
100
AcDbLine
 62
7
  6
CONTINUOUS
 10
147.8938056174
 20
184.5368760441
 11
148.8938056174
 21
185.5368760441
  0
LINE
  5
3A7
100
AcDbEntity
  8
7_ALL_FEATURES
100
AcDbLine
 62
7
  6
CONTINUOUS
 10
168.3938056174
 20
247.0368760441
 11
167.8938056174
 21
247.5368760441
  0
LINE
  5
3A8
100
AcDbEntity
  8
7_ALL_FEATURES
100
AcDbLine
 62
7
  6
CONTINUOUS
 10
167.8938056174
 20
249.1368760441
 11
168.1438056174
 21
248.8868760441
  0
LINE
  5
3A9
100
AcDbEntity
  8
7_ALL_FEATURES
100
AcDbLine
 62
7
  6
CONTINUOUS
 10
168.3938056174
 20
254.1368760441
 11
167.8938056174
 21
254.6368760441
  0
LINE
  5
3AA
100
AcDbEntity
  8
7_ALL_FEATURES
100
AcDbLine
 62
7
  6
CONTINUOUS
 10
243.8837068096
 20
254.1368760441
 11
244.3837068096
 21
254.6368760441
  0
LINE
  5
3AB
100
AcDbEntity
  8
7_ALL_FEATURES
100
AcDbLine
 62
7
  6
CONTINUOUS
 10
244.1337068096
 20
248.8868760441
 11
244.3837068096
 21
249.1368760441
  0
LINE
  5
3AC
100
AcDbEntity
  8
7_ALL_FEATURES
100
AcDbLine
 62
7
  6
CONTINUOUS
 10
243.8837068096
 20
247.0368760441
 11
244.3837068096
 21
247.5368760441
  0
LINE
  5
3AD
100
AcDbEntity
  8
7_ALL_FEATURES
100
AcDbLine
 62
7
  6
CONTINUOUS
 10
243.8837068096
 20
243.5368760441
 11
243.8837068096
 21
247.0368760441
  0
LINE
  5
3AE
100
AcDbEntity
  8
7_ALL_FEATURES
100
AcDbLine
 62
7
  6
CONTINUOUS
 10
243.8837068096
 20
249.1368760441
 11
243.8837068096
 21
254.1368760441
  0
LINE
  5
3AF
100
AcDbEntity
  8
7_ALL_FEATURES
100
AcDbLine
 62
7
  6
CONTINUOUS
 10
244.1317227243
 20
243.5368760441
 11
244.1317227243
 21
247.0368760441
  0
LINE
  5
3B0
100
AcDbEntity
  8
7_ALL_FEATURES
100
AcDbLine
 62
7
  6
CONTINUOUS
 10
244.3837068096
 20
249.1368760441
 11
244.3837068096
 21
254.1368760441
  0
LINE
  5
3B1
100
AcDbEntity
  8
7_ALL_FEATURES
100
AcDbLine
 62
7
  6
CONTINUOUS
 10
244.6337068096
 20
248.6368760441
 11
244.6337068096
 21
247.5368760441
  0
LINE
  5
3B2
100
AcDbEntity
  8
7_ALL_FEATURES
100
AcDbLine
 62
7
  6
CONTINUOUS
 10
244.0075524702
 20
243.4130303836
 11
244.0489215849
 21
243.4543634061
  0
LINE
  5
3B3
100
AcDbEntity
  8
7_ALL_FEATURES
100
AcDbLine
 62
9
  6
CONTINUOUS
 10
246.6337068096
 20
248.6368760441
 11
246.6337068096
 21
247.5368760441
  0
LINE
  5
3B4
100
AcDbEntity
  8
7_ALL_FEATURES
100
AcDbLine
 62
7
  6
CONTINUOUS
 10
264.3837068096
 20
184.5368760441
 11
263.3837068096
 21
185.5368760441
  0
LINE
  5
3B5
100
AcDbEntity
  8
7_ALL_FEATURES
100
AcDbLine
 62
7
  6
CONTINUOUS
 10
254.8836168778
 20
194.5368760441
 11
253.8837068164
 21
195.5367850607
  0
LINE
  5
3B6
100
AcDbEntity
  8
7_ALL_FEATURES
100
AcDbLine
 62
7
  6
CONTINUOUS
 10
253.8837068096
 20
242.5368760441
 11
253.8837068096
 21
229.5368760441
  0
LINE
  5
3B7
100
AcDbEntity
  8
7_ALL_FEATURES
100
AcDbLine
 62
7
  6
CONTINUOUS
 10
253.8837068096
 20
227.0368760441
 11
253.8837068096
 21
224.5368760441
  0
LINE
  5
3B8
100
AcDbEntity
  8
7_ALL_FEATURES
100
AcDbLine
 62
7
  6
CONTINUOUS
 10
253.8837068096
 20
222.0368760441
 11
253.8837068096
 21
219.5368760441
  0
LINE
  5
3B9
100
AcDbEntity
  8
7_ALL_FEATURES
100
AcDbLine
 62
7
  6
CONTINUOUS
 10
253.8837068096
 20
217.0368760441
 11
253.8837068096
 21
214.5368760441
  0
LINE
  5
3BA
100
AcDbEntity
  8
7_ALL_FEATURES
100
AcDbLine
 62
7
  6
CONTINUOUS
 10
253.8837068096
 20
212.0368760441
 11
253.8837068096
 21
209.5368760441
  0
LINE
  5
3BB
100
AcDbEntity
  8
7_ALL_FEATURES
100
AcDbLine
 62
7
  6
CONTINUOUS
 10
253.8837068096
 20
207.0368760441
 11
253.8837068096
 21
204.5368760441
  0
LINE
  5
3BC
100
AcDbEntity
  8
7_ALL_FEATURES
100
AcDbLine
 62
7
  6
CONTINUOUS
 10
253.8837068096
 20
202.0368760441
 11
253.8837068096
 21
199.5368760441
  0
LINE
  5
3BD
100
AcDbEntity
  8
7_ALL_FEATURES
100
AcDbLine
 62
7
  6
CONTINUOUS
 10
253.8837068096
 20
197.0368760441
 11
253.8837068096
 21
195.5367850742
  0
LINE
  5
3BE
100
AcDbEntity
  8
7_ALL_FEATURES
100
AcDbLine
 62
7
  6
CONTINUOUS
 10
318.3831210004
 20
184.5368760441
 11
264.3842926189
 21
184.5368760441
  0
LINE
  5
3BF
100
AcDbEntity
  8
7_ALL_FEATURES
100
AcDbLine
 62
3
  6
CONTINUOUS
 10
260.7917529237
 20
197.0368760441
 11
259.8635162172
 21
199.5368760441
  0
LINE
  5
3C0
100
AcDbEntity
  8
7_ALL_FEATURES
100
AcDbLine
 62
3
  6
CONTINUOUS
 10
258.9352795106
 20
202.0368760441
 11
258.3815205838
 21
203.5283030769
  0
LINE
  5
3C1
100
AcDbEntity
  8
7_ALL_FEATURES
100
AcDbLine
 62
3
  6
CONTINUOUS
 10
258.4264539021
 20
203.5283030769
 11
261.6735623105
 21
194.6289525695
  0
LINE
  5
3C2
100
AcDbEntity
  8
7_ALL_FEATURES
100
AcDbLine
 62
7
  6
CONTINUOUS
 10
256.8837068096
 20
207.0368760441
 11
256.8837068096
 21
209.5368760441
  0
LINE
  5
3C3
100
AcDbEntity
  8
7_ALL_FEATURES
100
AcDbLine
 62
7
  6
CONTINUOUS
 10
256.8837068096
 20
212.0368760441
 11
256.8837068096
 21
214.5368760441
  0
LINE
  5
3C4
100
AcDbEntity
  8
7_ALL_FEATURES
100
AcDbLine
 62
7
  6
CONTINUOUS
 10
256.8837068096
 20
217.0368760441
 11
256.8837068096
 21
219.5368760441
  0
LINE
  5
3C5
100
AcDbEntity
  8
7_ALL_FEATURES
100
AcDbLine
 62
7
  6
CONTINUOUS
 10
256.8837068096
 20
222.0368760441
 11
256.8837068096
 21
224.5368760441
  0
LINE
  5
3C6
100
AcDbEntity
  8
7_ALL_FEATURES
100
AcDbLine
 62
7
  6
CONTINUOUS
 10
256.8837068096
 20
227.0368760441
 11
256.8837068096
 21
229.5368760441
  0
LINE
  5
3C7
100
AcDbEntity
  8
7_ALL_FEATURES
100
AcDbLine
 62
7
  6
CONTINUOUS
 10
258.7157523361
 20
212.0368760441
 11
258.7157523361
 21
209.5368760441
  0
LINE
  5
3C8
100
AcDbEntity
  8
7_ALL_FEATURES
100
AcDbLine
 62
7
  6
CONTINUOUS
 10
258.7157523361
 20
202.0368760441
 11
258.7157523361
 21
199.5368760441
  0
LINE
  5
3C9
100
AcDbEntity
  8
7_ALL_FEATURES
100
AcDbLine
 62
7
  6
CONTINUOUS
 10
258.7157523361
 20
197.0368760441
 11
258.7157523361
 21
195.5368760441
  0
LINE
  5
3CA
100
AcDbEntity
  8
7_ALL_FEATURES
100
AcDbLine
 62
7
  6
CONTINUOUS
 10
319.3837068096
 20
185.5368760441
 11
263.3837068096
 21
185.5368760441
  0
LINE
  5
3CB
100
AcDbEntity
  8
7_ALL_FEATURES
100
AcDbLine
 62
7
  6
CONTINUOUS
 10
263.3837068096
 20
187.2868760441
 11
319.3837068096
 21
187.2868760441
  0
LINE
  5
3CC
100
AcDbEntity
  8
03___PRT_ALL_CURVES
100
AcDbLine
 62
40
  6
CONTINUOUS
 10
269.5193172512
 20
194.6289525695
 11
258.4264539021
 21
203.5283030769
  0
LINE
  5
3CD
100
AcDbEntity
  8
7_ALL_FEATURES
100
AcDbLine
 62
4
  6
CONTINUOUS
 10
265.488400653
 20
196.9155040714
 11
263.6244571035
 21
198.7412590583
  0
LINE
  5
3CE
100
AcDbEntity
  8
7_ALL_FEATURES
100
AcDbLine
 62
4
  6
CONTINUOUS
 10
260.8622025868
 20
201.7396603228
 11
262.8040658716
 21
196.4175953237
  0
LINE
  5
3CF
100
AcDbEntity
  8
7_ALL_FEATURES
100
AcDbLine
 62
7
  6
CONTINUOUS
 10
262.1603439357
 20
199.3873075932
 11
263.0028968387
 21
197.0781227241
  0
LINE
  5
3D0
100
AcDbEntity
  8
7_ALL_FEATURES
100
AcDbLine
 62
7
  6
CONTINUOUS
 10
265.0133457323
 20
199.3873075932
 11
265.8558986353
 21
197.0781227241
  0
LINE
  5
3D1
100
AcDbEntity
  8
02___PRT_ALL_AXES
100
AcDbLine
 62
7
  6
CONTINUOUS
 10
263.3837068096
 20
192.0368760441
 11
263.3837068096
 21
189.7868760441
  0
LINE
  5
3D2
100
AcDbEntity
  8
02___PRT_ALL_AXES
100
AcDbLine
 62
7
  6
CONTINUOUS
 10
263.3837068096
 20
187.2868760441
 11
263.3837068096
 21
185.5368760441
  0
LINE
  5
3D3
100
AcDbEntity
  8
7_ALL_FEATURES
100
AcDbLine
 62
7
  6
CONTINUOUS
 10
319.3837068096
 20
189.7868760441
 11
263.3837068096
 21
189.7868760441
  0
LINE
  5
3D4
100
AcDbEntity
  8
3_ALL_AXES
100
AcDbLine
 62
7
  6
CONTINUOUS
 10
266.791309164
 20
191.8368760441
 11
270.7212704593
 21
191.8368760441
  0
LINE
  5
3D5
100
AcDbEntity
  8
3_ALL_AXES
100
AcDbLine
 62
7
  6
CONTINUOUS
 10
312.04614316
 20
191.8368760441
 11
315.9761044553
 21
191.8368760441
  0
LINE
  5
3D6
100
AcDbEntity
  8
7_ALL_FEATURES
100
AcDbLine
 62
7
  6
CONTINUOUS
 10
263.3837068096
 20
192.0368760441
 11
266.4458187196
 21
192.0368760441
  0
LINE
  5
3D7
100
AcDbEntity
  8
7_ALL_FEATURES
100
AcDbLine
 62
7
  6
CONTINUOUS
 10
271.0667609037
 20
192.0368760441
 11
311.7006527156
 21
192.0368760441
  0
LINE
  5
3D8
100
AcDbEntity
  8
7_ALL_FEATURES
100
AcDbLine
 62
7
  6
CONTINUOUS
 10
316.3215948997
 20
192.0368760441
 11
319.3837068096
 21
192.0368760441
  0
LINE
  5
3D9
100
AcDbEntity
  8
7_ALL_FEATURES
100
AcDbLine
 62
4
  6
CONTINUOUS
 10
267.0835685665
 20
196.4175953237
 11
265.1417052817
 21
201.7396603228
  0
LINE
  5
3DA
100
AcDbEntity
  8
7_ALL_FEATURES
100
AcDbLine
 62
3
  6
CONTINUOUS
 10
269.5193172512
 20
194.6289525695
 11
266.2722088428
 21
203.5283030769
  0
LINE
  5
3DB
100
AcDbEntity
  8
7_ALL_FEATURES
100
AcDbLine
 62
7
  6
CONTINUOUS
 10
269.8301743065
 20
194.8598268762
 11
266.5830658981
 21
203.7591773836
  0
LINE
  5
3DC
100
AcDbEntity
  8
7_ALL_FEATURES
100
AcDbLine
 62
3
  6
CONTINUOUS
 10
266.4120230308
 20
208.7881523518
 11
266.1072363033
 21
209.7784295802
  0
LINE
  5
3DD
100
AcDbEntity
  8
3_ALL_AXES
100
AcDbLine
 62
7
  6
CONTINUOUS
 10
264.9562898117
 20
194.0368760441
 11
264.9562898117
 21
193.6568760441
  0
LINE
  5
3DE
100
AcDbEntity
  8
7_ALL_FEATURES
100
AcDbLine
 62
7
  6
CONTINUOUS
 10
265.3837068096
 20
187.2868760441
 11
265.3837068096
 21
189.7868760441
  0
LINE
  5
3DF
100
AcDbEntity
  8
7_ALL_FEATURES
100
AcDbLine
 62
7
  6
CONTINUOUS
 10
265.3837068096
 20
192.0368760441
 11
265.3837068096
 21
192.9981105472
  0
LINE
  5
3E0
100
AcDbEntity
  8
3_ALL_AXES
100
AcDbLine
 62
7
  6
CONTINUOUS
 10
264.9562898117
 20
193.6568760441
 11
272.5562898117
 21
193.6568760441
  0
LINE
  5
3E1
100
AcDbEntity
  8
3_ALL_AXES
100
AcDbLine
 62
7
  6
CONTINUOUS
 10
310.2111238076
 20
193.6568760441
 11
317.8111238076
 21
193.6568760441
  0
LINE
  5
3E2
100
AcDbEntity
  8
3_ALL_AXES
100
AcDbLine
 62
7
  6
CONTINUOUS
 10
317.4983050027
 20
194.0368760441
 11
315.5588141848
 21
194.0368760441
  0
LINE
  5
3E3
100
AcDbEntity
  8
7_ALL_FEATURES
100
AcDbLine
 62
3
  6
CONTINUOUS
 10
275.3426224864
 20
194.0368760441
 11
270.2032027728
 21
194.0368760441
  0
LINE
  5
3E4
100
AcDbEntity
  8
7_ALL_FEATURES
100
AcDbLine
 62
3
  6
CONTINUOUS
 10
262.3574478321
 20
194.0368760441
 11
265.296897094
 21
194.0368760441
  0
LINE
  5
3E5
100
AcDbEntity
  8
3_ALL_AXES
100
AcDbLine
 62
7
  6
CONTINUOUS
 10
265.296897094
 20
194.0368760441
 11
267.2681828048
 21
194.0368760441
  0
LINE
  5
3E6
100
AcDbEntity
  8
7_ALL_FEATURES
100
AcDbLine
 62
3
  6
CONTINUOUS
 10
267.2681828048
 20
194.0368760441
 11
270.1931538035
 21
194.0368760441
  0
LINE
  5
3E7
100
AcDbEntity
  8
7_ALL_FEATURES
100
AcDbLine
 62
3
  6
CONTINUOUS
 10
307.4457711472
 20
194.0368760441
 11
315.5588141848
 21
194.0368760441
  0
LINE
  5
3E8
100
AcDbEntity
  8
7_ALL_FEATURES
100
AcDbLine
 62
3
  6
CONTINUOUS
 10
317.4983050027
 20
194.0368760441
 11
320.4099657872
 21
194.0368760441
  0
LINE
  5
3E9
100
AcDbEntity
  8
7_ALL_FEATURES
100
AcDbLine
 62
7
  6
CONTINUOUS
 10
327.8831865222
 20
194.5368760441
 11
321.0394363067
 21
194.5368760441
  0
LINE
  5
3EA
100
AcDbEntity
  8
7_ALL_FEATURES
100
AcDbLine
 62
7
  6
CONTINUOUS
 10
312.6756826433
 20
194.5368760441
 11
270.2032027728
 21
194.5368760441
  0
LINE
  5
3EB
100
AcDbEntity
  8
7_ALL_FEATURES
100
AcDbLine
 62
7
  6
CONTINUOUS
 10
261.7150077706
 20
194.5368760441
 11
254.883988494
 21
194.5368760441
  0
LINE
  5
3EC
100
AcDbEntity
  8
7_ALL_FEATURES
100
AcDbLine
 62
9
  6
CONTINUOUS
 10
261.6735623105
 20
194.6289525695
 11
269.5193172512
 21
194.6289525695
  0
LINE
  5
3ED
100
AcDbEntity
  8
7_ALL_FEATURES
100
AcDbLine
 62
9
  6
CONTINUOUS
 10
313.371609606
 20
194.6289525695
 11
321.0816115133
 21
194.6289525695
  0
LINE
  5
3EE
100
AcDbEntity
  8
7_ALL_FEATURES
100
AcDbLine
 62
7
  6
CONTINUOUS
 10
324.0516612832
 20
195.5368760441
 11
328.8837068095
 21
195.5369374275
  0
LINE
  5
3EF
100
AcDbEntity
  8
7_ALL_FEATURES
100
AcDbLine
 62
7
  6
CONTINUOUS
 10
324.0516612832
 20
195.5368760441
 11
321.4187186716
 21
195.5368760441
  0
LINE
  5
3F0
100
AcDbEntity
  8
7_ALL_FEATURES
100
AcDbLine
 62
7
  6
CONTINUOUS
 10
261.3422880286
 20
195.5368760441
 11
258.7157523361
 21
195.5368760441
  0
LINE
  5
3F1
100
AcDbEntity
  8
7_ALL_FEATURES
100
AcDbLine
 62
7
  6
CONTINUOUS
 10
269.5831391948
 20
195.5368760441
 11
313.3066639244
 21
195.5368760441
  0
LINE
  5
3F2
100
AcDbEntity
  8
7_ALL_FEATURES
100
AcDbLine
 62
7
  6
CONTINUOUS
 10
253.8837068164
 20
195.5367850449
 11
258.7157523361
 21
195.5368760441
  0
LINE
  5
3F3
100
AcDbEntity
  8
7_ALL_FEATURES
100
AcDbLine
 62
4
  6
CONTINUOUS
 10
262.8040658716
 20
196.4175953237
 11
267.0835685665
 21
196.4175953237
  0
LINE
  5
3F4
100
AcDbEntity
  8
7_ALL_FEATURES
100
AcDbLine
 62
4
  6
CONTINUOUS
 10
315.7879963105
 20
196.4175953237
 11
319.9934518963
 21
196.4175953237
  0
LINE
  5
3F5
100
AcDbEntity
  8
7_ALL_FEATURES
100
AcDbLine
 62
7
  6
CONTINUOUS
 10
266.8127055045
 20
207.9787114964
 11
266.5623845316
 21
208.335848983
  0
LINE
  5
3F6
100
AcDbEntity
  8
7_ALL_FEATURES
100
AcDbLine
 62
7
  6
CONTINUOUS
 10
266.3550451502
 20
209.4248761896
 11
266.1072363033
 21
209.7784295802
  0
LINE
  5
3F7
100
AcDbEntity
  8
7_ALL_FEATURES
100
AcDbLine
 62
7
  6
CONTINUOUS
 10
266.3550451502
 20
209.4248761896
 11
266.6598318776
 21
208.4345989612
  0
LINE
  5
3F8
100
AcDbEntity
  8
7_ALL_FEATURES
100
AcDbLine
 62
9
  6
CONTINUOUS
 10
270.2032027728
 20
194.0368760441
 11
270.2032027728
 21
194.5368760441
  0
LINE
  5
3F9
100
AcDbEntity
  8
0
100
AcDbLine
 62
2
  6
CONTINUOUS
 10
270.7562898117
 20
199.5368760441
 11
270.7562898117
 21
197.0368760441
  0
LINE
  5
3FA
100
AcDbEntity
  8
3_ALL_AXES
100
AcDbLine
 62
7
  6
CONTINUOUS
 10
270.7562898117
 20
199.5368760441
 11
270.7562898117
 21
197.0368760441
  0
LINE
  5
3FB
100
AcDbEntity
  8
7_ALL_FEATURES
100
AcDbLine
 62
7
  6
CONTINUOUS
 10
253.8841125357
 20
197.0368760441
 11
260.794982626
 21
197.0368760441
  0
LINE
  5
3FC
100
AcDbEntity
  8
7_ALL_FEATURES
100
AcDbLine
 62
7
  6
CONTINUOUS
 10
269.0358337922
 20
197.0368760441
 11
313.8636059483
 21
197.0368760441
  0
LINE
  5
3FD
100
AcDbEntity
  8
7_ALL_FEATURES
100
AcDbLine
 62
7
  6
CONTINUOUS
 10
321.9756606956
 20
197.0368760441
 11
328.8833010836
 21
197.0368760441
  0
LINE
  5
3FE
100
AcDbEntity
  8
7_ALL_FEATURES
100
AcDbLine
 62
7
  6
CONTINUOUS
 10
319.9770294158
 20
197.0781227241
 11
319.2691110589
 21
197.0781227241
  0
LINE
  5
3FF
100
AcDbEntity
  8
7_ALL_FEATURES
100
AcDbLine
 62
7
  6
CONTINUOUS
 10
317.1733923586
 20
197.0781227241
 11
316.4654740017
 21
197.0781227241
  0
LINE
  5
400
100
AcDbEntity
  8
7_ALL_FEATURES
100
AcDbLine
 62
7
  6
CONTINUOUS
 10
266.5762815889
 20
197.0781227241
 11
265.8558986353
 21
197.0781227241
  0
LINE
  5
401
100
AcDbEntity
  8
7_ALL_FEATURES
100
AcDbLine
 62
7
  6
CONTINUOUS
 10
263.7232797923
 20
197.0781227241
 11
263.0028968387
 21
197.0781227241
  0
LINE
  5
402
100
AcDbEntity
  8
7_ALL_FEATURES
100
AcDbLine
 62
7
  6
CONTINUOUS
 10
253.8841125357
 20
199.5368760441
 11
259.882806955
 21
199.5368760441
  0
LINE
  5
403
100
AcDbEntity
  8
7_ALL_FEATURES
100
AcDbLine
 62
7
  6
CONTINUOUS
 10
268.1236581211
 20
199.5368760441
 11
314.7918426548
 21
199.5368760441
  0
LINE
  5
404
100
AcDbEntity
  8
7_ALL_FEATURES
100
AcDbLine
 62
7
  6
CONTINUOUS
 10
322.9038974021
 20
199.5368760441
 11
328.8833010836
 21
199.5368760441
  0
LINE
  5
405
100
AcDbEntity
  8
3_ALL_AXES
100
AcDbLine
 62
7
  6
CONTINUOUS
 10
272.5562898117
 20
194.0368760441
 11
272.5562898117
 21
193.6568760441
  0
LINE
  5
406
100
AcDbEntity
  8
7_ALL_FEATURES
100
AcDbLine
 62
7
  6
CONTINUOUS
 10
272.9702674103
 20
212.0368760441
 11
272.9702674103
 21
209.5368760441
  0
LINE
  5
407
100
AcDbEntity
  8
7_ALL_FEATURES
100
AcDbLine
 62
7
  6
CONTINUOUS
 10
272.9702674103
 20
207.0368760441
 11
272.9702674103
 21
204.5368760441
  0
LINE
  5
408
100
AcDbEntity
  8
7_ALL_FEATURES
100
AcDbLine
 62
7
  6
CONTINUOUS
 10
272.9702674103
 20
202.0368760441
 11
272.9702674103
 21
199.5368760441
  0
LINE
  5
409
100
AcDbEntity
  8
7_ALL_FEATURES
100
AcDbLine
 62
7
  6
CONTINUOUS
 10
272.9702674103
 20
197.0368760441
 11
272.9702674103
 21
195.5368760441
  0
LINE
  5
40A
100
AcDbEntity
  8
7_ALL_FEATURES
100
AcDbLine
 62
7
  6
CONTINUOUS
 10
275.3426224864
 20
194.0368760441
 11
275.3426224864
 21
194.5368760441
  0
LINE
  5
40B
100
AcDbEntity
  8
7_ALL_FEATURES
100
AcDbLine
 62
4
  6
CONTINUOUS
 10
264.8863786222
 20
197.3817591102
 11
265.0514961666
 21
197.894704442
  0
LINE
  5
40C
100
AcDbEntity
  8
7_ALL_FEATURES
100
AcDbLine
 62
4
  6
CONTINUOUS
 10
321.969506331
 20
201.7396603228
 11
317.7640507452
 21
201.7396603228
  0
LINE
  5
40D
100
AcDbEntity
  8
7_ALL_FEATURES
100
AcDbLine
 62
4
  6
CONTINUOUS
 10
265.1417052817
 20
201.7396603228
 11
260.8622025868
 21
201.7396603228
  0
LINE
  5
40E
100
AcDbEntity
  8
7_ALL_FEATURES
100
AcDbLine
 62
7
  6
CONTINUOUS
 10
253.8841125357
 20
202.0368760441
 11
258.9706312839
 21
202.0368760441
  0
LINE
  5
40F
100
AcDbEntity
  8
7_ALL_FEATURES
100
AcDbLine
 62
7
  6
CONTINUOUS
 10
267.2114824501
 20
202.0368760441
 11
315.7200793614
 21
202.0368760441
  0
LINE
  5
410
100
AcDbEntity
  8
7_ALL_FEATURES
100
AcDbLine
 62
7
  6
CONTINUOUS
 10
323.8321341087
 20
202.0368760441
 11
328.8833010836
 21
202.0368760441
  0
LINE
  5
411
100
AcDbEntity
  8
7_ALL_FEATURES
100
AcDbLine
 62
9
  6
CONTINUOUS
 10
258.4264539021
 20
203.5283030769
 11
266.2722088428
 21
203.5283030769
  0
LINE
  5
412
100
AcDbEntity
  8
7_ALL_FEATURES
100
AcDbLine
 62
9
  6
CONTINUOUS
 10
316.6758911282
 20
203.5283030769
 11
324.3858930355
 21
203.5283030769
  0
LINE
  5
413
100
AcDbEntity
  8
7_ALL_FEATURES
100
AcDbLine
 62
7
  6
CONTINUOUS
 10
243.8837068096
 20
243.5368760441
 11
244.3837068096
 21
243.0368760441
  0
LINE
  5
414
100
AcDbEntity
  8
7_ALL_FEATURES
100
AcDbLine
 62
4
  6
CONTINUOUS
 10
263.7981087583
 20
198.0267627304
 11
264.2049464941
 21
198.6822026255
  0
LINE
  5
415
100
AcDbEntity
  8
7_ALL_FEATURES
100
AcDbLine
 62
7
  6
CONTINUOUS
 10
328.8833010836
 20
204.5368760441
 11
324.6495750818
 21
204.5368760441
  0
LINE
  5
416
100
AcDbEntity
  8
7_ALL_FEATURES
100
AcDbLine
 62
7
  6
CONTINUOUS
 10
258.1673342768
 20
204.5368760441
 11
253.8841125357
 21
204.5368760441
  0
LINE
  5
417
100
AcDbEntity
  8
7_ALL_FEATURES
100
AcDbLine
 62
7
  6
CONTINUOUS
 10
266.3753790233
 20
204.5368760441
 11
316.5709043897
 21
204.5368760441
  0
LINE
  5
418
100
AcDbEntity
  8
7_ALL_FEATURES
100
AcDbLine
 62
7
  6
CONTINUOUS
 10
328.8833010836
 20
207.0368760441
 11
324.5746967348
 21
207.0368760441
  0
LINE
  5
419
100
AcDbEntity
  8
7_ALL_FEATURES
100
AcDbLine
 62
7
  6
CONTINUOUS
 10
258.2409170235
 20
207.0368760441
 11
253.8841125357
 21
207.0368760441
  0
LINE
  5
41A
100
AcDbEntity
  8
7_ALL_FEATURES
100
AcDbLine
 62
7
  6
CONTINUOUS
 10
266.4536727247
 20
207.0368760441
 11
316.4912321404
 21
207.0368760441
  0
LINE
  5
41B
100
AcDbEntity
  8
7_ALL_FEATURES
100
AcDbLine
 62
7
  6
CONTINUOUS
 10
244.3837068096
 20
248.6368760441
 11
243.8837068096
 21
249.1368760441
  0
LINE
  5
41C
100
AcDbEntity
  8
7_ALL_FEATURES
100
AcDbLine
 62
9
  6
CONTINUOUS
 10
259.4215074647
 20
208.7881523518
 11
266.4120230308
 21
208.7881523518
  0
LINE
  5
41D
100
AcDbEntity
  8
7_ALL_FEATURES
100
AcDbLine
 62
9
  6
CONTINUOUS
 10
316.5186869181
 20
208.7881523518
 11
323.3882474326
 21
208.7881523518
  0
LINE
  5
41E
100
AcDbEntity
  8
7_ALL_FEATURES
100
AcDbLine
 62
7
  6
CONTINUOUS
 10
253.8841125357
 20
209.5368760441
 11
260.701523784
 21
209.5368760441
  0
LINE
  5
41F
100
AcDbEntity
  8
7_ALL_FEATURES
100
AcDbLine
 62
7
  6
CONTINUOUS
 10
266.2765434146
 20
209.5368760441
 11
316.6216809043
 21
209.5368760441
  0
LINE
  5
420
100
AcDbEntity
  8
7_ALL_FEATURES
100
AcDbLine
 62
7
  6
CONTINUOUS
 10
322.1120585035
 20
209.5368760441
 11
328.8833010836
 21
209.5368760441
  0
LINE
  5
421
100
AcDbEntity
  8
7_ALL_FEATURES
100
AcDbLine
 62
3
  6
CONTINUOUS
 10
321.7003339225
 20
209.7784295802
 11
316.7939690724
 21
209.7784295802
  0
LINE
  5
422
100
AcDbEntity
  8
7_ALL_FEATURES
100
AcDbLine
 62
3
  6
CONTINUOUS
 10
266.1072363033
 20
209.7784295802
 11
261.1144831592
 21
209.7784295802
  0
LINE
  5
423
100
AcDbEntity
  8
7_ALL_FEATURES
100
AcDbLine
 62
7
  6
CONTINUOUS
 10
253.8841125357
 20
212.0368760441
 11
328.8833010836
 21
212.0368760441
  0
LINE
  5
424
100
AcDbEntity
  8
7_ALL_FEATURES
100
AcDbLine
 62
7
  6
CONTINUOUS
 10
253.8837068096
 20
242.5368760441
 11
253.3837068096
 21
243.0368760441
  0
LINE
  5
425
100
AcDbEntity
  8
7_ALL_FEATURES
100
AcDbLine
 62
7
  6
CONTINUOUS
 10
244.3837068096
 20
254.1368760441
 11
244.1337068096
 21
254.3868760441
  0
LINE
  5
426
100
AcDbEntity
  8
7_ALL_FEATURES
100
AcDbLine
 62
9
  6
CONTINUOUS
 10
258.3815205838
 20
203.5283030769
 11
258.4182954599
 21
203.5551432827
  0
LINE
  5
427
100
AcDbEntity
  8
7_ALL_FEATURES
100
AcDbLine
 62
3
  6
CONTINUOUS
 10
261.1144831592
 20
209.7784295802
 11
259.4215074647
 21
208.7881523518
  0
LINE
  5
428
100
AcDbEntity
  8
7_ALL_FEATURES
100
AcDbLine
 62
7
  6
CONTINUOUS
 10
328.8834589372
 20
214.5368760441
 11
253.8839546821
 21
214.5368760441
  0
LINE
  5
429
100
AcDbEntity
  8
7_ALL_FEATURES
100
AcDbLine
 62
9
  6
CONTINUOUS
 10
313.371609606
 20
194.6289525695
 11
313.0552791684
 21
194.8598268762
  0
LINE
  5
42A
100
AcDbEntity
  8
7_ALL_FEATURES
100
AcDbLine
 62
9
  6
CONTINUOUS
 10
266.2722088428
 20
203.5283030769
 11
266.5830658981
 21
203.7591773836
  0
LINE
  5
42B
100
AcDbEntity
  8
7_ALL_FEATURES
100
AcDbLine
 62
7
  6
CONTINUOUS
 10
253.8839546821
 20
217.0368760441
 11
328.8834589372
 21
217.0368760441
  0
LINE
  5
42C
100
AcDbEntity
  8
7_ALL_FEATURES
100
AcDbLine
 62
7
  6
CONTINUOUS
 10
328.8834589372
 20
219.5368760441
 11
253.8839546821
 21
219.5368760441
  0
LINE
  5
42D
100
AcDbEntity
  8
7_ALL_FEATURES
100
AcDbLine
 62
7
  6
CONTINUOUS
 10
253.8839546821
 20
222.0368760441
 11
328.8834589372
 21
222.0368760441
  0
LINE
  5
42E
100
AcDbEntity
  8
7_ALL_FEATURES
100
AcDbLine
 62
9
  6
CONTINUOUS
 10
316.6758911282
 20
203.5283030769
 11
316.3595606906
 21
203.7591773836
  0
LINE
  5
42F
100
AcDbEntity
  8
7_ALL_FEATURES
100
AcDbLine
 62
9
  6
CONTINUOUS
 10
269.5193172512
 20
194.6289525695
 11
269.8301743065
 21
194.8598268762
  0
LINE
  5
430
100
AcDbEntity
  8
7_ALL_FEATURES
100
AcDbLine
 62
7
  6
CONTINUOUS
 10
328.8834589372
 20
224.5368760441
 11
253.8839546821
 21
224.5368760441
  0
LINE
  5
431
100
AcDbEntity
  8
7_ALL_FEATURES
100
AcDbLine
 62
7
  6
CONTINUOUS
 10
253.8839546821
 20
227.0368760441
 11
328.8834589372
 21
227.0368760441
  0
LINE
  5
432
100
AcDbEntity
  8
7_ALL_FEATURES
100
AcDbLine
 62
3
  6
CONTINUOUS
 10
323.3882474326
 20
208.7881523518
 11
321.7003339225
 21
209.7784295802
  0
LINE
  5
433
100
AcDbEntity
  8
7_ALL_FEATURES
100
AcDbLine
 62
7
  6
CONTINUOUS
 10
338.3837068096
 20
254.1368760441
 11
338.6337068096
 21
254.3868760441
  0
LINE
  5
434
100
AcDbEntity
  8
7_ALL_FEATURES
100
AcDbLine
 62
7
  6
CONTINUOUS
 10
328.8837068096
 20
242.5368760441
 11
329.3837068096
 21
243.0368760441
  0
LINE
  5
435
100
AcDbEntity
  8
7_ALL_FEATURES
100
AcDbLine
 62
7
  6
CONTINUOUS
 10
328.8834589372
 20
229.5368760441
 11
253.8839546821
 21
229.5368760441
  0
LINE
  5
436
100
AcDbEntity
  8
7_ALL_FEATURES
100
AcDbLine
 62
7
  6
CONTINUOUS
 10
307.4457711472
 20
194.0368760441
 11
307.4457711472
 21
194.5368760441
  0
LINE
  5
437
100
AcDbEntity
  8
7_ALL_FEATURES
100
AcDbLine
 62
7
  6
CONTINUOUS
 10
338.3837068096
 20
248.6368760441
 11
338.8837068096
 21
249.1368760441
  0
LINE
  5
438
100
AcDbEntity
  8
03___PRT_ALL_CURVES
100
AcDbLine
 62
40
  6
CONTINUOUS
 10
321.0816115133
 20
194.6289525695
 11
316.6758911282
 21
203.5283030769
  0
LINE
  5
439
100
AcDbEntity
  8
7_ALL_FEATURES
100
AcDbLine
 62
7
  6
CONTINUOUS
 10
309.797146209
 20
212.0368760441
 11
309.797146209
 21
209.5368760441
  0
LINE
  5
43A
100
AcDbEntity
  8
7_ALL_FEATURES
100
AcDbLine
 62
7
  6
CONTINUOUS
 10
309.797146209
 20
207.0368760441
 11
309.797146209
 21
204.5368760441
  0
LINE
  5
43B
100
AcDbEntity
  8
7_ALL_FEATURES
100
AcDbLine
 62
7
  6
CONTINUOUS
 10
309.797146209
 20
202.0368760441
 11
309.797146209
 21
199.5368760441
  0
LINE
  5
43C
100
AcDbEntity
  8
7_ALL_FEATURES
100
AcDbLine
 62
7
  6
CONTINUOUS
 10
309.797146209
 20
197.0368760441
 11
309.797146209
 21
195.5368760441
  0
LINE
  5
43D
100
AcDbEntity
  8
3_ALL_AXES
100
AcDbLine
 62
7
  6
CONTINUOUS
 10
310.2111238076
 20
194.0368760441
 11
310.2111238076
 21
193.6568760441
  0
LINE
  5
43E
100
AcDbEntity
  8
7_ALL_FEATURES
100
AcDbLine
 62
7
  6
CONTINUOUS
 10
338.3837068096
 20
243.0368760441
 11
338.8837068096
 21
243.5368760441
  0
LINE
  5
43F
100
AcDbEntity
  8
0
100
AcDbLine
 62
2
  6
CONTINUOUS
 10
312.0111238076
 20
199.5368760441
 11
312.0111238076
 21
197.0368760441
  0
LINE
  5
440
100
AcDbEntity
  8
3_ALL_AXES
100
AcDbLine
 62
7
  6
CONTINUOUS
 10
312.0111238076
 20
199.5368760441
 11
312.0111238076
 21
197.0368760441
  0
LINE
  5
441
100
AcDbEntity
  8
7_ALL_FEATURES
100
AcDbLine
 62
9
  6
CONTINUOUS
 10
312.6756826433
 20
194.0368760441
 11
312.6756826433
 21
194.5368760441
  0
LINE
  5
442
100
AcDbEntity
  8
7_ALL_FEATURES
100
AcDbLine
 62
7
  6
CONTINUOUS
 10
253.8837068096
 20
242.5368760441
 11
328.8837068096
 21
242.5368760441
  0
LINE
  5
443
100
AcDbEntity
  8
7_ALL_FEATURES
100
AcDbLine
 62
7
  6
CONTINUOUS
 10
338.3837068096
 20
243.0368760441
 11
244.3837068096
 21
243.0368760441
  0
LINE
  5
444
100
AcDbEntity
  8
7_ALL_FEATURES
100
AcDbLine
 62
7
  6
CONTINUOUS
 10
338.635690895
 20
243.5368760441
 11
244.1317227243
 21
243.5368760441
  0
LINE
  5
445
100
AcDbEntity
  8
7_ALL_FEATURES
100
AcDbLine
 62
4
  6
CONTINUOUS
 10
318.7892842978
 20
196.9155040714
 11
318.2901224483
 21
198.7412590583
  0
LINE
  5
446
100
AcDbEntity
  8
7_ALL_FEATURES
100
AcDbLine
 62
7
  6
CONTINUOUS
 10
317.3837068096
 20
187.2868760441
 11
317.3837068096
 21
189.7868760441
  0
LINE
  5
447
100
AcDbEntity
  8
7_ALL_FEATURES
100
AcDbLine
 62
7
  6
CONTINUOUS
 10
317.3837068096
 20
192.0368760441
 11
317.3837068096
 21
192.9981105472
  0
LINE
  5
448
100
AcDbEntity
  8
3_ALL_AXES
100
AcDbLine
 62
7
  6
CONTINUOUS
 10
317.8111238076
 20
194.0368760441
 11
317.8111238076
 21
193.6568760441
  0
LINE
  5
449
100
AcDbEntity
  8
02___PRT_ALL_AXES
100
AcDbLine
 62
7
  6
CONTINUOUS
 10
319.3837068096
 20
192.0368760441
 11
319.3837068096
 21
189.7868760441
  0
LINE
  5
44A
100
AcDbEntity
  8
02___PRT_ALL_AXES
100
AcDbLine
 62
7
  6
CONTINUOUS
 10
319.3837068096
 20
187.2868760441
 11
319.3837068096
 21
185.5368760441
  0
LINE
  5
44B
100
AcDbEntity
  8
7_ALL_FEATURES
100
AcDbLine
 62
7
  6
CONTINUOUS
 10
316.2665148034
 20
208.4345989612
 11
316.5417969578
 21
209.4248761896
  0
LINE
  5
44C
100
AcDbEntity
  8
7_ALL_FEATURES
100
AcDbLine
 62
3
  6
CONTINUOUS
 10
316.7939690724
 20
209.7784295802
 11
316.5186869181
 21
208.7881523518
  0
LINE
  5
44D
100
AcDbEntity
  8
7_ALL_FEATURES
100
AcDbLine
 62
7
  6
CONTINUOUS
 10
316.5417969578
 20
209.4248761896
 11
316.7939690724
 21
209.7784295802
  0
LINE
  5
44E
100
AcDbEntity
  8
7_ALL_FEATURES
100
AcDbLine
 62
7
  6
CONTINUOUS
 10
316.1258777293
 20
207.9787114964
 11
316.3806062021
 21
208.335848983
  0
LINE
  5
44F
100
AcDbEntity
  8
7_ALL_FEATURES
100
AcDbLine
 62
7
  6
CONTINUOUS
 10
244.1317227243
 20
247.0368760441
 11
338.635690895
 21
247.0368760441
  0
LINE
  5
450
100
AcDbEntity
  8
7_ALL_FEATURES
100
AcDbLine
 62
7
  6
CONTINUOUS
 10
244.3837068096
 20
247.5368760441
 11
338.3837068096
 21
247.5368760441
  0
LINE
  5
451
100
AcDbEntity
  8
7_ALL_FEATURES
100
AcDbLine
 62
7
  6
CONTINUOUS
 10
316.3595606906
 20
203.7591773836
 11
313.0552791684
 21
194.8598268762
  0
LINE
  5
452
100
AcDbEntity
  8
7_ALL_FEATURES
100
AcDbLine
 62
3
  6
CONTINUOUS
 10
316.6758911282
 20
203.5283030769
 11
313.371609606
 21
194.6289525695
  0
LINE
  5
453
100
AcDbEntity
  8
7_ALL_FEATURES
100
AcDbLine
 62
4
  6
CONTINUOUS
 10
317.7640507452
 20
201.7396603228
 11
315.7879963105
 21
196.4175953237
  0
LINE
  5
454
100
AcDbEntity
  8
7_ALL_FEATURES
100
AcDbLine
 62
7
  6
CONTINUOUS
 10
317.3228620647
 20
199.3873075932
 11
316.4654740017
 21
197.0781227241
  0
LINE
  5
455
100
AcDbEntity
  8
7_ALL_FEATURES
100
AcDbLine
 62
7
  6
CONTINUOUS
 10
338.3837068096
 20
248.6368760441
 11
244.3837068096
 21
248.6368760441
  0
LINE
  5
456
100
AcDbEntity
  8
06___PRT_ALL_SURFS
100
AcDbLine
 62
7
  6
CONTINUOUS
 10
338.3837068096
 20
248.6368760441
 11
244.3837068096
 21
248.6368760441
  0
LINE
  5
457
100
AcDbEntity
  8
7_ALL_FEATURES
100
AcDbLine
 62
7
  6
CONTINUOUS
 10
338.3837068096
 20
249.1368760441
 11
244.3837068096
 21
249.1368760441
  0
LINE
  5
458
100
AcDbEntity
  8
7_ALL_FEATURES
100
AcDbLine
 62
7
  6
CONTINUOUS
 10
324.0516612832
 20
212.0368760441
 11
324.0516612832
 21
209.5368760441
  0
LINE
  5
459
100
AcDbEntity
  8
7_ALL_FEATURES
100
AcDbLine
 62
7
  6
CONTINUOUS
 10
324.0516612832
 20
202.0368760441
 11
324.0516612832
 21
199.5368760441
  0
LINE
  5
45A
100
AcDbEntity
  8
7_ALL_FEATURES
100
AcDbLine
 62
7
  6
CONTINUOUS
 10
324.0516612832
 20
197.0368760441
 11
324.0516612832
 21
195.5368760441
  0
LINE
  5
45B
100
AcDbEntity
  8
7_ALL_FEATURES
100
AcDbLine
 62
7
  6
CONTINUOUS
 10
325.8837068096
 20
207.0368760441
 11
325.8837068096
 21
209.5368760441
  0
LINE
  5
45C
100
AcDbEntity
  8
7_ALL_FEATURES
100
AcDbLine
 62
7
  6
CONTINUOUS
 10
325.8837068096
 20
212.0368760441
 11
325.8837068096
 21
214.5368760441
  0
LINE
  5
45D
100
AcDbEntity
  8
7_ALL_FEATURES
100
AcDbLine
 62
7
  6
CONTINUOUS
 10
325.8837068096
 20
217.0368760441
 11
325.8837068096
 21
219.5368760441
  0
LINE
  5
45E
100
AcDbEntity
  8
7_ALL_FEATURES
100
AcDbLine
 62
7
  6
CONTINUOUS
 10
325.8837068096
 20
222.0368760441
 11
325.8837068096
 21
224.5368760441
  0
LINE
  5
45F
100
AcDbEntity
  8
7_ALL_FEATURES
100
AcDbLine
 62
7
  6
CONTINUOUS
 10
325.8837068096
 20
227.0368760441
 11
325.8837068096
 21
229.5368760441
  0
LINE
  5
460
100
AcDbEntity
  8
7_ALL_FEATURES
100
AcDbLine
 62
7
  6
CONTINUOUS
 10
320.1264991219
 20
199.3873075932
 11
319.2691110589
 21
197.0781227241
  0
LINE
  5
461
100
AcDbEntity
  8
7_ALL_FEATURES
100
AcDbLine
 62
4
  6
CONTINUOUS
 10
319.9934518963
 20
196.4175953237
 11
321.969506331
 21
201.7396603228
  0
LINE
  5
462
100
AcDbEntity
  8
7_ALL_FEATURES
100
AcDbLine
 62
4
  6
CONTINUOUS
 10
318.537975927
 20
197.3817591102
 11
319.0746105068
 21
197.894704442
  0
LINE
  5
463
100
AcDbEntity
  8
7_ALL_FEATURES
100
AcDbLine
 62
4
  6
CONTINUOUS
 10
317.9392930968
 20
198.0267627304
 11
318.817465346
 21
198.6822026255
  0
LINE
  5
464
100
AcDbEntity
  8
7_ALL_FEATURES
100
AcDbLine
 62
7
  6
CONTINUOUS
 10
244.3837068096
 20
254.1368760441
 11
338.3837068096
 21
254.1368760441
  0
LINE
  5
465
100
AcDbEntity
  8
7_ALL_FEATURES
100
AcDbLine
 62
7
  6
CONTINUOUS
 10
244.3837068096
 20
254.6368760441
 11
338.3837068096
 21
254.6368760441
  0
LINE
  5
466
100
AcDbEntity
  8
7_ALL_FEATURES
100
AcDbLine
 62
7
  6
CONTINUOUS
 10
328.8837068096
 20
242.5368760441
 11
328.8837068096
 21
229.5368760441
  0
LINE
  5
467
100
AcDbEntity
  8
7_ALL_FEATURES
100
AcDbLine
 62
7
  6
CONTINUOUS
 10
328.8837068096
 20
227.0368760441
 11
328.8837068096
 21
224.5368760441
  0
LINE
  5
468
100
AcDbEntity
  8
7_ALL_FEATURES
100
AcDbLine
 62
7
  6
CONTINUOUS
 10
328.8837068096
 20
222.0368760441
 11
328.8837068096
 21
219.5368760441
  0
LINE
  5
469
100
AcDbEntity
  8
7_ALL_FEATURES
100
AcDbLine
 62
7
  6
CONTINUOUS
 10
328.8837068096
 20
217.0368760441
 11
328.8837068096
 21
214.5368760441
  0
LINE
  5
46A
100
AcDbEntity
  8
7_ALL_FEATURES
100
AcDbLine
 62
7
  6
CONTINUOUS
 10
328.8837068096
 20
212.0368760441
 11
328.8837068096
 21
209.5368760441
  0
LINE
  5
46B
100
AcDbEntity
  8
7_ALL_FEATURES
100
AcDbLine
 62
7
  6
CONTINUOUS
 10
328.8837068096
 20
207.0368760441
 11
328.8837068096
 21
204.5368760441
  0
LINE
  5
46C
100
AcDbEntity
  8
7_ALL_FEATURES
100
AcDbLine
 62
7
  6
CONTINUOUS
 10
328.8837068096
 20
202.0368760441
 11
328.8837068096
 21
199.5368760441
  0
LINE
  5
46D
100
AcDbEntity
  8
7_ALL_FEATURES
100
AcDbLine
 62
7
  6
CONTINUOUS
 10
328.8837068096
 20
197.0368760441
 11
328.8837068096
 21
195.536937434
  0
LINE
  5
46E
100
AcDbEntity
  8
7_ALL_FEATURES
100
AcDbLine
 62
3
  6
CONTINUOUS
 10
321.0816115133
 20
194.6289525695
 11
324.3858930355
 21
203.5283030769
  0
LINE
  5
46F
100
AcDbEntity
  8
7_ALL_FEATURES
100
AcDbLine
 62
7
  6
CONTINUOUS
 10
327.8835680965
 20
194.5368760441
 11
328.8837068095
 21
195.5369374338
  0
LINE
  5
470
100
AcDbEntity
  8
7_ALL_FEATURES
100
AcDbLine
 62
9
  6
CONTINUOUS
 10
336.1337068096
 20
248.6368760441
 11
336.1337068096
 21
247.5368760441
  0
LINE
  5
471
100
AcDbEntity
  8
7_ALL_FEATURES
100
AcDbLine
 62
7
  6
CONTINUOUS
 10
338.1337068096
 20
248.6368760441
 11
338.1337068096
 21
247.5368760441
  0
LINE
  5
472
100
AcDbEntity
  8
7_ALL_FEATURES
100
AcDbLine
 62
7
  6
CONTINUOUS
 10
338.3837068096
 20
249.1368760441
 11
338.3837068096
 21
254.1368760441
  0
LINE
  5
473
100
AcDbEntity
  8
7_ALL_FEATURES
100
AcDbLine
 62
7
  6
CONTINUOUS
 10
338.635690895
 20
243.5368760441
 11
338.635690895
 21
247.0368760441
  0
LINE
  5
474
100
AcDbEntity
  8
7_ALL_FEATURES
100
AcDbLine
 62
7
  6
CONTINUOUS
 10
338.8837068096
 20
243.5368760441
 11
338.8837068096
 21
247.0368760441
  0
LINE
  5
475
100
AcDbEntity
  8
7_ALL_FEATURES
100
AcDbLine
 62
7
  6
CONTINUOUS
 10
338.8837068096
 20
249.1368760441
 11
338.8837068096
 21
254.1368760441
  0
LINE
  5
476
100
AcDbEntity
  8
7_ALL_FEATURES
100
AcDbLine
 62
7
  6
CONTINUOUS
 10
318.3837068096
 20
184.5368760441
 11
319.3837068096
 21
185.5368760441
  0
LINE
  5
477
100
AcDbEntity
  8
7_ALL_FEATURES
100
AcDbLine
 62
7
  6
CONTINUOUS
 10
338.8837068096
 20
247.0368760441
 11
338.3837068096
 21
247.5368760441
  0
LINE
  5
478
100
AcDbEntity
  8
7_ALL_FEATURES
100
AcDbLine
 62
7
  6
CONTINUOUS
 10
338.3837068096
 20
249.1368760441
 11
338.6337068096
 21
248.8868760441
  0
LINE
  5
479
100
AcDbEntity
  8
7_ALL_FEATURES
100
AcDbLine
 62
7
  6
CONTINUOUS
 10
338.8837068096
 20
254.1368760441
 11
338.3837068096
 21
254.6368760441
  0
ARC
  5
47A
100
AcDbEntity
  8
7_ALL_FEATURES
100
AcDbCircle
 62
7
  6
CONTINUOUS
 10
120.8938056174
 20
76.5212736374
 40
67.0
100
AcDbArc
 50
224.8500270697
 51
225.1499729303
  0
ARC
  5
47B
100
AcDbEntity
  8
7_ALL_FEATURES
100
AcDbCircle
 62
7
  6
CONTINUOUS
 10
120.8938056174
 20
76.5212736374
 40
67.0
100
AcDbArc
 50
134.8500270697
 51
135.1499729303
  0
ARC
  5
47C
100
AcDbEntity
  8
7_ALL_FEATURES
100
AcDbCircle
 62
7
  6
CONTINUOUS
 10
120.8938056174
 20
76.5212736374
 40
67.0
100
AcDbArc
 50
44.8500270697
 51
45.1499729303
  0
ARC
  5
47D
100
AcDbEntity
  8
7_ALL_FEATURES
100
AcDbCircle
 62
7
  6
CONTINUOUS
 10
120.8938056174
 20
76.5212736374
 40
67.0
100
AcDbArc
 50
314.8500270697
 51
315.1499729303
  0
ARC
  5
47E
100
AcDbEntity
  8
3_ALL_AXES
100
AcDbCircle
 62
7
  6
CONTINUOUS
 10
98.4088314167
 20
195.5095161358
 40
4.1
100
AcDbArc
 50
296.3930257743
 51
333.1366968699
  0
ARC
  5
47F
100
AcDbEntity
  8
3_ALL_AXES
100
AcDbCircle
 62
7
  6
CONTINUOUS
 10
98.123945822
 20
195.5095161358
 40
4.1
100
AcDbArc
 50
206.8633031301
 51
243.6069742257
  0
ARC
  5
480
100
AcDbEntity
  8
3_ALL_AXES
100
AcDbCircle
 62
7
  6
CONTINUOUS
 10
143.6636654127
 20
195.5095161358
 40
4.1
100
AcDbArc
 50
296.3930257743
 51
333.1366968699
  0
ARC
  5
481
100
AcDbEntity
  8
3_ALL_AXES
100
AcDbCircle
 62
7
  6
CONTINUOUS
 10
143.378779818
 20
195.5095161358
 40
4.1
100
AcDbArc
 50
206.8633031301
 51
243.6069742257
  0
ARC
  5
482
100
AcDbEntity
  8
7_ALL_FEATURES
100
AcDbCircle
 62
7
  6
CONTINUOUS
 10
291.3836865448
 20
196.0368557261
 40
67.0000286964
100
AcDbArc
 50
45.0000000321
 51
45.1499728982
  0
ARC
  5
483
100
AcDbEntity
  8
3_ALL_AXES
100
AcDbCircle
 62
7
  6
CONTINUOUS
 10
268.6138470143
 20
195.5095161358
 40
4.1
100
AcDbArc
 50
206.8633031301
 51
243.6069742257
  0
ARC
  5
484
100
AcDbEntity
  8
3_ALL_AXES
100
AcDbCircle
 62
7
  6
CONTINUOUS
 10
268.898732609
 20
195.5095161358
 40
4.1
100
AcDbArc
 50
296.3930257743
 51
333.1366968699
  0
ARC
  5
485
100
AcDbEntity
  8
3_ALL_AXES
100
AcDbCircle
 62
7
  6
CONTINUOUS
 10
313.8686810103
 20
195.5095161358
 40
4.1
100
AcDbArc
 50
206.8633031301
 51
243.6069742257
  0
ARC
  5
486
100
AcDbEntity
  8
3_ALL_AXES
100
AcDbCircle
 62
7
  6
CONTINUOUS
 10
314.153566605
 20
195.5095161358
 40
4.1
100
AcDbArc
 50
296.3930257743
 51
333.1366968699
  0
SPLINE
  5
487
100
AcDbEntity
  8
7_ALL_FEATURES
100
AcDbSpline
 62
7
  6
CONTINUOUS
 70
0
 71
3
 72
11
 73
7
 74
0
 42
0.0000001
 43
0.0000001
 44
0.0000000001
 40
0.0
 40
0.0
 40
0.0
 40
0.0
 40
0.284055731
 40
0.5436440262
 40
0.7793838512
 40
1.0
 40
1.0
 40
1.0
 40
1.0
 10
99.3402731142
 20
194.8598268762
 30
0.0
 10
99.3572531913
 20
194.8132895761
 30
0.0
 10
99.3990354861
 20
194.7271263514
 30
0.0
 10
99.487541998
 20
194.6218101106
 30
0.0
 10
99.5945447101
 20
194.5531760458
 30
0.0
 10
99.6748269147
 20
194.5368760441
 30
0.0
 10
99.7133015805
 20
194.5368760441
 30
0.0
  0
SPLINE
  5
488
100
AcDbEntity
  8
7_ALL_FEATURES
100
AcDbSpline
 62
7
  6
CONTINUOUS
 70
0
 71
3
 72
11
 73
7
 74
0
 42
0.0000001
 43
0.0000001
 44
0.0000000001
 40
0.0
 40
0.0
 40
0.0
 40
0.0
 40
0.2412659907
 40
0.4946971734
 40
0.7509168328
 40
1.0
 40
1.0
 40
1.0
 40
1.0
 10
96.3228043122
 20
207.9787114964
 30
0.0
 10
96.1629182709
 20
207.6690788469
 30
0.0
 10
95.91211567
 20
206.9926480658
 30
0.0
 10
95.7490779643
 20
205.9136785395
 30
0.0
 10
95.7957525097
 20
204.8122768306
 30
0.0
 10
95.9698484273
 20
204.0971503267
 30
0.0
 10
96.0931647058
 20
203.7591773836
 30
0.0
  0
SPLINE
  5
489
100
AcDbEntity
  8
7_ALL_FEATURES
100
AcDbSpline
 62
4
  6
CONTINUOUS
 70
0
 71
3
 72
179
 73
175
 74
0
 42
0.0000001
 43
0.0000001
 44
0.0000000001
 40
0.0
 40
0.0
 40
0.0
 40
0.0
 40
0.03125
 40
0.046875
 40
0.0625
 40
0.078125
 40
0.09375
 40
0.1015625
 40
0.109375
 40
0.11328125
 40
0.1171875
 40
0.12109375
 40
0.123046875
 40
0.1240234375
 40
0.125
 40
0.1259765625
 40
0.126953125
 40
0.12890625
 40
0.1328125
 40
0.13671875
 40
0.140625
 40
0.1484375
 40
0.15625
 40
0.171875
 40
0.1875
 40
0.203125
 40
0.21875
 40
0.2265625
 40
0.234375
 40
0.23828125
 40
0.2421875
 40
0.24609375
 40
0.248046875
 40
0.2490234375
 40
0.25
 40
0.2509765625
 40
0.251953125
 40
0.25390625
 40
0.2578125
 40
0.26171875
 40
0.265625
 40
0.2734375
 40
0.28125
 40
0.296875
 40
0.3125
 40
0.328125
 40
0.3359375
 40
0.34375
 40
0.3515625
 40
0.359375
 40
0.36328125
 40
0.3671875
 40
0.37109375
 40
0.373046875
 40
0.3740234375
 40
0.375
 40
0.3759765625
 40
0.376953125
 40
0.37890625
 40
0.3828125
 40
0.38671875
 40
0.390625
 40
0.3984375
 40
0.40625
 40
0.4140625
 40
0.421875
 40
0.4375
 40
0.453125
 40
0.4609375
 40
0.46875
 40
0.4765625
 40
0.484375
 40
0.48828125
 40
0.4921875
 40
0.494140625
 40
0.49609375
 40
0.498046875
 40
0.4990234375
 40
0.4995117188
 40
0.5
 40
0.5004882812
 40
0.5009765625
 40
0.501953125
 40
0.50390625
 40
0.505859375
 40
0.5078125
 40
0.51171875
 40
0.515625
 40
0.5234375
 40
0.53125
 40
0.5390625
 40
0.546875
 40
0.5625
 40
0.578125
 40
0.5859375
 40
0.59375
 40
0.6015625
 40
0.609375
 40
0.61328125
 40
0.6171875
 40
0.619140625
 40
0.62109375
 40
0.623046875
 40
0.6240234375
 40
0.6245117188
 40
0.625
 40
0.6254882812
 40
0.6259765625
 40
0.626953125
 40
0.62890625
 40
0.630859375
 40
0.6328125
 40
0.63671875
 40
0.640625
 40
0.6484375
 40
0.65625
 40
0.6640625
 40
0.671875
 40
0.6875
 40
0.703125
 40
0.7109375
 40
0.71875
 40
0.7265625
 40
0.734375
 40
0.73828125
 40
0.7421875
 40
0.744140625
 40
0.74609375
 40
0.748046875
 40
0.7490234375
 40
0.7495117188
 40
0.75
 40
0.7504882812
 40
0.7509765625
 40
0.751953125
 40
0.75390625
 40
0.755859375
 40
0.7578125
 40
0.76171875
 40
0.765625
 40
0.7734375
 40
0.78125
 40
0.7890625
 40
0.796875
 40
0.8125
 40
0.828125
 40
0.8359375
 40
0.84375
 40
0.8515625
 40
0.859375
 40
0.86328125
 40
0.8671875
 40
0.869140625
 40
0.87109375
 40
0.873046875
 40
0.8740234375
 40
0.8745117188
 40
0.875
 40
0.8754882812
 40
0.8759765625
 40
0.876953125
 40
0.87890625
 40
0.880859375
 40
0.8828125
 40
0.88671875
 40
0.890625
 40
0.8984375
 40
0.90625
 40
0.9140625
 40
0.921875
 40
0.9375
 40
0.953125
 40
0.96875
 40
1.0
 40
1.0
 40
1.0
 40
1.0
 10
93.4080501139
 20
197.3503444974
 30
0.0
 10
93.4148424498
 20
197.3414645453
 30
0.0
 10
93.425030953
 20
197.3281446166
 30
0.0
 10
93.4386156259
 20
197.3103847133
 30
0.0
 10
93.448804126
 20
197.2970647819
 30
0.0
 10
93.4589926435
 20
197.2837448655
 30
0.0
 10
93.4674830205
 20
197.2726448884
 30
0.0
 10
93.4742754436
 20
197.2637650115
 30
0.0
 10
93.4785204313
 20
197.2582148499
 30
0.0
 10
93.4819170552
 20
197.2537752669
 30
0.0
 10
93.4844627882
 20
197.2504440839
 30
0.0
 10
93.4865897512
 20
197.2476728563
 30
0.0
 10
93.4880677948
 20
197.245723659
 30
0.0
 10
93.488929302
 20
197.2446244125
 30
0.0
 10
93.4895277945
 20
197.2437589041
 30
0.0
 10
93.4903083829
 20
197.2430503997
 30
0.0
 10
93.4912856504
 20
197.2420509624
 30
0.0
 10
93.4930254623
 20
197.2403274632
 30
0.0
 10
93.4954954359
 20
197.2378519814
 30
0.0
 10
93.4984660267
 20
197.2348871131
 30
0.0
 10
93.5024245013
 20
197.2309319611
 30
0.0
 10
93.5073733866
 20
197.225988704
 30
0.0
 10
93.5152911603
 20
197.2180791107
 30
0.0
 10
93.52518853
 20
197.2081922515
 30
0.0
 10
93.5370653057
 20
197.196327958
 30
0.0
 10
93.5489421093
 20
197.1844637024
 30
0.0
 10
93.5588394091
 20
197.1745767483
 30
0.0
 10
93.5667573226
 20
197.1666673449
 30
0.0
 10
93.5717058526
 20
197.1617236053
 30
0.0
 10
93.5756650564
 20
197.1577694434
 30
0.0
 10
93.5786334195
 20
197.1548015502
 30
0.0
 10
93.5811103631
 20
197.1523355328
 30
0.0
 10
93.5828377323
 20
197.150595138
 30
0.0
 10
93.5838349361
 20
197.1496227717
 30
0.0
 10
93.5845542868
 20
197.148831114
 30
0.0
 10
93.5853827781
 20
197.1482779159
 30
0.0
 10
93.5864493637
 20
197.147457141
 30
0.0
 10
93.5883336258
 20
197.1460595389
 30
0.0
 10
93.5910161556
 20
197.1440427035
 30
0.0
 10
93.5942391605
 20
197.1416311733
 30
0.0
 10
93.5985351141
 20
197.1384127707
 30
0.0
 10
93.6039055308
 20
197.1343908046
 30
0.0
 10
93.6124979321
 20
197.1279550793
 30
0.0
 10
93.6232385248
 20
197.1199106211
 30
0.0
 10
93.6361271973
 20
197.1102571878
 30
0.0
 10
93.6468677656
 20
197.1022126735
 30
0.0
 10
93.6554602206
 20
197.0957770715
 30
0.0
 10
93.6619045558
 20
197.0909503334
 30
0.0
 10
93.6683489152
 20
197.0861237372
 30
0.0
 10
93.6737191393
 20
197.0821011314
 30
0.0
 10
93.6780154873
 20
197.0788840372
 30
0.0
 10
93.6812372873
 20
197.0764685108
 30
0.0
 10
93.6839235871
 20
197.0744641783
 30
0.0
 10
93.6858011192
 20
197.0730442564
 30
0.0
 10
93.686878488
 20
197.0722592435
 30
0.0
 10
93.6876738568
 20
197.0715961962
 30
0.0
 10
93.68851761
 20
197.071217114
 30
0.0
 10
93.6896257373
 20
197.0706126208
 30
0.0
 10
93.6915728233
 20
197.0696009071
 30
0.0
 10
93.6943502637
 20
197.0681314745
 30
0.0
 10
93.6976849518
 20
197.0663784827
 30
0.0
 10
93.702130588
 20
197.0640375527
 30
0.0
 10
93.7076878442
 20
197.0611126282
 30
0.0
 10
93.7143564612
 20
197.0576021881
 30
0.0
 10
93.7210251024
 20
197.05409189
 30
0.0
 10
93.7299166155
 20
197.0494114428
 30
0.0
 10
93.7410310098
 20
197.0435609012
 30
0.0
 10
93.7521454031
 20
197.0377103526
 30
0.0
 10
93.7610369179
 20
197.0330299165
 30
0.0
 10
93.7677055541
 20
197.0295195853
 30
0.0
 10
93.7743741896
 20
197.0260092693
 30
0.0
 10
93.7799313881
 20
197.0230839587
 30
0.0
 10
93.784377142
 20
197.020743816
 30
0.0
 10
93.7871557492
 20
197.019280986
 30
0.0
 10
93.7893786098
 20
197.0181112736
 30
0.0
 10
93.7910458242
 20
197.017232479
 30
0.0
 10
93.79243495
 20
197.0165049546
 30
0.0
 10
93.7934077689
 20
197.0159862589
 30
0.0
 10
93.7939629928
 20
197.0157045835
 30
0.0
 10
93.7943813056
 20
197.0154518542
 30
0.0
 10
93.7947923751
 20
197.0153576549
 30
0.0
 10
93.7953429943
 20
197.0151767588
 30
0.0
 10
93.7963054007
 20
197.0148859546
 30
0.0
 10
93.7976808825
 20
197.0144570502
 30
0.0
 10
93.7993311972
 20
197.0139481305
 30
0.0
 10
93.8015317089
 20
197.0132675571
 30
0.0
 10
93.804282317
 20
197.0124175299
 30
0.0
 10
93.8086833075
 20
197.0110571009
 30
0.0
 10
93.8141845395
 20
197.009356697
 30
0.0
 10
93.8207860206
 20
197.0073161555
 30
0.0
 10
93.827387501
 20
197.0052756293
 30
0.0
 10
93.8361894751
 20
197.0025549223
 30
0.0
 10
93.8471919426
 20
196.9991540405
 30
0.0
 10
93.8581944103
 20
196.9957531574
 30
0.0
 10
93.8669963841
 20
196.9930324526
 30
0.0
 10
93.8735978654
 20
196.9909919197
 30
0.0
 10
93.8801993431
 20
196.988951403
 30
0.0
 10
93.8857005859
 20
196.9872509222
 30
0.0
 10
93.8901015545
 20
196.9858906499
 30
0.0
 10
93.8928522182
 20
196.9850402242
 30
0.0
 10
93.8950526157
 20
196.9843604687
 30
0.0
 10
93.8967032792
 20
196.9838490501
 30
0.0
 10
93.8980776696
 20
196.983427964
 30
0.0
 10
93.8990420244
 20
196.9831232029
 30
0.0
 10
93.8995895218
 20
196.9829646692
 30
0.0
 10
93.9000101807
 20
196.9828017798
 30
0.0
 10
93.9003924774
 20
196.9828070392
 30
0.0
 10
93.9009155874
 20
196.9827553996
 30
0.0
 10
93.9018247956
 20
196.9826923575
 30
0.0
 10
93.9031269238
 20
196.9825880104
 30
0.0
 10
93.9046880825
 20
196.9824689091
 30
0.0
 10
93.9067701148
 20
196.9823079714
 30
0.0
 10
93.9093724882
 20
196.9821075307
 30
0.0
 10
93.913536379
 20
196.9817864168
 30
0.0
 10
93.9187412105
 20
196.9813851646
 30
0.0
 10
93.924987022
 20
196.9809036019
 30
0.0
 10
93.9312328298
 20
196.9804220553
 30
0.0
 10
93.9395605749
 20
196.9797799875
 30
0.0
 10
93.9499702557
 20
196.9789774049
 30
0.0
 10
93.960379937
 20
196.9781748209
 30
0.0
 10
93.9687076814
 20
196.9775327554
 30
0.0
 10
93.9749534913
 20
196.977051202
 30
0.0
 10
93.9811992948
 20
196.9765696648
 30
0.0
 10
93.9864041513
 20
196.9761683331
 30
0.0
 10
93.9905679912
 20
196.9758473815
 30
0.0
 10
93.9931704941
 20
196.9756465278
 30
0.0
 10
93.9952522606
 20
196.9754864378
 30
0.0
 10
93.9968142314
 20
196.9753647467
 30
0.0
 10
93.9981138188
 20
196.9752685024
 30
0.0
 10
93.9990275627
 20
196.9751909954
 30
0.0
 10
93.9995434053
 20
196.9751625321
 30
0.0
 10
93.9999480254
 20
196.9750966016
 30
0.0
 10
94.0002848411
 20
196.9752010899
 30
0.0
 10
94.0007575797
 20
196.9752809637
 30
0.0
 10
94.0015738527
 20
196.975448439
 30
0.0
 10
94.0027457181
 20
196.9756732095
 30
0.0
 10
94.0041494907
 20
196.9759491319
 30
0.0
 10
94.0060220487
 20
196.9763148638
 30
0.0
 10
94.0083624514
 20
196.9767727698
 30
0.0
 10
94.0121072605
 20
196.9775050051
 30
0.0
 10
94.0167882153
 20
196.9784204414
 30
0.0
 10
94.0224053853
 20
196.979518904
 30
0.0
 10
94.0280225488
 20
196.980617383
 30
0.0
 10
94.0355121024
 20
196.9820820159
 30
0.0
 10
94.0448740435
 20
196.9839128091
 30
0.0
 10
94.0542359853
 20
196.9857436009
 30
0.0
 10
94.0617255379
 20
196.9872082361
 30
0.0
 10
94.0673427045
 20
196.9883067082
 30
0.0
 10
94.0729598628
 20
196.9894051966
 30
0.0
 10
94.0776408541
 20
196.9903205527
 30
0.0
 10
94.0813855888
 20
196.9910529516
 30
0.0
 10
94.0837261807
 20
196.9915104414
 30
0.0
 10
94.0855983503
 20
196.9918770275
 30
0.0
 10
94.0870033095
 20
196.9921503399
 30
0.0
 10
94.0881714622
 20
196.9923832766
 30
0.0
 10
94.0889943631
 20
196.9925361739
 30
0.0
 10
94.0894564822
 20
196.9926394052
 30
0.0
 10
94.0898259173
 20
196.992672147
 30
0.0
 10
94.0901080244
 20
196.9928756847
 30
0.0
 10
94.0905146281
 20
196.9930874928
 30
0.0
 10
94.0912119924
 20
196.9934859143
 30
0.0
 10
94.0922156469
 20
196.9940405761
 30
0.0
 10
94.0934168564
 20
196.9947123818
 30
0.0
 10
94.0950195783
 20
196.9956059531
 30
0.0
 10
94.0970226009
 20
196.9967236601
 30
0.0
 10
94.1002276493
 20
196.9985115762
 30
0.0
 10
94.1042338871
 20
197.0007466137
 30
0.0
 10
94.1090414035
 20
197.0034285976
 30
0.0
 10
94.1138489117
 20
197.0061105979
 30
0.0
 10
94.1202589254
 20
197.0096865926
 30
0.0
 10
94.1282714416
 20
197.0141565879
 30
0.0
 10
94.1378864614
 20
197.0195205814
 30
0.0
 10
94.1507064878
 20
197.0266725731
 30
0.0
 10
94.1603215075
 20
197.0320365667
 30
0.0
 10
94.1667315207
 20
197.0356125625
 30
0.0
  0
SPLINE
  5
48A
100
AcDbEntity
  8
7_ALL_FEATURES
100
AcDbSpline
 62
4
  6
CONTINUOUS
 70
0
 71
3
 72
80
 73
76
 74
0
 42
0.0000001
 43
0.0000001
 44
0.0000000001
 40
0.0
 40
0.0
 40
0.0
 40
0.0
 40
0.0625
 40
0.09375
 40
0.109375
 40
0.125
 40
0.140625
 40
0.15625
 40
0.16015625
 40
0.1640625
 40
0.166015625
 40
0.16796875
 40
0.171875
 40
0.1796875
 40
0.1875
 40
0.203125
 40
0.21875
 40
0.25
 40
0.28125
 40
0.296875
 40
0.3125
 40
0.3203125
 40
0.328125
 40
0.33203125
 40
0.333984375
 40
0.3359375
 40
0.33984375
 40
0.34375
 40
0.359375
 40
0.375
 40
0.390625
 40
0.40625
 40
0.4375
 40
0.453125
 40
0.46875
 40
0.484375
 40
0.4921875
 40
0.49609375
 40
0.5
 40
0.50390625
 40
0.5078125
 40
0.515625
 40
0.53125
 40
0.546875
 40
0.5625
 40
0.59375
 40
0.609375
 40
0.625
 40
0.640625
 40
0.65625
 40
0.66015625
 40
0.6640625
 40
0.66796875
 40
0.671875
 40
0.6796875
 40
0.6875
 40
0.703125
 40
0.71875
 40
0.75
 40
0.78125
 40
0.796875
 40
0.8125
 40
0.8203125
 40
0.828125
 40
0.83203125
 40
0.833984375
 40
0.8359375
 40
0.83984375
 40
0.84375
 40
0.859375
 40
0.875
 40
0.890625
 40
0.90625
 40
0.9375
 40
1.0
 40
1.0
 40
1.0
 40
1.0
 10
94.1667315292
 20
197.0356125694
 30
0.0
 10
94.1729720363
 20
197.0411832719
 30
0.0
 10
94.1823328206
 20
197.0495392973
 30
0.0
 10
94.1932536529
 20
197.0592880927
 30
0.0
 10
94.1994942467
 20
197.0648586914
 30
0.0
 10
94.2041743611
 20
197.0690370367
 30
0.0
 10
94.2088557403
 20
197.0732138678
 30
0.0
 10
94.2123632284
 20
197.0763507363
 30
0.0
 10
94.2147070691
 20
197.0784353799
 30
0.0
 10
94.2156754624
 20
197.0793138057
 30
0.0
 10
94.2164693222
 20
197.0799936282
 30
0.0
 10
94.2171931667
 20
197.0807572637
 30
0.0
 10
94.2184273639
 20
197.0821325672
 30
0.0
 10
94.2202074756
 20
197.0840769688
 30
0.0
 10
94.2230461689
 20
197.0871993661
 30
0.0
 10
94.2265977848
 20
197.0910984733
 30
0.0
 10
94.2322785457
 20
197.0973392279
 30
0.0
 10
94.2393801836
 20
197.1051393552
 30
0.0
 10
94.2464813553
 20
197.1129400173
 30
0.0
 10
94.2521628622
 20
197.1191799164
 30
0.0
 10
94.2557126132
 20
197.1230811624
 30
0.0
 10
94.2585551295
 20
197.126199175
 30
0.0
 10
94.260325509
 20
197.1281547388
 30
0.0
 10
94.2615771862
 20
197.1295099938
 30
0.0
 10
94.2622730113
 20
197.1303057657
 30
0.0
 10
94.2628956943
 20
197.1311819161
 30
0.0
 10
94.2636990483
 20
197.1322496304
 30
0.0
 10
94.2656065215
 20
197.1348347568
 30
0.0
 10
94.2684763742
 20
197.1387029485
 30
0.0
 10
94.2722979023
 20
197.1438659684
 30
0.0
 10
94.2761207609
 20
197.149027527
 30
0.0
 10
94.2812173993
 20
197.1559101575
 30
0.0
 10
94.2863144151
 20
197.1627923957
 30
0.0
 10
94.2914106785
 20
197.1696753967
 30
0.0
 10
94.2952347558
 20
197.1748357513
 30
0.0
 10
94.2984155345
 20
197.1791420497
 30
0.0
 10
94.3006537573
 20
197.1821446819
 30
0.0
 10
94.3019145085
 20
197.1838788595
 30
0.0
 10
94.3029114352
 20
197.1851276942
 30
0.0
 10
94.3037120255
 20
197.1865745289
 30
0.0
 10
94.3048479636
 20
197.1884345773
 30
0.0
 10
94.3068039472
 20
197.1917218404
 30
0.0
 10
94.3096148913
 20
197.1964011073
 30
0.0
 10
94.3129808844
 20
197.2020234281
 30
0.0
 10
94.3174713667
 20
197.2095173426
 30
0.0
 10
94.3219611789
 20
197.2170119359
 30
0.0
 10
94.3264511327
 20
197.2245063777
 30
0.0
 10
94.3298188435
 20
197.2301269849
 30
0.0
 10
94.3331855016
 20
197.2357485643
 30
0.0
 10
94.3357134694
 20
197.2399620004
 30
0.0
 10
94.3373941531
 20
197.2427752347
 30
0.0
 10
94.3382427598
 20
197.2441742143
 30
0.0
 10
94.3390592328
 20
197.2456028886
 30
0.0
 10
94.3399949658
 20
197.2476490799
 30
0.0
 10
94.3412169839
 20
197.2501584408
 30
0.0
 10
94.3431429561
 20
197.2542004546
 30
0.0
 10
94.3455604402
 20
197.2592437122
 30
0.0
 10
94.3494228072
 20
197.2673181133
 30
0.0
 10
94.3542527469
 20
197.2774092356
 30
0.0
 10
94.3590817724
 20
197.2875013884
 30
0.0
 10
94.362945602
 20
197.2955741408
 30
0.0
 10
94.3653594298
 20
197.3006215204
 30
0.0
 10
94.3672928974
 20
197.3046550841
 30
0.0
 10
94.368495834
 20
197.3071859566
 30
0.0
 10
94.3693488728
 20
197.3089377368
 30
0.0
 10
94.3698191394
 20
197.3099697807
 30
0.0
 10
94.3702246817
 20
197.3111186861
 30
0.0
 10
94.3707537326
 20
197.3125148742
 30
0.0
 10
94.3720052464
 20
197.315898601
 30
0.0
 10
94.3738901649
 20
197.3209603831
 30
0.0
 10
94.3763990185
 20
197.327717318
 30
0.0
 10
94.3789090413
 20
197.3344721418
 30
0.0
 10
94.3822553305
 20
197.3434793101
 30
0.0
 10
94.3881115277
 20
197.3592415094
 30
0.0
 10
94.3931310598
 20
197.3727520842
 30
0.0
 10
94.3964774291
 20
197.3817591079
 30
0.0
  0
SPLINE
  5
48B
100
AcDbEntity
  8
7_ALL_FEATURES
100
AcDbSpline
 62
4
  6
CONTINUOUS
 70
0
 71
3
 72
159
 73
155
 74
0
 42
0.0000001
 43
0.0000001
 44
0.0000000001
 40
0.0
 40
0.0
 40
0.0
 40
0.0
 40
0.03125
 40
0.046875
 40
0.0625
 40
0.078125
 40
0.0859375
 40
0.09375
 40
0.1015625
 40
0.109375
 40
0.11328125
 40
0.1171875
 40
0.119140625
 40
0.12109375
 40
0.123046875
 40
0.1240234375
 40
0.125
 40
0.1259765625
 40
0.126953125
 40
0.12890625
 40
0.130859375
 40
0.1328125
 40
0.13671875
 40
0.140625
 40
0.1484375
 40
0.15625
 40
0.1640625
 40
0.171875
 40
0.1875
 40
0.203125
 40
0.2109375
 40
0.21875
 40
0.2265625
 40
0.234375
 40
0.23828125
 40
0.2421875
 40
0.24609375
 40
0.248046875
 40
0.2490234375
 40
0.25
 40
0.2509765625
 40
0.251953125
 40
0.25390625
 40
0.2578125
 40
0.26171875
 40
0.265625
 40
0.2734375
 40
0.28125
 40
0.2890625
 40
0.296875
 40
0.3125
 40
0.328125
 40
0.34375
 40
0.3515625
 40
0.359375
 40
0.36328125
 40
0.3671875
 40
0.37109375
 40
0.373046875
 40
0.3740234375
 40
0.375
 40
0.3759765625
 40
0.376953125
 40
0.37890625
 40
0.3828125
 40
0.38671875
 40
0.390625
 40
0.3984375
 40
0.40625
 40
0.421875
 40
0.4375
 40
0.453125
 40
0.46875
 40
0.4765625
 40
0.484375
 40
0.48828125
 40
0.4921875
 40
0.49609375
 40
0.498046875
 40
0.4990234375
 40
0.5
 40
0.5009765625
 40
0.501953125
 40
0.50390625
 40
0.5078125
 40
0.51171875
 40
0.515625
 40
0.5234375
 40
0.53125
 40
0.546875
 40
0.5625
 40
0.578125
 40
0.59375
 40
0.6015625
 40
0.609375
 40
0.61328125
 40
0.6171875
 40
0.62109375
 40
0.623046875
 40
0.6240234375
 40
0.625
 40
0.6259765625
 40
0.626953125
 40
0.62890625
 40
0.6328125
 40
0.63671875
 40
0.640625
 40
0.6484375
 40
0.65625
 40
0.671875
 40
0.6875
 40
0.703125
 40
0.71875
 40
0.7265625
 40
0.734375
 40
0.73828125
 40
0.7421875
 40
0.74609375
 40
0.748046875
 40
0.7490234375
 40
0.75
 40
0.7509765625
 40
0.751953125
 40
0.75390625
 40
0.7578125
 40
0.76171875
 40
0.765625
 40
0.7734375
 40
0.78125
 40
0.796875
 40
0.8125
 40
0.828125
 40
0.84375
 40
0.8515625
 40
0.859375
 40
0.86328125
 40
0.8671875
 40
0.87109375
 40
0.873046875
 40
0.8740234375
 40
0.875
 40
0.8759765625
 40
0.876953125
 40
0.87890625
 40
0.8828125
 40
0.88671875
 40
0.890625
 40
0.8984375
 40
0.90625
 40
0.921875
 40
0.9375
 40
0.953125
 40
0.96875
 40
1.0
 40
1.0
 40
1.0
 40
1.0
 10
93.0056047166
 20
199.3668705806
 30
0.0
 10
93.0022221458
 20
199.3626338779
 30
0.0
 10
92.9971482895
 20
199.3562788238
 30
0.0
 10
92.9903831479
 20
199.3478054183
 30
0.0
 10
92.9853092913
 20
199.3414503645
 30
0.0
 10
92.9810810786
 20
199.3361544851
 30
0.0
 10
92.9776985059
 20
199.3319177844
 30
0.0
 10
92.9751615836
 20
199.3287402513
 30
0.0
 10
92.9726246336
 20
199.3255627469
 30
0.0
 10
92.9705105948
 20
199.3229147372
 30
0.0
 10
92.9688191706
 20
199.3207965296
 30
0.0
 10
92.9677624703
 20
199.3194721942
 30
0.0
 10
92.9669161029
 20
199.3184137694
 30
0.0
 10
92.966284085
 20
199.3176170936
 30
0.0
 10
92.9657486308
 20
199.3169622863
 30
0.0
 10
92.9653399428
 20
199.3164180549
 30
0.0
 10
92.9649796643
 20
199.3160655844
 30
0.0
 10
92.9648245984
 20
199.3155004947
 30
0.0
 10
92.9645461604
 20
199.3148213123
 30
0.0
 10
92.9642227072
 20
199.3139468525
 30
0.0
 10
92.9638240362
 20
199.3129084077
 30
0.0
 10
92.9632961517
 20
199.3115200052
 30
0.0
 10
92.9626350372
 20
199.3097858063
 30
0.0
 10
92.9615779577
 20
199.3070103592
 30
0.0
 10
92.9602563668
 20
199.3035413004
 30
0.0
 10
92.9586705612
 20
199.2993783227
 30
0.0
 10
92.9570847279
 20
199.2952153736
 30
0.0
 10
92.9549702931
 20
199.2896647649
 30
0.0
 10
92.9523272475
 20
199.2827265066
 30
0.0
 10
92.9496841981
 20
199.2757882505
 30
0.0
 10
92.9475697694
 20
199.2702376382
 30
0.0
 10
92.9459839176
 20
199.2660746999
 30
0.0
 10
92.9443981817
 20
199.2619116816
 30
0.0
 10
92.9430763738
 20
199.258442749
 30
0.0
 10
92.9420197368
 20
199.2556670446
 30
0.0
 10
92.941225048
 20
199.2535867915
 30
0.0
 10
92.9405698402
 20
199.251848396
 30
0.0
 10
92.940097393
 20
199.2506410394
 30
0.0
 10
92.9398489734
 20
199.2499362564
 30
0.0
 10
92.9396019512
 20
199.249449544
 30
0.0
 10
92.9395869841
 20
199.2488027645
 30
0.0
 10
92.9394860846
 20
199.2479962251
 30
0.0
 10
92.9393472234
 20
199.2465587674
 30
0.0
 10
92.9391291334
 20
199.2445188567
 30
0.0
 10
92.938875865
 20
199.2420651425
 30
0.0
 10
92.9385352257
 20
199.238795557
 30
0.0
 10
92.9381104381
 20
199.2347078774
 30
0.0
 10
92.9376002595
 20
199.2298029609
 30
0.0
 10
92.9370901967
 20
199.2248979645
 30
0.0
 10
92.9364100731
 20
199.2183579969
 30
0.0
 10
92.9355599276
 20
199.2101830301
 30
0.0
 10
92.9345397702
 20
199.2003730634
 30
0.0
 10
92.9336895696
 20
199.1921981227
 30
0.0
 10
92.9330095672
 20
199.1856580976
 30
0.0
 10
92.9325842051
 20
199.1815707477
 30
0.0
 10
92.9322447413
 20
199.1783004881
 30
0.0
 10
92.9319878822
 20
199.1758488328
 30
0.0
 10
92.9317810264
 20
199.1738024802
 30
0.0
 10
92.9316221104
 20
199.1723765224
 30
0.0
 10
92.9315533437
 20
199.1715515573
 30
0.0
 10
92.9314396747
 20
199.1709613756
 30
0.0
 10
92.9315633607
 20
199.1702620912
 30
0.0
 10
92.9316454832
 20
199.1693677683
 30
0.0
 10
92.931827772
 20
199.167784972
 30
0.0
 10
92.9320680176
 20
199.1655331046
 30
0.0
 10
92.9323649443
 20
199.1628268957
 30
0.0
 10
92.9327578317
 20
199.1592200031
 30
0.0
 10
92.9332499732
 20
199.1547109129
 30
0.0
 10
92.9340368225
 20
199.1474966338
 30
0.0
 10
92.9350205834
 20
199.1384786935
 30
0.0
 10
92.9362010055
 20
199.1276572057
 30
0.0
 10
92.9373814727
 20
199.1168357023
 30
0.0
 10
92.9383651211
 20
199.1078178009
 30
0.0
 10
92.9391521953
 20
199.100603444
 30
0.0
 10
92.9396437653
 20
199.0960945514
 30
0.0
 10
92.9400378258
 20
199.0924872532
 30
0.0
 10
92.9403311683
 20
199.0897822835
 30
0.0
 10
92.940582628
 20
199.0875265392
 30
0.0
 10
92.9407448976
 20
199.0859506636
 30
0.0
 10
92.9408590961
 20
199.0850452521
 30
0.0
 10
92.9408842552
 20
199.0843800282
 30
0.0
 10
92.9411406367
 20
199.0836619209
 30
0.0
 10
92.9414018258
 20
199.0827228909
 30
0.0
 10
92.9418964845
 20
199.0810709937
 30
0.0
 10
92.9425834937
 20
199.078715634
 30
0.0
 10
92.9434163138
 20
199.0758872791
 30
0.0
 10
92.9445238035
 20
199.0721168109
 30
0.0
 10
92.9459091714
 20
199.0674034957
 30
0.0
 10
92.9481251976
 20
199.0598623199
 30
0.0
 10
92.9508954246
 20
199.0504358061
 30
0.0
 10
92.9542196087
 20
199.0391240083
 30
0.0
 10
92.9575438354
 20
199.0278122059
 30
0.0
 10
92.9603139556
 20
199.0183857034
 30
0.0
 10
92.9625301955
 20
199.010844505
 30
0.0
 10
92.9639150203
 20
199.0061312471
 30
0.0
 10
92.9650236246
 20
199.0023606613
 30
0.0
 10
92.9658530395
 20
198.9995326659
 30
0.0
 10
92.9665507028
 20
198.9971761813
 30
0.0
 10
92.9670263421
 20
198.9955262922
 30
0.0
 10
92.9673180051
 20
198.9945840448
 30
0.0
 10
92.9674807805
 20
198.9938758202
 30
0.0
 10
92.9678575087
 20
198.9931734787
 30
0.0
 10
92.9682851838
 20
198.9922349712
 30
0.0
 10
92.9690683863
 20
198.9905935393
 30
0.0
 10
92.9701690683
 20
198.9882481367
 30
0.0
 10
92.9714976678
 20
198.9854338676
 30
0.0
 10
92.973266416
 20
198.981681434
 30
0.0
 10
92.9754782819
 20
198.9769909176
 30
0.0
 10
92.979016747
 20
198.969486077
 30
0.0
 10
92.983440008
 20
198.9601050315
 30
0.0
 10
92.9887478397
 20
198.9488477732
 30
0.0
 10
92.9940557098
 20
198.9375905216
 30
0.0
 10
92.9984788747
 20
198.9282094593
 30
0.0
 10
93.002017532
 20
198.9207046524
 30
0.0
 10
93.0042289095
 20
198.9160140503
 30
0.0
 10
93.00599866
 20
198.9122617926
 30
0.0
 10
93.0073241973
 20
198.9094469861
 30
0.0
 10
93.0084344602
 20
198.9071032647
 30
0.0
 10
93.0092005592
 20
198.9054588315
 30
0.0
 10
93.0096556384
 20
198.9045251329
 30
0.0
 10
93.0099481899
 20
198.9038080202
 30
0.0
 10
93.010427119
 20
198.9031552738
 30
0.0
 10
93.0110006805
 20
198.9022624936
 30
0.0
 10
93.0120347027
 20
198.9007105889
 30
0.0
 10
93.0134960416
 20
198.8984881132
 30
0.0
 10
93.0152564265
 20
198.8958234833
 30
0.0
 10
93.0176012389
 20
198.8922698258
 30
0.0
 10
93.020533065
 20
198.8878280338
 30
0.0
 10
93.0252235335
 20
198.8807210102
 30
0.0
 10
93.0310867756
 20
198.8718372849
 30
0.0
 10
93.0381225952
 20
198.8611767888
 30
0.0
 10
93.0451584482
 20
198.8505163091
 30
0.0
 10
93.0510216067
 20
198.8416325425
 30
0.0
 10
93.0557122424
 20
198.8345256016
 30
0.0
 10
93.0586436437
 20
198.8300835994
 30
0.0
 10
93.0609893279
 20
198.8265303734
 30
0.0
 10
93.0627470493
 20
198.8238644252
 30
0.0
 10
93.0642167217
 20
198.8216460739
 30
0.0
 10
93.0652358672
 20
198.8200868065
 30
0.0
 10
93.0658332649
 20
198.8192058232
 30
0.0
 10
93.0662389768
 20
198.8185168404
 30
0.0
 10
93.06680652
 20
198.8179358258
 30
0.0
 10
93.0675067956
 20
198.8171234791
 30
0.0
 10
93.0687585784
 20
198.8157194192
 30
0.0
 10
93.0705330894
 20
198.8137044456
 30
0.0
 10
93.0726683881
 20
198.811290404
 30
0.0
 10
93.0755133973
 20
198.8080703103
 30
0.0
 10
93.0790703627
 20
198.8040456628
 30
0.0
 10
93.084761114
 20
198.7976059644
 30
0.0
 10
93.091874688
 20
198.7895564314
 30
0.0
 10
93.1004109191
 20
198.7798969532
 30
0.0
 10
93.1089471655
 20
198.7702374853
 30
0.0
 10
93.1203288221
 20
198.7573581912
 30
0.0
 10
93.1288650658
 20
198.7476987214
 30
0.0
 10
93.1345558946
 20
198.7412590747
 30
0.0
  0
SPLINE
  5
48C
100
AcDbEntity
  8
7_ALL_FEATURES
100
AcDbSpline
 62
4
  6
CONTINUOUS
 70
0
 71
3
 72
106
 73
102
 74
0
 42
0.0000001
 43
0.0000001
 44
0.0000000001
 40
0.0
 40
0.0
 40
0.0
 40
0.0
 40
0.0625
 40
0.09375
 40
0.109375
 40
0.125
 40
0.140625
 40
0.1484375
 40
0.15625
 40
0.16015625
 40
0.1640625
 40
0.166015625
 40
0.16796875
 40
0.169921875
 40
0.171875
 40
0.1796875
 40
0.1875
 40
0.1953125
 40
0.203125
 40
0.21875
 40
0.25
 40
0.28125
 40
0.296875
 40
0.3046875
 40
0.3125
 40
0.3203125
 40
0.328125
 40
0.330078125
 40
0.33203125
 40
0.3330078125
 40
0.333984375
 40
0.3359375
 40
0.33984375
 40
0.34375
 40
0.3515625
 40
0.359375
 40
0.375
 40
0.390625
 40
0.40625
 40
0.421875
 40
0.4375
 40
0.453125
 40
0.46875
 40
0.4765625
 40
0.484375
 40
0.48828125
 40
0.4921875
 40
0.49609375
 40
0.498046875
 40
0.4990234375
 40
0.5
 40
0.5009765625
 40
0.501953125
 40
0.50390625
 40
0.5078125
 40
0.51171875
 40
0.515625
 40
0.5234375
 40
0.53125
 40
0.546875
 40
0.5625
 40
0.578125
 40
0.59375
 40
0.609375
 40
0.625
 40
0.640625
 40
0.6484375
 40
0.65625
 40
0.66015625
 40
0.6640625
 40
0.666015625
 40
0.6669921875
 40
0.66796875
 40
0.669921875
 40
0.671875
 40
0.6796875
 40
0.6875
 40
0.6953125
 40
0.703125
 40
0.71875
 40
0.75
 40
0.78125
 40
0.796875
 40
0.8046875
 40
0.8125
 40
0.8203125
 40
0.828125
 40
0.830078125
 40
0.83203125
 40
0.8330078125
 40
0.833984375
 40
0.8359375
 40
0.83984375
 40
0.84375
 40
0.8515625
 40
0.859375
 40
0.875
 40
0.890625
 40
0.90625
 40
0.9375
 40
1.0
 40
1.0
 40
1.0
 40
1.0
 10
93.4134020849
 20
199.3668705806
 30
0.0
 10
93.4037760292
 20
199.3712620551
 30
0.0
 10
93.3893369476
 20
199.3778492461
 30
0.0
 10
93.372491346
 20
199.3855343747
 30
0.0
 10
93.362865297
 20
199.3899257732
 30
0.0
 10
93.355645735
 20
199.3932196121
 30
0.0
 10
93.3496295138
 20
199.3959635544
 30
0.0
 10
93.3448163563
 20
199.3981607793
 30
0.0
 10
93.3418085439
 20
199.399529329
 30
0.0
 10
93.3394013527
 20
199.4006349692
 30
0.0
 10
93.3378990058
 20
199.401301351
 30
0.0
 10
93.3366922094
 20
199.4018909003
 30
0.0
 10
93.3358005801
 20
199.4021785169
 30
0.0
 10
93.3349127247
 20
199.4024228269
 30
0.0
 10
93.3331350726
 20
199.4029337239
 30
0.0
 10
93.3304694098
 20
199.4036907129
 30
0.0
 10
93.3269147267
 20
199.4047053794
 30
0.0
 10
93.3233601682
 20
199.4057186154
 30
0.0
 10
93.3186207135
 20
199.4070700956
 30
0.0
 10
93.3103266878
 20
199.4094349552
 30
0.0
 10
93.298478071
 20
199.4128134316
 30
0.0
 10
93.2866294505
 20
199.4161919255
 30
0.0
 10
93.2783354299
 20
199.4185567608
 30
0.0
 10
93.2735959671
 20
199.4199082793
 30
0.0
 10
93.2700414335
 20
199.4209213975
 30
0.0
 10
93.2664866571
 20
199.4219365063
 30
0.0
 10
93.2638212556
 20
199.4226922568
 30
0.0
 10
93.2620432625
 20
199.4232047702
 30
0.0
 10
93.2613040075
 20
199.4234054015
 30
0.0
 10
93.2607089282
 20
199.4235960367
 30
0.0
 10
93.2601272898
 20
199.4236764842
 30
0.0
 10
93.2591156676
 20
199.4237660714
 30
0.0
 10
93.2576672347
 20
199.4239207645
 30
0.0
 10
93.2553515629
 20
199.424153346
 30
0.0
 10
93.2524563497
 20
199.424449184
 30
0.0
 10
93.2478243571
 20
199.4249196682
 30
0.0
 10
93.2420342467
 20
199.4255087537
 30
0.0
 10
93.2350861655
 20
199.4262152359
 30
0.0
 10
93.2281380705
 20
199.4269218311
 30
0.0
 10
93.2211899796
 20
199.427628395
 30
0.0
 10
93.214241886
 20
199.4283349708
 30
0.0
 10
93.2072937992
 20
199.4290415303
 30
0.0
 10
93.2015037064
 20
199.4296303744
 30
0.0
 10
93.1968716779
 20
199.4301013511
 30
0.0
 10
93.1939765558
 20
199.4303959358
 30
0.0
 10
93.191660697
 20
199.4306310898
 30
0.0
 10
93.1899231489
 20
199.430808862
 30
0.0
 10
93.1884772728
 20
199.4309525308
 30
0.0
 10
93.1874610762
 20
199.4310618803
 30
0.0
 10
93.1868867683
 20
199.4311106545
 30
0.0
 10
93.1864380763
 20
199.4311858597
 30
0.0
 10
93.1860580406
 20
199.4311134225
 30
0.0
 10
93.1855273782
 20
199.431068339
 30
0.0
 10
93.1846098769
 20
199.4309654483
 30
0.0
 10
93.1832933273
 20
199.4308310063
 30
0.0
 10
93.1817159647
 20
199.4306643063
 30
0.0
 10
93.1796119425
 20
199.4304439151
 30
0.0
 10
93.1769822133
 20
199.4301677839
 30
0.0
 10
93.1727744796
 20
199.429726333
 30
0.0
 10
93.1675148699
 20
199.4291743961
 30
0.0
 10
93.1612033135
 20
199.4285121252
 30
0.0
 10
93.1548917645
 20
199.4278498379
 30
0.0
 10
93.1485802104
 20
199.4271875628
 30
0.0
 10
93.1422686693
 20
199.4265252553
 30
0.0
 10
93.1359570815
 20
199.4258630655
 30
0.0
 10
93.1306975697
 20
199.425310875
 30
0.0
 10
93.1264896364
 20
199.4248699413
 30
0.0
 10
93.1238604154
 20
199.424592494
 30
0.0
 10
93.1217553499
 20
199.4243748044
 30
0.0
 10
93.1204435372
 20
199.4242290096
 30
0.0
 10
93.1195175459
 20
199.4241464712
 30
0.0
 10
93.1190004905
 20
199.4240687686
 30
0.0
 10
93.1185289436
 20
199.4238760453
 30
0.0
 10
93.117923955
 20
199.4236744558
 30
0.0
 10
93.1164847848
 20
199.4231582834
 30
0.0
 10
93.1143206524
 20
199.4223976153
 30
0.0
 10
93.1114382158
 20
199.4213756234
 30
0.0
 10
93.1085549571
 20
199.4203557094
 30
0.0
 10
93.1047108991
 20
199.418995099
 30
0.0
 10
93.0979836626
 20
199.4166143706
 30
0.0
 10
93.0883734059
 20
199.413213137
 30
0.0
 10
93.0787630817
 20
199.4098120284
 30
0.0
 10
93.0720359395
 20
199.407431125
 30
0.0
 10
93.0681917333
 20
199.4060707896
 30
0.0
 10
93.0653089295
 20
199.4050500318
 30
0.0
 10
93.0624247845
 20
199.4040312088
 30
0.0
 10
93.0602654361
 20
199.4032616667
 30
0.0
 10
93.0588200225
 20
199.4027570755
 30
0.0
 10
93.0582264689
 20
199.4025342746
 30
0.0
 10
93.0577313258
 20
199.4023853212
 30
0.0
 10
93.0573104221
 20
199.4021292622
 30
0.0
 10
93.056608334
 20
199.4016313953
 30
0.0
 10
93.055587354
 20
199.400946121
 30
0.0
 10
93.0539638437
 20
199.3998351722
 30
0.0
 10
93.051931012
 20
199.3984514544
 30
0.0
 10
93.0486804061
 20
199.3962347292
 30
0.0
 10
93.0446164882
 20
199.3934647754
 30
0.0
 10
93.0397400695
 20
199.3901404231
 30
0.0
 10
93.0332380792
 20
199.3857080955
 30
0.0
 10
93.0218596425
 20
199.3779514557
 30
0.0
 10
93.0121066809
 20
199.3713029301
 30
0.0
 10
93.00560471
 20
199.3668705747
 30
0.0
  0
SPLINE
  5
48D
100
AcDbEntity
  8
7_ALL_FEATURES
100
AcDbSpline
 62
4
  6
CONTINUOUS
 70
0
 71
3
 72
118
 73
114
 74
0
 42
0.0000001
 43
0.0000001
 44
0.0000000001
 40
0.0
 40
0.0
 40
0.0
 40
0.0
 40
0.03125
 40
0.0625
 40
0.078125
 40
0.09375
 40
0.109375
 40
0.125
 40
0.140625
 40
0.1484375
 40
0.15234375
 40
0.15625
 40
0.16015625
 40
0.1640625
 40
0.1650390625
 40
0.166015625
 40
0.1669921875
 40
0.16796875
 40
0.169921875
 40
0.171875
 40
0.17578125
 40
0.1796875
 40
0.1875
 40
0.1953125
 40
0.203125
 40
0.21875
 40
0.25
 40
0.28125
 40
0.296875
 40
0.3046875
 40
0.3125
 40
0.3203125
 40
0.32421875
 40
0.328125
 40
0.330078125
 40
0.33203125
 40
0.3330078125
 40
0.333984375
 40
0.3349609375
 40
0.3359375
 40
0.33984375
 40
0.34375
 40
0.34765625
 40
0.3515625
 40
0.359375
 40
0.375
 40
0.390625
 40
0.40625
 40
0.421875
 40
0.4375
 40
0.453125
 40
0.46875
 40
0.4765625
 40
0.484375
 40
0.48828125
 40
0.4921875
 40
0.49609375
 40
0.498046875
 40
0.4990234375
 40
0.5
 40
0.5009765625
 40
0.501953125
 40
0.50390625
 40
0.5078125
 40
0.51171875
 40
0.515625
 40
0.5234375
 40
0.53125
 40
0.546875
 40
0.5625
 40
0.578125
 40
0.59375
 40
0.609375
 40
0.625
 40
0.640625
 40
0.6484375
 40
0.65625
 40
0.66015625
 40
0.6640625
 40
0.666015625
 40
0.6669921875
 40
0.66796875
 40
0.669921875
 40
0.671875
 40
0.67578125
 40
0.6796875
 40
0.6875
 40
0.6953125
 40
0.703125
 40
0.71875
 40
0.75
 40
0.78125
 40
0.796875
 40
0.8046875
 40
0.8125
 40
0.8203125
 40
0.82421875
 40
0.828125
 40
0.830078125
 40
0.83203125
 40
0.8330078125
 40
0.833984375
 40
0.8359375
 40
0.83984375
 40
0.84375
 40
0.8515625
 40
0.859375
 40
0.875
 40
0.890625
 40
0.90625
 40
0.9375
 40
0.96875
 40
1.0
 40
1.0
 40
1.0
 40
1.0
 10
93.3082075659
 20
198.0267627304
 30
0.0
 10
93.3058221737
 20
198.0212935763
 30
0.0
 10
93.3010513893
 20
198.0103552681
 30
0.0
 10
93.2950879086
 20
197.996682383
 30
0.0
 10
93.2903171244
 20
197.9857440747
 30
0.0
 10
93.2867390354
 20
197.977540344
 30
0.0
 10
93.2831609494
 20
197.9693366111
 30
0.0
 10
93.2795828523
 20
197.9611328865
 30
0.0
 10
93.2766011395
 20
197.9542964237
 30
0.0
 10
93.2745138722
 20
197.94951095
 30
0.0
 10
93.2733212547
 20
197.946776315
 30
0.0
 10
93.2724264911
 20
197.9447255601
 30
0.0
 10
93.2715328763
 20
197.9426739593
 30
0.0
 10
93.270859444
 20
197.9411376304
 30
0.0
 10
93.2704154988
 20
197.9401097227
 30
0.0
 10
93.2701845806
 20
197.9396023552
 30
0.0
 10
93.2699884431
 20
197.9390693799
 30
0.0
 10
93.2698924196
 20
197.9382368999
 30
0.0
 10
93.2697157257
 20
197.9372380198
 30
0.0
 10
93.2694646823
 20
197.9356164967
 30
0.0
 10
93.2691400353
 20
197.9335975758
 30
0.0
 10
93.2686266602
 20
197.9303628408
 30
0.0
 10
93.267982862
 20
197.9263209527
 30
0.0
 10
93.2672111941
 20
197.9214700318
 30
0.0
 10
93.2661819932
 20
197.9150023659
 30
0.0
 10
93.264381037
 20
197.9036838436
 30
0.0
 10
93.261808159
 20
197.8875145863
 30
0.0
 10
93.2592353377
 20
197.8713452913
 30
0.0
 10
93.2574343022
 20
197.8600268218
 30
0.0
 10
93.2564052259
 20
197.8535590727
 30
0.0
 10
93.2556331753
 20
197.8487084071
 30
0.0
 10
93.2549905751
 20
197.8446657202
 30
0.0
 10
93.2544747558
 20
197.841432615
 30
0.0
 10
93.2541563289
 20
197.839409546
 30
0.0
 10
93.2538925178
 20
197.8377965376
 30
0.0
 10
93.2537483299
 20
197.8367759795
 30
0.0
 10
93.2535855812
 20
197.8359879982
 30
0.0
 10
93.2535932985
 20
197.8353190735
 30
0.0
 10
93.2536373823
 20
197.8346283088
 30
0.0
 10
93.2537068429
 20
197.8332580141
 30
0.0
 10
93.253818891
 20
197.8311978534
 30
0.0
 10
93.2539637977
 20
197.8284536694
 30
0.0
 10
93.2541099056
 20
197.825708764
 30
0.0
 10
93.2543042971
 20
197.8220491417
 30
0.0
 10
93.2546446775
 20
197.8156446855
 30
0.0
 10
93.2551308331
 20
197.8064955237
 30
0.0
 10
93.2557142638
 20
197.7955165033
 30
0.0
 10
93.2562976823
 20
197.7845374899
 30
0.0
 10
93.2568811055
 20
197.7735584743
 30
0.0
 10
93.257464522
 20
197.7625794605
 30
0.0
 10
93.2580479603
 20
197.7516004419
 30
0.0
 10
93.2585340919
 20
197.7424512742
 30
0.0
 10
93.2589231472
 20
197.7351319078
 30
0.0
 10
93.2591659653
 20
197.7305573772
 30
0.0
 10
93.2593610016
 20
197.7268975844
 30
0.0
 10
93.2595051383
 20
197.7241532009
 30
0.0
 10
93.2596320616
 20
197.7218647478
 30
0.0
 10
93.2597075448
 20
197.7202657093
 30
0.0
 10
93.2597715433
 20
197.7193474783
 30
0.0
 10
93.2597607643
 20
197.7186714665
 30
0.0
 10
93.2599746643
 20
197.7179470562
 30
0.0
 10
93.2601814937
 20
197.7169980577
 30
0.0
 10
93.2605799595
 20
197.7153294448
 30
0.0
 10
93.2611301062
 20
197.7129498242
 30
0.0
 10
93.2617984534
 20
197.7100925193
 30
0.0
 10
93.262686729
 20
197.7062833943
 30
0.0
 10
93.2637980507
 20
197.7015217776
 30
0.0
 10
93.2655756193
 20
197.6939033084
 30
0.0
 10
93.2677977676
 20
197.6843801815
 30
0.0
 10
93.2704642643
 20
197.6729524468
 30
0.0
 10
93.2731307859
 20
197.6615247068
 30
0.0
 10
93.2757972892
 20
197.6500969701
 30
0.0
 10
93.278463841
 20
197.6386692255
 30
0.0
 10
93.281130217
 20
197.6272415095
 30
0.0
 10
93.2833527425
 20
197.6177183239
 30
0.0
 10
93.2851295416
 20
197.6100999745
 30
0.0
 10
93.2862428215
 20
197.6053380529
 30
0.0
 10
93.2871270777
 20
197.6015295536
 30
0.0
 10
93.287694267
 20
197.5991468733
 30
0.0
 10
93.2880621811
 20
197.5974837433
 30
0.0
 10
93.2883179763
 20
197.5965259574
 30
0.0
 10
93.2887453977
 20
197.5955401974
 30
0.0
 10
93.28922091
 20
197.5943175756
 30
0.0
 10
93.2900145699
 20
197.592356028
 30
0.0
 10
93.2909954003
 20
197.5899059262
 30
0.0
 10
93.2925710134
 20
197.5859847391
 30
0.0
 10
93.2945383737
 20
197.5810836066
 30
0.0
 10
93.2969001289
 20
197.5752020972
 30
0.0
 10
93.3000488138
 20
197.5673601371
 30
0.0
 10
93.3055591632
 20
197.5536366827
 30
0.0
 10
93.3134310056
 20
197.5340317591
 30
0.0
 10
93.3213029018
 20
197.5144268367
 30
0.0
 10
93.326813176
 20
197.5007033806
 30
0.0
 10
93.3299619791
 20
197.4928614232
 30
0.0
 10
93.3323233717
 20
197.4869799054
 30
0.0
 10
93.3342918667
 20
197.4820787991
 30
0.0
 10
93.3358651648
 20
197.4781575586
 30
0.0
 10
93.3368518869
 20
197.4757075926
 30
0.0
 10
93.3376334531
 20
197.4737457663
 30
0.0
 10
93.3381397552
 20
197.472523854
 30
0.0
 10
93.3385039742
 20
197.4715366377
 30
0.0
 10
93.339017225
 20
197.4705847839
 30
0.0
 10
93.3399846455
 20
197.4689354672
 30
0.0
 10
93.3413305532
 20
197.4665707294
 30
0.0
 10
93.3435041919
 20
197.4627919389
 30
0.0
 10
93.3462143284
 20
197.4580668107
 30
0.0
 10
93.3505544099
 20
197.4505075223
 30
0.0
 10
93.3559781864
 20
197.4410580972
 30
0.0
 10
93.3624872856
 20
197.4297189217
 30
0.0
 10
93.3711658862
 20
197.4145999741
 30
0.0
 10
93.3820142051
 20
197.3957013057
 30
0.0
 10
93.3950321584
 20
197.3730228966
 30
0.0
 10
93.4037107995
 20
197.3579039585
 30
0.0
 10
93.4080501193
 20
197.3503444893
 30
0.0
  0
SPLINE
  5
48E
100
AcDbEntity
  8
7_ALL_FEATURES
100
AcDbSpline
 62
4
  6
CONTINUOUS
 70
0
 71
3
 72
154
 73
150
 74
0
 42
0.0000001
 43
0.0000001
 44
0.0000000001
 40
0.0
 40
0.0
 40
0.0
 40
0.0
 40
0.03125
 40
0.046875
 40
0.0625
 40
0.078125
 40
0.0859375
 40
0.09375
 40
0.09765625
 40
0.1015625
 40
0.10546875
 40
0.107421875
 40
0.109375
 40
0.1103515625
 40
0.111328125
 40
0.1123046875
 40
0.11328125
 40
0.115234375
 40
0.1171875
 40
0.125
 40
0.1328125
 40
0.140625
 40
0.15625
 40
0.171875
 40
0.1875
 40
0.1953125
 40
0.203125
 40
0.2109375
 40
0.21484375
 40
0.21875
 40
0.220703125
 40
0.22265625
 40
0.2236328125
 40
0.224609375
 40
0.2265625
 40
0.23046875
 40
0.234375
 40
0.2421875
 40
0.25
 40
0.265625
 40
0.28125
 40
0.296875
 40
0.3046875
 40
0.3125
 40
0.3203125
 40
0.32421875
 40
0.328125
 40
0.330078125
 40
0.33203125
 40
0.3330078125
 40
0.333984375
 40
0.3349609375
 40
0.3359375
 40
0.33984375
 40
0.34375
 40
0.34765625
 40
0.3515625
 40
0.359375
 40
0.375
 40
0.390625
 40
0.40625
 40
0.4140625
 40
0.421875
 40
0.4296875
 40
0.4375
 40
0.44140625
 40
0.443359375
 40
0.4443359375
 40
0.4453125
 40
0.447265625
 40
0.44921875
 40
0.453125
 40
0.45703125
 40
0.4609375
 40
0.46875
 40
0.484375
 40
0.5
 40
0.515625
 40
0.53125
 40
0.5390625
 40
0.54296875
 40
0.546875
 40
0.55078125
 40
0.552734375
 40
0.5546875
 40
0.5556640625
 40
0.556640625
 40
0.55859375
 40
0.5625
 40
0.5703125
 40
0.578125
 40
0.5859375
 40
0.59375
 40
0.609375
 40
0.625
 40
0.640625
 40
0.6484375
 40
0.65625
 40
0.66015625
 40
0.6640625
 40
0.666015625
 40
0.6669921875
 40
0.66796875
 40
0.669921875
 40
0.671875
 40
0.67578125
 40
0.6796875
 40
0.6875
 40
0.6953125
 40
0.703125
 40
0.71875
 40
0.734375
 40
0.75
 40
0.7578125
 40
0.765625
 40
0.76953125
 40
0.7734375
 40
0.775390625
 40
0.7763671875
 40
0.77734375
 40
0.779296875
 40
0.78125
 40
0.78515625
 40
0.7890625
 40
0.796875
 40
0.8046875
 40
0.8125
 40
0.828125
 40
0.84375
 40
0.859375
 40
0.8671875
 40
0.875
 40
0.8828125
 40
0.884765625
 40
0.88671875
 40
0.8876953125
 40
0.888671875
 40
0.890625
 40
0.892578125
 40
0.89453125
 40
0.8984375
 40
0.90234375
 40
0.90625
 40
0.9140625
 40
0.921875
 40
0.9375
 40
0.953125
 40
0.96875
 40
1.0
 40
1.0
 40
1.0
 40
1.0
 10
93.7150453018
 20
198.6822026255
 30
0.0
 10
93.7175990527
 20
198.688171999
 30
0.0
 10
93.7214296791
 20
198.6971260594
 30
0.0
 10
93.726537181
 20
198.7090648064
 30
0.0
 10
93.7303678071
 20
198.7180188669
 30
0.0
 10
93.7335599966
 20
198.7254805832
 30
0.0
 10
93.7361137458
 20
198.731449958
 30
0.0
 10
93.7377098445
 20
198.7351808133
 30
0.0
 10
93.738986711
 20
198.7381655066
 30
0.0
 10
93.739944395
 20
198.7404040018
 30
0.0
 10
93.7407423563
 20
198.7422694932
 30
0.0
 10
93.7413809691
 20
198.7437617097
 30
0.0
 10
93.7417795473
 20
198.7446947472
 30
0.0
 10
93.7420996804
 20
198.7454402562
 30
0.0
 10
93.7423363013
 20
198.7460019095
 30
0.0
 10
93.7423922826
 20
198.7466944834
 30
0.0
 10
93.7425300128
 20
198.7475721912
 30
0.0
 10
93.7426806116
 20
198.7486849547
 30
0.0
 10
93.7430597968
 20
198.751342724
 30
0.0
 10
93.7436211216
 20
198.7553347795
 30
0.0
 10
93.7443738081
 20
198.7606544375
 30
0.0
 10
93.7453759046
 20
198.7677483915
 30
0.0
 10
93.7466290323
 20
198.7766154661
 30
0.0
 10
93.7481325801
 20
198.7872561065
 30
0.0
 10
93.7493855453
 20
198.7961232942
 30
0.0
 10
93.7503879993
 20
198.8032169993
 30
0.0
 10
93.751139589
 20
198.808537421
 30
0.0
 10
93.7517667155
 20
198.8129706482
 30
0.0
 10
93.7522666181
 20
198.8165182566
 30
0.0
 10
93.7525831527
 20
198.8187331742
 30
0.0
 10
93.7528270009
 20
198.8205104619
 30
0.0
 10
93.7530008069
 20
198.8216090514
 30
0.0
 10
93.7528882369
 20
198.8226315428
 30
0.0
 10
93.7528195497
 20
198.8236289863
 30
0.0
 10
93.752678904
 20
198.8253861811
 30
0.0
 10
93.7524886476
 20
198.8278903713
 30
0.0
 10
93.7521782768
 20
198.831900478
 30
0.0
 10
93.7517923542
 20
198.8369119464
 30
0.0
 10
93.751173737
 20
198.8449309469
 30
0.0
 10
93.75040086
 20
198.8549544736
 30
0.0
 10
93.7494732251
 20
198.8669828043
 30
0.0
 10
93.7487002786
 20
198.8770063829
 30
0.0
 10
93.7480818144
 20
198.8850252691
 30
0.0
 10
93.7476182377
 20
198.8910393821
 30
0.0
 10
93.7472310637
 20
198.8960513056
 30
0.0
 10
93.7469232529
 20
198.9000604796
 30
0.0
 10
93.7467264801
 20
198.902567044
 30
0.0
 10
93.7465791183
 20
198.9045703933
 30
0.0
 10
93.7464640716
 20
198.9058268268
 30
0.0
 10
93.7464245896
 20
198.9068220327
 30
0.0
 10
93.7462510794
 20
198.9075956558
 30
0.0
 10
93.746037246
 20
198.908376906
 30
0.0
 10
93.7456303217
 20
198.9099354832
 30
0.0
 10
93.7450112232
 20
198.9122749967
 30
0.0
 10
93.744190738
 20
198.9153934063
 30
0.0
 10
93.7433689208
 20
198.9185120678
 30
0.0
 10
93.7422736289
 20
198.9226701953
 30
0.0
 10
93.7403566537
 20
198.9299469591
 30
0.0
 10
93.737618214
 20
198.9403423164
 30
0.0
 10
93.7343321146
 20
198.9528167462
 30
0.0
 10
93.7315934758
 20
198.9632121271
 30
0.0
 10
93.7294030849
 20
198.9715283766
 30
0.0
 10
93.7277588651
 20
198.9777657159
 30
0.0
 10
93.7261200914
 20
198.9840024741
 30
0.0
 10
93.7247374819
 20
198.9892015827
 30
0.0
 10
93.7238028986
 20
198.9928374117
 30
0.0
 10
93.7232901952
 20
198.9946601716
 30
0.0
 10
93.7230703216
 20
198.995693949
 30
0.0
 10
93.7225753483
 20
198.996757079
 30
0.0
 10
93.7220069637
 20
198.9980806212
 30
0.0
 10
93.7210694178
 20
199.0002012902
 30
0.0
 10
93.7199071368
 20
199.0028510966
 30
0.0
 10
93.7185082688
 20
199.006031305
 30
0.0
 10
93.7166445524
 20
199.0102714291
 30
0.0
 10
93.7133823771
 20
199.017691718
 30
0.0
 10
93.7087224798
 20
199.0282920939
 30
0.0
 10
93.7031304434
 20
199.0410125575
 30
0.0
 10
93.6975384802
 20
199.0537330299
 30
0.0
 10
93.6928784
 20
199.0643333838
 30
0.0
 10
93.6896165446
 20
199.0717537113
 30
0.0
 10
93.6877523163
 20
199.0759937737
 30
0.0
 10
93.6863550206
 20
199.0791741718
 30
0.0
 10
93.6851878187
 20
199.0818233844
 30
0.0
 10
93.6842603126
 20
199.0839452649
 30
0.0
 10
93.6836663773
 20
199.0852657237
 30
0.0
 10
93.6832238506
 20
199.0863351827
 30
0.0
 10
93.6825584488
 20
199.087315196
 30
0.0
 10
93.6814976353
 20
199.0890718126
 30
0.0
 10
93.6793024265
 20
199.0925555154
 30
0.0
 10
93.6762048888
 20
199.0975476747
 30
0.0
 10
93.6724713508
 20
199.103531647
 30
0.0
 10
93.6687422242
 20
199.1095173894
 30
0.0
 10
93.6637685184
 20
199.1174977637
 30
0.0
 10
93.6575518848
 20
199.1274734228
 30
0.0
 10
93.6500918363
 20
199.1394442191
 30
0.0
 10
93.6438747583
 20
199.1494196099
 30
0.0
 10
93.6389020303
 20
199.1574005745
 30
0.0
 10
93.6357919247
 20
199.1623871839
 30
0.0
 10
93.6333087681
 20
199.1663798929
 30
0.0
 10
93.6317455508
 20
199.1688675291
 30
0.0
 10
93.630673834
 20
199.1706245204
 30
0.0
 10
93.6300261657
 20
199.1716040359
 30
0.0
 10
93.6292456728
 20
199.1724913333
 30
0.0
 10
93.6283155355
 20
199.1736320304
 30
0.0
 10
93.6268019001
 20
199.1754394999
 30
0.0
 10
93.6249185582
 20
199.1777048788
 30
0.0
 10
93.6219003474
 20
199.1813261081
 30
0.0
 10
93.6181292527
 20
199.1858538034
 30
0.0
 10
93.6136032247
 20
199.1912865417
 30
0.0
 10
93.6075687709
 20
199.1985303668
 30
0.0
 10
93.6000256125
 20
199.2075850826
 30
0.0
 10
93.5909738846
 20
199.2184507952
 30
0.0
 10
93.5834306923
 20
199.2275054646
 30
0.0
 10
93.577396313
 20
199.2347493918
 30
0.0
 10
93.5736244324
 20
199.2392764127
 30
0.0
 10
93.5706078288
 20
199.2428990223
 30
0.0
 10
93.5687203963
 20
199.2451608877
 30
0.0
 10
93.5674033124
 20
199.246748734
 30
0.0
 10
93.5666442486
 20
199.2476489708
 30
0.0
 10
93.5659093936
 20
199.2485758937
 30
0.0
 10
93.5648173147
 20
199.2495432812
 30
0.0
 10
93.5630888783
 20
199.2511119243
 30
0.0
 10
93.5609218649
 20
199.2530655983
 30
0.0
 10
93.5574582584
 20
199.2561954616
 30
0.0
 10
93.55312751
 20
199.2601064236
 30
0.0
 10
93.5479311427
 20
199.2648001629
 30
0.0
 10
93.5410024679
 20
199.271058279
 30
0.0
 10
93.5323416852
 20
199.2788809846
 30
0.0
 10
93.521948732
 20
199.2882682453
 30
0.0
 10
93.5132879033
 20
199.2960908351
 30
0.0
 10
93.5063593298
 20
199.3023492058
 30
0.0
 10
93.5011626518
 20
199.3070421638
 30
0.0
 10
93.4972658534
 20
199.3105642305
 30
0.0
 10
93.4946668818
 20
199.3129086175
 30
0.0
 10
93.4935856229
 20
199.3138908888
 30
0.0
 10
93.4927167762
 20
199.3146640074
 30
0.0
 10
93.4918619712
 20
199.3154835655
 30
0.0
 10
93.490692952
 20
199.3161755891
 30
0.0
 10
93.4893186773
 20
199.3171004348
 30
0.0
 10
93.4874763387
 20
199.3183005813
 30
0.0
 10
93.485176837
 20
199.31981208
 30
0.0
 10
93.4824159704
 20
199.3216210349
 30
0.0
 10
93.4787353265
 20
199.3240346666
 30
0.0
 10
93.4741343465
 20
199.327051127
 30
0.0
 10
93.4667728763
 20
199.3318777873
 30
0.0
 10
93.457571005
 20
199.3379110016
 30
0.0
 10
93.4465287738
 20
199.3451509063
 30
0.0
 10
93.4318057938
 20
199.3548040959
 30
0.0
 10
93.42076356
 20
199.3620439919
 30
0.0
 10
93.4134020705
 20
199.3668705884
 30
0.0
  0
SPLINE
  5
48F
100
AcDbEntity
  8
7_ALL_FEATURES
100
AcDbSpline
 62
7
  6
CONTINUOUS
 70
0
 71
3
 72
11
 73
7
 74
0
 42
0.0000001
 43
0.0000001
 44
0.0000000001
 40
0.0
 40
0.0
 40
0.0
 40
0.0
 40
0.2823105021
 40
0.5413459278
 40
0.7777991816
 40
1.0
 40
1.0
 40
1.0
 40
1.0
 10
142.5653779761
 20
194.8598268762
 30
0.0
 10
142.5480744054
 20
194.8132235405
 30
0.0
 10
142.5054273816
 20
194.7268781872
 30
0.0
 10
142.4152548015
 20
194.6215754673
 30
0.0
 10
142.3063675937
 20
194.5530861395
 30
0.0
 10
142.2249087608
 20
194.5368760441
 30
0.0
 10
142.185781451
 20
194.5368760441
 30
0.0
  0
SPLINE
  5
490
100
AcDbEntity
  8
7_ALL_FEATURES
100
AcDbSpline
 62
7
  6
CONTINUOUS
 70
0
 71
3
 72
11
 73
7
 74
0
 42
0.0000001
 43
0.0000001
 44
0.0000000001
 40
0.0
 40
0.0
 40
0.0
 40
0.0
 40
0.2415840804
 40
0.4948901349
 40
0.750885964
 40
1.0
 40
1.0
 40
1.0
 40
1.0
 10
145.635976537
 20
207.9787114964
 30
0.0
 10
145.7984338348
 20
207.6695430447
 30
0.0
 10
146.0536951234
 20
206.9935882092
 30
0.0
 10
146.2198238007
 20
205.9138868329
 30
0.0
 10
146.1722703262
 20
204.8117426021
 30
0.0
 10
145.9950152087
 20
204.096795228
 30
0.0
 10
145.8696594983
 20
203.7591773836
 30
0.0
  0
SPLINE
  5
491
100
AcDbEntity
  8
7_ALL_FEATURES
100
AcDbSpline
 62
4
  6
CONTINUOUS
 70
0
 71
3
 72
72
 73
68
 74
0
 42
0.0000001
 43
0.0000001
 44
0.0000000001
 40
0.0
 40
0.0
 40
0.0
 40
0.0
 40
0.0625
 40
0.09375
 40
0.125
 40
0.140625
 40
0.15625
 40
0.1640625
 40
0.16796875
 40
0.171875
 40
0.1796875
 40
0.1875
 40
0.203125
 40
0.21875
 40
0.25
 40
0.28125
 40
0.296875
 40
0.3125
 40
0.3203125
 40
0.328125
 40
0.33203125
 40
0.3359375
 40
0.34375
 40
0.359375
 40
0.375
 40
0.40625
 40
0.4375
 40
0.453125
 40
0.46875
 40
0.484375
 40
0.4921875
 40
0.49609375
 40
0.5
 40
0.50390625
 40
0.5078125
 40
0.515625
 40
0.53125
 40
0.546875
 40
0.5625
 40
0.59375
 40
0.625
 40
0.640625
 40
0.65625
 40
0.6640625
 40
0.66796875
 40
0.671875
 40
0.6796875
 40
0.6875
 40
0.703125
 40
0.71875
 40
0.75
 40
0.78125
 40
0.796875
 40
0.8125
 40
0.8203125
 40
0.828125
 40
0.83203125
 40
0.833984375
 40
0.8359375
 40
0.83984375
 40
0.84375
 40
0.859375
 40
0.875
 40
0.890625
 40
0.90625
 40
0.9375
 40
1.0
 40
1.0
 40
1.0
 40
1.0
 10
147.5696684268
 20
197.0356125694
 30
0.0
 10
147.5798667427
 20
197.0411832719
 30
0.0
 10
147.5951641868
 20
197.0495396531
 30
0.0
 10
147.6155608981
 20
197.0606801847
 30
0.0
 10
147.6283085942
 20
197.0676457462
 30
0.0
 10
147.6385073178
 20
197.0732119727
 30
0.0
 10
147.6448802275
 20
197.0767050565
 30
0.0
 10
147.6493438546
 20
197.0791217727
 30
0.0
 10
147.6518904459
 20
197.0805472541
 30
0.0
 10
147.6544217702
 20
197.0821403759
 30
0.0
 10
147.657591153
 20
197.0840743784
 30
0.0
 10
147.6626592441
 20
197.0872008606
 30
0.0
 10
147.6689953589
 20
197.0910979752
 30
0.0
 10
147.6791325789
 20
197.0973395263
 30
0.0
 10
147.691804328
 20
197.10513916
 30
0.0
 10
147.7044758854
 20
197.1129403044
 30
0.0
 10
147.7146134122
 20
197.1191794385
 30
0.0
 10
147.7209487599
 20
197.1230825956
 30
0.0
 10
147.7260184236
 20
197.1261966907
 30
0.0
 10
147.7291838029
 20
197.1281622276
 30
0.0
 10
147.7317233451
 20
197.1296906188
 30
0.0
 10
147.7342364609
 20
197.1313797811
 30
0.0
 10
147.7386221372
 20
197.1344104999
 30
0.0
 10
147.744893794
 20
197.1387011325
 30
0.0
 10
147.7549248675
 20
197.1455879141
 30
0.0
 10
147.7674649203
 20
197.1541889833
 30
0.0
 10
147.7800046007
 20
197.162792472
 30
0.0
 10
147.79003627
 20
197.1696753823
 30
0.0
 10
147.7975604708
 20
197.1748357552
 30
0.0
 10
147.8038291732
 20
197.1791420492
 30
0.0
 10
147.8082201447
 20
197.1821446819
 30
0.0
 10
147.810724774
 20
197.1838788595
 30
0.0
 10
147.8126159152
 20
197.1851276942
 30
0.0
 10
147.8144586279
 20
197.1865745289
 30
0.0
 10
147.8169324706
 20
197.1884345773
 30
0.0
 10
147.821253825
 20
197.19172184
 30
0.0
 10
147.8274313019
 20
197.1964011104
 30
0.0
 10
147.8348425191
 20
197.2020234169
 30
0.0
 10
147.8447247266
 20
197.2095174023
 30
0.0
 10
147.8570774897
 20
197.2188851037
 30
0.0
 10
147.8694295074
 20
197.2282549554
 30
0.0
 10
147.8793129075
 20
197.2357455004
 30
0.0
 10
147.8854859405
 20
197.2404393568
 30
0.0
 10
147.8898152662
 20
197.2437004655
 30
0.0
 10
147.8922763325
 20
197.245602432
 30
0.0
 10
147.8946890509
 20
197.2476493432
 30
0.0
 10
147.897721503
 20
197.2501583534
 30
0.0
 10
147.9025641752
 20
197.254200505
 30
0.0
 10
147.9086206827
 20
197.2592436954
 30
0.0
 10
147.9183093268
 20
197.267318123
 30
0.0
 10
147.9304207224
 20
197.2774092323
 30
0.0
 10
147.9425319662
 20
197.2875013888
 30
0.0
 10
147.9522208531
 20
197.2955741407
 30
0.0
 10
147.9582767535
 20
197.3006215204
 30
0.0
 10
147.9631206702
 20
197.3046550841
 30
0.0
 10
147.9661499543
 20
197.3071859566
 30
0.0
 10
147.968266773
 20
197.3089377368
 30
0.0
 10
147.9694821417
 20
197.3099697807
 30
0.0
 10
147.9707191976
 20
197.3111186861
 30
0.0
 10
147.9722581046
 20
197.3125148742
 30
0.0
 10
147.9759575826
 20
197.315898601
 30
0.0
 10
147.9815042371
 20
197.3209603831
 30
0.0
 10
147.9889012411
 20
197.327717318
 30
0.0
 10
147.9962978533
 20
197.3344721418
 30
0.0
 10
148.0061601395
 20
197.3434793101
 30
0.0
 10
148.0234190764
 20
197.3592415094
 30
0.0
 10
148.0382124728
 20
197.3727520842
 30
0.0
 10
148.0480747323
 20
197.3817591079
 30
0.0
  0
SPLINE
  5
492
100
AcDbEntity
  8
7_ALL_FEATURES
100
AcDbSpline
 62
4
  6
CONTINUOUS
 70
0
 71
3
 72
153
 73
149
 74
0
 42
0.0000001
 43
0.0000001
 44
0.0000000001
 40
0.0
 40
0.0
 40
0.0
 40
0.0
 40
0.03125
 40
0.046875
 40
0.0625
 40
0.078125
 40
0.09375
 40
0.1015625
 40
0.109375
 40
0.11328125
 40
0.1171875
 40
0.12109375
 40
0.123046875
 40
0.1240234375
 40
0.125
 40
0.1259765625
 40
0.126953125
 40
0.12890625
 40
0.1328125
 40
0.13671875
 40
0.140625
 40
0.1484375
 40
0.15625
 40
0.171875
 40
0.1875
 40
0.203125
 40
0.21875
 40
0.2265625
 40
0.234375
 40
0.23828125
 40
0.2421875
 40
0.24609375
 40
0.248046875
 40
0.2490234375
 40
0.25
 40
0.2509765625
 40
0.251953125
 40
0.25390625
 40
0.2578125
 40
0.26171875
 40
0.265625
 40
0.2734375
 40
0.28125
 40
0.296875
 40
0.3125
 40
0.328125
 40
0.34375
 40
0.3515625
 40
0.359375
 40
0.36328125
 40
0.3671875
 40
0.37109375
 40
0.373046875
 40
0.3740234375
 40
0.375
 40
0.3759765625
 40
0.376953125
 40
0.37890625
 40
0.3828125
 40
0.38671875
 40
0.390625
 40
0.3984375
 40
0.40625
 40
0.421875
 40
0.4375
 40
0.453125
 40
0.46875
 40
0.4765625
 40
0.484375
 40
0.48828125
 40
0.4921875
 40
0.49609375
 40
0.498046875
 40
0.4990234375
 40
0.5
 40
0.5009765625
 40
0.501953125
 40
0.50390625
 40
0.5078125
 40
0.51171875
 40
0.515625
 40
0.5234375
 40
0.53125
 40
0.546875
 40
0.5625
 40
0.578125
 40
0.59375
 40
0.6015625
 40
0.609375
 40
0.61328125
 40
0.6171875
 40
0.62109375
 40
0.623046875
 40
0.6240234375
 40
0.625
 40
0.6259765625
 40
0.626953125
 40
0.62890625
 40
0.6328125
 40
0.63671875
 40
0.640625
 40
0.6484375
 40
0.65625
 40
0.671875
 40
0.6875
 40
0.703125
 40
0.71875
 40
0.7265625
 40
0.734375
 40
0.73828125
 40
0.7421875
 40
0.74609375
 40
0.748046875
 40
0.7490234375
 40
0.75
 40
0.7509765625
 40
0.751953125
 40
0.75390625
 40
0.7578125
 40
0.76171875
 40
0.765625
 40
0.7734375
 40
0.78125
 40
0.796875
 40
0.8125
 40
0.828125
 40
0.84375
 40
0.8515625
 40
0.859375
 40
0.86328125
 40
0.8671875
 40
0.87109375
 40
0.873046875
 40
0.8740234375
 40
0.875
 40
0.8759765625
 40
0.876953125
 40
0.87890625
 40
0.8828125
 40
0.88671875
 40
0.890625
 40
0.8984375
 40
0.90625
 40
0.921875
 40
0.9375
 40
0.953125
 40
0.96875
 40
1.0
 40
1.0
 40
1.0
 40
1.0
 10
148.1301049011
 20
199.3668705806
 30
0.0
 10
148.1236886933
 20
199.3626338779
 30
0.0
 10
148.1140643815
 20
199.3562788243
 30
0.0
 10
148.1012319662
 20
199.3478054175
 30
0.0
 10
148.0916076536
 20
199.3414503676
 30
0.0
 10
148.0819833454
 20
199.3350952975
 30
0.0
 10
148.0739630747
 20
199.329799469
 30
0.0
 10
148.0675468892
 20
199.3255626644
 30
0.0
 10
148.0635367026
 20
199.3229149845
 30
0.0
 10
148.0603287151
 20
199.3207961009
 30
0.0
 10
148.0579222817
 20
199.3192089634
 30
0.0
 10
148.0559183289
 20
199.3178799064
 30
0.0
 10
148.0545127981
 20
199.3169622095
 30
0.0
 10
148.0537139532
 20
199.3164180703
 30
0.0
 10
148.0531026623
 20
199.3160655767
 30
0.0
 10
148.0525378427
 20
199.31550051
 30
0.0
 10
148.0517685402
 20
199.3148212356
 30
0.0
 10
148.0504298133
 20
199.3135979585
 30
0.0
 10
148.0485133977
 20
199.3118684813
 30
0.0
 10
148.0462153891
 20
199.3097853777
 30
0.0
 10
148.0431507873
 20
199.3070106065
 30
0.0
 10
148.0393202372
 20
199.3035412179
 30
0.0
 10
148.033191244
 20
199.2979907131
 30
0.0
 10
148.0255300419
 20
199.2910524039
 30
0.0
 10
148.0163365798
 20
199.282726513
 30
0.0
 10
148.0071431329
 20
199.2744005863
 30
0.0
 10
147.9994818929
 20
199.2674623665
 30
0.0
 10
147.9933529754
 20
199.2619116828
 30
0.0
 10
147.9895222329
 20
199.2584427488
 30
0.0
 10
147.9864580259
 20
199.2556670446
 30
0.0
 10
147.9841588112
 20
199.2535867915
 30
0.0
 10
147.9822461694
 20
199.251848396
 30
0.0
 10
147.9809007055
 20
199.2506410394
 30
0.0
 10
147.9801421972
 20
199.2499362564
 30
0.0
 10
147.9795442213
 20
199.249449544
 30
0.0
 10
147.9790574601
 20
199.2488027645
 30
0.0
 10
147.9783696522
 20
199.2479962251
 30
0.0
 10
147.9771840628
 20
199.2465587674
 30
0.0
 10
147.9754809141
 20
199.2445188567
 30
0.0
 10
147.9734411804
 20
199.2420651425
 30
0.0
 10
147.9707201227
 20
199.2387955569
 30
0.0
 10
147.9673192843
 20
199.2347078786
 30
0.0
 10
147.9618776723
 20
199.2281679825
 30
0.0
 10
147.9550757511
 20
199.2199929783
 30
0.0
 10
147.9469134018
 20
199.2101830333
 30
0.0
 10
147.9387510779
 20
199.2003730625
 30
0.0
 10
147.931949093
 20
199.1921981229
 30
0.0
 10
147.9265076082
 20
199.1856580976
 30
0.0
 10
147.9231064468
 20
199.1815707477
 30
0.0
 10
147.9203860521
 20
199.1783004881
 30
0.0
 10
147.9183442926
 20
199.1758488328
 30
0.0
 10
147.9166474821
 20
199.1738024802
 30
0.0
 10
147.915450578
 20
199.1723765224
 30
0.0
 10
147.914780899
 20
199.1715515573
 30
0.0
 10
147.9142384516
 20
199.1709613756
 30
0.0
 10
147.9138496236
 20
199.1702620912
 30
0.0
 10
147.9132776021
 20
199.1693677683
 30
0.0
 10
147.9123015303
 20
199.167784972
 30
0.0
 10
147.9108940896
 20
199.1655331046
 30
0.0
 10
147.9092107476
 20
199.1628268957
 30
0.0
 10
147.9069643403
 20
199.1592200031
 30
0.0
 10
147.9041569992
 20
199.1547109129
 30
0.0
 10
147.89966488
 20
199.1474966338
 30
0.0
 10
147.8940498602
 20
199.1384786935
 30
0.0
 10
147.8873117765
 20
199.1276572057
 30
0.0
 10
147.8805737257
 20
199.1168357023
 30
0.0
 10
147.8749586238
 20
199.1078178009
 30
0.0
 10
147.8704666688
 20
199.100603444
 30
0.0
 10
147.8676589103
 20
199.0960945514
 30
0.0
 10
147.8654133598
 20
199.0924872532
 30
0.0
 10
147.8637274
 20
199.0897822835
 30
0.0
 10
147.86232815
 20
199.0875265392
 30
0.0
 10
147.8613374563
 20
199.0859506636
 30
0.0
 10
147.8607888627
 20
199.0850452521
 30
0.0
 10
147.8603280717
 20
199.0843800282
 30
0.0
 10
147.8600559054
 20
199.0836619209
 30
0.0
 10
147.8596272225
 20
199.0827228909
 30
0.0
 10
147.8589076823
 20
199.0810709937
 30
0.0
 10
147.857863741
 20
199.078715634
 30
0.0
 10
147.8566178714
 20
199.0758872791
 30
0.0
 10
147.854954316
 20
199.0721168109
 30
0.0
 10
147.852875692
 20
199.0674034957
 30
0.0
 10
147.8495494351
 20
199.0598623199
 30
0.0
 10
147.8453917724
 20
199.0504358061
 30
0.0
 10
147.8404025042
 20
199.0391240083
 30
0.0
 10
147.8354132746
 20
199.0278122059
 30
0.0
 10
147.8312555152
 20
199.0183857034
 30
0.0
 10
147.8279294517
 20
199.010844505
 30
0.0
 10
147.825850336
 20
199.0061312471
 30
0.0
 10
147.8241877899
 20
199.0023606613
 30
0.0
 10
147.8229388364
 20
198.9995326659
 30
0.0
 10
147.821904544
 20
198.9971761813
 30
0.0
 10
147.821167779
 20
198.9955262922
 30
0.0
 10
147.8207666946
 20
198.9945840448
 30
0.0
 10
147.8204097546
 20
198.9938758202
 30
0.0
 10
147.8202673592
 20
198.9931734787
 30
0.0
 10
147.8200026631
 20
198.9922349712
 30
0.0
 10
147.8195743122
 20
198.9905935393
 30
0.0
 10
147.8189441534
 20
198.9882481367
 30
0.0
 10
147.8181957653
 20
198.9854338676
 30
0.0
 10
147.8171951893
 20
198.981681434
 30
0.0
 10
147.8159454025
 20
198.9769909176
 30
0.0
 10
147.8139452219
 20
198.969486077
 30
0.0
 10
147.8114451763
 20
198.9601050315
 30
0.0
 10
147.8084450389
 20
198.9488477732
 30
0.0
 10
147.8054449442
 20
198.9375905216
 30
0.0
 10
147.802944792
 20
198.9282094593
 30
0.0
 10
147.8009448247
 20
198.9207046524
 30
0.0
 10
147.7996944955
 20
198.9160140503
 30
0.0
 10
147.7986950328
 20
198.9122617926
 30
0.0
 10
147.7979432434
 20
198.9094469861
 30
0.0
 10
147.7973237267
 20
198.9071032647
 30
0.0
 10
147.7968763777
 20
198.9054588315
 30
0.0
 10
147.7966421213
 20
198.9045251329
 30
0.0
 10
147.7964062249
 20
198.9038080202
 30
0.0
 10
147.7964004592
 20
198.9031552738
 30
0.0
 10
147.7963124993
 20
198.9022624936
 30
0.0
 10
147.7961959699
 20
198.9007105889
 30
0.0
 10
147.796009946
 20
198.8984881132
 30
0.0
 10
147.7957950867
 20
198.8958234833
 30
0.0
 10
147.7955056844
 20
198.8922698258
 30
0.0
 10
147.7951449325
 20
198.8878280338
 30
0.0
 10
147.7945671699
 20
198.8807210102
 30
0.0
 10
147.7938451599
 20
198.8718372849
 30
0.0
 10
147.7929786593
 20
198.8611767888
 30
0.0
 10
147.7921122037
 20
198.8505163091
 30
0.0
 10
147.7913900814
 20
198.8416325425
 30
0.0
 10
147.7908125433
 20
198.8345256016
 30
0.0
 10
147.7904512205
 20
198.8300835994
 30
0.0
 10
147.7901629899
 20
198.8265303734
 30
0.0
 10
147.7899445511
 20
198.8238644252
 30
0.0
 10
147.7897697267
 20
198.8216460739
 30
0.0
 10
147.7896332043
 20
198.8200868065
 30
0.0
 10
147.7895772782
 20
198.8192058232
 30
0.0
 10
147.7894731149
 20
198.8185168404
 30
0.0
 10
147.7896067835
 20
198.8179358258
 30
0.0
 10
147.7897020498
 20
198.8171234791
 30
0.0
 10
147.7899074178
 20
198.8157194192
 30
0.0
 10
147.7901805931
 20
198.8137044456
 30
0.0
 10
147.7905170529
 20
198.811290404
 30
0.0
 10
147.7909626448
 20
198.8080703103
 30
0.0
 10
147.7915206692
 20
198.8040456628
 30
0.0
 10
147.79241293
 20
198.7976059644
 30
0.0
 10
147.7935284545
 20
198.7895564314
 30
0.0
 10
147.7948669988
 20
198.7798969532
 30
0.0
 10
147.7962055658
 20
198.7702374853
 30
0.0
 10
147.7979903139
 20
198.7573581912
 30
0.0
 10
147.7993288767
 20
198.7476987214
 30
0.0
 10
147.8002212516
 20
198.7412590747
 30
0.0
  0
SPLINE
  5
493
100
AcDbEntity
  8
7_ALL_FEATURES
100
AcDbSpline
 62
4
  6
CONTINUOUS
 70
0
 71
3
 72
112
 73
108
 74
0
 42
0.0000001
 43
0.0000001
 44
0.0000000001
 40
0.0
 40
0.0
 40
0.0
 40
0.0
 40
0.03125
 40
0.0625
 40
0.09375
 40
0.109375
 40
0.125
 40
0.140625
 40
0.1484375
 40
0.15625
 40
0.16015625
 40
0.1640625
 40
0.166015625
 40
0.1669921875
 40
0.16796875
 40
0.169921875
 40
0.171875
 40
0.17578125
 40
0.1796875
 40
0.1875
 40
0.1953125
 40
0.203125
 40
0.21875
 40
0.25
 40
0.28125
 40
0.296875
 40
0.3046875
 40
0.3125
 40
0.3203125
 40
0.328125
 40
0.330078125
 40
0.33203125
 40
0.3330078125
 40
0.333984375
 40
0.3359375
 40
0.33984375
 40
0.34375
 40
0.3515625
 40
0.359375
 40
0.375
 40
0.390625
 40
0.40625
 40
0.421875
 40
0.4375
 40
0.453125
 40
0.46875
 40
0.4765625
 40
0.484375
 40
0.48828125
 40
0.4921875
 40
0.49609375
 40
0.498046875
 40
0.4990234375
 40
0.5
 40
0.5009765625
 40
0.501953125
 40
0.50390625
 40
0.5078125
 40
0.51171875
 40
0.515625
 40
0.5234375
 40
0.53125
 40
0.546875
 40
0.5625
 40
0.578125
 40
0.59375
 40
0.609375
 40
0.625
 40
0.640625
 40
0.6484375
 40
0.65625
 40
0.66015625
 40
0.6640625
 40
0.666015625
 40
0.6669921875
 40
0.66796875
 40
0.669921875
 40
0.671875
 40
0.67578125
 40
0.6796875
 40
0.6875
 40
0.6953125
 40
0.703125
 40
0.71875
 40
0.75
 40
0.78125
 40
0.796875
 40
0.8046875
 40
0.8125
 40
0.8203125
 40
0.82421875
 40
0.828125
 40
0.830078125
 40
0.83203125
 40
0.8330078125
 40
0.833984375
 40
0.8359375
 40
0.83984375
 40
0.84375
 40
0.8515625
 40
0.859375
 40
0.875
 40
0.890625
 40
0.90625
 40
0.9375
 40
0.96875
 40
1.0
 40
1.0
 40
1.0
 40
1.0
 10
147.4493919045
 20
198.0267627304
 30
0.0
 10
147.4430561147
 20
198.0212935763
 30
0.0
 10
147.4303845344
 20
198.0103552693
 30
0.0
 10
147.4113771682
 20
197.9939478018
 30
0.0
 10
147.395537684
 20
197.9802749327
 30
0.0
 10
147.3828661242
 20
197.9693365917
 30
0.0
 10
147.373362379
 20
197.9611329607
 30
0.0
 10
147.3654428311
 20
197.954296205
 30
0.0
 10
147.3591066549
 20
197.9488276897
 30
0.0
 10
147.3551477697
 20
197.9454078427
 30
0.0
 10
147.3519778563
 20
197.9426766027
 30
0.0
 10
147.3500030609
 20
197.940958996
 30
0.0
 10
147.3486078768
 20
197.9397778785
 30
0.0
 10
147.3478306983
 20
197.9390697736
 30
0.0
 10
147.3471291249
 20
197.9382366728
 30
0.0
 10
147.346226271
 20
197.9372380952
 30
0.0
 10
147.3447961718
 20
197.9356164532
 30
0.0
 10
147.3430035943
 20
197.9335975903
 30
0.0
 10
147.3401382388
 20
197.9303628324
 30
0.0
 10
147.3365555945
 20
197.9263209555
 30
0.0
 10
147.3322568279
 20
197.9214700311
 30
0.0
 10
147.3265249974
 20
197.9150023662
 30
0.0
 10
147.3164943585
 20
197.9036838452
 30
0.0
 10
147.3021648541
 20
197.8875145709
 30
0.0
 10
147.2878353079
 20
197.8713453357
 30
0.0
 10
147.2778047274
 20
197.8600267601
 30
0.0
 10
147.2720728051
 20
197.8535591811
 30
0.0
 10
147.2677743201
 20
197.8487079931
 30
0.0
 10
147.2634740895
 20
197.8438587307
 30
0.0
 10
147.2602538107
 20
197.8402163849
 30
0.0
 10
147.2580993468
 20
197.837796551
 30
0.0
 10
147.2572129797
 20
197.8367757921
 30
0.0
 10
147.2564774642
 20
197.8359883328
 30
0.0
 10
147.2558385749
 20
197.8350942783
 30
0.0
 10
147.2547654133
 20
197.8334801562
 30
0.0
 10
147.2532089015
 20
197.831200108
 30
0.0
 10
147.2507315729
 20
197.82753759
 30
0.0
 10
147.24763043
 20
197.8229643872
 30
0.0
 10
147.2426711065
 20
197.815644499
 30
0.0
 10
147.2364710925
 20
197.8064955871
 30
0.0
 10
147.2290314443
 20
197.7955164863
 30
0.0
 10
147.221591697
 20
197.7845374945
 30
0.0
 10
147.2141519775
 20
197.7735584731
 30
0.0
 10
147.2067122461
 20
197.7625794608
 30
0.0
 10
147.1992725344
 20
197.7516004418
 30
0.0
 10
147.1930727189
 20
197.7424512742
 30
0.0
 10
147.1881129903
 20
197.7351319078
 30
0.0
 10
147.1850128782
 20
197.7305573772
 30
0.0
 10
147.1825334339
 20
197.7268975844
 30
0.0
 10
147.1806720837
 20
197.7241532009
 30
0.0
 10
147.1791265794
 20
197.7218647478
 30
0.0
 10
147.1780336955
 20
197.7202657093
 30
0.0
 10
147.1774264143
 20
197.7193474783
 30
0.0
 10
147.1769224335
 20
197.7186714665
 30
0.0
 10
147.1766039203
 20
197.7179470562
 30
0.0
 10
147.1761145428
 20
197.7169980577
 30
0.0
 10
147.175288274
 20
197.7153294448
 30
0.0
 10
147.1740921316
 20
197.7129498242
 30
0.0
 10
147.1726635058
 20
197.7100925193
 30
0.0
 10
147.1707563154
 20
197.7062833943
 30
0.0
 10
147.1683731342
 20
197.7015217776
 30
0.0
 10
147.1645595933
 20
197.6939033084
 30
0.0
 10
147.1597928221
 20
197.6843801815
 30
0.0
 10
147.1540726295
 20
197.6729524468
 30
0.0
 10
147.1483524576
 20
197.6615247068
 30
0.0
 10
147.14263227
 20
197.6500969701
 30
0.0
 10
147.1369121244
 20
197.6386692255
 30
0.0
 10
147.1311918269
 20
197.6272415095
 30
0.0
 10
147.1264253834
 20
197.6177183239
 30
0.0
 10
147.1226111738
 20
197.6100999745
 30
0.0
 10
147.1202296944
 20
197.6053380529
 30
0.0
 10
147.1183190108
 20
197.6015295536
 30
0.0
 10
147.117137383
 20
197.5991468733
 30
0.0
 10
147.1162850928
 20
197.5974837433
 30
0.0
 10
147.1158374205
 20
197.5965259574
 30
0.0
 10
147.1155379876
 20
197.5955401974
 30
0.0
 10
147.1151129397
 20
197.5943175756
 30
0.0
 10
147.1144612282
 20
197.592356028
 30
0.0
 10
147.1136368766
 20
197.5899059262
 30
0.0
 10
147.1123233423
 20
197.5859847391
 30
0.0
 10
147.110679562
 20
197.5810836066
 30
0.0
 10
147.1087078227
 20
197.5752020972
 30
0.0
 10
147.1060785589
 20
197.5673601371
 30
0.0
 10
147.1014774777
 20
197.5536366827
 30
0.0
 10
147.094904429
 20
197.5340317591
 30
0.0
 10
147.0883314339
 20
197.5144268367
 30
0.0
 10
147.0837302776
 20
197.5007033806
 30
0.0
 10
147.0811011318
 20
197.4928614232
 30
0.0
 10
147.0791290302
 20
197.4869799054
 30
0.0
 10
147.077486384
 20
197.4820787991
 30
0.0
 10
147.0761705357
 20
197.4781575586
 30
0.0
 10
147.075352073
 20
197.4757075926
 30
0.0
 10
147.0746882738
 20
197.4737457663
 30
0.0
 10
147.0742940006
 20
197.472523854
 30
0.0
 10
147.0739313961
 20
197.4715366377
 30
0.0
 10
147.0737410542
 20
197.4705847839
 30
0.0
 10
147.073487979
 20
197.4689354672
 30
0.0
 10
147.073084691
 20
197.4665707294
 30
0.0
 10
147.0724627632
 20
197.4627919389
 30
0.0
 10
147.0716773641
 20
197.4580668107
 30
0.0
 10
147.0704251908
 20
197.4505075223
 30
0.0
 10
147.0688584422
 20
197.4410580972
 30
0.0
 10
147.0669789996
 20
197.4297189217
 30
0.0
 10
147.0644728471
 20
197.4145999741
 30
0.0
 10
147.0613402352
 20
197.3957013057
 30
0.0
 10
147.0575810669
 20
197.3730228966
 30
0.0
 10
147.0550749612
 20
197.3579039585
 30
0.0
 10
147.0538219075
 20
197.3503444893
 30
0.0
  0
SPLINE
  5
494
100
AcDbEntity
  8
7_ALL_FEATURES
100
AcDbSpline
 62
4
  6
CONTINUOUS
 70
0
 71
3
 72
104
 73
100
 74
0
 42
0.0000001
 43
0.0000001
 44
0.0000000001
 40
0.0
 40
0.0
 40
0.0
 40
0.0
 40
0.0625
 40
0.09375
 40
0.109375
 40
0.125
 40
0.140625
 40
0.1484375
 40
0.15625
 40
0.16015625
 40
0.1640625
 40
0.166015625
 40
0.1669921875
 40
0.16796875
 40
0.169921875
 40
0.171875
 40
0.1796875
 40
0.1875
 40
0.1953125
 40
0.203125
 40
0.21875
 40
0.25
 40
0.28125
 40
0.296875
 40
0.3046875
 40
0.3125
 40
0.3203125
 40
0.328125
 40
0.330078125
 40
0.33203125
 40
0.3330078125
 40
0.333984375
 40
0.3359375
 40
0.33984375
 40
0.34375
 40
0.3515625
 40
0.359375
 40
0.375
 40
0.390625
 40
0.40625
 40
0.421875
 40
0.4375
 40
0.453125
 40
0.46875
 40
0.4765625
 40
0.484375
 40
0.48828125
 40
0.4921875
 40
0.49609375
 40
0.498046875
 40
0.5
 40
0.501953125
 40
0.50390625
 40
0.5078125
 40
0.51171875
 40
0.515625
 40
0.5234375
 40
0.53125
 40
0.546875
 40
0.5625
 40
0.578125
 40
0.59375
 40
0.609375
 40
0.625
 40
0.640625
 40
0.6484375
 40
0.65625
 40
0.66015625
 40
0.6640625
 40
0.666015625
 40
0.6669921875
 40
0.66796875
 40
0.669921875
 40
0.671875
 40
0.6796875
 40
0.6875
 40
0.6953125
 40
0.703125
 40
0.71875
 40
0.75
 40
0.78125
 40
0.796875
 40
0.8046875
 40
0.8125
 40
0.8203125
 40
0.828125
 40
0.830078125
 40
0.83203125
 40
0.833984375
 40
0.8359375
 40
0.83984375
 40
0.84375
 40
0.8515625
 40
0.859375
 40
0.875
 40
0.890625
 40
0.90625
 40
0.9375
 40
1.0
 40
1.0
 40
1.0
 40
1.0
 10
148.5308462588
 20
199.3668705806
 30
0.0
 10
148.5245918853
 20
199.3712620551
 30
0.0
 10
148.5152103203
 20
199.3778492593
 30
0.0
 10
148.5042651781
 20
199.3855343571
 30
0.0
 10
148.4980107869
 20
199.389925804
 30
0.0
 10
148.4933200613
 20
199.3932194944
 30
0.0
 10
148.4894109074
 20
199.3959639012
 30
0.0
 10
148.4862840687
 20
199.3981601786
 30
0.0
 10
148.4843286913
 20
199.3995311396
 30
0.0
 10
148.4827669159
 20
199.4006318302
 30
0.0
 10
148.4817850416
 20
199.4013108134
 30
0.0
 10
148.4811092828
 20
199.4018040355
 30
0.0
 10
148.4807050588
 20
199.4020578175
 30
0.0
 10
148.4802327515
 20
199.4022059153
 30
0.0
 10
148.4796656386
 20
199.4024271609
 30
0.0
 10
148.4782854143
 20
199.4029284191
 30
0.0
 10
148.4762231225
 20
199.4036927938
 30
0.0
 10
148.4734688021
 20
199.4047048228
 30
0.0
 10
148.4707157116
 20
199.405718761
 30
0.0
 10
148.4670444952
 20
199.4070700125
 30
0.0
 10
148.4606200677
 20
199.409435015
 30
0.0
 10
148.4514421992
 20
199.4128134108
 30
0.0
 10
148.4422644069
 20
199.4161919282
 30
0.0
 10
148.4358398727
 20
199.4185567605
 30
0.0
 10
148.4321688238
 20
199.4199082793
 30
0.0
 10
148.4294152194
 20
199.4209213975
 30
0.0
 10
148.4266628293
 20
199.4219365063
 30
0.0
 10
148.4245951323
 20
199.4226922568
 30
0.0
 10
148.4232219621
 20
199.4232047702
 30
0.0
 10
148.4226419294
 20
199.4234054015
 30
0.0
 10
148.422196282
 20
199.4235960367
 30
0.0
 10
148.4216834223
 20
199.4236764842
 30
0.0
 10
148.4207546893
 20
199.4237660714
 30
0.0
 10
148.4194442213
 20
199.4239207645
 30
0.0
 10
148.4173383669
 20
199.424153346
 30
0.0
 10
148.4147091667
 20
199.424449184
 30
0.0
 10
148.4105007039
 20
199.4249196682
 30
0.0
 10
148.4052407233
 20
199.4255087536
 30
0.0
 10
148.3989284903
 20
199.4262152361
 30
0.0
 10
148.3926163257
 20
199.4269218304
 30
0.0
 10
148.3863041436
 20
199.4276283974
 30
0.0
 10
148.3799919634
 20
199.4283349618
 30
0.0
 10
148.3736797928
 20
199.429041564
 30
0.0
 10
148.3684196171
 20
199.4296302754
 30
0.0
 10
148.3642115523
 20
199.4301015225
 30
0.0
 10
148.3615813391
 20
199.430395419
 30
0.0
 10
148.3594775641
 20
199.4306319858
 30
0.0
 10
148.3578986498
 20
199.4308054419
 30
0.0
 10
148.3565863333
 20
199.4309626145
 30
0.0
 10
148.3555287527
 20
199.4310600351
 30
0.0
 10
148.3547566819
 20
199.4312104774
 30
0.0
 10
148.3539040164
 20
199.4310655712
 30
0.0
 10
148.3527952817
 20
199.430975532
 30
0.0
 10
148.3513997044
 20
199.4308275862
 30
0.0
 10
148.349729146
 20
199.4306652022
 30
0.0
 10
148.3475002907
 20
199.4304433983
 30
0.0
 10
148.344714716
 20
199.4301679554
 30
0.0
 10
148.3402575202
 20
199.4297262341
 30
0.0
 10
148.3346861202
 20
199.4291744297
 30
0.0
 10
148.3280003998
 20
199.4285121162
 30
0.0
 10
148.3213146895
 20
199.4278498403
 30
0.0
 10
148.3146289792
 20
199.4271875622
 30
0.0
 10
148.3079432589
 20
199.4265252554
 30
0.0
 10
148.3012575785
 20
199.4258630654
 30
0.0
 10
148.2956860535
 20
199.425310875
 30
0.0
 10
148.2912291127
 20
199.4248699413
 30
0.0
 10
148.2884428891
 20
199.424592494
 30
0.0
 10
148.2862153658
 20
199.4243748044
 30
0.0
 10
148.2848198425
 20
199.4242290096
 30
0.0
 10
148.2838496326
 20
199.4241464712
 30
0.0
 10
148.2832848122
 20
199.4240687686
 30
0.0
 10
148.282680765
 20
199.4238760453
 30
0.0
 10
148.2819391139
 20
199.4236744558
 30
0.0
 10
148.280148116
 20
199.4231582834
 30
0.0
 10
148.2774662541
 20
199.4223976153
 30
0.0
 10
148.273887789
 20
199.4213756234
 30
0.0
 10
148.2703100326
 20
199.4203557093
 30
0.0
 10
148.2655394436
 20
199.4189950992
 30
0.0
 10
148.2571910278
 20
199.4166143679
 30
0.0
 10
148.2452646599
 20
199.4132131581
 30
0.0
 10
148.2333383118
 20
199.4098119678
 30
0.0
 10
148.2249898682
 20
199.4074312091
 30
0.0
 10
148.2202193229
 20
199.406070642
 30
0.0
 10
148.2166414323
 20
199.4050505959
 30
0.0
 10
148.2130634712
 20
199.4040291
 30
0.0
 10
148.2103801982
 20
199.4032670429
 30
0.0
 10
148.2085910418
 20
199.4027526832
 30
0.0
 10
148.2076970133
 20
199.4025067917
 30
0.0
 10
148.2068008473
 20
199.4022170112
 30
0.0
 10
148.2055957888
 20
199.4016218056
 30
0.0
 10
148.204092948
 20
199.4009493022
 30
0.0
 10
148.2016864566
 20
199.3998333372
 30
0.0
 10
148.1986790088
 20
199.3984520632
 30
0.0
 10
148.1938667197
 20
199.3962343778
 30
0.0
 10
148.1878514863
 20
199.3934648946
 30
0.0
 10
148.1806331514
 20
199.3901403919
 30
0.0
 10
148.171008724
 20
199.3857081134
 30
0.0
 10
148.1541659671
 20
199.3779514423
 30
0.0
 10
148.1397293214
 20
199.3713029301
 30
0.0
 10
148.1301048902
 20
199.3668705747
 30
0.0
  0
SPLINE
  5
495
100
AcDbEntity
  8
7_ALL_FEATURES
100
AcDbSpline
 62
4
  6
CONTINUOUS
 70
0
 71
3
 72
154
 73
150
 74
0
 42
0.0000001
 43
0.0000001
 44
0.0000000001
 40
0.0
 40
0.0
 40
0.0
 40
0.0
 40
0.03125
 40
0.046875
 40
0.0625
 40
0.078125
 40
0.0859375
 40
0.09375
 40
0.09765625
 40
0.1015625
 40
0.10546875
 40
0.107421875
 40
0.109375
 40
0.111328125
 40
0.1123046875
 40
0.11328125
 40
0.1171875
 40
0.125
 40
0.1328125
 40
0.140625
 40
0.15625
 40
0.171875
 40
0.1875
 40
0.1953125
 40
0.203125
 40
0.2109375
 40
0.21484375
 40
0.21875
 40
0.220703125
 40
0.22265625
 40
0.224609375
 40
0.2265625
 40
0.23046875
 40
0.234375
 40
0.2421875
 40
0.25
 40
0.265625
 40
0.28125
 40
0.296875
 40
0.3046875
 40
0.3125
 40
0.3203125
 40
0.32421875
 40
0.328125
 40
0.330078125
 40
0.33203125
 40
0.3330078125
 40
0.333984375
 40
0.3359375
 40
0.33984375
 40
0.34375
 40
0.3515625
 40
0.359375
 40
0.375
 40
0.390625
 40
0.40625
 40
0.4140625
 40
0.421875
 40
0.4296875
 40
0.4375
 40
0.44140625
 40
0.443359375
 40
0.4443359375
 40
0.4453125
 40
0.447265625
 40
0.44921875
 40
0.453125
 40
0.45703125
 40
0.4609375
 40
0.46875
 40
0.484375
 40
0.5
 40
0.515625
 40
0.53125
 40
0.5390625
 40
0.54296875
 40
0.546875
 40
0.55078125
 40
0.552734375
 40
0.5546875
 40
0.5556640625
 40
0.556640625
 40
0.55859375
 40
0.5625
 40
0.5703125
 40
0.578125
 40
0.5859375
 40
0.59375
 40
0.609375
 40
0.625
 40
0.640625
 40
0.6484375
 40
0.65234375
 40
0.65625
 40
0.66015625
 40
0.6640625
 40
0.6650390625
 40
0.666015625
 40
0.6665039062
 40
0.6669921875
 40
0.66796875
 40
0.669921875
 40
0.671875
 40
0.67578125
 40
0.6796875
 40
0.6875
 40
0.6953125
 40
0.703125
 40
0.71875
 40
0.734375
 40
0.75
 40
0.7578125
 40
0.765625
 40
0.76953125
 40
0.7734375
 40
0.775390625
 40
0.7763671875
 40
0.77734375
 40
0.779296875
 40
0.78125
 40
0.78515625
 40
0.7890625
 40
0.796875
 40
0.8046875
 40
0.8125
 40
0.828125
 40
0.84375
 40
0.859375
 40
0.8671875
 40
0.875
 40
0.8828125
 40
0.884765625
 40
0.88671875
 40
0.8876953125
 40
0.888671875
 40
0.8896484375
 40
0.890625
 40
0.892578125
 40
0.89453125
 40
0.8984375
 40
0.90234375
 40
0.90625
 40
0.9140625
 40
0.921875
 40
0.9296875
 40
0.9375
 40
0.953125
 40
0.96875
 40
1.0
 40
1.0
 40
1.0
 40
1.0
 10
148.3275641537
 20
198.6822026255
 30
0.0
 10
148.3344304751
 20
198.688171999
 30
0.0
 10
148.3447299567
 20
198.6971260603
 30
0.0
 10
148.3584626012
 20
198.7090648048
 30
0.0
 10
148.3687620785
 20
198.718018873
 30
0.0
 10
148.3773449956
 20
198.7254805654
 30
0.0
 10
148.3842112857
 20
198.731449989
 30
0.0
 10
148.3885028164
 20
198.73518072
 30
0.0
 10
148.3919358134
 20
198.7381656683
 30
0.0
 10
148.3945111841
 20
198.7404033844
 30
0.0
 10
148.3966553447
 20
198.7422713134
 30
0.0
 10
148.3983751178
 20
198.7437585569
 30
0.0
 10
148.3996528026
 20
198.7448933893
 30
0.0
 10
148.4007561714
 20
198.7457773751
 30
0.0
 10
148.4015082299
 20
198.7466932357
 30
0.0
 10
148.4026698822
 20
198.7480134125
 30
0.0
 10
148.4051671789
 20
198.75090513
 30
0.0
 10
148.4090224274
 20
198.7553327554
 30
0.0
 10
148.4136430527
 20
198.7606549678
 30
0.0
 10
148.419805868
 20
198.7677480855
 30
0.0
 10
148.4275087075
 20
198.7766155686
 30
0.0
 10
148.4367524047
 20
198.787256084
 30
0.0
 10
148.4444554257
 20
198.79612328
 30
0.0
 10
148.4506178417
 20
198.8032170294
 30
0.0
 10
148.4552396922
 20
198.8085373037
 30
0.0
 10
148.4590911062
 20
198.8129709945
 30
0.0
 10
148.4621725255
 20
198.8165176567
 30
0.0
 10
148.4640977564
 20
198.8187349823
 30
0.0
 10
148.465639444
 20
198.8205073274
 30
0.0
 10
148.4667915948
 20
198.8218407351
 30
0.0
 10
148.4677300713
 20
198.8233895873
 30
0.0
 10
148.4690560052
 20
198.8253794734
 30
0.0
 10
148.4706878688
 20
198.8278925965
 30
0.0
 10
148.4733131312
 20
198.8318991945
 30
0.0
 10
148.4765898195
 20
198.8369123722
 30
0.0
 10
148.4818352534
 20
198.8449307011
 30
0.0
 10
148.4883911105
 20
198.8549545573
 30
0.0
 10
148.4962585293
 20
198.8669827814
 30
0.0
 10
148.5028146579
 20
198.8770063857
 30
0.0
 10
148.5080594944
 20
198.8850252688
 30
0.0
 10
148.5119933534
 20
198.8910393814
 30
0.0
 10
148.5152708248
 20
198.8960513081
 30
0.0
 10
148.5178944727
 20
198.9000604754
 30
0.0
 10
148.5195304479
 20
198.9025670569
 30
0.0
 10
148.5208479417
 20
198.9045703708
 30
0.0
 10
148.5216514935
 20
198.9058268944
 30
0.0
 10
148.522339873
 20
198.9068219154
 30
0.0
 10
148.5228620058
 20
198.9078541661
 30
0.0
 10
148.5236985095
 20
198.9096778995
 30
0.0
 10
148.5249338089
 20
198.9122742094
 30
0.0
 10
148.5268877698
 20
198.9164333481
 30
0.0
 10
148.5293379308
 20
198.9216305448
 30
0.0
 10
148.5332538813
 20
198.9299470243
 30
0.0
 10
148.5381502832
 20
198.9403422943
 30
0.0
 10
148.5440253998
 20
198.9528167522
 30
0.0
 10
148.548921264
 20
198.9632121264
 30
0.0
 10
148.5528383975
 20
198.9715283767
 30
0.0
 10
148.5557749607
 20
198.9777657158
 30
0.0
 10
148.5587164507
 20
198.9840024741
 30
0.0
 10
148.5611523424
 20
198.9892015827
 30
0.0
 10
148.5628875459
 20
198.9928374117
 30
0.0
 10
148.563714058
 20
198.9946601716
 30
0.0
 10
148.5642524931
 20
198.995693949
 30
0.0
 10
148.5645420115
 20
198.996757079
 30
0.0
 10
148.564949451
 20
198.9980806212
 30
0.0
 10
148.565575901
 20
199.0002012902
 30
0.0
 10
148.5663676963
 20
199.0028510966
 30
0.0
 10
148.5673141131
 20
199.006031305
 30
0.0
 10
148.5685773059
 20
199.0102714291
 30
0.0
 10
148.5707872856
 20
199.017691718
 30
0.0
 10
148.5739447195
 20
199.0282920939
 30
0.0
 10
148.5777334927
 20
199.0410125575
 30
0.0
 10
148.5815223441
 20
199.0537330299
 30
0.0
 10
148.5846795823
 20
199.0643333838
 30
0.0
 10
148.5868899045
 20
199.0717537113
 30
0.0
 10
148.5881525492
 20
199.0759937737
 30
0.0
 10
148.5891006495
 20
199.0791741718
 30
0.0
 10
148.5898871757
 20
199.0818233844
 30
0.0
 10
148.590524376
 20
199.0839452649
 30
0.0
 10
148.5909044566
 20
199.0852657237
 30
0.0
 10
148.5912501333
 20
199.0863351827
 30
0.0
 10
148.5913115091
 20
199.087315196
 30
0.0
 10
148.5915511202
 20
199.0890718126
 30
0.0
 10
148.5919364809
 20
199.0925555154
 30
0.0
 10
148.5925360751
 20
199.0975476747
 30
0.0
 10
148.5932345495
 20
199.1035316468
 30
0.0
 10
148.5939386524
 20
199.1095173898
 30
0.0
 10
148.5948754895
 20
199.1174977615
 30
0.0
 10
148.5960472146
 20
199.1274734403
 30
0.0
 10
148.597452977
 20
199.1394441553
 30
0.0
 10
148.5986245663
 20
199.1494197974
 30
0.0
 10
148.5994445602
 20
199.1564026934
 30
0.0
 10
148.5999132953
 20
199.1603929974
 30
0.0
 10
148.600264379
 20
199.1633855075
 30
0.0
 10
148.6006172496
 20
199.1663788504
 30
0.0
 10
148.6008768928
 20
199.1686215224
 30
0.0
 10
148.6010577793
 20
199.1701202689
 30
0.0
 10
148.6011215551
 20
199.1707393423
 30
0.0
 10
148.6011996213
 20
199.1712472081
 30
0.0
 10
148.6011787802
 20
199.1717089689
 30
0.0
 10
148.6010963534
 20
199.1724956288
 30
0.0
 10
148.6010025777
 20
199.1736306054
 30
0.0
 10
148.6008391373
 20
199.1754403219
 30
0.0
 10
148.6006394247
 20
199.1777046061
 30
0.0
 10
148.6003173204
 20
199.1813262655
 30
0.0
 10
148.5999155698
 20
199.18585375
 30
0.0
 10
148.5994330922
 20
199.1912865557
 30
0.0
 10
148.5987899217
 20
199.1985303587
 30
0.0
 10
148.5979859035
 20
199.2075850854
 30
0.0
 10
148.5970211465
 20
199.2184507944
 30
0.0
 10
148.5962170397
 20
199.2275054647
 30
0.0
 10
148.5955740641
 20
199.2347493918
 30
0.0
 10
148.5951715012
 20
199.2392764127
 30
0.0
 10
148.5948510608
 20
199.2428990223
 30
0.0
 10
148.5946471124
 20
199.2451608877
 30
0.0
 10
148.59451171
 20
199.246748734
 30
0.0
 10
148.5944228194
 20
199.2476489708
 30
0.0
 10
148.5943771957
 20
199.2485758937
 30
0.0
 10
148.5940100622
 20
199.2495432812
 30
0.0
 10
148.5934564093
 20
199.2511119243
 30
0.0
 10
148.5927527834
 20
199.2530655983
 30
0.0
 10
148.5916334428
 20
199.2561954616
 30
0.0
 10
148.5902320505
 20
199.2601064236
 30
0.0
 10
148.5885513281
 20
199.2648001629
 30
0.0
 10
148.5863100353
 20
199.2710582792
 30
0.0
 10
148.5835085206
 20
199.2788809827
 30
0.0
 10
148.580146711
 20
199.2882682521
 30
0.0
 10
148.5773450412
 20
199.2960908151
 30
0.0
 10
148.5751040897
 20
199.3023492405
 30
0.0
 10
148.5734223203
 20
199.3070420314
 30
0.0
 10
148.5721640164
 20
199.3105645684
 30
0.0
 10
148.5713204384
 20
199.3129083414
 30
0.0
 10
148.5709759556
 20
199.3138917374
 30
0.0
 10
148.570684021
 20
199.3146625353
 30
0.0
 10
148.5705099104
 20
199.315284296
 30
0.0
 10
148.5701646123
 20
199.315739367
 30
0.0
 10
148.5696998189
 20
199.3163418479
 30
0.0
 10
148.5691203323
 20
199.3170964146
 30
0.0
 10
148.5681923124
 20
199.3183029022
 30
0.0
 10
148.5670325762
 20
199.3198112928
 30
0.0
 10
148.5656407693
 20
199.3216212411
 30
0.0
 10
148.5637850698
 20
199.3240345477
 30
0.0
 10
148.5614654307
 20
199.3270511664
 30
0.0
 10
148.5586818701
 20
199.3306711151
 30
0.0
 10
148.5558983078
 20
199.3342910621
 30
0.0
 10
148.552186892
 20
199.3391176587
 30
0.0
 10
148.547547622
 20
199.3451509042
 30
0.0
 10
148.5401247902
 20
199.3548040972
 30
0.0
 10
148.5345576663
 20
199.3620439919
 30
0.0
 10
148.5308462503
 20
199.3668705884
 30
0.0
  0
SPLINE
  5
496
100
AcDbEntity
  8
7_ALL_FEATURES
100
AcDbSpline
 62
4
  6
CONTINUOUS
 70
0
 71
3
 72
195
 73
191
 74
0
 42
0.0000001
 43
0.0000001
 44
0.0000000001
 40
0.0
 40
0.0
 40
0.0
 40
0.0
 40
0.03125
 40
0.046875
 40
0.0625
 40
0.078125
 40
0.0859375
 40
0.09375
 40
0.1015625
 40
0.109375
 40
0.11328125
 40
0.1171875
 40
0.119140625
 40
0.12109375
 40
0.123046875
 40
0.1240234375
 40
0.1245117188
 40
0.125
 40
0.1254882812
 40
0.1259765625
 40
0.126953125
 40
0.12890625
 40
0.130859375
 40
0.1328125
 40
0.13671875
 40
0.140625
 40
0.1484375
 40
0.15625
 40
0.1640625
 40
0.171875
 40
0.1875
 40
0.203125
 40
0.2109375
 40
0.21875
 40
0.2265625
 40
0.234375
 40
0.23828125
 40
0.2421875
 40
0.244140625
 40
0.24609375
 40
0.248046875
 40
0.2490234375
 40
0.2495117188
 40
0.25
 40
0.2504882812
 40
0.2509765625
 40
0.251953125
 40
0.25390625
 40
0.255859375
 40
0.2578125
 40
0.26171875
 40
0.265625
 40
0.2734375
 40
0.28125
 40
0.2890625
 40
0.296875
 40
0.3125
 40
0.328125
 40
0.3359375
 40
0.34375
 40
0.3515625
 40
0.359375
 40
0.36328125
 40
0.3671875
 40
0.369140625
 40
0.37109375
 40
0.373046875
 40
0.3740234375
 40
0.3745117188
 40
0.375
 40
0.3754882812
 40
0.3759765625
 40
0.376953125
 40
0.37890625
 40
0.380859375
 40
0.3828125
 40
0.38671875
 40
0.390625
 40
0.3984375
 40
0.40625
 40
0.4140625
 40
0.421875
 40
0.4375
 40
0.453125
 40
0.4609375
 40
0.46875
 40
0.4765625
 40
0.484375
 40
0.48828125
 40
0.4921875
 40
0.494140625
 40
0.49609375
 40
0.498046875
 40
0.4990234375
 40
0.4995117188
 40
0.5
 40
0.5004882812
 40
0.5009765625
 40
0.501953125
 40
0.50390625
 40
0.505859375
 40
0.5078125
 40
0.51171875
 40
0.515625
 40
0.5234375
 40
0.53125
 40
0.5390625
 40
0.546875
 40
0.5625
 40
0.578125
 40
0.5859375
 40
0.59375
 40
0.6015625
 40
0.609375
 40
0.61328125
 40
0.6171875
 40
0.619140625
 40
0.62109375
 40
0.623046875
 40
0.6240234375
 40
0.6245117188
 40
0.625
 40
0.6254882812
 40
0.6259765625
 40
0.626953125
 40
0.62890625
 40
0.630859375
 40
0.6328125
 40
0.63671875
 40
0.640625
 40
0.6484375
 40
0.65625
 40
0.6640625
 40
0.671875
 40
0.6875
 40
0.703125
 40
0.7109375
 40
0.71875
 40
0.7265625
 40
0.734375
 40
0.73828125
 40
0.7421875
 40
0.744140625
 40
0.74609375
 40
0.748046875
 40
0.7490234375
 40
0.7495117188
 40
0.75
 40
0.7504882812
 40
0.7509765625
 40
0.751953125
 40
0.75390625
 40
0.755859375
 40
0.7578125
 40
0.76171875
 40
0.765625
 40
0.7734375
 40
0.78125
 40
0.7890625
 40
0.796875
 40
0.8125
 40
0.828125
 40
0.8359375
 40
0.84375
 40
0.8515625
 40
0.859375
 40
0.86328125
 40
0.8671875
 40
0.869140625
 40
0.87109375
 40
0.873046875
 40
0.8740234375
 40
0.8745117188
 40
0.875
 40
0.8754882812
 40
0.8759765625
 40
0.876953125
 40
0.87890625
 40
0.880859375
 40
0.8828125
 40
0.88671875
 40
0.890625
 40
0.8984375
 40
0.90625
 40
0.9140625
 40
0.921875
 40
0.9375
 40
0.953125
 40
0.96875
 40
1.0
 40
1.0
 40
1.0
 40
1.0
 10
147.0538219081
 20
197.3503444974
 30
0.0
 10
147.0540156698
 20
197.3414645453
 30
0.0
 10
147.0543063123
 20
197.328144617
 30
0.0
 10
147.0546938356
 20
197.3103847127
 30
0.0
 10
147.0549844782
 20
197.2970647845
 30
0.0
 10
147.0552266799
 20
197.285964844
 30
0.0
 10
147.0554204425
 20
197.2770848924
 30
0.0
 10
147.0555657608
 20
197.2704249267
 30
0.0
 10
147.0557110931
 20
197.2637649685
 30
0.0
 10
147.0558321597
 20
197.2582149799
 30
0.0
 10
147.0559291108
 20
197.2537750414
 30
0.0
 10
147.0559894823
 20
197.2509999606
 30
0.0
 10
147.0560382902
 20
197.2487801691
 30
0.0
 10
147.0560734979
 20
197.2471145776
 30
0.0
 10
147.0561072857
 20
197.2457289639
 30
0.0
 10
147.0561222079
 20
197.2447543652
 30
0.0
 10
147.0561443648
 20
197.244204742
 30
0.0
 10
147.0561225869
 20
197.2437719877
 30
0.0
 10
147.0562475764
 20
197.2434177356
 30
0.0
 10
147.0563630349
 20
197.2429180169
 30
0.0
 10
147.0565889397
 20
197.2420562673
 30
0.0
 10
147.0568991905
 20
197.2408185264
 30
0.0
 10
147.0572768292
 20
197.2393360923
 30
0.0
 10
147.0577784831
 20
197.2373585163
 30
0.0
 10
147.0584061888
 20
197.2348868877
 30
0.0
 10
147.0594101611
 20
197.2309320911
 30
0.0
 10
147.060665249
 20
197.2259886609
 30
0.0
 10
147.062171302
 20
197.2200565166
 30
0.0
 10
147.063677369
 20
197.2141243798
 30
0.0
 10
147.0656854534
 20
197.2062148614
 30
0.0
 10
147.0681955607
 20
197.1963279645
 30
0.0
 10
147.0707056669
 20
197.1864410667
 30
0.0
 10
147.0727137532
 20
197.1785315497
 30
0.0
 10
147.0742198145
 20
197.1725994089
 30
0.0
 10
147.0757258891
 20
197.1666672795
 30
0.0
 10
147.0769809094
 20
197.1617238028
 30
0.0
 10
147.0779850196
 20
197.157769101
 30
0.0
 10
147.0786123747
 20
197.1552972313
 30
0.0
 10
147.0791147482
 20
197.1533201503
 30
0.0
 10
147.0794901884
 20
197.1518362037
 30
0.0
 10
147.0798073177
 20
197.150603195
 30
0.0
 10
147.0800209432
 20
197.1497329976
 30
0.0
 10
147.0801560763
 20
197.1492468145
 30
0.0
 10
147.0802206319
 20
197.1488509856
 30
0.0
 10
147.0804258336
 20
197.1485743865
 30
0.0
 10
147.0806503771
 20
197.1481639991
 30
0.0
 10
147.0810661855
 20
197.1474651981
 30
0.0
 10
147.0816482475
 20
197.1464567804
 30
0.0
 10
147.0823518369
 20
197.1452510153
 30
0.0
 10
147.0832881695
 20
197.143641814
 30
0.0
 10
147.084459197
 20
197.1416308309
 30
0.0
 10
147.0863324991
 20
197.1384129682
 30
0.0
 10
147.088674244
 20
197.1343907393
 30
0.0
 10
147.0914842876
 20
197.1295640219
 30
0.0
 10
147.0942943447
 20
197.124737316
 30
0.0
 10
147.0980410828
 20
197.1183017041
 30
0.0
 10
147.1027245071
 20
197.1102571907
 30
0.0
 10
147.1074079303
 20
197.1022126762
 30
0.0
 10
147.1111546702
 20
197.095777066
 30
0.0
 10
147.1139647219
 20
197.0909503548
 30
0.0
 10
147.1167747857
 20
197.0861236572
 30
0.0
 10
147.1191164677
 20
197.0821013669
 30
0.0
 10
147.1209898982
 20
197.0788836294
 30
0.0
 10
147.1221605988
 20
197.0768723277
 30
0.0
 10
147.1230976025
 20
197.0752637804
 30
0.0
 10
147.1237991416
 20
197.0740560173
 30
0.0
 10
147.1243876185
 20
197.073053851
 30
0.0
 10
147.1247919751
 20
197.0723438901
 30
0.0
 10
147.1250348673
 20
197.0719513836
 30
0.0
 10
147.1251837076
 20
197.0716198599
 30
0.0
 10
147.1254599477
 20
197.0714303188
 30
0.0
 10
147.1257838293
 20
197.0711280723
 30
0.0
 10
147.1263713269
 20
197.0706222154
 30
0.0
 10
147.1271997845
 20
197.0698874991
 30
0.0
 10
147.1281985669
 20
197.0690110032
 30
0.0
 10
147.1295286584
 20
197.0678405383
 30
0.0
 10
147.131191827
 20
197.0663780749
 30
0.0
 10
147.133852587
 20
197.0640377881
 30
0.0
 10
147.1371786433
 20
197.0611125482
 30
0.0
 10
147.1411698653
 20
197.0576022095
 30
0.0
 10
147.1451610994
 20
197.0540918843
 30
0.0
 10
147.1504827407
 20
197.0494114461
 30
0.0
 10
147.1571347939
 20
197.0435609
 30
0.0
 10
147.1637868461
 20
197.0377103527
 30
0.0
 10
147.1691084889
 20
197.0330299165
 30
0.0
 10
147.1730997183
 20
197.0295195853
 30
0.0
 10
147.1770909581
 20
197.0260092693
 30
0.0
 10
147.1804169589
 20
197.0230839587
 30
0.0
 10
147.1830778321
 20
197.020743816
 30
0.0
 10
147.1847407128
 20
197.019280986
 30
0.0
 10
147.1860713952
 20
197.0181112736
 30
0.0
 10
147.1870683725
 20
197.017232479
 30
0.0
 10
147.1879024778
 20
197.0165049546
 30
0.0
 10
147.1884798932
 20
197.0159862589
 30
0.0
 10
147.188819929
 20
197.0157045835
 30
0.0
 10
147.1890465489
 20
197.0154518542
 30
0.0
 10
147.1893817542
 20
197.0153576549
 30
0.0
 10
147.1897908189
 20
197.0151767588
 30
0.0
 10
147.1905243291
 20
197.0148859546
 30
0.0
 10
147.1915629748
 20
197.0144570502
 30
0.0
 10
147.1928132986
 20
197.0139481305
 30
0.0
 10
147.1944790177
 20
197.0132675571
 30
0.0
 10
147.1965616389
 20
197.0124175299
 30
0.0
 10
147.1998935689
 20
197.0110571009
 30
0.0
 10
147.2040585719
 20
197.009356697
 30
0.0
 10
147.2090565366
 20
197.0073161555
 30
0.0
 10
147.2140545118
 20
197.0052756293
 30
0.0
 10
147.220718475
 20
197.0025549223
 30
0.0
 10
147.2290484304
 20
196.9991540405
 30
0.0
 10
147.237378385
 20
196.9957531574
 30
0.0
 10
147.2440423495
 20
196.9930324526
 30
0.0
 10
147.2490403208
 20
196.9909919197
 30
0.0
 10
147.2540383002
 20
196.988951403
 30
0.0
 10
147.2582032577
 20
196.9872509222
 30
0.0
 10
147.2615352804
 20
196.9858906499
 30
0.0
 10
147.2636176654
 20
196.9850402242
 30
0.0
 10
147.2652838693
 20
196.9843604687
 30
0.0
 10
147.2665327122
 20
196.9838490501
 30
0.0
 10
147.2675759914
 20
196.983427964
 30
0.0
 10
147.2683012299
 20
196.9831232029
 30
0.0
 10
147.2687235479
 20
196.9829646692
 30
0.0
 10
147.2690180431
 20
196.9828017798
 30
0.0
 10
147.2693975637
 20
196.9828070392
 30
0.0
 10
147.2698739333
 20
196.9827553996
 30
0.0
 10
147.2707213982
 20
196.9826923575
 30
0.0
 10
147.2719248381
 20
196.9825880104
 30
0.0
 10
147.2733720582
 20
196.9824689091
 30
0.0
 10
147.275300605
 20
196.9823079714
 30
0.0
 10
147.2777116583
 20
196.9821075307
 30
0.0
 10
147.2815691368
 20
196.9817864168
 30
0.0
 10
147.2863910559
 20
196.9813851646
 30
0.0
 10
147.2921773285
 20
196.9809036019
 30
0.0
 10
147.2979636091
 20
196.9804220553
 30
0.0
 10
147.3056786471
 20
196.9797799875
 30
0.0
 10
147.3153224457
 20
196.9789774049
 30
0.0
 10
147.3249662437
 20
196.9781748209
 30
0.0
 10
147.3326812827
 20
196.9775327554
 30
0.0
 10
147.3384675605
 20
196.977051202
 30
0.0
 10
147.3442538438
 20
196.9765696648
 30
0.0
 10
147.3490757293
 20
196.9761683331
 30
0.0
 10
147.3529332763
 20
196.9758473815
 30
0.0
 10
147.3553441554
 20
196.9756465278
 30
0.0
 10
147.3572730596
 20
196.9754864378
 30
0.0
 10
147.3587191876
 20
196.9753647467
 30
0.0
 10
147.3599260445
 20
196.9752685024
 30
0.0
 10
147.3607674096
 20
196.9751909954
 30
0.0
 10
147.3612535527
 20
196.9751625321
 30
0.0
 10
147.3616030523
 20
196.9750966016
 30
0.0
 10
147.3620103012
 20
196.9752010899
 30
0.0
 10
147.3625331561
 20
196.9752809637
 30
0.0
 10
147.3634575374
 20
196.975448439
 30
0.0
 10
147.3647731755
 20
196.9756732095
 30
0.0
 10
147.3663540414
 20
196.9759491319
 30
0.0
 10
147.3684611291
 20
196.9763148638
 30
0.0
 10
147.3710952399
 20
196.9767727698
 30
0.0
 10
147.3753096767
 20
196.9775050051
 30
0.0
 10
147.3805777709
 20
196.9784204414
 30
0.0
 10
147.3868994633
 20
196.979518904
 30
0.0
 10
147.3932211612
 20
196.980617383
 30
0.0
 10
147.4016500898
 20
196.9820820159
 30
0.0
 10
147.4121862513
 20
196.9839128091
 30
0.0
 10
147.4227224124
 20
196.9857436009
 30
0.0
 10
147.4311513417
 20
196.9872082361
 30
0.0
 10
147.4374730377
 20
196.9883067082
 30
0.0
 10
147.4437947374
 20
196.9894051966
 30
0.0
 10
147.4490628089
 20
196.9903205527
 30
0.0
 10
147.453277292
 20
196.9910529516
 30
0.0
 10
147.455911285
 20
196.9915104414
 30
0.0
 10
147.4580186145
 20
196.9918770275
 30
0.0
 10
147.4595987416
 20
196.9921503399
 30
0.0
 10
147.4609166912
 20
196.9923832766
 30
0.0
 10
147.461836946
 20
196.9925361739
 30
0.0
 10
147.4623664127
 20
196.9926394052
 30
0.0
 10
147.4627533523
 20
196.992672147
 30
0.0
 10
147.4631791305
 20
196.9928756847
 30
0.0
 10
147.4637332874
 20
196.9930874928
 30
0.0
 10
147.4647093739
 20
196.9934859143
 30
0.0
 10
147.4661004833
 20
196.9940405761
 30
0.0
 10
147.4677712271
 20
196.9947123818
 30
0.0
 10
147.4699983921
 20
196.9956059531
 30
0.0
 10
147.4727825173
 20
196.9967236601
 30
0.0
 10
147.4772370232
 20
196.9985115762
 30
0.0
 10
147.4828051879
 20
197.0007466137
 30
0.0
 10
147.4894869718
 20
197.0034285976
 30
0.0
 10
147.4961687593
 20
197.0061105979
 30
0.0
 10
147.505077808
 20
197.0096865926
 30
0.0
 10
147.5162141194
 20
197.0141565879
 30
0.0
 10
147.5295776929
 20
197.0195205814
 30
0.0
 10
147.5473957909
 20
197.0266725731
 30
0.0
 10
147.5607593644
 20
197.0320365667
 30
0.0
 10
147.5696684134
 20
197.0356125625
 30
0.0
  0
SPLINE
  5
497
100
AcDbEntity
  8
7_ALL_FEATURES
100
AcDbSpline
 62
7
  6
CONTINUOUS
 70
0
 71
3
 72
8
 73
4
 74
0
 42
0.0000001
 43
0.0000001
 44
0.0000000001
 40
0.0
 40
0.0
 40
0.0
 40
0.0
 40
1.0
 40
1.0
 40
1.0
 40
1.0
 10
89.0304359492
 20
194.5368760441
 30
0.0
 10
88.7620792573
 20
194.8700791657
 30
0.0
 10
88.4939365789
 20
195.2034546383
 30
0.0
 10
88.2258511438
 20
195.5368760441
 30
0.0
  0
SPLINE
  5
498
100
AcDbEntity
  8
7_ALL_FEATURES
100
AcDbSpline
 62
7
  6
CONTINUOUS
 70
0
 71
3
 72
8
 73
4
 74
0
 42
0.0000001
 43
0.0000001
 44
0.0000000001
 40
0.0
 40
0.0
 40
0.0
 40
0.0
 40
1.0
 40
1.0
 40
1.0
 40
1.0
 10
103.089994975
 20
194.5368760441
 30
0.0
 10
102.886999414
 20
194.8703397589
 30
0.0
 10
102.6836874723
 20
195.2036108128
 30
0.0
 10
102.480366218
 20
195.5368760441
 30
0.0
  0
SPLINE
  5
499
100
AcDbEntity
  8
7_ALL_FEATURES
100
AcDbSpline
 62
7
  6
CONTINUOUS
 70
0
 71
3
 72
8
 73
4
 74
0
 42
0.0000001
 43
0.0000001
 44
0.0000000001
 40
0.0
 40
0.0
 40
0.0
 40
0.0
 40
1.0
 40
1.0
 40
1.0
 40
1.0
 10
138.6976162597
 20
194.5368760441
 30
0.0
 10
138.9006118193
 20
194.8703397597
 30
0.0
 10
139.1039237542
 20
195.2036108178
 30
0.0
 10
139.3072450167
 20
195.5368760441
 30
0.0
  0
SPLINE
  5
49A
100
AcDbEntity
  8
7_ALL_FEATURES
100
AcDbSpline
 62
7
  6
CONTINUOUS
 70
0
 71
3
 72
8
 73
4
 74
0
 42
0.0000001
 43
0.0000001
 44
0.0000000001
 40
0.0
 40
0.0
 40
0.0
 40
0.0
 40
1.0
 40
1.0
 40
1.0
 40
1.0
 10
152.7571752855
 20
194.5368760441
 30
0.0
 10
153.0255203429
 20
194.8700885357
 30
0.0
 10
153.2936864693
 20
195.2034451401
 30
0.0
 10
153.5617600909
 20
195.5368760441
 30
0.0
  0
SPLINE
  5
49B
100
AcDbEntity
  8
7_ALL_FEATURES
100
AcDbSpline
 62
3
  6
CONTINUOUS
 70
0
 71
3
 72
11
 73
7
 74
0
 42
0.0000001
 43
0.0000001
 44
0.0000000001
 40
0.0
 40
0.0
 40
0.0
 40
0.0
 40
0.2812369618
 40
0.539263601
 40
0.7760892974
 40
1.0
 40
1.0
 40
1.0
 40
1.0
 10
150.5651393747
 20
194.5344154214
 30
0.0
 10
150.5316060313
 20
194.4613280387
 30
0.0
 10
150.4532864819
 20
194.3268610271
 30
0.0
 10
150.2979071125
 20
194.1650135908
 30
0.0
 10
150.1168245981
 20
194.0611753898
 30
0.0
 10
149.984086519
 20
194.0368760441
 30
0.0
 10
149.9200645949
 20
194.0368760441
 30
0.0
  0
SPLINE
  5
49C
100
AcDbEntity
  8
7_ALL_FEATURES
100
AcDbSpline
 62
3
  6
CONTINUOUS
 70
0
 71
3
 72
9
 73
5
 74
0
 42
0.0000001
 43
0.0000001
 44
0.0000000001
 40
0.0
 40
0.0
 40
0.0
 40
0.0
 40
0.2537987966
 40
1.0
 40
1.0
 40
1.0
 40
1.0
 10
87.6212955913
 20
204.5345928811
 30
0.0
 10
87.6364924204
 20
204.4476938883
 30
0.0
 10
87.7038412191
 20
204.1066668619
 30
0.0
 10
87.8013382739
 20
203.7714552735
 30
0.0
 10
87.8916193915
 20
203.5283030769
 30
0.0
  0
SPLINE
  5
49D
100
AcDbEntity
  8
7_ALL_FEATURES
100
AcDbSpline
 62
3
  6
CONTINUOUS
 70
0
 71
3
 72
12
 73
8
 74
0
 42
0.0000001
 43
0.0000001
 44
0.0000000001
 40
0.0
 40
0.0
 40
0.0
 40
0.0
 40
0.2837705731
 40
0.5430982726
 40
0.778601443
 40
0.8903461806
 40
1.0
 40
1.0
 40
1.0
 40
1.0
 10
91.1836611182
 20
194.6289525695
 30
0.0
 10
91.2147912597
 20
194.543634186
 30
0.0
 10
91.2914570575
 20
194.3856704601
 30
0.0
 10
91.4534557997
 20
194.1925818234
 30
0.0
 10
91.6205428209
 20
194.0858915131
 30
0.0
 10
91.7614036129
 20
194.0438773165
 30
0.0
 10
91.8324521483
 20
194.0368760441
 30
0.0
 10
91.8675466398
 20
194.0368760441
 30
0.0
  0
SPLINE
  5
49E
100
AcDbEntity
  8
7_ALL_FEATURES
100
AcDbSpline
 62
3
  6
CONTINUOUS
 70
0
 71
3
 72
11
 73
7
 74
0
 42
0.0000001
 43
0.0000001
 44
0.0000000001
 40
0.0
 40
0.0
 40
0.0
 40
0.0
 40
0.2406488766
 40
0.4940413862
 40
0.7505723696
 40
1.0
 40
1.0
 40
1.0
 40
1.0
 10
88.2267283986
 20
208.335848983
 30
0.0
 10
88.039748123
 20
207.9862192158
 30
0.0
 10
87.74526546
 20
207.2185662894
 30
0.0
 10
87.550369578
 20
205.989503811
 30
0.0
 10
87.598158528
 20
204.7316846019
 30
0.0
 10
87.7956922413
 20
203.9143593843
 30
0.0
 10
87.9365527098
 20
203.5283030769
 30
0.0
  0
SPLINE
  5
49F
100
AcDbEntity
  8
7_ALL_FEATURES
100
AcDbSpline
 62
3
  6
CONTINUOUS
 70
0
 71
3
 72
12
 73
8
 74
0
 42
0.0000001
 43
0.0000001
 44
0.0000000001
 40
0.0
 40
0.0
 40
0.0
 40
0.0
 40
0.2837705731
 40
0.5430982726
 40
0.778601443
 40
0.8903461806
 40
1.0
 40
1.0
 40
1.0
 40
1.0
 10
99.0294160589
 20
194.6289525695
 30
0.0
 10
99.0605462004
 20
194.543634186
 30
0.0
 10
99.1372119982
 20
194.3856704601
 30
0.0
 10
99.2992107404
 20
194.1925818234
 30
0.0
 10
99.4662977616
 20
194.0858915131
 30
0.0
 10
99.6071585536
 20
194.0438773165
 30
0.0
 10
99.678207089
 20
194.0368760441
 30
0.0
 10
99.7133015805
 20
194.0368760441
 30
0.0
  0
SPLINE
  5
4A0
100
AcDbEntity
  8
7_ALL_FEATURES
100
AcDbSpline
 62
3
  6
CONTINUOUS
 70
0
 71
3
 72
11
 73
7
 74
0
 42
0.0000001
 43
0.0000001
 44
0.0000000001
 40
0.0
 40
0.0
 40
0.0
 40
0.0
 40
0.2406488766
 40
0.4940413862
 40
0.7505723696
 40
1.0
 40
1.0
 40
1.0
 40
1.0
 10
96.0724833393
 20
208.335848983
 30
0.0
 10
95.8855030637
 20
207.9862192158
 30
0.0
 10
95.5910204007
 20
207.2185662894
 30
0.0
 10
95.3961245187
 20
205.989503811
 30
0.0
 10
95.4439134687
 20
204.7316846019
 30
0.0
 10
95.641447182
 20
203.9143593843
 30
0.0
 10
95.7823076505
 20
203.5283030769
 30
0.0
  0
SPLINE
  5
4A1
100
AcDbEntity
  8
7_ALL_FEATURES
100
AcDbSpline
 62
3
  6
CONTINUOUS
 70
0
 71
3
 72
12
 73
8
 74
0
 42
0.0000001
 43
0.0000001
 44
0.0000000001
 40
0.0
 40
0.0
 40
0.0
 40
0.0
 40
0.2820341297
 40
0.5408159686
 40
0.7770377427
 40
0.8895036385
 40
1.0
 40
1.0
 40
1.0
 40
1.0
 10
150.591710321
 20
194.6289525695
 30
0.0
 10
150.559987108
 20
194.5435131208
 30
0.0
 10
150.4817383557
 20
194.3852150152
 30
0.0
 10
150.3166767209
 20
194.1921530682
 30
0.0
 10
150.1468453221
 20
194.0857878012
 30
0.0
 10
150.0037278709
 20
194.0438673608
 30
0.0
 10
149.931490009
 20
194.0368760441
 30
0.0
 10
149.8957833583
 20
194.0368760441
 30
0.0
  0
SPLINE
  5
4A2
100
AcDbEntity
  8
7_ALL_FEATURES
100
AcDbSpline
 62
3
  6
CONTINUOUS
 70
0
 71
3
 72
11
 73
7
 74
0
 42
0.0000001
 43
0.0000001
 44
0.0000000001
 40
0.0
 40
0.0
 40
0.0
 40
0.0
 40
0.2409904528
 40
0.4942587049
 40
0.7505541737
 40
1.0
 40
1.0
 40
1.0
 40
1.0
 10
153.6007069171
 20
208.335848983
 30
0.0
 10
153.7906807506
 20
207.9867680414
 30
0.0
 10
154.0903951743
 20
207.2196933987
 30
0.0
 10
154.2889949506
 20
205.9897713138
 30
0.0
 10
154.2403051701
 20
204.7310784624
 30
0.0
 10
154.0391800434
 20
203.9139487834
 30
0.0
 10
153.8959918432
 20
203.5283030769
 30
0.0
  0
SPLINE
  5
4A3
100
AcDbEntity
  8
7_ALL_FEATURES
100
AcDbSpline
 62
3
  6
CONTINUOUS
 70
0
 71
3
 72
11
 73
7
 74
0
 42
0.0000001
 43
0.0000001
 44
0.0000000001
 40
0.0
 40
0.0
 40
0.0
 40
0.0
 40
0.2409904528
 40
0.4942587049
 40
0.7505541737
 40
1.0
 40
1.0
 40
1.0
 40
1.0
 10
145.8907050098
 20
208.335848983
 30
0.0
 10
146.0806788433
 20
207.9867680414
 30
0.0
 10
146.380393267
 20
207.2196933987
 30
0.0
 10
146.5789930433
 20
205.9897713138
 30
0.0
 10
146.5303032628
 20
204.7310784624
 30
0.0
 10
146.3291781361
 20
203.9139487834
 30
0.0
 10
146.1859899359
 20
203.5283030769
 30
0.0
  0
SPLINE
  5
4A4
100
AcDbEntity
  8
7_ALL_FEATURES
100
AcDbSpline
 62
3
  6
CONTINUOUS
 70
0
 71
3
 72
12
 73
8
 74
0
 42
0.0000001
 43
0.0000001
 44
0.0000000001
 40
0.0
 40
0.0
 40
0.0
 40
0.0
 40
0.2820341297
 40
0.5408159686
 40
0.7770377427
 40
0.8895036385
 40
1.0
 40
1.0
 40
1.0
 40
1.0
 10
142.8817084137
 20
194.6289525695
 30
0.0
 10
142.8499852007
 20
194.5435131208
 30
0.0
 10
142.7717364484
 20
194.3852150152
 30
0.0
 10
142.6066748136
 20
194.1921530682
 30
0.0
 10
142.4368434148
 20
194.0857878012
 30
0.0
 10
142.2937259636
 20
194.0438673608
 30
0.0
 10
142.2214881017
 20
194.0368760441
 30
0.0
 10
142.185781451
 20
194.0368760441
 30
0.0
  0
SPLINE
  5
4A5
100
AcDbEntity
  8
7_ALL_FEATURES
100
AcDbSpline
 62
7
  6
CONTINUOUS
 70
0
 71
3
 72
11
 73
7
 74
0
 42
0.0000001
 43
0.0000001
 44
0.0000000001
 40
0.0
 40
0.0
 40
0.0
 40
0.0
 40
0.284055731
 40
0.5436440262
 40
0.7793838512
 40
1.0
 40
1.0
 40
1.0
 40
1.0
 10
269.8301743065
 20
194.8598268762
 30
0.0
 10
269.8471543836
 20
194.8132895761
 30
0.0
 10
269.8889366784
 20
194.7271263514
 30
0.0
 10
269.9774431903
 20
194.6218101106
 30
0.0
 10
270.0844459024
 20
194.5531760458
 30
0.0
 10
270.164728107
 20
194.5368760441
 30
0.0
 10
270.2032027728
 20
194.5368760441
 30
0.0
  0
SPLINE
  5
4A6
100
AcDbEntity
  8
7_ALL_FEATURES
100
AcDbSpline
 62
7
  6
CONTINUOUS
 70
0
 71
3
 72
11
 73
7
 74
0
 42
0.0000001
 43
0.0000001
 44
0.0000000001
 40
0.0
 40
0.0
 40
0.0
 40
0.0
 40
0.2412659907
 40
0.4946971734
 40
0.7509168328
 40
1.0
 40
1.0
 40
1.0
 40
1.0
 10
266.8127055045
 20
207.9787114964
 30
0.0
 10
266.6528194632
 20
207.6690788469
 30
0.0
 10
266.4020168623
 20
206.9926480658
 30
0.0
 10
266.2389791566
 20
205.9136785395
 30
0.0
 10
266.285653702
 20
204.8122768306
 30
0.0
 10
266.4597496196
 20
204.0971503267
 30
0.0
 10
266.5830658981
 20
203.7591773836
 30
0.0
  0
SPLINE
  5
4A7
100
AcDbEntity
  8
7_ALL_FEATURES
100
AcDbSpline
 62
4
  6
CONTINUOUS
 70
0
 71
3
 72
179
 73
175
 74
0
 42
0.0000001
 43
0.0000001
 44
0.0000000001
 40
0.0
 40
0.0
 40
0.0
 40
0.0
 40
0.03125
 40
0.046875
 40
0.0625
 40
0.078125
 40
0.09375
 40
0.1015625
 40
0.109375
 40
0.11328125
 40
0.1171875
 40
0.12109375
 40
0.123046875
 40
0.1240234375
 40
0.125
 40
0.1259765625
 40
0.126953125
 40
0.12890625
 40
0.1328125
 40
0.13671875
 40
0.140625
 40
0.1484375
 40
0.15625
 40
0.171875
 40
0.1875
 40
0.203125
 40
0.21875
 40
0.2265625
 40
0.234375
 40
0.23828125
 40
0.2421875
 40
0.24609375
 40
0.248046875
 40
0.2490234375
 40
0.25
 40
0.2509765625
 40
0.251953125
 40
0.25390625
 40
0.2578125
 40
0.26171875
 40
0.265625
 40
0.2734375
 40
0.28125
 40
0.296875
 40
0.3125
 40
0.328125
 40
0.3359375
 40
0.34375
 40
0.3515625
 40
0.359375
 40
0.36328125
 40
0.3671875
 40
0.37109375
 40
0.373046875
 40
0.3740234375
 40
0.375
 40
0.3759765625
 40
0.376953125
 40
0.37890625
 40
0.3828125
 40
0.38671875
 40
0.390625
 40
0.3984375
 40
0.40625
 40
0.4140625
 40
0.421875
 40
0.4375
 40
0.453125
 40
0.4609375
 40
0.46875
 40
0.4765625
 40
0.484375
 40
0.48828125
 40
0.4921875
 40
0.494140625
 40
0.49609375
 40
0.498046875
 40
0.4990234375
 40
0.4995117188
 40
0.5
 40
0.5004882812
 40
0.5009765625
 40
0.501953125
 40
0.50390625
 40
0.505859375
 40
0.5078125
 40
0.51171875
 40
0.515625
 40
0.5234375
 40
0.53125
 40
0.5390625
 40
0.546875
 40
0.5625
 40
0.578125
 40
0.5859375
 40
0.59375
 40
0.6015625
 40
0.609375
 40
0.61328125
 40
0.6171875
 40
0.619140625
 40
0.62109375
 40
0.623046875
 40
0.6240234375
 40
0.6245117188
 40
0.625
 40
0.6254882812
 40
0.6259765625
 40
0.626953125
 40
0.62890625
 40
0.630859375
 40
0.6328125
 40
0.63671875
 40
0.640625
 40
0.6484375
 40
0.65625
 40
0.6640625
 40
0.671875
 40
0.6875
 40
0.703125
 40
0.7109375
 40
0.71875
 40
0.7265625
 40
0.734375
 40
0.73828125
 40
0.7421875
 40
0.744140625
 40
0.74609375
 40
0.748046875
 40
0.7490234375
 40
0.7495117188
 40
0.75
 40
0.7504882812
 40
0.7509765625
 40
0.751953125
 40
0.75390625
 40
0.755859375
 40
0.7578125
 40
0.76171875
 40
0.765625
 40
0.7734375
 40
0.78125
 40
0.7890625
 40
0.796875
 40
0.8125
 40
0.828125
 40
0.8359375
 40
0.84375
 40
0.8515625
 40
0.859375
 40
0.86328125
 40
0.8671875
 40
0.869140625
 40
0.87109375
 40
0.873046875
 40
0.8740234375
 40
0.8745117188
 40
0.875
 40
0.8754882812
 40
0.8759765625
 40
0.876953125
 40
0.87890625
 40
0.880859375
 40
0.8828125
 40
0.88671875
 40
0.890625
 40
0.8984375
 40
0.90625
 40
0.9140625
 40
0.921875
 40
0.9375
 40
0.953125
 40
0.96875
 40
1.0
 40
1.0
 40
1.0
 40
1.0
 10
263.8979513062
 20
197.3503444974
 30
0.0
 10
263.9047436421
 20
197.3414645453
 30
0.0
 10
263.9149321453
 20
197.3281446166
 30
0.0
 10
263.9285168182
 20
197.3103847133
 30
0.0
 10
263.9387053183
 20
197.2970647819
 30
0.0
 10
263.9488938358
 20
197.2837448655
 30
0.0
 10
263.9573842127
 20
197.2726448884
 30
0.0
 10
263.9641766358
 20
197.2637650115
 30
0.0
 10
263.9684216236
 20
197.2582148499
 30
0.0
 10
263.9718182475
 20
197.2537752669
 30
0.0
 10
263.9743639805
 20
197.2504440839
 30
0.0
 10
263.9764909435
 20
197.2476728563
 30
0.0
 10
263.9779689871
 20
197.245723659
 30
0.0
 10
263.9788304943
 20
197.2446244125
 30
0.0
 10
263.9794289868
 20
197.2437589041
 30
0.0
 10
263.9802095752
 20
197.2430503997
 30
0.0
 10
263.9811868427
 20
197.2420509624
 30
0.0
 10
263.9829266546
 20
197.2403274632
 30
0.0
 10
263.9853966282
 20
197.2378519814
 30
0.0
 10
263.988367219
 20
197.2348871131
 30
0.0
 10
263.9923256936
 20
197.2309319611
 30
0.0
 10
263.9972745789
 20
197.225988704
 30
0.0
 10
264.0051923526
 20
197.2180791107
 30
0.0
 10
264.0150897223
 20
197.2081922515
 30
0.0
 10
264.026966498
 20
197.196327958
 30
0.0
 10
264.0388433016
 20
197.1844637024
 30
0.0
 10
264.0487406014
 20
197.1745767483
 30
0.0
 10
264.0566585149
 20
197.1666673449
 30
0.0
 10
264.0616070449
 20
197.1617236053
 30
0.0
 10
264.0655662487
 20
197.1577694434
 30
0.0
 10
264.0685346118
 20
197.1548015502
 30
0.0
 10
264.0710115554
 20
197.1523355328
 30
0.0
 10
264.0727389246
 20
197.150595138
 30
0.0
 10
264.0737361284
 20
197.1496227717
 30
0.0
 10
264.0744554791
 20
197.148831114
 30
0.0
 10
264.0752839704
 20
197.1482779159
 30
0.0
 10
264.076350556
 20
197.147457141
 30
0.0
 10
264.0782348181
 20
197.1460595389
 30
0.0
 10
264.0809173479
 20
197.1440427035
 30
0.0
 10
264.0841403528
 20
197.1416311733
 30
0.0
 10
264.0884363064
 20
197.1384127707
 30
0.0
 10
264.0938067231
 20
197.1343908046
 30
0.0
 10
264.1023991244
 20
197.1279550793
 30
0.0
 10
264.1131397171
 20
197.1199106211
 30
0.0
 10
264.1260283896
 20
197.1102571878
 30
0.0
 10
264.1367689579
 20
197.1022126735
 30
0.0
 10
264.1453614129
 20
197.0957770715
 30
0.0
 10
264.1518057481
 20
197.0909503334
 30
0.0
 10
264.1582501075
 20
197.0861237372
 30
0.0
 10
264.1636203316
 20
197.0821011314
 30
0.0
 10
264.1679166796
 20
197.0788840372
 30
0.0
 10
264.1711384796
 20
197.0764685108
 30
0.0
 10
264.1738247794
 20
197.0744641783
 30
0.0
 10
264.1757023115
 20
197.0730442564
 30
0.0
 10
264.1767796803
 20
197.0722592435
 30
0.0
 10
264.1775750491
 20
197.0715961962
 30
0.0
 10
264.1784188023
 20
197.071217114
 30
0.0
 10
264.1795269296
 20
197.0706126208
 30
0.0
 10
264.1814740156
 20
197.0696009071
 30
0.0
 10
264.184251456
 20
197.0681314745
 30
0.0
 10
264.1875861441
 20
197.0663784827
 30
0.0
 10
264.1920317803
 20
197.0640375527
 30
0.0
 10
264.1975890365
 20
197.0611126282
 30
0.0
 10
264.2042576535
 20
197.0576021881
 30
0.0
 10
264.2109262947
 20
197.05409189
 30
0.0
 10
264.2198178078
 20
197.0494114428
 30
0.0
 10
264.2309322021
 20
197.0435609012
 30
0.0
 10
264.2420465954
 20
197.0377103526
 30
0.0
 10
264.2509381102
 20
197.0330299165
 30
0.0
 10
264.2576067464
 20
197.0295195853
 30
0.0
 10
264.2642753819
 20
197.0260092693
 30
0.0
 10
264.2698325804
 20
197.0230839587
 30
0.0
 10
264.2742783343
 20
197.020743816
 30
0.0
 10
264.2770569415
 20
197.019280986
 30
0.0
 10
264.2792798021
 20
197.0181112736
 30
0.0
 10
264.2809470165
 20
197.017232479
 30
0.0
 10
264.2823361423
 20
197.0165049546
 30
0.0
 10
264.2833089612
 20
197.0159862589
 30
0.0
 10
264.2838641851
 20
197.0157045835
 30
0.0
 10
264.2842824979
 20
197.0154518542
 30
0.0
 10
264.2846935674
 20
197.0153576549
 30
0.0
 10
264.2852441866
 20
197.0151767588
 30
0.0
 10
264.286206593
 20
197.0148859546
 30
0.0
 10
264.2875820748
 20
197.0144570502
 30
0.0
 10
264.2892323895
 20
197.0139481305
 30
0.0
 10
264.2914329012
 20
197.0132675571
 30
0.0
 10
264.2941835093
 20
197.0124175299
 30
0.0
 10
264.2985844997
 20
197.0110571009
 30
0.0
 10
264.3040857318
 20
197.009356697
 30
0.0
 10
264.3106872129
 20
197.0073161555
 30
0.0
 10
264.3172886933
 20
197.0052756293
 30
0.0
 10
264.3260906674
 20
197.0025549223
 30
0.0
 10
264.3370931349
 20
196.9991540405
 30
0.0
 10
264.3480956026
 20
196.9957531574
 30
0.0
 10
264.3568975764
 20
196.9930324526
 30
0.0
 10
264.3634990577
 20
196.9909919197
 30
0.0
 10
264.3701005354
 20
196.988951403
 30
0.0
 10
264.3756017782
 20
196.9872509222
 30
0.0
 10
264.3800027468
 20
196.9858906499
 30
0.0
 10
264.3827534105
 20
196.9850402242
 30
0.0
 10
264.3849538079
 20
196.9843604687
 30
0.0
 10
264.3866044715
 20
196.9838490501
 30
0.0
 10
264.3879788619
 20
196.983427964
 30
0.0
 10
264.3889432167
 20
196.9831232029
 30
0.0
 10
264.3894907141
 20
196.9829646692
 30
0.0
 10
264.389911373
 20
196.9828017798
 30
0.0
 10
264.3902936697
 20
196.9828070392
 30
0.0
 10
264.3908167797
 20
196.9827553996
 30
0.0
 10
264.3917259879
 20
196.9826923575
 30
0.0
 10
264.3930281161
 20
196.9825880104
 30
0.0
 10
264.3945892748
 20
196.9824689091
 30
0.0
 10
264.3966713071
 20
196.9823079714
 30
0.0
 10
264.3992736805
 20
196.9821075307
 30
0.0
 10
264.4034375713
 20
196.9817864168
 30
0.0
 10
264.4086424028
 20
196.9813851646
 30
0.0
 10
264.4148882143
 20
196.9809036019
 30
0.0
 10
264.4211340221
 20
196.9804220553
 30
0.0
 10
264.4294617672
 20
196.9797799875
 30
0.0
 10
264.439871448
 20
196.9789774049
 30
0.0
 10
264.4502811293
 20
196.9781748209
 30
0.0
 10
264.4586088737
 20
196.9775327554
 30
0.0
 10
264.4648546836
 20
196.977051202
 30
0.0
 10
264.4711004871
 20
196.9765696648
 30
0.0
 10
264.4763053436
 20
196.9761683331
 30
0.0
 10
264.4804691835
 20
196.9758473815
 30
0.0
 10
264.4830716864
 20
196.9756465278
 30
0.0
 10
264.4851534529
 20
196.9754864378
 30
0.0
 10
264.4867154237
 20
196.9753647467
 30
0.0
 10
264.4880150111
 20
196.9752685024
 30
0.0
 10
264.488928755
 20
196.9751909954
 30
0.0
 10
264.4894445976
 20
196.9751625321
 30
0.0
 10
264.4898492177
 20
196.9750966016
 30
0.0
 10
264.4901860334
 20
196.9752010899
 30
0.0
 10
264.490658772
 20
196.9752809637
 30
0.0
 10
264.491475045
 20
196.975448439
 30
0.0
 10
264.4926469104
 20
196.9756732095
 30
0.0
 10
264.494050683
 20
196.9759491319
 30
0.0
 10
264.495923241
 20
196.9763148638
 30
0.0
 10
264.4982636437
 20
196.9767727698
 30
0.0
 10
264.5020084528
 20
196.9775050051
 30
0.0
 10
264.5066894076
 20
196.9784204414
 30
0.0
 10
264.5123065776
 20
196.979518904
 30
0.0
 10
264.5179237411
 20
196.980617383
 30
0.0
 10
264.5254132947
 20
196.9820820159
 30
0.0
 10
264.5347752358
 20
196.9839128091
 30
0.0
 10
264.5441371776
 20
196.9857436009
 30
0.0
 10
264.5516267302
 20
196.9872082361
 30
0.0
 10
264.5572438968
 20
196.9883067082
 30
0.0
 10
264.5628610551
 20
196.9894051966
 30
0.0
 10
264.5675420464
 20
196.9903205527
 30
0.0
 10
264.5712867811
 20
196.9910529516
 30
0.0
 10
264.573627373
 20
196.9915104414
 30
0.0
 10
264.5754995426
 20
196.9918770275
 30
0.0
 10
264.5769045018
 20
196.9921503399
 30
0.0
 10
264.5780726545
 20
196.9923832766
 30
0.0
 10
264.5788955553
 20
196.9925361739
 30
0.0
 10
264.5793576745
 20
196.9926394052
 30
0.0
 10
264.5797271096
 20
196.992672147
 30
0.0
 10
264.5800092167
 20
196.9928756847
 30
0.0
 10
264.5804158204
 20
196.9930874928
 30
0.0
 10
264.5811131846
 20
196.9934859143
 30
0.0
 10
264.5821168392
 20
196.9940405761
 30
0.0
 10
264.5833180487
 20
196.9947123818
 30
0.0
 10
264.5849207706
 20
196.9956059531
 30
0.0
 10
264.5869237932
 20
196.9967236601
 30
0.0
 10
264.5901288416
 20
196.9985115762
 30
0.0
 10
264.5941350794
 20
197.0007466137
 30
0.0
 10
264.5989425958
 20
197.0034285976
 30
0.0
 10
264.603750104
 20
197.0061105979
 30
0.0
 10
264.6101601177
 20
197.0096865926
 30
0.0
 10
264.6181726339
 20
197.0141565879
 30
0.0
 10
264.6277876537
 20
197.0195205814
 30
0.0
 10
264.6406076801
 20
197.0266725731
 30
0.0
 10
264.6502226998
 20
197.0320365667
 30
0.0
 10
264.656632713
 20
197.0356125625
 30
0.0
  0
SPLINE
  5
4A8
100
AcDbEntity
  8
7_ALL_FEATURES
100
AcDbSpline
 62
4
  6
CONTINUOUS
 70
0
 71
3
 72
80
 73
76
 74
0
 42
0.0000001
 43
0.0000001
 44
0.0000000001
 40
0.0
 40
0.0
 40
0.0
 40
0.0
 40
0.0625
 40
0.09375
 40
0.109375
 40
0.125
 40
0.140625
 40
0.15625
 40
0.16015625
 40
0.1640625
 40
0.166015625
 40
0.16796875
 40
0.171875
 40
0.1796875
 40
0.1875
 40
0.203125
 40
0.21875
 40
0.25
 40
0.28125
 40
0.296875
 40
0.3125
 40
0.3203125
 40
0.328125
 40
0.33203125
 40
0.333984375
 40
0.3359375
 40
0.33984375
 40
0.34375
 40
0.359375
 40
0.375
 40
0.390625
 40
0.40625
 40
0.4375
 40
0.453125
 40
0.46875
 40
0.484375
 40
0.4921875
 40
0.49609375
 40
0.5
 40
0.50390625
 40
0.5078125
 40
0.515625
 40
0.53125
 40
0.546875
 40
0.5625
 40
0.59375
 40
0.609375
 40
0.625
 40
0.640625
 40
0.65625
 40
0.66015625
 40
0.6640625
 40
0.66796875
 40
0.671875
 40
0.6796875
 40
0.6875
 40
0.703125
 40
0.71875
 40
0.75
 40
0.78125
 40
0.796875
 40
0.8125
 40
0.8203125
 40
0.828125
 40
0.83203125
 40
0.833984375
 40
0.8359375
 40
0.83984375
 40
0.84375
 40
0.859375
 40
0.875
 40
0.890625
 40
0.90625
 40
0.9375
 40
1.0
 40
1.0
 40
1.0
 40
1.0
 10
264.6566327215
 20
197.0356125694
 30
0.0
 10
264.6628732286
 20
197.0411832719
 30
0.0
 10
264.6722340129
 20
197.0495392973
 30
0.0
 10
264.6831548452
 20
197.0592880927
 30
0.0
 10
264.689395439
 20
197.0648586914
 30
0.0
 10
264.6940755534
 20
197.0690370367
 30
0.0
 10
264.6987569326
 20
197.0732138678
 30
0.0
 10
264.7022644207
 20
197.0763507363
 30
0.0
 10
264.7046082614
 20
197.0784353799
 30
0.0
 10
264.7055766546
 20
197.0793138057
 30
0.0
 10
264.7063705145
 20
197.0799936282
 30
0.0
 10
264.707094359
 20
197.0807572637
 30
0.0
 10
264.7083285562
 20
197.0821325672
 30
0.0
 10
264.7101086679
 20
197.0840769688
 30
0.0
 10
264.7129473612
 20
197.0871993661
 30
0.0
 10
264.7164989771
 20
197.0910984733
 30
0.0
 10
264.722179738
 20
197.0973392279
 30
0.0
 10
264.7292813759
 20
197.1051393552
 30
0.0
 10
264.7363825476
 20
197.1129400173
 30
0.0
 10
264.7420640545
 20
197.1191799164
 30
0.0
 10
264.7456138055
 20
197.1230811624
 30
0.0
 10
264.7484563218
 20
197.126199175
 30
0.0
 10
264.7502267013
 20
197.1281547388
 30
0.0
 10
264.7514783785
 20
197.1295099938
 30
0.0
 10
264.7521742036
 20
197.1303057657
 30
0.0
 10
264.7527968866
 20
197.1311819161
 30
0.0
 10
264.7536002406
 20
197.1322496304
 30
0.0
 10
264.7555077138
 20
197.1348347568
 30
0.0
 10
264.7583775665
 20
197.1387029485
 30
0.0
 10
264.7621990946
 20
197.1438659684
 30
0.0
 10
264.7660219532
 20
197.149027527
 30
0.0
 10
264.7711185916
 20
197.1559101575
 30
0.0
 10
264.7762156074
 20
197.1627923957
 30
0.0
 10
264.7813118708
 20
197.1696753967
 30
0.0
 10
264.7851359481
 20
197.1748357513
 30
0.0
 10
264.7883167268
 20
197.1791420497
 30
0.0
 10
264.7905549496
 20
197.1821446819
 30
0.0
 10
264.7918157008
 20
197.1838788595
 30
0.0
 10
264.7928126275
 20
197.1851276942
 30
0.0
 10
264.7936132178
 20
197.1865745289
 30
0.0
 10
264.7947491559
 20
197.1884345773
 30
0.0
 10
264.7967051395
 20
197.1917218404
 30
0.0
 10
264.7995160836
 20
197.1964011073
 30
0.0
 10
264.8028820766
 20
197.2020234281
 30
0.0
 10
264.807372559
 20
197.2095173426
 30
0.0
 10
264.8118623712
 20
197.2170119359
 30
0.0
 10
264.816352325
 20
197.2245063777
 30
0.0
 10
264.8197200358
 20
197.2301269849
 30
0.0
 10
264.8230866939
 20
197.2357485643
 30
0.0
 10
264.8256146617
 20
197.2399620004
 30
0.0
 10
264.8272953454
 20
197.2427752347
 30
0.0
 10
264.8281439521
 20
197.2441742143
 30
0.0
 10
264.8289604251
 20
197.2456028886
 30
0.0
 10
264.8298961581
 20
197.2476490799
 30
0.0
 10
264.8311181762
 20
197.2501584408
 30
0.0
 10
264.8330441484
 20
197.2542004546
 30
0.0
 10
264.8354616325
 20
197.2592437122
 30
0.0
 10
264.8393239995
 20
197.2673181133
 30
0.0
 10
264.8441539392
 20
197.2774092356
 30
0.0
 10
264.8489829647
 20
197.2875013884
 30
0.0
 10
264.8528467943
 20
197.2955741408
 30
0.0
 10
264.8552606221
 20
197.3006215204
 30
0.0
 10
264.8571940897
 20
197.3046550841
 30
0.0
 10
264.8583970263
 20
197.3071859566
 30
0.0
 10
264.8592500651
 20
197.3089377368
 30
0.0
 10
264.8597203317
 20
197.3099697807
 30
0.0
 10
264.860125874
 20
197.3111186861
 30
0.0
 10
264.8606549249
 20
197.3125148742
 30
0.0
 10
264.8619064387
 20
197.315898601
 30
0.0
 10
264.8637913572
 20
197.3209603831
 30
0.0
 10
264.8663002108
 20
197.327717318
 30
0.0
 10
264.8688102336
 20
197.3344721418
 30
0.0
 10
264.8721565228
 20
197.3434793101
 30
0.0
 10
264.87801272
 20
197.3592415094
 30
0.0
 10
264.8830322521
 20
197.3727520842
 30
0.0
 10
264.8863786214
 20
197.3817591079
 30
0.0
  0
SPLINE
  5
4A9
100
AcDbEntity
  8
7_ALL_FEATURES
100
AcDbSpline
 62
4
  6
CONTINUOUS
 70
0
 71
3
 72
159
 73
155
 74
0
 42
0.0000001
 43
0.0000001
 44
0.0000000001
 40
0.0
 40
0.0
 40
0.0
 40
0.0
 40
0.03125
 40
0.046875
 40
0.0625
 40
0.078125
 40
0.0859375
 40
0.09375
 40
0.1015625
 40
0.109375
 40
0.11328125
 40
0.1171875
 40
0.119140625
 40
0.12109375
 40
0.123046875
 40
0.1240234375
 40
0.125
 40
0.1259765625
 40
0.126953125
 40
0.12890625
 40
0.130859375
 40
0.1328125
 40
0.13671875
 40
0.140625
 40
0.1484375
 40
0.15625
 40
0.1640625
 40
0.171875
 40
0.1875
 40
0.203125
 40
0.2109375
 40
0.21875
 40
0.2265625
 40
0.234375
 40
0.23828125
 40
0.2421875
 40
0.24609375
 40
0.248046875
 40
0.2490234375
 40
0.25
 40
0.2509765625
 40
0.251953125
 40
0.25390625
 40
0.2578125
 40
0.26171875
 40
0.265625
 40
0.2734375
 40
0.28125
 40
0.2890625
 40
0.296875
 40
0.3125
 40
0.328125
 40
0.34375
 40
0.3515625
 40
0.359375
 40
0.36328125
 40
0.3671875
 40
0.37109375
 40
0.373046875
 40
0.3740234375
 40
0.375
 40
0.3759765625
 40
0.376953125
 40
0.37890625
 40
0.3828125
 40
0.38671875
 40
0.390625
 40
0.3984375
 40
0.40625
 40
0.421875
 40
0.4375
 40
0.453125
 40
0.46875
 40
0.4765625
 40
0.484375
 40
0.48828125
 40
0.4921875
 40
0.49609375
 40
0.498046875
 40
0.4990234375
 40
0.5
 40
0.5009765625
 40
0.501953125
 40
0.50390625
 40
0.5078125
 40
0.51171875
 40
0.515625
 40
0.5234375
 40
0.53125
 40
0.546875
 40
0.5625
 40
0.578125
 40
0.59375
 40
0.6015625
 40
0.609375
 40
0.61328125
 40
0.6171875
 40
0.62109375
 40
0.623046875
 40
0.6240234375
 40
0.625
 40
0.6259765625
 40
0.626953125
 40
0.62890625
 40
0.6328125
 40
0.63671875
 40
0.640625
 40
0.6484375
 40
0.65625
 40
0.671875
 40
0.6875
 40
0.703125
 40
0.71875
 40
0.7265625
 40
0.734375
 40
0.73828125
 40
0.7421875
 40
0.74609375
 40
0.748046875
 40
0.7490234375
 40
0.75
 40
0.7509765625
 40
0.751953125
 40
0.75390625
 40
0.7578125
 40
0.76171875
 40
0.765625
 40
0.7734375
 40
0.78125
 40
0.796875
 40
0.8125
 40
0.828125
 40
0.84375
 40
0.8515625
 40
0.859375
 40
0.86328125
 40
0.8671875
 40
0.87109375
 40
0.873046875
 40
0.8740234375
 40
0.875
 40
0.8759765625
 40
0.876953125
 40
0.87890625
 40
0.8828125
 40
0.88671875
 40
0.890625
 40
0.8984375
 40
0.90625
 40
0.921875
 40
0.9375
 40
0.953125
 40
0.96875
 40
1.0
 40
1.0
 40
1.0
 40
1.0
 10
263.4955059089
 20
199.3668705806
 30
0.0
 10
263.4921233381
 20
199.3626338779
 30
0.0
 10
263.4870494818
 20
199.3562788238
 30
0.0
 10
263.4802843402
 20
199.3478054183
 30
0.0
 10
263.4752104836
 20
199.3414503645
 30
0.0
 10
263.4709822709
 20
199.3361544851
 30
0.0
 10
263.4675996982
 20
199.3319177844
 30
0.0
 10
263.4650627759
 20
199.3287402513
 30
0.0
 10
263.4625258258
 20
199.3255627469
 30
0.0
 10
263.4604117871
 20
199.3229147372
 30
0.0
 10
263.4587203629
 20
199.3207965296
 30
0.0
 10
263.4576636626
 20
199.3194721942
 30
0.0
 10
263.4568172952
 20
199.3184137694
 30
0.0
 10
263.4561852773
 20
199.3176170936
 30
0.0
 10
263.4556498231
 20
199.3169622863
 30
0.0
 10
263.4552411351
 20
199.3164180549
 30
0.0
 10
263.4548808566
 20
199.3160655844
 30
0.0
 10
263.4547257907
 20
199.3155004947
 30
0.0
 10
263.4544473527
 20
199.3148213123
 30
0.0
 10
263.4541238995
 20
199.3139468525
 30
0.0
 10
263.4537252285
 20
199.3129084077
 30
0.0
 10
263.453197344
 20
199.3115200052
 30
0.0
 10
263.4525362295
 20
199.3097858063
 30
0.0
 10
263.45147915
 20
199.3070103592
 30
0.0
 10
263.4501575591
 20
199.3035413004
 30
0.0
 10
263.4485717535
 20
199.2993783227
 30
0.0
 10
263.4469859202
 20
199.2952153736
 30
0.0
 10
263.4448714854
 20
199.2896647649
 30
0.0
 10
263.4422284398
 20
199.2827265066
 30
0.0
 10
263.4395853904
 20
199.2757882505
 30
0.0
 10
263.4374709617
 20
199.2702376382
 30
0.0
 10
263.4358851099
 20
199.2660746999
 30
0.0
 10
263.434299374
 20
199.2619116816
 30
0.0
 10
263.4329775661
 20
199.258442749
 30
0.0
 10
263.4319209291
 20
199.2556670446
 30
0.0
 10
263.4311262402
 20
199.2535867915
 30
0.0
 10
263.4304710325
 20
199.251848396
 30
0.0
 10
263.4299985853
 20
199.2506410394
 30
0.0
 10
263.4297501657
 20
199.2499362564
 30
0.0
 10
263.4295031435
 20
199.249449544
 30
0.0
 10
263.4294881764
 20
199.2488027645
 30
0.0
 10
263.4293872769
 20
199.2479962251
 30
0.0
 10
263.4292484157
 20
199.2465587674
 30
0.0
 10
263.4290303257
 20
199.2445188567
 30
0.0
 10
263.4287770573
 20
199.2420651425
 30
0.0
 10
263.428436418
 20
199.238795557
 30
0.0
 10
263.4280116304
 20
199.2347078774
 30
0.0
 10
263.4275014518
 20
199.2298029609
 30
0.0
 10
263.426991389
 20
199.2248979645
 30
0.0
 10
263.4263112654
 20
199.2183579969
 30
0.0
 10
263.4254611199
 20
199.2101830301
 30
0.0
 10
263.4244409625
 20
199.2003730634
 30
0.0
 10
263.4235907619
 20
199.1921981227
 30
0.0
 10
263.4229107595
 20
199.1856580976
 30
0.0
 10
263.4224853974
 20
199.1815707477
 30
0.0
 10
263.4221459336
 20
199.1783004881
 30
0.0
 10
263.4218890745
 20
199.1758488328
 30
0.0
 10
263.4216822187
 20
199.1738024802
 30
0.0
 10
263.4215233027
 20
199.1723765224
 30
0.0
 10
263.421454536
 20
199.1715515573
 30
0.0
 10
263.421340867
 20
199.1709613756
 30
0.0
 10
263.421464553
 20
199.1702620912
 30
0.0
 10
263.4215466755
 20
199.1693677683
 30
0.0
 10
263.4217289643
 20
199.167784972
 30
0.0
 10
263.4219692098
 20
199.1655331046
 30
0.0
 10
263.4222661366
 20
199.1628268957
 30
0.0
 10
263.4226590239
 20
199.1592200031
 30
0.0
 10
263.4231511655
 20
199.1547109129
 30
0.0
 10
263.4239380148
 20
199.1474966338
 30
0.0
 10
263.4249217757
 20
199.1384786935
 30
0.0
 10
263.4261021978
 20
199.1276572057
 30
0.0
 10
263.427282665
 20
199.1168357023
 30
0.0
 10
263.4282663134
 20
199.1078178009
 30
0.0
 10
263.4290533876
 20
199.100603444
 30
0.0
 10
263.4295449576
 20
199.0960945514
 30
0.0
 10
263.4299390181
 20
199.0924872532
 30
0.0
 10
263.4302323606
 20
199.0897822835
 30
0.0
 10
263.4304838203
 20
199.0875265392
 30
0.0
 10
263.4306460899
 20
199.0859506636
 30
0.0
 10
263.4307602884
 20
199.0850452521
 30
0.0
 10
263.4307854475
 20
199.0843800282
 30
0.0
 10
263.431041829
 20
199.0836619209
 30
0.0
 10
263.4313030181
 20
199.0827228909
 30
0.0
 10
263.4317976768
 20
199.0810709937
 30
0.0
 10
263.432484686
 20
199.078715634
 30
0.0
 10
263.4333175061
 20
199.0758872791
 30
0.0
 10
263.4344249958
 20
199.0721168109
 30
0.0
 10
263.4358103636
 20
199.0674034957
 30
0.0
 10
263.4380263899
 20
199.0598623199
 30
0.0
 10
263.4407966169
 20
199.0504358061
 30
0.0
 10
263.444120801
 20
199.0391240083
 30
0.0
 10
263.4474450277
 20
199.0278122059
 30
0.0
 10
263.4502151479
 20
199.0183857034
 30
0.0
 10
263.4524313878
 20
199.010844505
 30
0.0
 10
263.4538162126
 20
199.0061312471
 30
0.0
 10
263.4549248169
 20
199.0023606613
 30
0.0
 10
263.4557542318
 20
198.9995326659
 30
0.0
 10
263.4564518951
 20
198.9971761813
 30
0.0
 10
263.4569275344
 20
198.9955262922
 30
0.0
 10
263.4572191974
 20
198.9945840448
 30
0.0
 10
263.4573819728
 20
198.9938758202
 30
0.0
 10
263.457758701
 20
198.9931734787
 30
0.0
 10
263.4581863761
 20
198.9922349712
 30
0.0
 10
263.4589695786
 20
198.9905935393
 30
0.0
 10
263.4600702606
 20
198.9882481367
 30
0.0
 10
263.4613988601
 20
198.9854338676
 30
0.0
 10
263.4631676083
 20
198.981681434
 30
0.0
 10
263.4653794742
 20
198.9769909176
 30
0.0
 10
263.4689179393
 20
198.969486077
 30
0.0
 10
263.4733412003
 20
198.9601050315
 30
0.0
 10
263.478649032
 20
198.9488477732
 30
0.0
 10
263.4839569021
 20
198.9375905216
 30
0.0
 10
263.488380067
 20
198.9282094593
 30
0.0
 10
263.4919187243
 20
198.9207046524
 30
0.0
 10
263.4941301018
 20
198.9160140503
 30
0.0
 10
263.4958998523
 20
198.9122617926
 30
0.0
 10
263.4972253896
 20
198.9094469861
 30
0.0
 10
263.4983356525
 20
198.9071032647
 30
0.0
 10
263.4991017515
 20
198.9054588315
 30
0.0
 10
263.4995568307
 20
198.9045251329
 30
0.0
 10
263.4998493822
 20
198.9038080202
 30
0.0
 10
263.5003283113
 20
198.9031552738
 30
0.0
 10
263.5009018728
 20
198.9022624936
 30
0.0
 10
263.501935895
 20
198.9007105889
 30
0.0
 10
263.5033972339
 20
198.8984881132
 30
0.0
 10
263.5051576188
 20
198.8958234833
 30
0.0
 10
263.5075024312
 20
198.8922698258
 30
0.0
 10
263.5104342573
 20
198.8878280338
 30
0.0
 10
263.5151247258
 20
198.8807210102
 30
0.0
 10
263.5209879679
 20
198.8718372849
 30
0.0
 10
263.5280237875
 20
198.8611767888
 30
0.0
 10
263.5350596405
 20
198.8505163091
 30
0.0
 10
263.540922799
 20
198.8416325425
 30
0.0
 10
263.5456134347
 20
198.8345256016
 30
0.0
 10
263.548544836
 20
198.8300835994
 30
0.0
 10
263.5508905202
 20
198.8265303734
 30
0.0
 10
263.5526482416
 20
198.8238644252
 30
0.0
 10
263.554117914
 20
198.8216460739
 30
0.0
 10
263.5551370595
 20
198.8200868065
 30
0.0
 10
263.5557344572
 20
198.8192058232
 30
0.0
 10
263.5561401691
 20
198.8185168404
 30
0.0
 10
263.5567077123
 20
198.8179358258
 30
0.0
 10
263.5574079879
 20
198.8171234791
 30
0.0
 10
263.5586597707
 20
198.8157194192
 30
0.0
 10
263.5604342817
 20
198.8137044456
 30
0.0
 10
263.5625695804
 20
198.811290404
 30
0.0
 10
263.5654145896
 20
198.8080703103
 30
0.0
 10
263.568971555
 20
198.8040456628
 30
0.0
 10
263.5746623063
 20
198.7976059644
 30
0.0
 10
263.5817758803
 20
198.7895564314
 30
0.0
 10
263.5903121113
 20
198.7798969532
 30
0.0
 10
263.5988483578
 20
198.7702374853
 30
0.0
 10
263.6102300144
 20
198.7573581912
 30
0.0
 10
263.6187662581
 20
198.7476987214
 30
0.0
 10
263.6244570869
 20
198.7412590747
 30
0.0
  0
SPLINE
  5
4AA
100
AcDbEntity
  8
7_ALL_FEATURES
100
AcDbSpline
 62
4
  6
CONTINUOUS
 70
0
 71
3
 72
106
 73
102
 74
0
 42
0.0000001
 43
0.0000001
 44
0.0000000001
 40
0.0
 40
0.0
 40
0.0
 40
0.0
 40
0.0625
 40
0.09375
 40
0.109375
 40
0.125
 40
0.140625
 40
0.1484375
 40
0.15625
 40
0.16015625
 40
0.1640625
 40
0.166015625
 40
0.16796875
 40
0.169921875
 40
0.171875
 40
0.1796875
 40
0.1875
 40
0.1953125
 40
0.203125
 40
0.21875
 40
0.25
 40
0.28125
 40
0.296875
 40
0.3046875
 40
0.3125
 40
0.3203125
 40
0.328125
 40
0.330078125
 40
0.33203125
 40
0.3330078125
 40
0.333984375
 40
0.3359375
 40
0.33984375
 40
0.34375
 40
0.3515625
 40
0.359375
 40
0.375
 40
0.390625
 40
0.40625
 40
0.421875
 40
0.4375
 40
0.453125
 40
0.46875
 40
0.4765625
 40
0.484375
 40
0.48828125
 40
0.4921875
 40
0.49609375
 40
0.498046875
 40
0.4990234375
 40
0.5
 40
0.5009765625
 40
0.501953125
 40
0.50390625
 40
0.5078125
 40
0.51171875
 40
0.515625
 40
0.5234375
 40
0.53125
 40
0.546875
 40
0.5625
 40
0.578125
 40
0.59375
 40
0.609375
 40
0.625
 40
0.640625
 40
0.6484375
 40
0.65625
 40
0.66015625
 40
0.6640625
 40
0.666015625
 40
0.6669921875
 40
0.66796875
 40
0.669921875
 40
0.671875
 40
0.6796875
 40
0.6875
 40
0.6953125
 40
0.703125
 40
0.71875
 40
0.75
 40
0.78125
 40
0.796875
 40
0.8046875
 40
0.8125
 40
0.8203125
 40
0.828125
 40
0.830078125
 40
0.83203125
 40
0.8330078125
 40
0.833984375
 40
0.8359375
 40
0.83984375
 40
0.84375
 40
0.8515625
 40
0.859375
 40
0.875
 40
0.890625
 40
0.90625
 40
0.9375
 40
1.0
 40
1.0
 40
1.0
 40
1.0
 10
263.9033032772
 20
199.3668705806
 30
0.0
 10
263.8936772215
 20
199.3712620551
 30
0.0
 10
263.8792381399
 20
199.3778492461
 30
0.0
 10
263.8623925383
 20
199.3855343747
 30
0.0
 10
263.8527664893
 20
199.3899257732
 30
0.0
 10
263.8455469273
 20
199.3932196121
 30
0.0
 10
263.8395307061
 20
199.3959635544
 30
0.0
 10
263.8347175486
 20
199.3981607793
 30
0.0
 10
263.8317097362
 20
199.399529329
 30
0.0
 10
263.829302545
 20
199.4006349692
 30
0.0
 10
263.8278001981
 20
199.401301351
 30
0.0
 10
263.8265934017
 20
199.4018909003
 30
0.0
 10
263.8257017724
 20
199.4021785169
 30
0.0
 10
263.824813917
 20
199.4024228269
 30
0.0
 10
263.8230362649
 20
199.4029337239
 30
0.0
 10
263.8203706021
 20
199.4036907129
 30
0.0
 10
263.816815919
 20
199.4047053794
 30
0.0
 10
263.8132613605
 20
199.4057186154
 30
0.0
 10
263.8085219058
 20
199.4070700956
 30
0.0
 10
263.8002278801
 20
199.4094349552
 30
0.0
 10
263.7883792633
 20
199.4128134316
 30
0.0
 10
263.7765306428
 20
199.4161919255
 30
0.0
 10
263.7682366222
 20
199.4185567608
 30
0.0
 10
263.7634971594
 20
199.4199082793
 30
0.0
 10
263.7599426258
 20
199.4209213975
 30
0.0
 10
263.7563878494
 20
199.4219365063
 30
0.0
 10
263.7537224479
 20
199.4226922568
 30
0.0
 10
263.7519444548
 20
199.4232047702
 30
0.0
 10
263.7512051998
 20
199.4234054015
 30
0.0
 10
263.7506101205
 20
199.4235960367
 30
0.0
 10
263.7500284821
 20
199.4236764842
 30
0.0
 10
263.7490168599
 20
199.4237660714
 30
0.0
 10
263.747568427
 20
199.4239207645
 30
0.0
 10
263.7452527552
 20
199.424153346
 30
0.0
 10
263.742357542
 20
199.424449184
 30
0.0
 10
263.7377255494
 20
199.4249196682
 30
0.0
 10
263.731935439
 20
199.4255087537
 30
0.0
 10
263.7249873578
 20
199.4262152359
 30
0.0
 10
263.7180392628
 20
199.4269218311
 30
0.0
 10
263.7110911719
 20
199.427628395
 30
0.0
 10
263.7041430783
 20
199.4283349708
 30
0.0
 10
263.6971949915
 20
199.4290415303
 30
0.0
 10
263.6914048987
 20
199.4296303744
 30
0.0
 10
263.6867728702
 20
199.4301013511
 30
0.0
 10
263.6838777481
 20
199.4303959358
 30
0.0
 10
263.6815618893
 20
199.4306310898
 30
0.0
 10
263.6798243412
 20
199.430808862
 30
0.0
 10
263.6783784651
 20
199.4309525308
 30
0.0
 10
263.6773622685
 20
199.4310618803
 30
0.0
 10
263.6767879606
 20
199.4311106545
 30
0.0
 10
263.6763392686
 20
199.4311858597
 30
0.0
 10
263.6759592329
 20
199.4311134225
 30
0.0
 10
263.6754285705
 20
199.431068339
 30
0.0
 10
263.6745110692
 20
199.4309654483
 30
0.0
 10
263.6731945196
 20
199.4308310063
 30
0.0
 10
263.671617157
 20
199.4306643063
 30
0.0
 10
263.6695131348
 20
199.4304439151
 30
0.0
 10
263.6668834056
 20
199.4301677839
 30
0.0
 10
263.6626756719
 20
199.429726333
 30
0.0
 10
263.6574160622
 20
199.4291743961
 30
0.0
 10
263.6511045058
 20
199.4285121252
 30
0.0
 10
263.6447929568
 20
199.4278498379
 30
0.0
 10
263.6384814027
 20
199.4271875628
 30
0.0
 10
263.6321698616
 20
199.4265252553
 30
0.0
 10
263.6258582738
 20
199.4258630655
 30
0.0
 10
263.620598762
 20
199.425310875
 30
0.0
 10
263.6163908287
 20
199.4248699413
 30
0.0
 10
263.6137616077
 20
199.424592494
 30
0.0
 10
263.6116565422
 20
199.4243748044
 30
0.0
 10
263.6103447295
 20
199.4242290096
 30
0.0
 10
263.6094187382
 20
199.4241464712
 30
0.0
 10
263.6089016828
 20
199.4240687686
 30
0.0
 10
263.6084301359
 20
199.4238760453
 30
0.0
 10
263.6078251473
 20
199.4236744558
 30
0.0
 10
263.6063859771
 20
199.4231582834
 30
0.0
 10
263.6042218447
 20
199.4223976153
 30
0.0
 10
263.6013394081
 20
199.4213756234
 30
0.0
 10
263.5984561494
 20
199.4203557094
 30
0.0
 10
263.5946120914
 20
199.418995099
 30
0.0
 10
263.5878848549
 20
199.4166143706
 30
0.0
 10
263.5782745982
 20
199.413213137
 30
0.0
 10
263.568664274
 20
199.4098120284
 30
0.0
 10
263.5619371318
 20
199.407431125
 30
0.0
 10
263.5580929256
 20
199.4060707896
 30
0.0
 10
263.5552101218
 20
199.4050500318
 30
0.0
 10
263.5523259768
 20
199.4040312088
 30
0.0
 10
263.5501666284
 20
199.4032616667
 30
0.0
 10
263.5487212148
 20
199.4027570755
 30
0.0
 10
263.5481276612
 20
199.4025342746
 30
0.0
 10
263.5476325181
 20
199.4023853212
 30
0.0
 10
263.5472116144
 20
199.4021292622
 30
0.0
 10
263.5465095263
 20
199.4016313953
 30
0.0
 10
263.5454885463
 20
199.400946121
 30
0.0
 10
263.543865036
 20
199.3998351722
 30
0.0
 10
263.5418322043
 20
199.3984514544
 30
0.0
 10
263.5385815983
 20
199.3962347292
 30
0.0
 10
263.5345176805
 20
199.3934647754
 30
0.0
 10
263.5296412618
 20
199.3901404231
 30
0.0
 10
263.5231392715
 20
199.3857080955
 30
0.0
 10
263.5117608348
 20
199.3779514557
 30
0.0
 10
263.5020078732
 20
199.3713029301
 30
0.0
 10
263.4955059023
 20
199.3668705747
 30
0.0
  0
SPLINE
  5
4AB
100
AcDbEntity
  8
7_ALL_FEATURES
100
AcDbSpline
 62
4
  6
CONTINUOUS
 70
0
 71
3
 72
118
 73
114
 74
0
 42
0.0000001
 43
0.0000001
 44
0.0000000001
 40
0.0
 40
0.0
 40
0.0
 40
0.0
 40
0.03125
 40
0.0625
 40
0.078125
 40
0.09375
 40
0.109375
 40
0.125
 40
0.140625
 40
0.1484375
 40
0.15234375
 40
0.15625
 40
0.16015625
 40
0.1640625
 40
0.1650390625
 40
0.166015625
 40
0.1669921875
 40
0.16796875
 40
0.169921875
 40
0.171875
 40
0.17578125
 40
0.1796875
 40
0.1875
 40
0.1953125
 40
0.203125
 40
0.21875
 40
0.25
 40
0.28125
 40
0.296875
 40
0.3046875
 40
0.3125
 40
0.3203125
 40
0.32421875
 40
0.328125
 40
0.330078125
 40
0.33203125
 40
0.3330078125
 40
0.333984375
 40
0.3349609375
 40
0.3359375
 40
0.33984375
 40
0.34375
 40
0.34765625
 40
0.3515625
 40
0.359375
 40
0.375
 40
0.390625
 40
0.40625
 40
0.421875
 40
0.4375
 40
0.453125
 40
0.46875
 40
0.4765625
 40
0.484375
 40
0.48828125
 40
0.4921875
 40
0.49609375
 40
0.498046875
 40
0.4990234375
 40
0.5
 40
0.5009765625
 40
0.501953125
 40
0.50390625
 40
0.5078125
 40
0.51171875
 40
0.515625
 40
0.5234375
 40
0.53125
 40
0.546875
 40
0.5625
 40
0.578125
 40
0.59375
 40
0.609375
 40
0.625
 40
0.640625
 40
0.6484375
 40
0.65625
 40
0.66015625
 40
0.6640625
 40
0.666015625
 40
0.6669921875
 40
0.66796875
 40
0.669921875
 40
0.671875
 40
0.67578125
 40
0.6796875
 40
0.6875
 40
0.6953125
 40
0.703125
 40
0.71875
 40
0.75
 40
0.78125
 40
0.796875
 40
0.8046875
 40
0.8125
 40
0.8203125
 40
0.82421875
 40
0.828125
 40
0.830078125
 40
0.83203125
 40
0.8330078125
 40
0.833984375
 40
0.8359375
 40
0.83984375
 40
0.84375
 40
0.8515625
 40
0.859375
 40
0.875
 40
0.890625
 40
0.90625
 40
0.9375
 40
0.96875
 40
1.0
 40
1.0
 40
1.0
 40
1.0
 10
263.7981087582
 20
198.0267627304
 30
0.0
 10
263.795723366
 20
198.0212935763
 30
0.0
 10
263.7909525816
 20
198.0103552681
 30
0.0
 10
263.7849891009
 20
197.996682383
 30
0.0
 10
263.7802183167
 20
197.9857440747
 30
0.0
 10
263.7766402277
 20
197.977540344
 30
0.0
 10
263.7730621417
 20
197.9693366111
 30
0.0
 10
263.7694840446
 20
197.9611328865
 30
0.0
 10
263.7665023318
 20
197.9542964237
 30
0.0
 10
263.7644150645
 20
197.94951095
 30
0.0
 10
263.763222447
 20
197.946776315
 30
0.0
 10
263.7623276834
 20
197.9447255601
 30
0.0
 10
263.7614340686
 20
197.9426739593
 30
0.0
 10
263.7607606363
 20
197.9411376304
 30
0.0
 10
263.7603166911
 20
197.9401097227
 30
0.0
 10
263.7600857729
 20
197.9396023552
 30
0.0
 10
263.7598896354
 20
197.9390693799
 30
0.0
 10
263.7597936119
 20
197.9382368999
 30
0.0
 10
263.759616918
 20
197.9372380198
 30
0.0
 10
263.7593658746
 20
197.9356164967
 30
0.0
 10
263.7590412276
 20
197.9335975758
 30
0.0
 10
263.7585278524
 20
197.9303628408
 30
0.0
 10
263.7578840543
 20
197.9263209527
 30
0.0
 10
263.7571123864
 20
197.9214700318
 30
0.0
 10
263.7560831855
 20
197.9150023659
 30
0.0
 10
263.7542822293
 20
197.9036838436
 30
0.0
 10
263.7517093513
 20
197.8875145863
 30
0.0
 10
263.74913653
 20
197.8713452913
 30
0.0
 10
263.7473354944
 20
197.8600268218
 30
0.0
 10
263.7463064182
 20
197.8535590727
 30
0.0
 10
263.7455343676
 20
197.8487084071
 30
0.0
 10
263.7448917674
 20
197.8446657202
 30
0.0
 10
263.7443759481
 20
197.841432615
 30
0.0
 10
263.7440575212
 20
197.839409546
 30
0.0
 10
263.7437937101
 20
197.8377965376
 30
0.0
 10
263.7436495222
 20
197.8367759795
 30
0.0
 10
263.7434867734
 20
197.8359879982
 30
0.0
 10
263.7434944908
 20
197.8353190735
 30
0.0
 10
263.7435385746
 20
197.8346283088
 30
0.0
 10
263.7436080352
 20
197.8332580141
 30
0.0
 10
263.7437200833
 20
197.8311978534
 30
0.0
 10
263.74386499
 20
197.8284536694
 30
0.0
 10
263.7440110979
 20
197.825708764
 30
0.0
 10
263.7442054894
 20
197.8220491417
 30
0.0
 10
263.7445458698
 20
197.8156446855
 30
0.0
 10
263.7450320254
 20
197.8064955237
 30
0.0
 10
263.7456154561
 20
197.7955165033
 30
0.0
 10
263.7461988746
 20
197.7845374899
 30
0.0
 10
263.7467822977
 20
197.7735584743
 30
0.0
 10
263.7473657143
 20
197.7625794605
 30
0.0
 10
263.7479491526
 20
197.7516004419
 30
0.0
 10
263.7484352842
 20
197.7424512742
 30
0.0
 10
263.7488243395
 20
197.7351319078
 30
0.0
 10
263.7490671576
 20
197.7305573772
 30
0.0
 10
263.7492621939
 20
197.7268975844
 30
0.0
 10
263.7494063306
 20
197.7241532009
 30
0.0
 10
263.7495332538
 20
197.7218647478
 30
0.0
 10
263.7496087371
 20
197.7202657093
 30
0.0
 10
263.7496727356
 20
197.7193474783
 30
0.0
 10
263.7496619566
 20
197.7186714665
 30
0.0
 10
263.7498758566
 20
197.7179470562
 30
0.0
 10
263.750082686
 20
197.7169980577
 30
0.0
 10
263.7504811518
 20
197.7153294448
 30
0.0
 10
263.7510312985
 20
197.7129498242
 30
0.0
 10
263.7516996457
 20
197.7100925193
 30
0.0
 10
263.7525879213
 20
197.7062833943
 30
0.0
 10
263.753699243
 20
197.7015217776
 30
0.0
 10
263.7554768116
 20
197.6939033084
 30
0.0
 10
263.7576989599
 20
197.6843801815
 30
0.0
 10
263.7603654566
 20
197.6729524468
 30
0.0
 10
263.7630319782
 20
197.6615247068
 30
0.0
 10
263.7656984815
 20
197.6500969701
 30
0.0
 10
263.7683650333
 20
197.6386692255
 30
0.0
 10
263.7710314093
 20
197.6272415095
 30
0.0
 10
263.7732539348
 20
197.6177183239
 30
0.0
 10
263.7750307339
 20
197.6100999745
 30
0.0
 10
263.7761440138
 20
197.6053380529
 30
0.0
 10
263.77702827
 20
197.6015295536
 30
0.0
 10
263.7775954593
 20
197.5991468733
 30
0.0
 10
263.7779633734
 20
197.5974837433
 30
0.0
 10
263.7782191686
 20
197.5965259574
 30
0.0
 10
263.77864659
 20
197.5955401974
 30
0.0
 10
263.7791221023
 20
197.5943175756
 30
0.0
 10
263.7799157622
 20
197.592356028
 30
0.0
 10
263.7808965926
 20
197.5899059262
 30
0.0
 10
263.7824722057
 20
197.5859847391
 30
0.0
 10
263.784439566
 20
197.5810836066
 30
0.0
 10
263.7868013212
 20
197.5752020972
 30
0.0
 10
263.7899500061
 20
197.5673601371
 30
0.0
 10
263.7954603555
 20
197.5536366827
 30
0.0
 10
263.8033321979
 20
197.5340317591
 30
0.0
 10
263.8112040941
 20
197.5144268367
 30
0.0
 10
263.8167143683
 20
197.5007033806
 30
0.0
 10
263.8198631714
 20
197.4928614232
 30
0.0
 10
263.822224564
 20
197.4869799054
 30
0.0
 10
263.824193059
 20
197.4820787991
 30
0.0
 10
263.8257663571
 20
197.4781575586
 30
0.0
 10
263.8267530792
 20
197.4757075926
 30
0.0
 10
263.8275346454
 20
197.4737457663
 30
0.0
 10
263.8280409475
 20
197.472523854
 30
0.0
 10
263.8284051665
 20
197.4715366377
 30
0.0
 10
263.8289184173
 20
197.4705847839
 30
0.0
 10
263.8298858378
 20
197.4689354672
 30
0.0
 10
263.8312317455
 20
197.4665707294
 30
0.0
 10
263.8334053842
 20
197.4627919389
 30
0.0
 10
263.8361155207
 20
197.4580668107
 30
0.0
 10
263.8404556022
 20
197.4505075223
 30
0.0
 10
263.8458793787
 20
197.4410580972
 30
0.0
 10
263.8523884779
 20
197.4297189217
 30
0.0
 10
263.8610670785
 20
197.4145999741
 30
0.0
 10
263.8719153973
 20
197.3957013057
 30
0.0
 10
263.8849333506
 20
197.3730228966
 30
0.0
 10
263.8936119918
 20
197.3579039585
 30
0.0
 10
263.8979513116
 20
197.3503444893
 30
0.0
  0
SPLINE
  5
4AC
100
AcDbEntity
  8
7_ALL_FEATURES
100
AcDbSpline
 62
4
  6
CONTINUOUS
 70
0
 71
3
 72
154
 73
150
 74
0
 42
0.0000001
 43
0.0000001
 44
0.0000000001
 40
0.0
 40
0.0
 40
0.0
 40
0.0
 40
0.03125
 40
0.046875
 40
0.0625
 40
0.078125
 40
0.0859375
 40
0.09375
 40
0.09765625
 40
0.1015625
 40
0.10546875
 40
0.107421875
 40
0.109375
 40
0.1103515625
 40
0.111328125
 40
0.1123046875
 40
0.11328125
 40
0.115234375
 40
0.1171875
 40
0.125
 40
0.1328125
 40
0.140625
 40
0.15625
 40
0.171875
 40
0.1875
 40
0.1953125
 40
0.203125
 40
0.2109375
 40
0.21484375
 40
0.21875
 40
0.220703125
 40
0.22265625
 40
0.2236328125
 40
0.224609375
 40
0.2265625
 40
0.23046875
 40
0.234375
 40
0.2421875
 40
0.25
 40
0.265625
 40
0.28125
 40
0.296875
 40
0.3046875
 40
0.3125
 40
0.3203125
 40
0.32421875
 40
0.328125
 40
0.330078125
 40
0.33203125
 40
0.3330078125
 40
0.333984375
 40
0.3349609375
 40
0.3359375
 40
0.33984375
 40
0.34375
 40
0.34765625
 40
0.3515625
 40
0.359375
 40
0.375
 40
0.390625
 40
0.40625
 40
0.4140625
 40
0.421875
 40
0.4296875
 40
0.4375
 40
0.44140625
 40
0.443359375
 40
0.4443359375
 40
0.4453125
 40
0.447265625
 40
0.44921875
 40
0.453125
 40
0.45703125
 40
0.4609375
 40
0.46875
 40
0.484375
 40
0.5
 40
0.515625
 40
0.53125
 40
0.5390625
 40
0.54296875
 40
0.546875
 40
0.55078125
 40
0.552734375
 40
0.5546875
 40
0.5556640625
 40
0.556640625
 40
0.55859375
 40
0.5625
 40
0.5703125
 40
0.578125
 40
0.5859375
 40
0.59375
 40
0.609375
 40
0.625
 40
0.640625
 40
0.6484375
 40
0.65625
 40
0.66015625
 40
0.6640625
 40
0.666015625
 40
0.6669921875
 40
0.66796875
 40
0.669921875
 40
0.671875
 40
0.67578125
 40
0.6796875
 40
0.6875
 40
0.6953125
 40
0.703125
 40
0.71875
 40
0.734375
 40
0.75
 40
0.7578125
 40
0.765625
 40
0.76953125
 40
0.7734375
 40
0.775390625
 40
0.7763671875
 40
0.77734375
 40
0.779296875
 40
0.78125
 40
0.78515625
 40
0.7890625
 40
0.796875
 40
0.8046875
 40
0.8125
 40
0.828125
 40
0.84375
 40
0.859375
 40
0.8671875
 40
0.875
 40
0.8828125
 40
0.884765625
 40
0.88671875
 40
0.8876953125
 40
0.888671875
 40
0.890625
 40
0.892578125
 40
0.89453125
 40
0.8984375
 40
0.90234375
 40
0.90625
 40
0.9140625
 40
0.921875
 40
0.9375
 40
0.953125
 40
0.96875
 40
1.0
 40
1.0
 40
1.0
 40
1.0
 10
264.2049464941
 20
198.6822026255
 30
0.0
 10
264.207500245
 20
198.688171999
 30
0.0
 10
264.2113308714
 20
198.6971260594
 30
0.0
 10
264.2164383733
 20
198.7090648064
 30
0.0
 10
264.2202689994
 20
198.7180188669
 30
0.0
 10
264.2234611889
 20
198.7254805832
 30
0.0
 10
264.2260149381
 20
198.731449958
 30
0.0
 10
264.2276110368
 20
198.7351808133
 30
0.0
 10
264.2288879033
 20
198.7381655066
 30
0.0
 10
264.2298455873
 20
198.7404040018
 30
0.0
 10
264.2306435486
 20
198.7422694932
 30
0.0
 10
264.2312821614
 20
198.7437617097
 30
0.0
 10
264.2316807396
 20
198.7446947472
 30
0.0
 10
264.2320008727
 20
198.7454402562
 30
0.0
 10
264.2322374936
 20
198.7460019095
 30
0.0
 10
264.2322934749
 20
198.7466944834
 30
0.0
 10
264.2324312051
 20
198.7475721912
 30
0.0
 10
264.2325818039
 20
198.7486849547
 30
0.0
 10
264.2329609891
 20
198.751342724
 30
0.0
 10
264.2335223139
 20
198.7553347795
 30
0.0
 10
264.2342750004
 20
198.7606544375
 30
0.0
 10
264.2352770969
 20
198.7677483915
 30
0.0
 10
264.2365302246
 20
198.7766154661
 30
0.0
 10
264.2380337724
 20
198.7872561065
 30
0.0
 10
264.2392867376
 20
198.7961232942
 30
0.0
 10
264.2402891916
 20
198.8032169993
 30
0.0
 10
264.2410407813
 20
198.808537421
 30
0.0
 10
264.2416679078
 20
198.8129706482
 30
0.0
 10
264.2421678104
 20
198.8165182566
 30
0.0
 10
264.242484345
 20
198.8187331742
 30
0.0
 10
264.2427281932
 20
198.8205104619
 30
0.0
 10
264.2429019992
 20
198.8216090514
 30
0.0
 10
264.2427894292
 20
198.8226315428
 30
0.0
 10
264.242720742
 20
198.8236289863
 30
0.0
 10
264.2425800963
 20
198.8253861811
 30
0.0
 10
264.2423898399
 20
198.8278903713
 30
0.0
 10
264.2420794691
 20
198.831900478
 30
0.0
 10
264.2416935465
 20
198.8369119464
 30
0.0
 10
264.2410749292
 20
198.8449309469
 30
0.0
 10
264.2403020523
 20
198.8549544736
 30
0.0
 10
264.2393744174
 20
198.8669828043
 30
0.0
 10
264.2386014709
 20
198.8770063829
 30
0.0
 10
264.2379830067
 20
198.8850252691
 30
0.0
 10
264.23751943
 20
198.8910393821
 30
0.0
 10
264.237132256
 20
198.8960513056
 30
0.0
 10
264.2368244452
 20
198.9000604796
 30
0.0
 10
264.2366276724
 20
198.902567044
 30
0.0
 10
264.2364803106
 20
198.9045703933
 30
0.0
 10
264.2363652639
 20
198.9058268268
 30
0.0
 10
264.2363257819
 20
198.9068220327
 30
0.0
 10
264.2361522717
 20
198.9075956558
 30
0.0
 10
264.2359384383
 20
198.908376906
 30
0.0
 10
264.235531514
 20
198.9099354832
 30
0.0
 10
264.2349124155
 20
198.9122749967
 30
0.0
 10
264.2340919302
 20
198.9153934063
 30
0.0
 10
264.2332701131
 20
198.9185120678
 30
0.0
 10
264.2321748212
 20
198.9226701953
 30
0.0
 10
264.230257846
 20
198.9299469591
 30
0.0
 10
264.2275194063
 20
198.9403423164
 30
0.0
 10
264.2242333069
 20
198.9528167462
 30
0.0
 10
264.2214946681
 20
198.9632121271
 30
0.0
 10
264.2193042772
 20
198.9715283766
 30
0.0
 10
264.2176600574
 20
198.9777657159
 30
0.0
 10
264.2160212837
 20
198.9840024741
 30
0.0
 10
264.2146386742
 20
198.9892015827
 30
0.0
 10
264.2137040909
 20
198.9928374117
 30
0.0
 10
264.2131913875
 20
198.9946601716
 30
0.0
 10
264.2129715139
 20
198.995693949
 30
0.0
 10
264.2124765406
 20
198.996757079
 30
0.0
 10
264.211908156
 20
198.9980806212
 30
0.0
 10
264.2109706101
 20
199.0002012902
 30
0.0
 10
264.2098083291
 20
199.0028510966
 30
0.0
 10
264.2084094611
 20
199.006031305
 30
0.0
 10
264.2065457447
 20
199.0102714291
 30
0.0
 10
264.2032835694
 20
199.017691718
 30
0.0
 10
264.1986236721
 20
199.0282920939
 30
0.0
 10
264.1930316357
 20
199.0410125575
 30
0.0
 10
264.1874396725
 20
199.0537330299
 30
0.0
 10
264.1827795923
 20
199.0643333838
 30
0.0
 10
264.1795177369
 20
199.0717537113
 30
0.0
 10
264.1776535086
 20
199.0759937737
 30
0.0
 10
264.1762562129
 20
199.0791741718
 30
0.0
 10
264.175089011
 20
199.0818233844
 30
0.0
 10
264.1741615049
 20
199.0839452649
 30
0.0
 10
264.1735675696
 20
199.0852657237
 30
0.0
 10
264.1731250429
 20
199.0863351827
 30
0.0
 10
264.1724596411
 20
199.087315196
 30
0.0
 10
264.1713988276
 20
199.0890718126
 30
0.0
 10
264.1692036188
 20
199.0925555154
 30
0.0
 10
264.1661060811
 20
199.0975476747
 30
0.0
 10
264.1623725431
 20
199.103531647
 30
0.0
 10
264.1586434165
 20
199.1095173894
 30
0.0
 10
264.1536697107
 20
199.1174977637
 30
0.0
 10
264.1474530771
 20
199.1274734228
 30
0.0
 10
264.1399930286
 20
199.1394442191
 30
0.0
 10
264.1337759506
 20
199.1494196099
 30
0.0
 10
264.1288032226
 20
199.1574005745
 30
0.0
 10
264.125693117
 20
199.1623871839
 30
0.0
 10
264.1232099604
 20
199.1663798929
 30
0.0
 10
264.1216467431
 20
199.1688675291
 30
0.0
 10
264.1205750263
 20
199.1706245204
 30
0.0
 10
264.119927358
 20
199.1716040359
 30
0.0
 10
264.1191468651
 20
199.1724913333
 30
0.0
 10
264.1182167278
 20
199.1736320304
 30
0.0
 10
264.1167030924
 20
199.1754394999
 30
0.0
 10
264.1148197505
 20
199.1777048788
 30
0.0
 10
264.1118015397
 20
199.1813261081
 30
0.0
 10
264.108030445
 20
199.1858538034
 30
0.0
 10
264.103504417
 20
199.1912865417
 30
0.0
 10
264.0974699632
 20
199.1985303668
 30
0.0
 10
264.0899268048
 20
199.2075850826
 30
0.0
 10
264.0808750768
 20
199.2184507952
 30
0.0
 10
264.0733318846
 20
199.2275054646
 30
0.0
 10
264.0672975053
 20
199.2347493918
 30
0.0
 10
264.0635256247
 20
199.2392764127
 30
0.0
 10
264.0605090211
 20
199.2428990223
 30
0.0
 10
264.0586215886
 20
199.2451608877
 30
0.0
 10
264.0573045047
 20
199.246748734
 30
0.0
 10
264.0565454409
 20
199.2476489708
 30
0.0
 10
264.0558105859
 20
199.2485758937
 30
0.0
 10
264.054718507
 20
199.2495432812
 30
0.0
 10
264.0529900706
 20
199.2511119243
 30
0.0
 10
264.0508230572
 20
199.2530655983
 30
0.0
 10
264.0473594507
 20
199.2561954616
 30
0.0
 10
264.0430287023
 20
199.2601064236
 30
0.0
 10
264.037832335
 20
199.2648001629
 30
0.0
 10
264.0309036602
 20
199.271058279
 30
0.0
 10
264.0222428775
 20
199.2788809846
 30
0.0
 10
264.0118499243
 20
199.2882682453
 30
0.0
 10
264.0031890956
 20
199.2960908351
 30
0.0
 10
263.9962605221
 20
199.3023492058
 30
0.0
 10
263.9910638441
 20
199.3070421638
 30
0.0
 10
263.9871670457
 20
199.3105642305
 30
0.0
 10
263.9845680741
 20
199.3129086175
 30
0.0
 10
263.9834868152
 20
199.3138908888
 30
0.0
 10
263.9826179685
 20
199.3146640074
 30
0.0
 10
263.9817631635
 20
199.3154835655
 30
0.0
 10
263.9805941443
 20
199.3161755891
 30
0.0
 10
263.9792198696
 20
199.3171004348
 30
0.0
 10
263.977377531
 20
199.3183005813
 30
0.0
 10
263.9750780293
 20
199.31981208
 30
0.0
 10
263.9723171627
 20
199.3216210349
 30
0.0
 10
263.9686365188
 20
199.3240346666
 30
0.0
 10
263.9640355388
 20
199.327051127
 30
0.0
 10
263.9566740686
 20
199.3318777873
 30
0.0
 10
263.9474721973
 20
199.3379110016
 30
0.0
 10
263.9364299661
 20
199.3451509063
 30
0.0
 10
263.9217069861
 20
199.3548040959
 30
0.0
 10
263.9106647523
 20
199.3620439919
 30
0.0
 10
263.9033032628
 20
199.3668705884
 30
0.0
  0
SPLINE
  5
4AD
100
AcDbEntity
  8
7_ALL_FEATURES
100
AcDbSpline
 62
7
  6
CONTINUOUS
 70
0
 71
3
 72
11
 73
7
 74
0
 42
0.0000001
 43
0.0000001
 44
0.0000000001
 40
0.0
 40
0.0
 40
0.0
 40
0.0
 40
0.2823105021
 40
0.5413459278
 40
0.7777991816
 40
1.0
 40
1.0
 40
1.0
 40
1.0
 10
313.0552791684
 20
194.8598268762
 30
0.0
 10
313.0379755977
 20
194.8132235405
 30
0.0
 10
312.9953285739
 20
194.7268781872
 30
0.0
 10
312.9051559938
 20
194.6215754673
 30
0.0
 10
312.796268786
 20
194.5530861395
 30
0.0
 10
312.7148099531
 20
194.5368760441
 30
0.0
 10
312.6756826433
 20
194.5368760441
 30
0.0
  0
SPLINE
  5
4AE
100
AcDbEntity
  8
7_ALL_FEATURES
100
AcDbSpline
 62
7
  6
CONTINUOUS
 70
0
 71
3
 72
11
 73
7
 74
0
 42
0.0000001
 43
0.0000001
 44
0.0000000001
 40
0.0
 40
0.0
 40
0.0
 40
0.0
 40
0.2415840804
 40
0.4948901349
 40
0.750885964
 40
1.0
 40
1.0
 40
1.0
 40
1.0
 10
316.1258777293
 20
207.9787114964
 30
0.0
 10
316.2883350271
 20
207.6695430447
 30
0.0
 10
316.5435963157
 20
206.9935882092
 30
0.0
 10
316.709724993
 20
205.9138868329
 30
0.0
 10
316.6621715185
 20
204.8117426021
 30
0.0
 10
316.484916401
 20
204.096795228
 30
0.0
 10
316.3595606906
 20
203.7591773836
 30
0.0
  0
SPLINE
  5
4AF
100
AcDbEntity
  8
7_ALL_FEATURES
100
AcDbSpline
 62
4
  6
CONTINUOUS
 70
0
 71
3
 72
72
 73
68
 74
0
 42
0.0000001
 43
0.0000001
 44
0.0000000001
 40
0.0
 40
0.0
 40
0.0
 40
0.0
 40
0.0625
 40
0.09375
 40
0.125
 40
0.140625
 40
0.15625
 40
0.1640625
 40
0.16796875
 40
0.171875
 40
0.1796875
 40
0.1875
 40
0.203125
 40
0.21875
 40
0.25
 40
0.28125
 40
0.296875
 40
0.3125
 40
0.3203125
 40
0.328125
 40
0.33203125
 40
0.3359375
 40
0.34375
 40
0.359375
 40
0.375
 40
0.40625
 40
0.4375
 40
0.453125
 40
0.46875
 40
0.484375
 40
0.4921875
 40
0.49609375
 40
0.5
 40
0.50390625
 40
0.5078125
 40
0.515625
 40
0.53125
 40
0.546875
 40
0.5625
 40
0.59375
 40
0.625
 40
0.640625
 40
0.65625
 40
0.6640625
 40
0.66796875
 40
0.671875
 40
0.6796875
 40
0.6875
 40
0.703125
 40
0.71875
 40
0.75
 40
0.78125
 40
0.796875
 40
0.8125
 40
0.8203125
 40
0.828125
 40
0.83203125
 40
0.833984375
 40
0.8359375
 40
0.83984375
 40
0.84375
 40
0.859375
 40
0.875
 40
0.890625
 40
0.90625
 40
0.9375
 40
1.0
 40
1.0
 40
1.0
 40
1.0
 10
318.0595696191
 20
197.0356125694
 30
0.0
 10
318.069767935
 20
197.0411832719
 30
0.0
 10
318.0850653791
 20
197.0495396531
 30
0.0
 10
318.1054620904
 20
197.0606801847
 30
0.0
 10
318.1182097865
 20
197.0676457462
 30
0.0
 10
318.1284085101
 20
197.0732119727
 30
0.0
 10
318.1347814198
 20
197.0767050565
 30
0.0
 10
318.1392450469
 20
197.0791217727
 30
0.0
 10
318.1417916382
 20
197.0805472541
 30
0.0
 10
318.1443229625
 20
197.0821403759
 30
0.0
 10
318.1474923453
 20
197.0840743784
 30
0.0
 10
318.1525604364
 20
197.0872008606
 30
0.0
 10
318.1588965512
 20
197.0910979752
 30
0.0
 10
318.1690337712
 20
197.0973395263
 30
0.0
 10
318.1817055203
 20
197.10513916
 30
0.0
 10
318.1943770777
 20
197.1129403044
 30
0.0
 10
318.2045146045
 20
197.1191794385
 30
0.0
 10
318.2108499522
 20
197.1230825956
 30
0.0
 10
318.2159196159
 20
197.1261966907
 30
0.0
 10
318.2190849952
 20
197.1281622276
 30
0.0
 10
318.2216245374
 20
197.1296906188
 30
0.0
 10
318.2241376531
 20
197.1313797811
 30
0.0
 10
318.2285233295
 20
197.1344104999
 30
0.0
 10
318.2347949863
 20
197.1387011325
 30
0.0
 10
318.2448260597
 20
197.1455879141
 30
0.0
 10
318.2573661126
 20
197.1541889833
 30
0.0
 10
318.269905793
 20
197.162792472
 30
0.0
 10
318.2799374623
 20
197.1696753823
 30
0.0
 10
318.287461663
 20
197.1748357552
 30
0.0
 10
318.2937303655
 20
197.1791420492
 30
0.0
 10
318.298121337
 20
197.1821446819
 30
0.0
 10
318.3006259663
 20
197.1838788595
 30
0.0
 10
318.3025171075
 20
197.1851276942
 30
0.0
 10
318.3043598202
 20
197.1865745289
 30
0.0
 10
318.3068336629
 20
197.1884345773
 30
0.0
 10
318.3111550173
 20
197.19172184
 30
0.0
 10
318.3173324942
 20
197.1964011104
 30
0.0
 10
318.3247437114
 20
197.2020234169
 30
0.0
 10
318.3346259189
 20
197.2095174023
 30
0.0
 10
318.346978682
 20
197.2188851037
 30
0.0
 10
318.3593306997
 20
197.2282549554
 30
0.0
 10
318.3692140998
 20
197.2357455004
 30
0.0
 10
318.3753871328
 20
197.2404393568
 30
0.0
 10
318.3797164585
 20
197.2437004655
 30
0.0
 10
318.3821775248
 20
197.245602432
 30
0.0
 10
318.3845902432
 20
197.2476493432
 30
0.0
 10
318.3876226953
 20
197.2501583534
 30
0.0
 10
318.3924653675
 20
197.254200505
 30
0.0
 10
318.398521875
 20
197.2592436954
 30
0.0
 10
318.4082105191
 20
197.267318123
 30
0.0
 10
318.4203219147
 20
197.2774092323
 30
0.0
 10
318.4324331585
 20
197.2875013888
 30
0.0
 10
318.4421220454
 20
197.2955741407
 30
0.0
 10
318.4481779458
 20
197.3006215204
 30
0.0
 10
318.4530218625
 20
197.3046550841
 30
0.0
 10
318.4560511466
 20
197.3071859566
 30
0.0
 10
318.4581679653
 20
197.3089377368
 30
0.0
 10
318.459383334
 20
197.3099697807
 30
0.0
 10
318.4606203899
 20
197.3111186861
 30
0.0
 10
318.4621592969
 20
197.3125148742
 30
0.0
 10
318.4658587749
 20
197.315898601
 30
0.0
 10
318.4714054294
 20
197.3209603831
 30
0.0
 10
318.4788024334
 20
197.327717318
 30
0.0
 10
318.4861990456
 20
197.3344721418
 30
0.0
 10
318.4960613318
 20
197.3434793101
 30
0.0
 10
318.5133202687
 20
197.3592415094
 30
0.0
 10
318.5281136651
 20
197.3727520842
 30
0.0
 10
318.5379759246
 20
197.3817591079
 30
0.0
  0
SPLINE
  5
4B0
100
AcDbEntity
  8
7_ALL_FEATURES
100
AcDbSpline
 62
4
  6
CONTINUOUS
 70
0
 71
3
 72
153
 73
149
 74
0
 42
0.0000001
 43
0.0000001
 44
0.0000000001
 40
0.0
 40
0.0
 40
0.0
 40
0.0
 40
0.03125
 40
0.046875
 40
0.0625
 40
0.078125
 40
0.09375
 40
0.1015625
 40
0.109375
 40
0.11328125
 40
0.1171875
 40
0.12109375
 40
0.123046875
 40
0.1240234375
 40
0.125
 40
0.1259765625
 40
0.126953125
 40
0.12890625
 40
0.1328125
 40
0.13671875
 40
0.140625
 40
0.1484375
 40
0.15625
 40
0.171875
 40
0.1875
 40
0.203125
 40
0.21875
 40
0.2265625
 40
0.234375
 40
0.23828125
 40
0.2421875
 40
0.24609375
 40
0.248046875
 40
0.2490234375
 40
0.25
 40
0.2509765625
 40
0.251953125
 40
0.25390625
 40
0.2578125
 40
0.26171875
 40
0.265625
 40
0.2734375
 40
0.28125
 40
0.296875
 40
0.3125
 40
0.328125
 40
0.34375
 40
0.3515625
 40
0.359375
 40
0.36328125
 40
0.3671875
 40
0.37109375
 40
0.373046875
 40
0.3740234375
 40
0.375
 40
0.3759765625
 40
0.376953125
 40
0.37890625
 40
0.3828125
 40
0.38671875
 40
0.390625
 40
0.3984375
 40
0.40625
 40
0.421875
 40
0.4375
 40
0.453125
 40
0.46875
 40
0.4765625
 40
0.484375
 40
0.48828125
 40
0.4921875
 40
0.49609375
 40
0.498046875
 40
0.4990234375
 40
0.5
 40
0.5009765625
 40
0.501953125
 40
0.50390625
 40
0.5078125
 40
0.51171875
 40
0.515625
 40
0.5234375
 40
0.53125
 40
0.546875
 40
0.5625
 40
0.578125
 40
0.59375
 40
0.6015625
 40
0.609375
 40
0.61328125
 40
0.6171875
 40
0.62109375
 40
0.623046875
 40
0.6240234375
 40
0.625
 40
0.6259765625
 40
0.626953125
 40
0.62890625
 40
0.6328125
 40
0.63671875
 40
0.640625
 40
0.6484375
 40
0.65625
 40
0.671875
 40
0.6875
 40
0.703125
 40
0.71875
 40
0.7265625
 40
0.734375
 40
0.73828125
 40
0.7421875
 40
0.74609375
 40
0.748046875
 40
0.7490234375
 40
0.75
 40
0.7509765625
 40
0.751953125
 40
0.75390625
 40
0.7578125
 40
0.76171875
 40
0.765625
 40
0.7734375
 40
0.78125
 40
0.796875
 40
0.8125
 40
0.828125
 40
0.84375
 40
0.8515625
 40
0.859375
 40
0.86328125
 40
0.8671875
 40
0.87109375
 40
0.873046875
 40
0.8740234375
 40
0.875
 40
0.8759765625
 40
0.876953125
 40
0.87890625
 40
0.8828125
 40
0.88671875
 40
0.890625
 40
0.8984375
 40
0.90625
 40
0.921875
 40
0.9375
 40
0.953125
 40
0.96875
 40
1.0
 40
1.0
 40
1.0
 40
1.0
 10
318.6200060934
 20
199.3668705806
 30
0.0
 10
318.6135898856
 20
199.3626338779
 30
0.0
 10
318.6039655738
 20
199.3562788243
 30
0.0
 10
318.5911331585
 20
199.3478054175
 30
0.0
 10
318.5815088459
 20
199.3414503676
 30
0.0
 10
318.5718845377
 20
199.3350952975
 30
0.0
 10
318.563864267
 20
199.329799469
 30
0.0
 10
318.5574480815
 20
199.3255626644
 30
0.0
 10
318.5534378949
 20
199.3229149845
 30
0.0
 10
318.5502299074
 20
199.3207961009
 30
0.0
 10
318.547823474
 20
199.3192089634
 30
0.0
 10
318.5458195212
 20
199.3178799064
 30
0.0
 10
318.5444139904
 20
199.3169622095
 30
0.0
 10
318.5436151455
 20
199.3164180703
 30
0.0
 10
318.5430038546
 20
199.3160655767
 30
0.0
 10
318.542439035
 20
199.31550051
 30
0.0
 10
318.5416697325
 20
199.3148212356
 30
0.0
 10
318.5403310056
 20
199.3135979585
 30
0.0
 10
318.53841459
 20
199.3118684813
 30
0.0
 10
318.5361165814
 20
199.3097853777
 30
0.0
 10
318.5330519796
 20
199.3070106065
 30
0.0
 10
318.5292214295
 20
199.3035412179
 30
0.0
 10
318.5230924363
 20
199.2979907131
 30
0.0
 10
318.5154312342
 20
199.2910524039
 30
0.0
 10
318.5062377721
 20
199.282726513
 30
0.0
 10
318.4970443251
 20
199.2744005863
 30
0.0
 10
318.4893830852
 20
199.2674623665
 30
0.0
 10
318.4832541677
 20
199.2619116828
 30
0.0
 10
318.4794234252
 20
199.2584427488
 30
0.0
 10
318.4763592182
 20
199.2556670446
 30
0.0
 10
318.4740600034
 20
199.2535867915
 30
0.0
 10
318.4721473617
 20
199.251848396
 30
0.0
 10
318.4708018978
 20
199.2506410394
 30
0.0
 10
318.4700433895
 20
199.2499362564
 30
0.0
 10
318.4694454136
 20
199.249449544
 30
0.0
 10
318.4689586524
 20
199.2488027645
 30
0.0
 10
318.4682708445
 20
199.2479962251
 30
0.0
 10
318.4670852551
 20
199.2465587674
 30
0.0
 10
318.4653821064
 20
199.2445188567
 30
0.0
 10
318.4633423727
 20
199.2420651425
 30
0.0
 10
318.460621315
 20
199.2387955569
 30
0.0
 10
318.4572204765
 20
199.2347078786
 30
0.0
 10
318.4517788646
 20
199.2281679825
 30
0.0
 10
318.4449769434
 20
199.2199929783
 30
0.0
 10
318.4368145941
 20
199.2101830333
 30
0.0
 10
318.4286522702
 20
199.2003730625
 30
0.0
 10
318.4218502853
 20
199.1921981229
 30
0.0
 10
318.4164088005
 20
199.1856580976
 30
0.0
 10
318.4130076391
 20
199.1815707477
 30
0.0
 10
318.4102872444
 20
199.1783004881
 30
0.0
 10
318.4082454849
 20
199.1758488328
 30
0.0
 10
318.4065486744
 20
199.1738024802
 30
0.0
 10
318.4053517703
 20
199.1723765224
 30
0.0
 10
318.4046820913
 20
199.1715515573
 30
0.0
 10
318.4041396439
 20
199.1709613756
 30
0.0
 10
318.4037508159
 20
199.1702620912
 30
0.0
 10
318.4031787944
 20
199.1693677683
 30
0.0
 10
318.4022027226
 20
199.167784972
 30
0.0
 10
318.4007952819
 20
199.1655331046
 30
0.0
 10
318.3991119399
 20
199.1628268957
 30
0.0
 10
318.3968655326
 20
199.1592200031
 30
0.0
 10
318.3940581915
 20
199.1547109129
 30
0.0
 10
318.3895660723
 20
199.1474966338
 30
0.0
 10
318.3839510525
 20
199.1384786935
 30
0.0
 10
318.3772129688
 20
199.1276572057
 30
0.0
 10
318.370474918
 20
199.1168357023
 30
0.0
 10
318.3648598161
 20
199.1078178009
 30
0.0
 10
318.3603678611
 20
199.100603444
 30
0.0
 10
318.3575601026
 20
199.0960945514
 30
0.0
 10
318.3553145521
 20
199.0924872532
 30
0.0
 10
318.3536285923
 20
199.0897822835
 30
0.0
 10
318.3522293423
 20
199.0875265392
 30
0.0
 10
318.3512386486
 20
199.0859506636
 30
0.0
 10
318.350690055
 20
199.0850452521
 30
0.0
 10
318.350229264
 20
199.0843800282
 30
0.0
 10
318.3499570977
 20
199.0836619209
 30
0.0
 10
318.3495284148
 20
199.0827228909
 30
0.0
 10
318.3488088746
 20
199.0810709937
 30
0.0
 10
318.3477649333
 20
199.078715634
 30
0.0
 10
318.3465190637
 20
199.0758872791
 30
0.0
 10
318.3448555083
 20
199.0721168109
 30
0.0
 10
318.3427768843
 20
199.0674034957
 30
0.0
 10
318.3394506274
 20
199.0598623199
 30
0.0
 10
318.3352929647
 20
199.0504358061
 30
0.0
 10
318.3303036964
 20
199.0391240083
 30
0.0
 10
318.3253144669
 20
199.0278122059
 30
0.0
 10
318.3211567075
 20
199.0183857034
 30
0.0
 10
318.317830644
 20
199.010844505
 30
0.0
 10
318.3157515283
 20
199.0061312471
 30
0.0
 10
318.3140889822
 20
199.0023606613
 30
0.0
 10
318.3128400287
 20
198.9995326659
 30
0.0
 10
318.3118057363
 20
198.9971761813
 30
0.0
 10
318.3110689713
 20
198.9955262922
 30
0.0
 10
318.3106678869
 20
198.9945840448
 30
0.0
 10
318.3103109469
 20
198.9938758202
 30
0.0
 10
318.3101685515
 20
198.9931734787
 30
0.0
 10
318.3099038554
 20
198.9922349712
 30
0.0
 10
318.3094755045
 20
198.9905935393
 30
0.0
 10
318.3088453456
 20
198.9882481367
 30
0.0
 10
318.3080969576
 20
198.9854338676
 30
0.0
 10
318.3070963816
 20
198.981681434
 30
0.0
 10
318.3058465948
 20
198.9769909176
 30
0.0
 10
318.3038464142
 20
198.969486077
 30
0.0
 10
318.3013463686
 20
198.9601050315
 30
0.0
 10
318.2983462312
 20
198.9488477732
 30
0.0
 10
318.2953461365
 20
198.9375905216
 30
0.0
 10
318.2928459843
 20
198.9282094593
 30
0.0
 10
318.290846017
 20
198.9207046524
 30
0.0
 10
318.2895956878
 20
198.9160140503
 30
0.0
 10
318.2885962251
 20
198.9122617926
 30
0.0
 10
318.2878444357
 20
198.9094469861
 30
0.0
 10
318.287224919
 20
198.9071032647
 30
0.0
 10
318.28677757
 20
198.9054588315
 30
0.0
 10
318.2865433136
 20
198.9045251329
 30
0.0
 10
318.2863074172
 20
198.9038080202
 30
0.0
 10
318.2863016515
 20
198.9031552738
 30
0.0
 10
318.2862136916
 20
198.9022624936
 30
0.0
 10
318.2860971622
 20
198.9007105889
 30
0.0
 10
318.2859111383
 20
198.8984881132
 30
0.0
 10
318.285696279
 20
198.8958234833
 30
0.0
 10
318.2854068767
 20
198.8922698258
 30
0.0
 10
318.2850461248
 20
198.8878280338
 30
0.0
 10
318.2844683622
 20
198.8807210102
 30
0.0
 10
318.2837463522
 20
198.8718372849
 30
0.0
 10
318.2828798516
 20
198.8611767888
 30
0.0
 10
318.282013396
 20
198.8505163091
 30
0.0
 10
318.2812912737
 20
198.8416325425
 30
0.0
 10
318.2807137356
 20
198.8345256016
 30
0.0
 10
318.2803524128
 20
198.8300835994
 30
0.0
 10
318.2800641822
 20
198.8265303734
 30
0.0
 10
318.2798457434
 20
198.8238644252
 30
0.0
 10
318.279670919
 20
198.8216460739
 30
0.0
 10
318.2795343966
 20
198.8200868065
 30
0.0
 10
318.2794784705
 20
198.8192058232
 30
0.0
 10
318.2793743072
 20
198.8185168404
 30
0.0
 10
318.2795079758
 20
198.8179358258
 30
0.0
 10
318.2796032421
 20
198.8171234791
 30
0.0
 10
318.2798086101
 20
198.8157194192
 30
0.0
 10
318.2800817854
 20
198.8137044456
 30
0.0
 10
318.2804182452
 20
198.811290404
 30
0.0
 10
318.2808638371
 20
198.8080703103
 30
0.0
 10
318.2814218615
 20
198.8040456628
 30
0.0
 10
318.2823141223
 20
198.7976059644
 30
0.0
 10
318.2834296468
 20
198.7895564314
 30
0.0
 10
318.2847681911
 20
198.7798969532
 30
0.0
 10
318.2861067581
 20
198.7702374853
 30
0.0
 10
318.2878915062
 20
198.7573581912
 30
0.0
 10
318.289230069
 20
198.7476987214
 30
0.0
 10
318.2901224439
 20
198.7412590747
 30
0.0
  0
SPLINE
  5
4B1
100
AcDbEntity
  8
7_ALL_FEATURES
100
AcDbSpline
 62
4
  6
CONTINUOUS
 70
0
 71
3
 72
112
 73
108
 74
0
 42
0.0000001
 43
0.0000001
 44
0.0000000001
 40
0.0
 40
0.0
 40
0.0
 40
0.0
 40
0.03125
 40
0.0625
 40
0.09375
 40
0.109375
 40
0.125
 40
0.140625
 40
0.1484375
 40
0.15625
 40
0.16015625
 40
0.1640625
 40
0.166015625
 40
0.1669921875
 40
0.16796875
 40
0.169921875
 40
0.171875
 40
0.17578125
 40
0.1796875
 40
0.1875
 40
0.1953125
 40
0.203125
 40
0.21875
 40
0.25
 40
0.28125
 40
0.296875
 40
0.3046875
 40
0.3125
 40
0.3203125
 40
0.328125
 40
0.330078125
 40
0.33203125
 40
0.3330078125
 40
0.333984375
 40
0.3359375
 40
0.33984375
 40
0.34375
 40
0.3515625
 40
0.359375
 40
0.375
 40
0.390625
 40
0.40625
 40
0.421875
 40
0.4375
 40
0.453125
 40
0.46875
 40
0.4765625
 40
0.484375
 40
0.48828125
 40
0.4921875
 40
0.49609375
 40
0.498046875
 40
0.4990234375
 40
0.5
 40
0.5009765625
 40
0.501953125
 40
0.50390625
 40
0.5078125
 40
0.51171875
 40
0.515625
 40
0.5234375
 40
0.53125
 40
0.546875
 40
0.5625
 40
0.578125
 40
0.59375
 40
0.609375
 40
0.625
 40
0.640625
 40
0.6484375
 40
0.65625
 40
0.66015625
 40
0.6640625
 40
0.666015625
 40
0.6669921875
 40
0.66796875
 40
0.669921875
 40
0.671875
 40
0.67578125
 40
0.6796875
 40
0.6875
 40
0.6953125
 40
0.703125
 40
0.71875
 40
0.75
 40
0.78125
 40
0.796875
 40
0.8046875
 40
0.8125
 40
0.8203125
 40
0.82421875
 40
0.828125
 40
0.830078125
 40
0.83203125
 40
0.8330078125
 40
0.833984375
 40
0.8359375
 40
0.83984375
 40
0.84375
 40
0.8515625
 40
0.859375
 40
0.875
 40
0.890625
 40
0.90625
 40
0.9375
 40
0.96875
 40
1.0
 40
1.0
 40
1.0
 40
1.0
 10
317.9392930968
 20
198.0267627304
 30
0.0
 10
317.932957307
 20
198.0212935763
 30
0.0
 10
317.9202857267
 20
198.0103552693
 30
0.0
 10
317.9012783605
 20
197.9939478018
 30
0.0
 10
317.8854388763
 20
197.9802749327
 30
0.0
 10
317.8727673165
 20
197.9693365917
 30
0.0
 10
317.8632635713
 20
197.9611329607
 30
0.0
 10
317.8553440234
 20
197.954296205
 30
0.0
 10
317.8490078472
 20
197.9488276897
 30
0.0
 10
317.845048962
 20
197.9454078427
 30
0.0
 10
317.8418790486
 20
197.9426766027
 30
0.0
 10
317.8399042532
 20
197.940958996
 30
0.0
 10
317.8385090691
 20
197.9397778785
 30
0.0
 10
317.8377318906
 20
197.9390697736
 30
0.0
 10
317.8370303172
 20
197.9382366728
 30
0.0
 10
317.8361274633
 20
197.9372380952
 30
0.0
 10
317.8346973641
 20
197.9356164532
 30
0.0
 10
317.8329047866
 20
197.9335975903
 30
0.0
 10
317.830039431
 20
197.9303628324
 30
0.0
 10
317.8264567868
 20
197.9263209555
 30
0.0
 10
317.8221580202
 20
197.9214700311
 30
0.0
 10
317.8164261897
 20
197.9150023662
 30
0.0
 10
317.8063955508
 20
197.9036838452
 30
0.0
 10
317.7920660464
 20
197.8875145709
 30
0.0
 10
317.7777365002
 20
197.8713453357
 30
0.0
 10
317.7677059197
 20
197.8600267601
 30
0.0
 10
317.7619739974
 20
197.8535591811
 30
0.0
 10
317.7576755124
 20
197.8487079931
 30
0.0
 10
317.7533752818
 20
197.8438587307
 30
0.0
 10
317.750155003
 20
197.8402163849
 30
0.0
 10
317.7480005391
 20
197.837796551
 30
0.0
 10
317.747114172
 20
197.8367757921
 30
0.0
 10
317.7463786565
 20
197.8359883328
 30
0.0
 10
317.7457397672
 20
197.8350942783
 30
0.0
 10
317.7446666056
 20
197.8334801562
 30
0.0
 10
317.7431100938
 20
197.831200108
 30
0.0
 10
317.7406327652
 20
197.82753759
 30
0.0
 10
317.7375316223
 20
197.8229643872
 30
0.0
 10
317.7325722988
 20
197.815644499
 30
0.0
 10
317.7263722848
 20
197.8064955871
 30
0.0
 10
317.7189326366
 20
197.7955164863
 30
0.0
 10
317.7114928893
 20
197.7845374945
 30
0.0
 10
317.7040531698
 20
197.7735584731
 30
0.0
 10
317.6966134384
 20
197.7625794608
 30
0.0
 10
317.6891737266
 20
197.7516004418
 30
0.0
 10
317.6829739112
 20
197.7424512742
 30
0.0
 10
317.6780141826
 20
197.7351319078
 30
0.0
 10
317.6749140705
 20
197.7305573772
 30
0.0
 10
317.6724346262
 20
197.7268975844
 30
0.0
 10
317.670573276
 20
197.7241532009
 30
0.0
 10
317.6690277717
 20
197.7218647478
 30
0.0
 10
317.6679348878
 20
197.7202657093
 30
0.0
 10
317.6673276066
 20
197.7193474783
 30
0.0
 10
317.6668236258
 20
197.7186714665
 30
0.0
 10
317.6665051126
 20
197.7179470562
 30
0.0
 10
317.6660157351
 20
197.7169980577
 30
0.0
 10
317.6651894663
 20
197.7153294448
 30
0.0
 10
317.6639933239
 20
197.7129498242
 30
0.0
 10
317.6625646981
 20
197.7100925193
 30
0.0
 10
317.6606575077
 20
197.7062833943
 30
0.0
 10
317.6582743265
 20
197.7015217776
 30
0.0
 10
317.6544607856
 20
197.6939033084
 30
0.0
 10
317.6496940144
 20
197.6843801815
 30
0.0
 10
317.6439738218
 20
197.6729524468
 30
0.0
 10
317.6382536499
 20
197.6615247068
 30
0.0
 10
317.6325334623
 20
197.6500969701
 30
0.0
 10
317.6268133167
 20
197.6386692255
 30
0.0
 10
317.6210930192
 20
197.6272415095
 30
0.0
 10
317.6163265757
 20
197.6177183239
 30
0.0
 10
317.6125123661
 20
197.6100999745
 30
0.0
 10
317.6101308867
 20
197.6053380529
 30
0.0
 10
317.6082202031
 20
197.6015295536
 30
0.0
 10
317.6070385753
 20
197.5991468733
 30
0.0
 10
317.6061862851
 20
197.5974837433
 30
0.0
 10
317.6057386128
 20
197.5965259574
 30
0.0
 10
317.6054391799
 20
197.5955401974
 30
0.0
 10
317.605014132
 20
197.5943175756
 30
0.0
 10
317.6043624205
 20
197.592356028
 30
0.0
 10
317.6035380689
 20
197.5899059262
 30
0.0
 10
317.6022245346
 20
197.5859847391
 30
0.0
 10
317.6005807543
 20
197.5810836066
 30
0.0
 10
317.598609015
 20
197.5752020972
 30
0.0
 10
317.5959797512
 20
197.5673601371
 30
0.0
 10
317.59137867
 20
197.5536366827
 30
0.0
 10
317.5848056212
 20
197.5340317591
 30
0.0
 10
317.5782326262
 20
197.5144268367
 30
0.0
 10
317.5736314699
 20
197.5007033806
 30
0.0
 10
317.5710023241
 20
197.4928614232
 30
0.0
 10
317.5690302225
 20
197.4869799054
 30
0.0
 10
317.5673875763
 20
197.4820787991
 30
0.0
 10
317.566071728
 20
197.4781575586
 30
0.0
 10
317.5652532653
 20
197.4757075926
 30
0.0
 10
317.5645894661
 20
197.4737457663
 30
0.0
 10
317.5641951929
 20
197.472523854
 30
0.0
 10
317.5638325884
 20
197.4715366377
 30
0.0
 10
317.5636422465
 20
197.4705847839
 30
0.0
 10
317.5633891713
 20
197.4689354672
 30
0.0
 10
317.5629858833
 20
197.4665707294
 30
0.0
 10
317.5623639555
 20
197.4627919389
 30
0.0
 10
317.5615785564
 20
197.4580668107
 30
0.0
 10
317.5603263831
 20
197.4505075223
 30
0.0
 10
317.5587596345
 20
197.4410580972
 30
0.0
 10
317.5568801919
 20
197.4297189217
 30
0.0
 10
317.5543740394
 20
197.4145999741
 30
0.0
 10
317.5512414275
 20
197.3957013057
 30
0.0
 10
317.5474822592
 20
197.3730228966
 30
0.0
 10
317.5449761535
 20
197.3579039585
 30
0.0
 10
317.5437230998
 20
197.3503444893
 30
0.0
  0
SPLINE
  5
4B2
100
AcDbEntity
  8
7_ALL_FEATURES
100
AcDbSpline
 62
4
  6
CONTINUOUS
 70
0
 71
3
 72
104
 73
100
 74
0
 42
0.0000001
 43
0.0000001
 44
0.0000000001
 40
0.0
 40
0.0
 40
0.0
 40
0.0
 40
0.0625
 40
0.09375
 40
0.109375
 40
0.125
 40
0.140625
 40
0.1484375
 40
0.15625
 40
0.16015625
 40
0.1640625
 40
0.166015625
 40
0.1669921875
 40
0.16796875
 40
0.169921875
 40
0.171875
 40
0.1796875
 40
0.1875
 40
0.1953125
 40
0.203125
 40
0.21875
 40
0.25
 40
0.28125
 40
0.296875
 40
0.3046875
 40
0.3125
 40
0.3203125
 40
0.328125
 40
0.330078125
 40
0.33203125
 40
0.3330078125
 40
0.333984375
 40
0.3359375
 40
0.33984375
 40
0.34375
 40
0.3515625
 40
0.359375
 40
0.375
 40
0.390625
 40
0.40625
 40
0.421875
 40
0.4375
 40
0.453125
 40
0.46875
 40
0.4765625
 40
0.484375
 40
0.48828125
 40
0.4921875
 40
0.49609375
 40
0.498046875
 40
0.5
 40
0.501953125
 40
0.50390625
 40
0.5078125
 40
0.51171875
 40
0.515625
 40
0.5234375
 40
0.53125
 40
0.546875
 40
0.5625
 40
0.578125
 40
0.59375
 40
0.609375
 40
0.625
 40
0.640625
 40
0.6484375
 40
0.65625
 40
0.66015625
 40
0.6640625
 40
0.666015625
 40
0.6669921875
 40
0.66796875
 40
0.669921875
 40
0.671875
 40
0.6796875
 40
0.6875
 40
0.6953125
 40
0.703125
 40
0.71875
 40
0.75
 40
0.78125
 40
0.796875
 40
0.8046875
 40
0.8125
 40
0.8203125
 40
0.828125
 40
0.830078125
 40
0.83203125
 40
0.833984375
 40
0.8359375
 40
0.83984375
 40
0.84375
 40
0.8515625
 40
0.859375
 40
0.875
 40
0.890625
 40
0.90625
 40
0.9375
 40
1.0
 40
1.0
 40
1.0
 40
1.0
 10
319.020747451
 20
199.3668705806
 30
0.0
 10
319.0144930776
 20
199.3712620551
 30
0.0
 10
319.0051115126
 20
199.3778492593
 30
0.0
 10
318.9941663704
 20
199.3855343571
 30
0.0
 10
318.9879119792
 20
199.389925804
 30
0.0
 10
318.9832212536
 20
199.3932194944
 30
0.0
 10
318.9793120997
 20
199.3959639012
 30
0.0
 10
318.976185261
 20
199.3981601786
 30
0.0
 10
318.9742298836
 20
199.3995311396
 30
0.0
 10
318.9726681082
 20
199.4006318302
 30
0.0
 10
318.9716862339
 20
199.4013108134
 30
0.0
 10
318.9710104751
 20
199.4018040355
 30
0.0
 10
318.9706062511
 20
199.4020578175
 30
0.0
 10
318.9701339438
 20
199.4022059153
 30
0.0
 10
318.9695668309
 20
199.4024271609
 30
0.0
 10
318.9681866066
 20
199.4029284191
 30
0.0
 10
318.9661243148
 20
199.4036927938
 30
0.0
 10
318.9633699944
 20
199.4047048228
 30
0.0
 10
318.9606169039
 20
199.405718761
 30
0.0
 10
318.9569456875
 20
199.4070700125
 30
0.0
 10
318.95052126
 20
199.409435015
 30
0.0
 10
318.9413433915
 20
199.4128134108
 30
0.0
 10
318.9321655992
 20
199.4161919282
 30
0.0
 10
318.925741065
 20
199.4185567605
 30
0.0
 10
318.9220700161
 20
199.4199082793
 30
0.0
 10
318.9193164117
 20
199.4209213975
 30
0.0
 10
318.9165640215
 20
199.4219365063
 30
0.0
 10
318.9144963246
 20
199.4226922568
 30
0.0
 10
318.9131231544
 20
199.4232047702
 30
0.0
 10
318.9125431217
 20
199.4234054015
 30
0.0
 10
318.9120974743
 20
199.4235960367
 30
0.0
 10
318.9115846146
 20
199.4236764842
 30
0.0
 10
318.9106558816
 20
199.4237660714
 30
0.0
 10
318.9093454136
 20
199.4239207645
 30
0.0
 10
318.9072395592
 20
199.424153346
 30
0.0
 10
318.904610359
 20
199.424449184
 30
0.0
 10
318.9004018962
 20
199.4249196682
 30
0.0
 10
318.8951419156
 20
199.4255087536
 30
0.0
 10
318.8888296826
 20
199.4262152361
 30
0.0
 10
318.882517518
 20
199.4269218304
 30
0.0
 10
318.8762053359
 20
199.4276283974
 30
0.0
 10
318.8698931557
 20
199.4283349618
 30
0.0
 10
318.8635809851
 20
199.429041564
 30
0.0
 10
318.8583208094
 20
199.4296302754
 30
0.0
 10
318.8541127446
 20
199.4301015225
 30
0.0
 10
318.8514825314
 20
199.430395419
 30
0.0
 10
318.8493787564
 20
199.4306319858
 30
0.0
 10
318.8477998421
 20
199.4308054419
 30
0.0
 10
318.8464875256
 20
199.4309626145
 30
0.0
 10
318.845429945
 20
199.4310600351
 30
0.0
 10
318.8446578742
 20
199.4312104774
 30
0.0
 10
318.8438052087
 20
199.4310655712
 30
0.0
 10
318.842696474
 20
199.430975532
 30
0.0
 10
318.8413008967
 20
199.4308275862
 30
0.0
 10
318.8396303383
 20
199.4306652022
 30
0.0
 10
318.837401483
 20
199.4304433983
 30
0.0
 10
318.8346159083
 20
199.4301679554
 30
0.0
 10
318.8301587125
 20
199.4297262341
 30
0.0
 10
318.8245873125
 20
199.4291744297
 30
0.0
 10
318.8179015921
 20
199.4285121162
 30
0.0
 10
318.8112158818
 20
199.4278498403
 30
0.0
 10
318.8045301715
 20
199.4271875622
 30
0.0
 10
318.7978444512
 20
199.4265252554
 30
0.0
 10
318.7911587708
 20
199.4258630654
 30
0.0
 10
318.7855872458
 20
199.425310875
 30
0.0
 10
318.781130305
 20
199.4248699413
 30
0.0
 10
318.7783440814
 20
199.424592494
 30
0.0
 10
318.7761165581
 20
199.4243748044
 30
0.0
 10
318.7747210347
 20
199.4242290096
 30
0.0
 10
318.7737508248
 20
199.4241464712
 30
0.0
 10
318.7731860045
 20
199.4240687686
 30
0.0
 10
318.7725819573
 20
199.4238760453
 30
0.0
 10
318.7718403062
 20
199.4236744558
 30
0.0
 10
318.7700493083
 20
199.4231582834
 30
0.0
 10
318.7673674464
 20
199.4223976153
 30
0.0
 10
318.7637889813
 20
199.4213756234
 30
0.0
 10
318.7602112249
 20
199.4203557093
 30
0.0
 10
318.7554406359
 20
199.4189950992
 30
0.0
 10
318.7470922201
 20
199.4166143679
 30
0.0
 10
318.7351658522
 20
199.4132131581
 30
0.0
 10
318.7232395041
 20
199.4098119678
 30
0.0
 10
318.7148910605
 20
199.4074312091
 30
0.0
 10
318.7101205152
 20
199.406070642
 30
0.0
 10
318.7065426246
 20
199.4050505959
 30
0.0
 10
318.7029646635
 20
199.4040291
 30
0.0
 10
318.7002813905
 20
199.4032670429
 30
0.0
 10
318.6984922341
 20
199.4027526832
 30
0.0
 10
318.6975982056
 20
199.4025067917
 30
0.0
 10
318.6967020396
 20
199.4022170112
 30
0.0
 10
318.6954969811
 20
199.4016218056
 30
0.0
 10
318.6939941403
 20
199.4009493022
 30
0.0
 10
318.6915876489
 20
199.3998333372
 30
0.0
 10
318.688580201
 20
199.3984520632
 30
0.0
 10
318.683767912
 20
199.3962343778
 30
0.0
 10
318.6777526786
 20
199.3934648946
 30
0.0
 10
318.6705343437
 20
199.3901403919
 30
0.0
 10
318.6609099163
 20
199.3857081134
 30
0.0
 10
318.6440671594
 20
199.3779514423
 30
0.0
 10
318.6296305137
 20
199.3713029301
 30
0.0
 10
318.6200060825
 20
199.3668705747
 30
0.0
  0
SPLINE
  5
4B3
100
AcDbEntity
  8
7_ALL_FEATURES
100
AcDbSpline
 62
4
  6
CONTINUOUS
 70
0
 71
3
 72
154
 73
150
 74
0
 42
0.0000001
 43
0.0000001
 44
0.0000000001
 40
0.0
 40
0.0
 40
0.0
 40
0.0
 40
0.03125
 40
0.046875
 40
0.0625
 40
0.078125
 40
0.0859375
 40
0.09375
 40
0.09765625
 40
0.1015625
 40
0.10546875
 40
0.107421875
 40
0.109375
 40
0.111328125
 40
0.1123046875
 40
0.11328125
 40
0.1171875
 40
0.125
 40
0.1328125
 40
0.140625
 40
0.15625
 40
0.171875
 40
0.1875
 40
0.1953125
 40
0.203125
 40
0.2109375
 40
0.21484375
 40
0.21875
 40
0.220703125
 40
0.22265625
 40
0.224609375
 40
0.2265625
 40
0.23046875
 40
0.234375
 40
0.2421875
 40
0.25
 40
0.265625
 40
0.28125
 40
0.296875
 40
0.3046875
 40
0.3125
 40
0.3203125
 40
0.32421875
 40
0.328125
 40
0.330078125
 40
0.33203125
 40
0.3330078125
 40
0.333984375
 40
0.3359375
 40
0.33984375
 40
0.34375
 40
0.3515625
 40
0.359375
 40
0.375
 40
0.390625
 40
0.40625
 40
0.4140625
 40
0.421875
 40
0.4296875
 40
0.4375
 40
0.44140625
 40
0.443359375
 40
0.4443359375
 40
0.4453125
 40
0.447265625
 40
0.44921875
 40
0.453125
 40
0.45703125
 40
0.4609375
 40
0.46875
 40
0.484375
 40
0.5
 40
0.515625
 40
0.53125
 40
0.5390625
 40
0.54296875
 40
0.546875
 40
0.55078125
 40
0.552734375
 40
0.5546875
 40
0.5556640625
 40
0.556640625
 40
0.55859375
 40
0.5625
 40
0.5703125
 40
0.578125
 40
0.5859375
 40
0.59375
 40
0.609375
 40
0.625
 40
0.640625
 40
0.6484375
 40
0.65234375
 40
0.65625
 40
0.66015625
 40
0.6640625
 40
0.6650390625
 40
0.666015625
 40
0.6665039062
 40
0.6669921875
 40
0.66796875
 40
0.669921875
 40
0.671875
 40
0.67578125
 40
0.6796875
 40
0.6875
 40
0.6953125
 40
0.703125
 40
0.71875
 40
0.734375
 40
0.75
 40
0.7578125
 40
0.765625
 40
0.76953125
 40
0.7734375
 40
0.775390625
 40
0.7763671875
 40
0.77734375
 40
0.779296875
 40
0.78125
 40
0.78515625
 40
0.7890625
 40
0.796875
 40
0.8046875
 40
0.8125
 40
0.828125
 40
0.84375
 40
0.859375
 40
0.8671875
 40
0.875
 40
0.8828125
 40
0.884765625
 40
0.88671875
 40
0.8876953125
 40
0.888671875
 40
0.8896484375
 40
0.890625
 40
0.892578125
 40
0.89453125
 40
0.8984375
 40
0.90234375
 40
0.90625
 40
0.9140625
 40
0.921875
 40
0.9296875
 40
0.9375
 40
0.953125
 40
0.96875
 40
1.0
 40
1.0
 40
1.0
 40
1.0
 10
318.817465346
 20
198.6822026255
 30
0.0
 10
318.8243316674
 20
198.688171999
 30
0.0
 10
318.834631149
 20
198.6971260603
 30
0.0
 10
318.8483637935
 20
198.7090648048
 30
0.0
 10
318.8586632708
 20
198.718018873
 30
0.0
 10
318.8672461879
 20
198.7254805654
 30
0.0
 10
318.874112478
 20
198.731449989
 30
0.0
 10
318.8784040087
 20
198.73518072
 30
0.0
 10
318.8818370057
 20
198.7381656683
 30
0.0
 10
318.8844123764
 20
198.7404033844
 30
0.0
 10
318.886556537
 20
198.7422713134
 30
0.0
 10
318.8882763101
 20
198.7437585569
 30
0.0
 10
318.8895539949
 20
198.7448933893
 30
0.0
 10
318.8906573637
 20
198.7457773751
 30
0.0
 10
318.8914094222
 20
198.7466932357
 30
0.0
 10
318.8925710745
 20
198.7480134125
 30
0.0
 10
318.8950683712
 20
198.75090513
 30
0.0
 10
318.8989236197
 20
198.7553327554
 30
0.0
 10
318.903544245
 20
198.7606549678
 30
0.0
 10
318.9097070603
 20
198.7677480855
 30
0.0
 10
318.9174098998
 20
198.7766155686
 30
0.0
 10
318.926653597
 20
198.787256084
 30
0.0
 10
318.934356618
 20
198.79612328
 30
0.0
 10
318.940519034
 20
198.8032170294
 30
0.0
 10
318.9451408845
 20
198.8085373037
 30
0.0
 10
318.9489922985
 20
198.8129709945
 30
0.0
 10
318.9520737178
 20
198.8165176567
 30
0.0
 10
318.9539989487
 20
198.8187349823
 30
0.0
 10
318.9555406363
 20
198.8205073274
 30
0.0
 10
318.9566927871
 20
198.8218407351
 30
0.0
 10
318.9576312635
 20
198.8233895873
 30
0.0
 10
318.9589571975
 20
198.8253794734
 30
0.0
 10
318.9605890611
 20
198.8278925965
 30
0.0
 10
318.9632143235
 20
198.8318991945
 30
0.0
 10
318.9664910118
 20
198.8369123722
 30
0.0
 10
318.9717364457
 20
198.8449307011
 30
0.0
 10
318.9782923028
 20
198.8549545573
 30
0.0
 10
318.9861597216
 20
198.8669827814
 30
0.0
 10
318.9927158502
 20
198.8770063857
 30
0.0
 10
318.9979606867
 20
198.8850252688
 30
0.0
 10
319.0018945457
 20
198.8910393814
 30
0.0
 10
319.0051720171
 20
198.8960513081
 30
0.0
 10
319.007795665
 20
198.9000604754
 30
0.0
 10
319.0094316402
 20
198.9025670569
 30
0.0
 10
319.010749134
 20
198.9045703708
 30
0.0
 10
319.0115526858
 20
198.9058268944
 30
0.0
 10
319.0122410653
 20
198.9068219154
 30
0.0
 10
319.0127631981
 20
198.9078541661
 30
0.0
 10
319.0135997018
 20
198.9096778995
 30
0.0
 10
319.0148350012
 20
198.9122742094
 30
0.0
 10
319.0167889621
 20
198.9164333481
 30
0.0
 10
319.0192391231
 20
198.9216305448
 30
0.0
 10
319.0231550736
 20
198.9299470243
 30
0.0
 10
319.0280514754
 20
198.9403422943
 30
0.0
 10
319.0339265921
 20
198.9528167522
 30
0.0
 10
319.0388224563
 20
198.9632121264
 30
0.0
 10
319.0427395898
 20
198.9715283767
 30
0.0
 10
319.045676153
 20
198.9777657158
 30
0.0
 10
319.048617643
 20
198.9840024741
 30
0.0
 10
319.0510535347
 20
198.9892015827
 30
0.0
 10
319.0527887382
 20
198.9928374117
 30
0.0
 10
319.0536152503
 20
198.9946601716
 30
0.0
 10
319.0541536854
 20
198.995693949
 30
0.0
 10
319.0544432038
 20
198.996757079
 30
0.0
 10
319.0548506433
 20
198.9980806212
 30
0.0
 10
319.0554770933
 20
199.0002012902
 30
0.0
 10
319.0562688886
 20
199.0028510966
 30
0.0
 10
319.0572153054
 20
199.006031305
 30
0.0
 10
319.0584784982
 20
199.0102714291
 30
0.0
 10
319.0606884779
 20
199.017691718
 30
0.0
 10
319.0638459118
 20
199.0282920939
 30
0.0
 10
319.067634685
 20
199.0410125575
 30
0.0
 10
319.0714235364
 20
199.0537330299
 30
0.0
 10
319.0745807746
 20
199.0643333838
 30
0.0
 10
319.0767910968
 20
199.0717537113
 30
0.0
 10
319.0780537415
 20
199.0759937737
 30
0.0
 10
319.0790018418
 20
199.0791741718
 30
0.0
 10
319.079788368
 20
199.0818233844
 30
0.0
 10
319.0804255683
 20
199.0839452649
 30
0.0
 10
319.0808056489
 20
199.0852657237
 30
0.0
 10
319.0811513256
 20
199.0863351827
 30
0.0
 10
319.0812127014
 20
199.087315196
 30
0.0
 10
319.0814523125
 20
199.0890718126
 30
0.0
 10
319.0818376732
 20
199.0925555154
 30
0.0
 10
319.0824372674
 20
199.0975476747
 30
0.0
 10
319.0831357418
 20
199.1035316468
 30
0.0
 10
319.0838398447
 20
199.1095173898
 30
0.0
 10
319.0847766818
 20
199.1174977615
 30
0.0
 10
319.0859484069
 20
199.1274734403
 30
0.0
 10
319.0873541693
 20
199.1394441553
 30
0.0
 10
319.0885257586
 20
199.1494197974
 30
0.0
 10
319.0893457525
 20
199.1564026934
 30
0.0
 10
319.0898144876
 20
199.1603929974
 30
0.0
 10
319.0901655713
 20
199.1633855075
 30
0.0
 10
319.0905184419
 20
199.1663788504
 30
0.0
 10
319.0907780851
 20
199.1686215224
 30
0.0
 10
319.0909589716
 20
199.1701202689
 30
0.0
 10
319.0910227474
 20
199.1707393423
 30
0.0
 10
319.0911008136
 20
199.1712472081
 30
0.0
 10
319.0910799725
 20
199.1717089689
 30
0.0
 10
319.0909975457
 20
199.1724956288
 30
0.0
 10
319.09090377
 20
199.1736306054
 30
0.0
 10
319.0907403296
 20
199.1754403219
 30
0.0
 10
319.090540617
 20
199.1777046061
 30
0.0
 10
319.0902185127
 20
199.1813262655
 30
0.0
 10
319.0898167621
 20
199.18585375
 30
0.0
 10
319.0893342845
 20
199.1912865557
 30
0.0
 10
319.088691114
 20
199.1985303587
 30
0.0
 10
319.0878870958
 20
199.2075850854
 30
0.0
 10
319.0869223388
 20
199.2184507944
 30
0.0
 10
319.086118232
 20
199.2275054647
 30
0.0
 10
319.0854752563
 20
199.2347493918
 30
0.0
 10
319.0850726935
 20
199.2392764127
 30
0.0
 10
319.0847522531
 20
199.2428990223
 30
0.0
 10
319.0845483047
 20
199.2451608877
 30
0.0
 10
319.0844129023
 20
199.246748734
 30
0.0
 10
319.0843240117
 20
199.2476489708
 30
0.0
 10
319.084278388
 20
199.2485758937
 30
0.0
 10
319.0839112545
 20
199.2495432812
 30
0.0
 10
319.0833576016
 20
199.2511119243
 30
0.0
 10
319.0826539757
 20
199.2530655983
 30
0.0
 10
319.0815346351
 20
199.2561954616
 30
0.0
 10
319.0801332428
 20
199.2601064236
 30
0.0
 10
319.0784525204
 20
199.2648001629
 30
0.0
 10
319.0762112276
 20
199.2710582792
 30
0.0
 10
319.0734097129
 20
199.2788809827
 30
0.0
 10
319.0700479033
 20
199.2882682521
 30
0.0
 10
319.0672462335
 20
199.2960908151
 30
0.0
 10
319.065005282
 20
199.3023492405
 30
0.0
 10
319.0633235126
 20
199.3070420314
 30
0.0
 10
319.0620652086
 20
199.3105645684
 30
0.0
 10
319.0612216307
 20
199.3129083414
 30
0.0
 10
319.0608771479
 20
199.3138917374
 30
0.0
 10
319.0605852133
 20
199.3146625353
 30
0.0
 10
319.0604111027
 20
199.315284296
 30
0.0
 10
319.0600658046
 20
199.315739367
 30
0.0
 10
319.0596010112
 20
199.3163418479
 30
0.0
 10
319.0590215246
 20
199.3170964146
 30
0.0
 10
319.0580935047
 20
199.3183029022
 30
0.0
 10
319.0569337685
 20
199.3198112928
 30
0.0
 10
319.0555419616
 20
199.3216212411
 30
0.0
 10
319.0536862621
 20
199.3240345477
 30
0.0
 10
319.051366623
 20
199.3270511664
 30
0.0
 10
319.0485830624
 20
199.3306711151
 30
0.0
 10
319.0457995001
 20
199.3342910621
 30
0.0
 10
319.0420880843
 20
199.3391176587
 30
0.0
 10
319.0374488143
 20
199.3451509042
 30
0.0
 10
319.0300259825
 20
199.3548040972
 30
0.0
 10
319.0244588586
 20
199.3620439919
 30
0.0
 10
319.0207474426
 20
199.3668705884
 30
0.0
  0
SPLINE
  5
4B4
100
AcDbEntity
  8
7_ALL_FEATURES
100
AcDbSpline
 62
4
  6
CONTINUOUS
 70
0
 71
3
 72
195
 73
191
 74
0
 42
0.0000001
 43
0.0000001
 44
0.0000000001
 40
0.0
 40
0.0
 40
0.0
 40
0.0
 40
0.03125
 40
0.046875
 40
0.0625
 40
0.078125
 40
0.0859375
 40
0.09375
 40
0.1015625
 40
0.109375
 40
0.11328125
 40
0.1171875
 40
0.119140625
 40
0.12109375
 40
0.123046875
 40
0.1240234375
 40
0.1245117188
 40
0.125
 40
0.1254882812
 40
0.1259765625
 40
0.126953125
 40
0.12890625
 40
0.130859375
 40
0.1328125
 40
0.13671875
 40
0.140625
 40
0.1484375
 40
0.15625
 40
0.1640625
 40
0.171875
 40
0.1875
 40
0.203125
 40
0.2109375
 40
0.21875
 40
0.2265625
 40
0.234375
 40
0.23828125
 40
0.2421875
 40
0.244140625
 40
0.24609375
 40
0.248046875
 40
0.2490234375
 40
0.2495117188
 40
0.25
 40
0.2504882812
 40
0.2509765625
 40
0.251953125
 40
0.25390625
 40
0.255859375
 40
0.2578125
 40
0.26171875
 40
0.265625
 40
0.2734375
 40
0.28125
 40
0.2890625
 40
0.296875
 40
0.3125
 40
0.328125
 40
0.3359375
 40
0.34375
 40
0.3515625
 40
0.359375
 40
0.36328125
 40
0.3671875
 40
0.369140625
 40
0.37109375
 40
0.373046875
 40
0.3740234375
 40
0.3745117188
 40
0.375
 40
0.3754882812
 40
0.3759765625
 40
0.376953125
 40
0.37890625
 40
0.380859375
 40
0.3828125
 40
0.38671875
 40
0.390625
 40
0.3984375
 40
0.40625
 40
0.4140625
 40
0.421875
 40
0.4375
 40
0.453125
 40
0.4609375
 40
0.46875
 40
0.4765625
 40
0.484375
 40
0.48828125
 40
0.4921875
 40
0.494140625
 40
0.49609375
 40
0.498046875
 40
0.4990234375
 40
0.4995117188
 40
0.5
 40
0.5004882812
 40
0.5009765625
 40
0.501953125
 40
0.50390625
 40
0.505859375
 40
0.5078125
 40
0.51171875
 40
0.515625
 40
0.5234375
 40
0.53125
 40
0.5390625
 40
0.546875
 40
0.5625
 40
0.578125
 40
0.5859375
 40
0.59375
 40
0.6015625
 40
0.609375
 40
0.61328125
 40
0.6171875
 40
0.619140625
 40
0.62109375
 40
0.623046875
 40
0.6240234375
 40
0.6245117188
 40
0.625
 40
0.6254882812
 40
0.6259765625
 40
0.626953125
 40
0.62890625
 40
0.630859375
 40
0.6328125
 40
0.63671875
 40
0.640625
 40
0.6484375
 40
0.65625
 40
0.6640625
 40
0.671875
 40
0.6875
 40
0.703125
 40
0.7109375
 40
0.71875
 40
0.7265625
 40
0.734375
 40
0.73828125
 40
0.7421875
 40
0.744140625
 40
0.74609375
 40
0.748046875
 40
0.7490234375
 40
0.7495117188
 40
0.75
 40
0.7504882812
 40
0.7509765625
 40
0.751953125
 40
0.75390625
 40
0.755859375
 40
0.7578125
 40
0.76171875
 40
0.765625
 40
0.7734375
 40
0.78125
 40
0.7890625
 40
0.796875
 40
0.8125
 40
0.828125
 40
0.8359375
 40
0.84375
 40
0.8515625
 40
0.859375
 40
0.86328125
 40
0.8671875
 40
0.869140625
 40
0.87109375
 40
0.873046875
 40
0.8740234375
 40
0.8745117188
 40
0.875
 40
0.8754882812
 40
0.8759765625
 40
0.876953125
 40
0.87890625
 40
0.880859375
 40
0.8828125
 40
0.88671875
 40
0.890625
 40
0.8984375
 40
0.90625
 40
0.9140625
 40
0.921875
 40
0.9375
 40
0.953125
 40
0.96875
 40
1.0
 40
1.0
 40
1.0
 40
1.0
 10
317.5437231004
 20
197.3503444974
 30
0.0
 10
317.5439168621
 20
197.3414645453
 30
0.0
 10
317.5442075046
 20
197.328144617
 30
0.0
 10
317.5445950279
 20
197.3103847127
 30
0.0
 10
317.5448856705
 20
197.2970647845
 30
0.0
 10
317.5451278722
 20
197.285964844
 30
0.0
 10
317.5453216348
 20
197.2770848924
 30
0.0
 10
317.5454669531
 20
197.2704249267
 30
0.0
 10
317.5456122854
 20
197.2637649685
 30
0.0
 10
317.545733352
 20
197.2582149799
 30
0.0
 10
317.5458303031
 20
197.2537750414
 30
0.0
 10
317.5458906746
 20
197.2509999606
 30
0.0
 10
317.5459394825
 20
197.2487801691
 30
0.0
 10
317.5459746902
 20
197.2471145776
 30
0.0
 10
317.546008478
 20
197.2457289639
 30
0.0
 10
317.5460234002
 20
197.2447543652
 30
0.0
 10
317.5460455571
 20
197.244204742
 30
0.0
 10
317.5460237792
 20
197.2437719877
 30
0.0
 10
317.5461487687
 20
197.2434177356
 30
0.0
 10
317.5462642272
 20
197.2429180169
 30
0.0
 10
317.546490132
 20
197.2420562673
 30
0.0
 10
317.5468003828
 20
197.2408185264
 30
0.0
 10
317.5471780215
 20
197.2393360923
 30
0.0
 10
317.5476796754
 20
197.2373585163
 30
0.0
 10
317.5483073811
 20
197.2348868877
 30
0.0
 10
317.5493113534
 20
197.2309320911
 30
0.0
 10
317.5505664413
 20
197.2259886609
 30
0.0
 10
317.5520724943
 20
197.2200565166
 30
0.0
 10
317.5535785613
 20
197.2141243798
 30
0.0
 10
317.5555866457
 20
197.2062148614
 30
0.0
 10
317.558096753
 20
197.1963279645
 30
0.0
 10
317.5606068592
 20
197.1864410667
 30
0.0
 10
317.5626149455
 20
197.1785315497
 30
0.0
 10
317.5641210068
 20
197.1725994089
 30
0.0
 10
317.5656270814
 20
197.1666672795
 30
0.0
 10
317.5668821017
 20
197.1617238028
 30
0.0
 10
317.5678862119
 20
197.157769101
 30
0.0
 10
317.568513567
 20
197.1552972313
 30
0.0
 10
317.5690159405
 20
197.1533201503
 30
0.0
 10
317.5693913807
 20
197.1518362037
 30
0.0
 10
317.56970851
 20
197.150603195
 30
0.0
 10
317.5699221355
 20
197.1497329976
 30
0.0
 10
317.5700572686
 20
197.1492468145
 30
0.0
 10
317.5701218242
 20
197.1488509856
 30
0.0
 10
317.5703270259
 20
197.1485743865
 30
0.0
 10
317.5705515694
 20
197.1481639991
 30
0.0
 10
317.5709673778
 20
197.1474651981
 30
0.0
 10
317.5715494398
 20
197.1464567804
 30
0.0
 10
317.5722530292
 20
197.1452510153
 30
0.0
 10
317.5731893618
 20
197.143641814
 30
0.0
 10
317.5743603893
 20
197.1416308309
 30
0.0
 10
317.5762336914
 20
197.1384129682
 30
0.0
 10
317.5785754363
 20
197.1343907393
 30
0.0
 10
317.5813854799
 20
197.1295640219
 30
0.0
 10
317.584195537
 20
197.124737316
 30
0.0
 10
317.5879422751
 20
197.1183017041
 30
0.0
 10
317.5926256994
 20
197.1102571907
 30
0.0
 10
317.5973091226
 20
197.1022126762
 30
0.0
 10
317.6010558625
 20
197.095777066
 30
0.0
 10
317.6038659142
 20
197.0909503548
 30
0.0
 10
317.606675978
 20
197.0861236572
 30
0.0
 10
317.60901766
 20
197.0821013669
 30
0.0
 10
317.6108910905
 20
197.0788836294
 30
0.0
 10
317.6120617911
 20
197.0768723277
 30
0.0
 10
317.6129987948
 20
197.0752637804
 30
0.0
 10
317.6137003338
 20
197.0740560173
 30
0.0
 10
317.6142888108
 20
197.073053851
 30
0.0
 10
317.6146931674
 20
197.0723438901
 30
0.0
 10
317.6149360596
 20
197.0719513836
 30
0.0
 10
317.6150848999
 20
197.0716198599
 30
0.0
 10
317.61536114
 20
197.0714303188
 30
0.0
 10
317.6156850216
 20
197.0711280723
 30
0.0
 10
317.6162725192
 20
197.0706222154
 30
0.0
 10
317.6171009768
 20
197.0698874991
 30
0.0
 10
317.6180997592
 20
197.0690110032
 30
0.0
 10
317.6194298507
 20
197.0678405383
 30
0.0
 10
317.6210930193
 20
197.0663780749
 30
0.0
 10
317.6237537793
 20
197.0640377881
 30
0.0
 10
317.6270798356
 20
197.0611125482
 30
0.0
 10
317.6310710576
 20
197.0576022095
 30
0.0
 10
317.6350622917
 20
197.0540918843
 30
0.0
 10
317.640383933
 20
197.0494114461
 30
0.0
 10
317.6470359862
 20
197.0435609
 30
0.0
 10
317.6536880384
 20
197.0377103527
 30
0.0
 10
317.6590096812
 20
197.0330299165
 30
0.0
 10
317.6630009106
 20
197.0295195853
 30
0.0
 10
317.6669921504
 20
197.0260092693
 30
0.0
 10
317.6703181512
 20
197.0230839587
 30
0.0
 10
317.6729790244
 20
197.020743816
 30
0.0
 10
317.6746419051
 20
197.019280986
 30
0.0
 10
317.6759725875
 20
197.0181112736
 30
0.0
 10
317.6769695648
 20
197.017232479
 30
0.0
 10
317.6778036701
 20
197.0165049546
 30
0.0
 10
317.6783810855
 20
197.0159862589
 30
0.0
 10
317.6787211213
 20
197.0157045835
 30
0.0
 10
317.6789477412
 20
197.0154518542
 30
0.0
 10
317.6792829465
 20
197.0153576549
 30
0.0
 10
317.6796920112
 20
197.0151767588
 30
0.0
 10
317.6804255214
 20
197.0148859546
 30
0.0
 10
317.6814641671
 20
197.0144570502
 30
0.0
 10
317.6827144909
 20
197.0139481305
 30
0.0
 10
317.68438021
 20
197.0132675571
 30
0.0
 10
317.6864628312
 20
197.0124175299
 30
0.0
 10
317.6897947611
 20
197.0110571009
 30
0.0
 10
317.6939597641
 20
197.009356697
 30
0.0
 10
317.6989577289
 20
197.0073161555
 30
0.0
 10
317.7039557041
 20
197.0052756293
 30
0.0
 10
317.7106196673
 20
197.0025549223
 30
0.0
 10
317.7189496227
 20
196.9991540405
 30
0.0
 10
317.7272795773
 20
196.9957531574
 30
0.0
 10
317.7339435418
 20
196.9930324526
 30
0.0
 10
317.7389415131
 20
196.9909919197
 30
0.0
 10
317.7439394925
 20
196.988951403
 30
0.0
 10
317.74810445
 20
196.9872509222
 30
0.0
 10
317.7514364727
 20
196.9858906499
 30
0.0
 10
317.7535188577
 20
196.9850402242
 30
0.0
 10
317.7551850616
 20
196.9843604687
 30
0.0
 10
317.7564339045
 20
196.9838490501
 30
0.0
 10
317.7574771837
 20
196.983427964
 30
0.0
 10
317.7582024222
 20
196.9831232029
 30
0.0
 10
317.7586247402
 20
196.9829646692
 30
0.0
 10
317.7589192354
 20
196.9828017798
 30
0.0
 10
317.759298756
 20
196.9828070392
 30
0.0
 10
317.7597751256
 20
196.9827553996
 30
0.0
 10
317.7606225905
 20
196.9826923575
 30
0.0
 10
317.7618260304
 20
196.9825880104
 30
0.0
 10
317.7632732505
 20
196.9824689091
 30
0.0
 10
317.7652017973
 20
196.9823079714
 30
0.0
 10
317.7676128506
 20
196.9821075307
 30
0.0
 10
317.7714703291
 20
196.9817864168
 30
0.0
 10
317.7762922482
 20
196.9813851646
 30
0.0
 10
317.7820785208
 20
196.9809036019
 30
0.0
 10
317.7878648014
 20
196.9804220553
 30
0.0
 10
317.7955798394
 20
196.9797799875
 30
0.0
 10
317.805223638
 20
196.9789774049
 30
0.0
 10
317.814867436
 20
196.9781748209
 30
0.0
 10
317.822582475
 20
196.9775327554
 30
0.0
 10
317.8283687528
 20
196.977051202
 30
0.0
 10
317.8341550361
 20
196.9765696648
 30
0.0
 10
317.8389769216
 20
196.9761683331
 30
0.0
 10
317.8428344686
 20
196.9758473815
 30
0.0
 10
317.8452453477
 20
196.9756465278
 30
0.0
 10
317.8471742519
 20
196.9754864378
 30
0.0
 10
317.8486203799
 20
196.9753647467
 30
0.0
 10
317.8498272368
 20
196.9752685024
 30
0.0
 10
317.8506686019
 20
196.9751909954
 30
0.0
 10
317.851154745
 20
196.9751625321
 30
0.0
 10
317.8515042446
 20
196.9750966016
 30
0.0
 10
317.8519114935
 20
196.9752010899
 30
0.0
 10
317.8524343484
 20
196.9752809637
 30
0.0
 10
317.8533587297
 20
196.975448439
 30
0.0
 10
317.8546743678
 20
196.9756732095
 30
0.0
 10
317.8562552337
 20
196.9759491319
 30
0.0
 10
317.8583623214
 20
196.9763148638
 30
0.0
 10
317.8609964321
 20
196.9767727698
 30
0.0
 10
317.865210869
 20
196.9775050051
 30
0.0
 10
317.8704789632
 20
196.9784204414
 30
0.0
 10
317.8768006556
 20
196.979518904
 30
0.0
 10
317.8831223535
 20
196.980617383
 30
0.0
 10
317.8915512821
 20
196.9820820159
 30
0.0
 10
317.9020874436
 20
196.9839128091
 30
0.0
 10
317.9126236047
 20
196.9857436009
 30
0.0
 10
317.921052534
 20
196.9872082361
 30
0.0
 10
317.92737423
 20
196.9883067082
 30
0.0
 10
317.9336959297
 20
196.9894051966
 30
0.0
 10
317.9389640012
 20
196.9903205527
 30
0.0
 10
317.9431784843
 20
196.9910529516
 30
0.0
 10
317.9458124773
 20
196.9915104414
 30
0.0
 10
317.9479198068
 20
196.9918770275
 30
0.0
 10
317.9494999339
 20
196.9921503399
 30
0.0
 10
317.9508178835
 20
196.9923832766
 30
0.0
 10
317.9517381383
 20
196.9925361739
 30
0.0
 10
317.952267605
 20
196.9926394052
 30
0.0
 10
317.9526545445
 20
196.992672147
 30
0.0
 10
317.9530803228
 20
196.9928756847
 30
0.0
 10
317.9536344797
 20
196.9930874928
 30
0.0
 10
317.9546105662
 20
196.9934859143
 30
0.0
 10
317.9560016756
 20
196.9940405761
 30
0.0
 10
317.9576724194
 20
196.9947123818
 30
0.0
 10
317.9598995844
 20
196.9956059531
 30
0.0
 10
317.9626837096
 20
196.9967236601
 30
0.0
 10
317.9671382155
 20
196.9985115762
 30
0.0
 10
317.9727063802
 20
197.0007466137
 30
0.0
 10
317.9793881641
 20
197.0034285976
 30
0.0
 10
317.9860699516
 20
197.0061105979
 30
0.0
 10
317.9949790003
 20
197.0096865926
 30
0.0
 10
318.0061153117
 20
197.0141565879
 30
0.0
 10
318.0194788852
 20
197.0195205814
 30
0.0
 10
318.0372969832
 20
197.0266725731
 30
0.0
 10
318.0506605567
 20
197.0320365667
 30
0.0
 10
318.0595696057
 20
197.0356125625
 30
0.0
  0
LINE
  5
4B5
100
AcDbEntity
  8
7_ALL_FEATURES
100
AcDbLine
 62
7
  6
CONTINUOUS
 10
244.0489215849
 20
243.4543634061
 11
244.1317227243
 21
243.5368760441
  0
SPLINE
  5
4B6
100
AcDbEntity
  8
7_ALL_FEATURES
100
AcDbSpline
 62
7
  6
CONTINUOUS
 70
0
 71
3
 72
8
 73
4
 74
0
 42
0.0000001
 43
0.0000001
 44
0.0000000001
 40
0.0
 40
0.0
 40
0.0
 40
0.0
 40
1.0
 40
1.0
 40
1.0
 40
1.0
 10
259.5203371415
 20
194.5368760441
 30
0.0
 10
259.2520049772
 20
194.8700989184
 30
0.0
 10
258.9838128667
 20
195.2034346156
 30
0.0
 10
258.7157523361
 20
195.5368760441
 30
0.0
  0
SPLINE
  5
4B7
100
AcDbEntity
  8
7_ALL_FEATURES
100
AcDbSpline
 62
7
  6
CONTINUOUS
 70
0
 71
3
 72
8
 73
4
 74
0
 42
0.0000001
 43
0.0000001
 44
0.0000000001
 40
0.0
 40
0.0
 40
0.0
 40
0.0
 40
1.0
 40
1.0
 40
1.0
 40
1.0
 10
273.5798961673
 20
194.5368760441
 30
0.0
 10
273.3768810518
 20
194.8703278543
 30
0.0
 10
273.1736084451
 20
195.2036228815
 30
0.0
 10
272.9702674103
 20
195.5368760441
 30
0.0
  0
SPLINE
  5
4B8
100
AcDbEntity
  8
7_ALL_FEATURES
100
AcDbSpline
 62
7
  6
CONTINUOUS
 70
0
 71
3
 72
8
 73
4
 74
0
 42
0.0000001
 43
0.0000001
 44
0.0000000001
 40
0.0
 40
0.0
 40
0.0
 40
0.0
 40
1.0
 40
1.0
 40
1.0
 40
1.0
 10
309.187517452
 20
194.5368760441
 30
0.0
 10
309.3905325493
 20
194.8703278654
 30
0.0
 10
309.5938052126
 20
195.2036228581
 30
0.0
 10
309.797146209
 20
195.5368760441
 30
0.0
  0
SPLINE
  5
4B9
100
AcDbEntity
  8
7_ALL_FEATURES
100
AcDbSpline
 62
7
  6
CONTINUOUS
 70
0
 71
3
 72
8
 73
4
 74
0
 42
0.0000001
 43
0.0000001
 44
0.0000000001
 40
0.0
 40
0.0
 40
0.0
 40
0.0
 40
1.0
 40
1.0
 40
1.0
 40
1.0
 10
323.2470764778
 20
194.5368760441
 30
0.0
 10
323.5154493981
 20
194.8700660949
 30
0.0
 10
323.7835593871
 20
195.2034678744
 30
0.0
 10
324.0516612832
 20
195.5368760441
 30
0.0
  0
SPLINE
  5
4BA
100
AcDbEntity
  8
7_ALL_FEATURES
100
AcDbSpline
 62
3
  6
CONTINUOUS
 70
0
 71
3
 72
11
 73
7
 74
0
 42
0.0000001
 43
0.0000001
 44
0.0000000001
 40
0.0
 40
0.0
 40
0.0
 40
0.0
 40
0.2812369618
 40
0.539263601
 40
0.7760892974
 40
1.0
 40
1.0
 40
1.0
 40
1.0
 10
321.055040567
 20
194.5344154214
 30
0.0
 10
321.0215072236
 20
194.4613280387
 30
0.0
 10
320.9431876742
 20
194.3268610271
 30
0.0
 10
320.7878083048
 20
194.1650135908
 30
0.0
 10
320.6067257904
 20
194.0611753898
 30
0.0
 10
320.4739877113
 20
194.0368760441
 30
0.0
 10
320.4099657872
 20
194.0368760441
 30
0.0
  0
SPLINE
  5
4BB
100
AcDbEntity
  8
7_ALL_FEATURES
100
AcDbSpline
 62
3
  6
CONTINUOUS
 70
0
 71
3
 72
9
 73
5
 74
0
 42
0.0000001
 43
0.0000001
 44
0.0000000001
 40
0.0
 40
0.0
 40
0.0
 40
0.0
 40
0.2537987966
 40
1.0
 40
1.0
 40
1.0
 40
1.0
 10
258.1111967836
 20
204.5345928811
 30
0.0
 10
258.1263936127
 20
204.4476938883
 30
0.0
 10
258.1937424114
 20
204.1066668619
 30
0.0
 10
258.2912394662
 20
203.7714552735
 30
0.0
 10
258.3815205838
 20
203.5283030769
 30
0.0
  0
SPLINE
  5
4BC
100
AcDbEntity
  8
7_ALL_FEATURES
100
AcDbSpline
 62
3
  6
CONTINUOUS
 70
0
 71
3
 72
12
 73
8
 74
0
 42
0.0000001
 43
0.0000001
 44
0.0000000001
 40
0.0
 40
0.0
 40
0.0
 40
0.0
 40
0.2837705731
 40
0.5430982726
 40
0.778601443
 40
0.8903461806
 40
1.0
 40
1.0
 40
1.0
 40
1.0
 10
261.6735623105
 20
194.6289525695
 30
0.0
 10
261.704692452
 20
194.543634186
 30
0.0
 10
261.7813582498
 20
194.3856704601
 30
0.0
 10
261.943356992
 20
194.1925818234
 30
0.0
 10
262.1104440132
 20
194.0858915131
 30
0.0
 10
262.2513048052
 20
194.0438773165
 30
0.0
 10
262.3223533406
 20
194.0368760441
 30
0.0
 10
262.3574478321
 20
194.0368760441
 30
0.0
  0
SPLINE
  5
4BD
100
AcDbEntity
  8
7_ALL_FEATURES
100
AcDbSpline
 62
3
  6
CONTINUOUS
 70
0
 71
3
 72
11
 73
7
 74
0
 42
0.0000001
 43
0.0000001
 44
0.0000000001
 40
0.0
 40
0.0
 40
0.0
 40
0.0
 40
0.2406488766
 40
0.4940413862
 40
0.7505723696
 40
1.0
 40
1.0
 40
1.0
 40
1.0
 10
258.7166295909
 20
208.335848983
 30
0.0
 10
258.5296493153
 20
207.9862192158
 30
0.0
 10
258.2351666523
 20
207.2185662894
 30
0.0
 10
258.0402707703
 20
205.989503811
 30
0.0
 10
258.0880597203
 20
204.7316846019
 30
0.0
 10
258.2855934336
 20
203.9143593843
 30
0.0
 10
258.4264539021
 20
203.5283030769
 30
0.0
  0
SPLINE
  5
4BE
100
AcDbEntity
  8
7_ALL_FEATURES
100
AcDbSpline
 62
3
  6
CONTINUOUS
 70
0
 71
3
 72
12
 73
8
 74
0
 42
0.0000001
 43
0.0000001
 44
0.0000000001
 40
0.0
 40
0.0
 40
0.0
 40
0.0
 40
0.2837705731
 40
0.5430982726
 40
0.778601443
 40
0.8903461806
 40
1.0
 40
1.0
 40
1.0
 40
1.0
 10
269.5193172512
 20
194.6289525695
 30
0.0
 10
269.5504473927
 20
194.543634186
 30
0.0
 10
269.6271131905
 20
194.3856704601
 30
0.0
 10
269.7891119327
 20
194.1925818234
 30
0.0
 10
269.9561989539
 20
194.0858915131
 30
0.0
 10
270.0970597459
 20
194.0438773165
 30
0.0
 10
270.1681082813
 20
194.0368760441
 30
0.0
 10
270.2032027728
 20
194.0368760441
 30
0.0
  0
SPLINE
  5
4BF
100
AcDbEntity
  8
7_ALL_FEATURES
100
AcDbSpline
 62
3
  6
CONTINUOUS
 70
0
 71
3
 72
11
 73
7
 74
0
 42
0.0000001
 43
0.0000001
 44
0.0000000001
 40
0.0
 40
0.0
 40
0.0
 40
0.0
 40
0.2406488766
 40
0.4940413862
 40
0.7505723696
 40
1.0
 40
1.0
 40
1.0
 40
1.0
 10
266.5623845316
 20
208.335848983
 30
0.0
 10
266.375404256
 20
207.9862192158
 30
0.0
 10
266.080921593
 20
207.2185662894
 30
0.0
 10
265.886025711
 20
205.989503811
 30
0.0
 10
265.933814661
 20
204.7316846019
 30
0.0
 10
266.1313483743
 20
203.9143593843
 30
0.0
 10
266.2722088428
 20
203.5283030769
 30
0.0
  0
SPLINE
  5
4C0
100
AcDbEntity
  8
7_ALL_FEATURES
100
AcDbSpline
 62
3
  6
CONTINUOUS
 70
0
 71
3
 72
12
 73
8
 74
0
 42
0.0000001
 43
0.0000001
 44
0.0000000001
 40
0.0
 40
0.0
 40
0.0
 40
0.0
 40
0.2820341297
 40
0.5408159686
 40
0.7770377427
 40
0.8895036385
 40
1.0
 40
1.0
 40
1.0
 40
1.0
 10
321.0816115133
 20
194.6289525695
 30
0.0
 10
321.0498883003
 20
194.5435131208
 30
0.0
 10
320.971639548
 20
194.3852150152
 30
0.0
 10
320.8065779132
 20
194.1921530682
 30
0.0
 10
320.6367465144
 20
194.0857878012
 30
0.0
 10
320.4936290632
 20
194.0438673608
 30
0.0
 10
320.4213912013
 20
194.0368760441
 30
0.0
 10
320.3856845506
 20
194.0368760441
 30
0.0
  0
SPLINE
  5
4C1
100
AcDbEntity
  8
7_ALL_FEATURES
100
AcDbSpline
 62
3
  6
CONTINUOUS
 70
0
 71
3
 72
11
 73
7
 74
0
 42
0.0000001
 43
0.0000001
 44
0.0000000001
 40
0.0
 40
0.0
 40
0.0
 40
0.0
 40
0.2409904528
 40
0.4942587049
 40
0.7505541737
 40
1.0
 40
1.0
 40
1.0
 40
1.0
 10
324.0906081094
 20
208.335848983
 30
0.0
 10
324.2805819429
 20
207.9867680414
 30
0.0
 10
324.5802963666
 20
207.2196933987
 30
0.0
 10
324.7788961429
 20
205.9897713138
 30
0.0
 10
324.7302063624
 20
204.7310784624
 30
0.0
 10
324.5290812357
 20
203.9139487834
 30
0.0
 10
324.3858930355
 20
203.5283030769
 30
0.0
  0
SPLINE
  5
4C2
100
AcDbEntity
  8
7_ALL_FEATURES
100
AcDbSpline
 62
3
  6
CONTINUOUS
 70
0
 71
3
 72
11
 73
7
 74
0
 42
0.0000001
 43
0.0000001
 44
0.0000000001
 40
0.0
 40
0.0
 40
0.0
 40
0.0
 40
0.2409904528
 40
0.4942587049
 40
0.7505541737
 40
1.0
 40
1.0
 40
1.0
 40
1.0
 10
316.3806062021
 20
208.335848983
 30
0.0
 10
316.5705800356
 20
207.9867680414
 30
0.0
 10
316.8702944593
 20
207.2196933987
 30
0.0
 10
317.0688942356
 20
205.9897713138
 30
0.0
 10
317.0202044551
 20
204.7310784624
 30
0.0
 10
316.8190793284
 20
203.9139487834
 30
0.0
 10
316.6758911282
 20
203.5283030769
 30
0.0
  0
SPLINE
  5
4C3
100
AcDbEntity
  8
7_ALL_FEATURES
100
AcDbSpline
 62
3
  6
CONTINUOUS
 70
0
 71
3
 72
12
 73
8
 74
0
 42
0.0000001
 43
0.0000001
 44
0.0000000001
 40
0.0
 40
0.0
 40
0.0
 40
0.0
 40
0.2820341297
 40
0.5408159686
 40
0.7770377427
 40
0.8895036385
 40
1.0
 40
1.0
 40
1.0
 40
1.0
 10
313.371609606
 20
194.6289525695
 30
0.0
 10
313.339886393
 20
194.5435131208
 30
0.0
 10
313.2616376407
 20
194.3852150152
 30
0.0
 10
313.0965760059
 20
194.1921530682
 30
0.0
 10
312.9267446071
 20
194.0857878012
 30
0.0
 10
312.7836271559
 20
194.0438673608
 30
0.0
 10
312.711389294
 20
194.0368760441
 30
0.0
 10
312.6756826433
 20
194.0368760441
 30
0.0
  0
ELLIPSE
  5
4C4
100
AcDbEntity
  8
7_ALL_FEATURES
100
AcDbEllipse
 62
7
  6
CONTINUOUS
 10
98.1524014605
 20
205.6061718365
 30
0.0
 11
-2.074276607
 21
3.986939026
 31
0.0
 40
0.1557081333
 41
0.7045647293
 42
0.8550158055
  0
ELLIPSE
  5
4C5
100
AcDbEntity
  8
7_ALL_FEATURES
100
AcDbEllipse
 62
7
  6
CONTINUOUS
 10
143.759236694
 20
205.6061718365
 30
0.0
 11
2.0520415999
 21
3.9841467283
 31
0.0
 40
0.1733754279
 41
-0.8467881517
 42
-0.6963370755
  0
ELLIPSE
  5
4C6
100
AcDbEntity
  8
7_ALL_FEATURES
100
AcDbEllipse
 62
7
  6
CONTINUOUS
 10
120.8938056174
 20
294.5368760441
 30
0.0
 11
0.0
 21
67.0
 31
0.0
 40
1.0
 41
-2.3588120116
 42
-2.3561944902
  0
ELLIPSE
  5
4C7
100
AcDbEntity
  8
7_ALL_FEATURES
100
AcDbEllipse
 62
7
  6
CONTINUOUS
 10
120.8938056174
 20
196.0368760441
 30
0.0
 11
67.0
 21
0.0
 31
0.0
 40
1.0
 41
0.7853981634
 42
0.7880156848
  0
ELLIPSE
  5
4C8
100
AcDbEntity
  8
7_ALL_FEATURES
100
AcDbEllipse
 62
7
  6
CONTINUOUS
 10
120.8938056174
 20
294.5368760441
 30
0.0
 11
0.0
 21
67.0
 31
0.0
 40
1.0
 41
-3.926990817
 42
-3.9243732956
  0
ELLIPSE
  5
4C9
100
AcDbEntity
  8
7_ALL_FEATURES
100
AcDbEllipse
 62
7
  6
CONTINUOUS
 10
120.8938056174
 20
196.0368760441
 30
0.0
 11
67.0
 21
0.0
 31
0.0
 40
1.0
 41
2.3535769688
 42
2.3561944902
  0
ELLIPSE
  5
4CA
100
AcDbEntity
  8
7_ALL_FEATURES
100
AcDbEllipse
 62
3
  6
CONTINUOUS
 10
91.1618858944
 20
205.6061718365
 30
0.0
 11
5.6022289207
 21
2.9146601745
 31
0.0
 40
0.611992302
 41
1.6516297608
 42
1.785257426
  0
ELLIPSE
  5
4CB
100
AcDbEntity
  8
7_ALL_FEATURES
100
AcDbEllipse
 62
3
  6
CONTINUOUS
 10
98.1524014605
 20
205.6061718365
 30
0.0
 11
-2.3335611828
 21
4.4853064042
 31
0.0
 40
0.1557081333
 41
0.7045647293
 42
0.8381923945
  0
ELLIPSE
  5
4CC
100
AcDbEntity
  8
7_ALL_FEATURES
100
AcDbEllipse
 62
3
  6
CONTINUOUS
 10
150.6287972086
 20
205.6061718365
 30
0.0
 11
5.6040065105
 21
-2.8863531567
 31
0.0
 40
0.6160566492
 41
1.3481075738
 42
1.4817352389
  0
ELLIPSE
  5
4CD
100
AcDbEntity
  8
7_ALL_FEATURES
100
AcDbEllipse
 62
3
  6
CONTINUOUS
 10
143.759236694
 20
205.6061718365
 30
0.0
 11
2.3085467999
 21
4.4821650693
 31
0.0
 40
0.1733754279
 41
-0.8299647407
 42
-0.6963370755
  0
ELLIPSE
  5
4CE
100
AcDbEntity
  8
7_ALL_FEATURES
100
AcDbEllipse
 62
7
  6
CONTINUOUS
 10
268.6423026528
 20
205.6061718365
 30
0.0
 11
-2.074276607
 21
3.986939026
 31
0.0
 40
0.1557081333
 41
0.7045647293
 42
0.8550158055
  0
ELLIPSE
  5
4CF
100
AcDbEntity
  8
7_ALL_FEATURES
100
AcDbEllipse
 62
7
  6
CONTINUOUS
 10
314.2491378863
 20
205.6061718365
 30
0.0
 11
2.0520415999
 21
3.9841467283
 31
0.0
 40
0.1733754279
 41
-0.8467881517
 42
-0.6963370755
  0
ELLIPSE
  5
4D0
100
AcDbEntity
  8
7_ALL_FEATURES
100
AcDbEllipse
 62
7
  6
CONTINUOUS
 10
291.3837068096
 20
294.5368760441
 30
0.0
 11
67.0
 21
-0.0
 31
0.0
 40
1.0
 41
-2.3561944902
 42
-2.3535769688
  0
ELLIPSE
  5
4D1
100
AcDbEntity
  8
7_ALL_FEATURES
100
AcDbEllipse
 62
7
  6
CONTINUOUS
 10
291.3837068096
 20
294.5368760441
 30
0.0
 11
67.0
 21
-0.0
 31
0.0
 40
1.0
 41
-0.7880156848
 42
-0.7853981634
  0
ELLIPSE
  5
4D2
100
AcDbEntity
  8
7_ALL_FEATURES
100
AcDbEllipse
 62
3
  6
CONTINUOUS
 10
261.6517870867
 20
205.6061718365
 30
0.0
 11
5.6022289207
 21
2.9146601745
 31
0.0
 40
0.611992302
 41
1.6516297608
 42
1.785257426
  0
ELLIPSE
  5
4D3
100
AcDbEntity
  8
7_ALL_FEATURES
100
AcDbEllipse
 62
3
  6
CONTINUOUS
 10
268.6423026528
 20
205.6061718365
 30
0.0
 11
-2.3335611828
 21
4.4853064042
 31
0.0
 40
0.1557081333
 41
0.7045647293
 42
0.8381923945
  0
ELLIPSE
  5
4D4
100
AcDbEntity
  8
7_ALL_FEATURES
100
AcDbEllipse
 62
3
  6
CONTINUOUS
 10
321.1186984009
 20
205.6061718365
 30
0.0
 11
5.6040065105
 21
-2.8863531567
 31
0.0
 40
0.6160566492
 41
1.3481075738
 42
1.4817352389
  0
ELLIPSE
  5
4D5
100
AcDbEntity
  8
7_ALL_FEATURES
100
AcDbEllipse
 62
3
  6
CONTINUOUS
 10
314.2491378863
 20
205.6061718365
 30
0.0
 11
2.3085467999
 21
4.4821650693
 31
0.0
 40
0.1733754279
 41
-0.8299647407
 42
-0.6963370755
  0
ENDSEC
  0
SECTION
  2
OBJECTS
  0
DICTIONARY
  5
4D6
100
AcDbDictionary
  3
ACAD_GROUP
350
4D7
  3
ACAD_MLINESTYLE
350
4D8
  0
DICTIONARY
  5
4D7
102
{ACAD_REACTORS
330
4D6
102
}
100
AcDbDictionary
  0
DICTIONARY
  5
4D8
102
{ACAD_REACTORS
330
4D6
102
}
100
AcDbDictionary
  3
STANDARD
350
4D9
  0
MLINESTYLE
  5
4D9
102
{ACAD_REACTORS
330
4D8
102
}
100
AcDbMlineStyle
  2
STANDARD
 70
0
  3

 62
256
 51
90.0
 52
90.0
 71
2
 49
0.5
 62
256
  6
BYLAYER
 49
-0.5
 62
256
  6
BYLAYER
  0
ENDSEC
  0
EOF
