999
DXF file: 2f5_c_001.dxf
999
Pro/ENGINEER 2016360 by Parametric Technology Corporation
  0
SECTION
  2
HEADER
  9
$ACADVER
  1
AC1014
  9
$DWGCODEPAGE
  3
ANSI_1252
  9
$EXTMAX
 10
420.0
 20
297.0
 30
0.0
  9
$EXTMIN
 10
0.0
 20
0.0
 30
0.0
  9
$LIMMIN
 10
0.0
 20
0.0
  9
$LIMMAX
 10
420.0
 20
297.0
  9
$VIEWCTR
 10
210.0
 20
148.5
  9
$VIEWSIZE
 40
297.0
  9
$CLAYER
  8
0
  9
$LTSCALE
 40
23.1
  9
$CELTYPE
  6
BYLAYER
  9
$DIMSCALE
 40
1.0
  9
$DIMASZ
 40
2.5
  9
$DIMEXO
 40
0.75
  9
$DIMDLI
 40
15.96
  9
$DIMEXE
 40
0.75
  9
$DIMCEN
 40
3.78
  9
$DIMLFAC
 40
1.0
  9
$DIMBLK
  1
_CLOSED
  9
$DIMALT
 70
0
  9
$DIMALTF
 40
25.4
  9
$DIMTXT
 40
3.0
  9
$DIMTOL
 70
1
  9
$DIMLIM
 70
0
  9
$DIMTFAC
 40
1.0
  9
$DIMTP
 40
0.01
  9
$DIMTM
 40
0.01
  9
$DIMGAP
 40
0.625
  9
$AUNITS
 70
0
  9
$PDMODE
 70
3
  9
$PDSIZE
 40
0.3125
  9
$HANDSEED
  5
518
  9
$TILEMODE
 70
1
  9
$MEASUREMENT
 70
1
  0
ENDSEC
  0
SECTION
  2
CLASSES
  0
ENDSEC
  0
SECTION
  2
TABLES
  0
TABLE
  2
VPORT
  5
8
100
AcDbSymbolTable
 70
2
  0
VPORT
  5
1F4
100
AcDbSymbolTableRecord
100
AcDbViewportTableRecord
  2
*ACTIVE
 70
0
 10
0.0
 20
0.0
 11
1.0
 21
1.0
 12
210.0
 22
148.5
 13
0.0
 23
0.0
 14
1.0
 24
1.0
 15
0.0
 25
0.0
 16
0.0
 26
0.0
 36
1.0
 17
0.0
 27
0.0
 37
0.0
 40
297.0
 41
1.4141414141
 42
50.0
 43
0.0
 44
0.0
 50
0.0
 51
0.0
 71
0
 72
100
 73
1
 74
1
 75
0
 76
0
 77
0
 78
0
  0
ENDTAB
  0
TABLE
  2
LTYPE
  5
5
100
AcDbSymbolTable
 70
6
  0
LTYPE
  5
14
100
AcDbSymbolTableRecord
100
AcDbLinetypeTableRecord
  2
BYBLOCK
 70
0
  3

 72
65
 73
0
 40
0.0
  0
LTYPE
  5
15
100
AcDbSymbolTableRecord
100
AcDbLinetypeTableRecord
  2
BYLAYER
 70
0
  3

 72
65
 73
0
 40
0.0
  0
LTYPE
  5
16
100
AcDbSymbolTableRecord
100
AcDbLinetypeTableRecord
  2
CONTINUOUS
 70
64
  3
Solid line
 72
65
 73
0
 40
0.0
  0
LTYPE
  5
1F5
100
AcDbSymbolTableRecord
100
AcDbLinetypeTableRecord
  2
CENTER
 70
64
  3
____ _ ____ _ ____ _ ____ _ ____ _ ____ _ ____
 72
65
 73
4
 40
0.6
 49
0.375
 74
0
 49
-0.075
 74
0
 49
0.075
 74
0
 49
-0.075
 74
0
  0
LTYPE
  5
1F6
100
AcDbSymbolTableRecord
100
AcDbLinetypeTableRecord
  2
HIDDEN
 70
64
  3
- - - - - - - - - - - - - - - - - - - -
 72
65
 73
2
 40
0.2
 49
0.1
 74
0
 49
-0.1
 74
0
  0
LTYPE
  5
1F7
100
AcDbSymbolTableRecord
100
AcDbLinetypeTableRecord
  2
PHANTOM
 70
64
  3
_____ _ _ _____ _ _ _____ _ _ _____
 72
65
 73
6
 40
0.8
 49
0.45
 74
0
 49
-0.05
 74
0
 49
0.1
 74
0
 49
-0.05
 74
0
 49
0.1
 74
0
 49
-0.05
 74
0
  0
LTYPE
  5
1F8
100
AcDbSymbolTableRecord
100
AcDbLinetypeTableRecord
  2
DOT
 70
64
  3
. . . . . . . . . . . . . . . . . . . .
 72
65
 73
2
 40
0.2
 49
0.1
 74
0
 49
-0.1
 74
0
  0
LTYPE
  5
1F9
100
AcDbSymbolTableRecord
100
AcDbLinetypeTableRecord
  2
DASHED
 70
64
  3
- - - - - - - - - - - - - - - - - - - -
 72
65
 73
2
 40
0.2
 49
0.1
 74
0
 49
-0.1
 74
0
  0
ENDTAB
  0
TABLE
  2
LAYER
  5
2
100
AcDbSymbolTable
 70
36
  0
LAYER
  5
10
100
AcDbSymbolTableRecord
100
AcDbLayerTableRecord
  2
0
 70
0
 62
7
  6
CONTINUOUS
  0
LAYER
  5
1FA
100
AcDbSymbolTableRecord
100
AcDbLayerTableRecord
  2
DEFAULT_1
 70
0
 62
7
  6
CENTER
  0
LAYER
  5
1FB
100
AcDbSymbolTableRecord
100
AcDbLayerTableRecord
  2
DEFAULT_2
 70
0
 62
8
  6
HIDDEN
  0
LAYER
  5
1FC
100
AcDbSymbolTableRecord
100
AcDbLayerTableRecord
  2
DEFAULT_3
 70
0
 62
7
  6
PHANTOM
  0
LAYER
  5
1FD
100
AcDbSymbolTableRecord
100
AcDbLayerTableRecord
  2
01_ALL_DTM_PLN
 70
0
 62
7
  6
CONTINUOUS
  0
LAYER
  5
1FE
100
AcDbSymbolTableRecord
100
AcDbLayerTableRecord
  2
01__ASM_ALL_DTM_PLN
 70
0
 62
7
  6
CONTINUOUS
  0
LAYER
  5
1FF
100
AcDbSymbolTableRecord
100
AcDbLayerTableRecord
  2
01__ASM_DEF_DTM_PLN
 70
0
 62
7
  6
CONTINUOUS
  0
LAYER
  5
200
100
AcDbSymbolTableRecord
100
AcDbLayerTableRecord
  2
01___PRT_ALL_DTM_PLN
 70
0
 62
7
  6
CONTINUOUS
  0
LAYER
  5
201
100
AcDbSymbolTableRecord
100
AcDbLayerTableRecord
  2
01___PRT_DEF_DTM_PLN
 70
0
 62
7
  6
CONTINUOUS
  0
LAYER
  5
202
100
AcDbSymbolTableRecord
100
AcDbLayerTableRecord
  2
02_ALL_AXES
 70
0
 62
7
  6
CONTINUOUS
  0
LAYER
  5
203
100
AcDbSymbolTableRecord
100
AcDbLayerTableRecord
  2
02__ASM_ALL_AXES
 70
0
 62
7
  6
CONTINUOUS
  0
LAYER
  5
204
100
AcDbSymbolTableRecord
100
AcDbLayerTableRecord
  2
02___PRT_ALL_AXES
 70
0
 62
7
  6
CONTINUOUS
  0
LAYER
  5
205
100
AcDbSymbolTableRecord
100
AcDbLayerTableRecord
  2
03_ALL_CURVES
 70
0
 62
7
  6
CONTINUOUS
  0
LAYER
  5
206
100
AcDbSymbolTableRecord
100
AcDbLayerTableRecord
  2
03__ASM_ALL_CURVES
 70
0
 62
7
  6
CONTINUOUS
  0
LAYER
  5
207
100
AcDbSymbolTableRecord
100
AcDbLayerTableRecord
  2
03___PRT_ALL_CURVES
 70
0
 62
7
  6
CONTINUOUS
  0
LAYER
  5
208
100
AcDbSymbolTableRecord
100
AcDbLayerTableRecord
  2
04_ALL_DTM_PNT
 70
0
 62
7
  6
CONTINUOUS
  0
LAYER
  5
209
100
AcDbSymbolTableRecord
100
AcDbLayerTableRecord
  2
04__ASM_ALL_DTM_PNT
 70
0
 62
7
  6
CONTINUOUS
  0
LAYER
  5
20A
100
AcDbSymbolTableRecord
100
AcDbLayerTableRecord
  2
04___PRT_ALL_DTM_PNT
 70
0
 62
7
  6
CONTINUOUS
  0
LAYER
  5
20B
100
AcDbSymbolTableRecord
100
AcDbLayerTableRecord
  2
05_ALL_DTM_CSYS
 70
0
 62
7
  6
CONTINUOUS
  0
LAYER
  5
20C
100
AcDbSymbolTableRecord
100
AcDbLayerTableRecord
  2
05__ASM_ALL_DTM_CSYS
 70
0
 62
7
  6
CONTINUOUS
  0
LAYER
  5
20D
100
AcDbSymbolTableRecord
100
AcDbLayerTableRecord
  2
05__ASM_DEF_DTM_CSYS
 70
0
 62
7
  6
CONTINUOUS
  0
LAYER
  5
20E
100
AcDbSymbolTableRecord
100
AcDbLayerTableRecord
  2
05___PRT_ALL_DTM_CSYS
 70
0
 62
7
  6
CONTINUOUS
  0
LAYER
  5
20F
100
AcDbSymbolTableRecord
100
AcDbLayerTableRecord
  2
05___PRT_DEF_DTM_CSYS
 70
0
 62
7
  6
CONTINUOUS
  0
LAYER
  5
210
100
AcDbSymbolTableRecord
100
AcDbLayerTableRecord
  2
06_ALL_SURFS
 70
0
 62
7
  6
CONTINUOUS
  0
LAYER
  5
211
100
AcDbSymbolTableRecord
100
AcDbLayerTableRecord
  2
06__ASM_ALL_SURFS
 70
0
 62
7
  6
CONTINUOUS
  0
LAYER
  5
212
100
AcDbSymbolTableRecord
100
AcDbLayerTableRecord
  2
06___PRT_ALL_SURFS
 70
0
 62
7
  6
CONTINUOUS
  0
LAYER
  5
213
100
AcDbSymbolTableRecord
100
AcDbLayerTableRecord
  2
07__ASM_ALL_SKELETONS
 70
0
 62
7
  6
CONTINUOUS
  0
LAYER
  5
214
100
AcDbSymbolTableRecord
100
AcDbLayerTableRecord
  2
1_ALL_PLANES
 70
0
 62
7
  6
CONTINUOUS
  0
LAYER
  5
215
100
AcDbSymbolTableRecord
100
AcDbLayerTableRecord
  2
2_ALL_CSYS
 70
0
 62
7
  6
CONTINUOUS
  0
LAYER
  5
216
100
AcDbSymbolTableRecord
100
AcDbLayerTableRecord
  2
3_ALL_AXES
 70
0
 62
7
  6
CONTINUOUS
  0
LAYER
  5
217
100
AcDbSymbolTableRecord
100
AcDbLayerTableRecord
  2
4_ALL_POINTS
 70
0
 62
7
  6
CONTINUOUS
  0
LAYER
  5
218
100
AcDbSymbolTableRecord
100
AcDbLayerTableRecord
  2
5_ALL_CURVES
 70
0
 62
7
  6
CONTINUOUS
  0
LAYER
  5
219
100
AcDbSymbolTableRecord
100
AcDbLayerTableRecord
  2
6_ALL_SURFS
 70
0
 62
7
  6
CONTINUOUS
  0
LAYER
  5
21A
100
AcDbSymbolTableRecord
100
AcDbLayerTableRecord
  2
7_ALL_FEATURES
 70
0
 62
7
  6
CONTINUOUS
  0
LAYER
  5
21B
100
AcDbSymbolTableRecord
100
AcDbLayerTableRecord
  2
9_SOLID
 70
0
 62
7
  6
CONTINUOUS
  0
LAYER
  5
21C
100
AcDbSymbolTableRecord
100
AcDbLayerTableRecord
  2
GRAFICA
 70
0
 62
7
  6
CONTINUOUS
  0
LAYER
  5
21D
100
AcDbSymbolTableRecord
100
AcDbLayerTableRecord
  2
INTFCLR_2
 70
0
 62
7
  6
CONTINUOUS
  0
LAYER
  5
21E
100
AcDbSymbolTableRecord
100
AcDbLayerTableRecord
  2
INTFCLR_3
 70
0
 62
7
  6
CONTINUOUS
  0
LAYER
  5
21F
100
AcDbSymbolTableRecord
100
AcDbLayerTableRecord
  2
INTF_CYAN
 70
0
 62
7
  6
CONTINUOUS
  0
LAYER
  5
220
100
AcDbSymbolTableRecord
100
AcDbLayerTableRecord
  2
XXX_SOLIDO
 70
0
 62
7
  6
CONTINUOUS
  0
ENDTAB
  0
TABLE
  2
STYLE
  5
3
100
AcDbSymbolTable
 70
1
  0
STYLE
  5
11
100
AcDbSymbolTableRecord
100
AcDbTextStyleTableRecord
  2
STANDARD
 70
0
 40
0.0
 41
1.0
 50
0.0
 71
0
 42
0.2
  3
arial.ttf
  4

  0
STYLE
  5
221
100
AcDbSymbolTableRecord
100
AcDbTextStyleTableRecord
  2
TEXTSTYLE_1
 70
0
 40
0.0
 41
0.8
 50
0.0
 71
0
 42
0.2
  3
gdt
  4

  0
STYLE
  5
222
100
AcDbSymbolTableRecord
100
AcDbTextStyleTableRecord
  2
TEXTSTYLE_2
 70
0
 40
0.0
 41
0.85
 50
0.0
 71
0
 42
0.2
  3
gdt
  4

  0
STYLE
  5
223
100
AcDbSymbolTableRecord
100
AcDbTextStyleTableRecord
  2
TEXTSTYLE_3
 70
0
 40
0.0
 41
0.85
 50
0.0
 71
0
 42
0.2
  3
txt
  4

  0
ENDTAB
  0
TABLE
  2
VIEW
  5
6
100
AcDbSymbolTable
 70
0
  0
ENDTAB
  0
TABLE
  2
UCS
  5
7
100
AcDbSymbolTable
 70
0
  0
ENDTAB
  0
TABLE
  2
APPID
  5
9
100
AcDbSymbolTable
 70
1
  0
APPID
  5
224
100
AcDbSymbolTableRecord
100
AcDbRegAppTableRecord
  2
ACAD
 70
0
  0
ENDTAB
  0
TABLE
  2
BLOCK_RECORD
  5
1
100
AcDbSymbolTable
 70
0
  0
BLOCK_RECORD
  5
1F
100
AcDbSymbolTableRecord
100
AcDbBlockTableRecord
  2
*MODEL_SPACE
  0
BLOCK_RECORD
  5
1B
100
AcDbSymbolTableRecord
100
AcDbBlockTableRecord
  2
*PAPER_SPACE
  0
BLOCK_RECORD
  5
225
100
AcDbSymbolTableRecord
100
AcDbBlockTableRecord
  2
_CLOSED
  0
BLOCK_RECORD
  5
226
100
AcDbSymbolTableRecord
100
AcDbBlockTableRecord
  2
*D0
  0
BLOCK_RECORD
  5
227
100
AcDbSymbolTableRecord
100
AcDbBlockTableRecord
  2
*D1
  0
BLOCK_RECORD
  5
228
100
AcDbSymbolTableRecord
100
AcDbBlockTableRecord
  2
*D2
  0
BLOCK_RECORD
  5
229
100
AcDbSymbolTableRecord
100
AcDbBlockTableRecord
  2
*D3
  0
BLOCK_RECORD
  5
22A
100
AcDbSymbolTableRecord
100
AcDbBlockTableRecord
  2
*D4
  0
BLOCK_RECORD
  5
22B
100
AcDbSymbolTableRecord
100
AcDbBlockTableRecord
  2
*D5
  0
BLOCK_RECORD
  5
22C
100
AcDbSymbolTableRecord
100
AcDbBlockTableRecord
  2
LOGO2_BL0
  0
ENDTAB
  0
TABLE
  2
DIMSTYLE
  5
A
100
AcDbSymbolTable
 70
1
  0
DIMSTYLE
105
22D
100
AcDbSymbolTableRecord
100
AcDbDimStyleTableRecord
  2
STANDARD
 70
0
  3

  4

  5
_CLOSED
  6
_CLOSED
  7
_CLOSED
 40
1.0
 41
2.5
 42
0.75
 43
0.38
 44
0.75
 45
0.0
 46
0.0
 47
0.01
 48
0.01
140
3.0
141
0.09
142
0.0
143
25.4
144
1.0
145
0.0
146
1.0
147
0.625
 71
1.0
 72
0.0
 73
0
 74
0
 75
0
 76
0
 77
1
 78
8
 79
2
170
0
171
1
172
0
173
0
174
0
175
0
176
0
177
0
178
0
270
2
179
2
271
2
272
2
273
2
274
2
275
0
280
0
281
0
282
0
283
1
284
8
285
0
286
0
287
3
288
0
340
11
  0
DIMSTYLE
105
22E
100
AcDbSymbolTableRecord
100
AcDbDimStyleTableRecord
  2
DIMSTYLE_1
 70
0
  3

  4

  5
_CLOSED
  6
_CLOSED
  7
_CLOSED
 40
1.0
 41
2.5
 42
0.75
 43
0.38
 44
0.75
 45
0.0
 46
0.0
 47
0.3
 48
0.3
140
3.0
141
0.09
142
0.0
143
25.4
144
1.0
145
0.0
146
1.0
147
0.75
 71
0.0
 72
0.0
 73
0
 74
0
 75
0
 76
0
 77
1
 78
8
 79
2
170
0
171
1
172
0
173
0
174
0
175
0
176
0
177
0
178
0
270
2
179
2
271
2
272
2
273
2
274
2
275
0
280
0
281
0
282
0
283
1
284
8
285
0
286
0
287
3
288
0
340
11
  0
DIMSTYLE
105
22F
100
AcDbSymbolTableRecord
100
AcDbDimStyleTableRecord
  2
DIMSTYLE_2
 70
0
  3

  4

  5
_CLOSED
  6
_CLOSED
  7
_CLOSED
 40
1.0
 41
2.5
 42
0.75
 43
0.38
 44
0.75
 45
0.0
 46
0.0
 47
0.2
 48
0.2
140
3.0
141
0.09
142
0.0
143
25.4
144
1.0
145
0.0
146
1.0
147
0.75
 71
0.0
 72
0.0
 73
0
 74
0
 75
0
 76
0
 77
1
 78
8
 79
2
170
0
171
1
172
0
173
0
174
0
175
0
176
0
177
0
178
0
270
2
179
2
271
2
272
2
273
2
274
2
275
0
280
0
281
0
282
0
283
1
284
8
285
0
286
0
287
3
288
0
340
11
  0
ENDTAB
  0
ENDSEC
  0
SECTION
  2
BLOCKS
  0
BLOCK
  5
20
100
AcDbEntity
  8
0
100
AcDbBlockBegin
  2
*MODEL_SPACE
 70
0
 10
0.0
 20
0.0
 30
0.0
  3
*MODEL_SPACE
  1

  0
ENDBLK
  5
21
100
AcDbEntity
  8
0
100
AcDbBlockEnd
  0
BLOCK
  5
1C
100
AcDbEntity
  8
0
100
AcDbBlockBegin
  2
*PAPER_SPACE
 70
0
 10
0.0
 20
0.0
 30
0.0
  3
*PAPER_SPACE
  1

  0
ENDBLK
  5
1D
100
AcDbEntity
  8
0
100
AcDbBlockEnd
  0
BLOCK
  5
230
100
AcDbEntity
  8
0
100
AcDbBlockBegin
 62
2
  6
CONTINUOUS
  2
LOGO2_BL0
 70
64
 10
333.6475659158
 20
36.9217920391
  3
LOGO2_BL0
  1

  0
LINE
  5
231
100
AcDbEntity
  8
0
100
AcDbLine
 62
7
  6
CONTINUOUS
 10
325.390491144
 20
40.1172833779
 11
324.0861502147
 21
40.1172833779
  0
LINE
  5
232
100
AcDbEntity
  8
0
100
AcDbLine
 62
7
  6
CONTINUOUS
 10
324.0861502147
 20
40.1172833779
 11
324.0861502147
 21
29.6582173181
  0
LINE
  5
233
100
AcDbEntity
  8
0
100
AcDbLine
 62
7
  6
CONTINUOUS
 10
324.0861502147
 20
29.6582173181
 11
328.567205103
 21
29.6582173181
  0
LINE
  5
234
100
AcDbEntity
  8
0
100
AcDbLine
 62
7
  6
CONTINUOUS
 10
328.567205103
 20
29.6582173181
 11
328.567205103
 21
30.8510716431
  0
LINE
  5
235
100
AcDbEntity
  8
0
100
AcDbLine
 62
7
  6
CONTINUOUS
 10
328.567205103
 20
30.8510716431
 11
325.390491144
 21
30.8510716431
  0
LINE
  5
236
100
AcDbEntity
  8
0
100
AcDbLine
 62
7
  6
CONTINUOUS
 10
325.390491144
 20
30.8510716431
 11
325.390491144
 21
40.1172833779
  0
LINE
  5
237
100
AcDbEntity
  8
0
100
AcDbLine
 62
7
  6
CONTINUOUS
 10
340.3268173604
 20
40.1172833779
 11
339.0229998423
 21
40.1172833779
  0
LINE
  5
238
100
AcDbEntity
  8
0
100
AcDbLine
 62
7
  6
CONTINUOUS
 10
339.0229998423
 20
40.1172833779
 11
339.0229998423
 21
29.6582173181
  0
LINE
  5
239
100
AcDbEntity
  8
0
100
AcDbLine
 62
7
  6
CONTINUOUS
 10
339.0229998423
 20
29.6582173181
 11
343.5041855834
 21
29.6582173181
  0
LINE
  5
23A
100
AcDbEntity
  8
0
100
AcDbLine
 62
7
  6
CONTINUOUS
 10
343.5041855834
 20
29.6582173181
 11
343.5041855834
 21
30.8510716431
  0
LINE
  5
23B
100
AcDbEntity
  8
0
100
AcDbLine
 62
7
  6
CONTINUOUS
 10
343.5041855834
 20
30.8510716431
 11
340.3268173604
 21
30.8510716431
  0
LINE
  5
23C
100
AcDbEntity
  8
0
100
AcDbLine
 62
7
  6
CONTINUOUS
 10
340.3268173604
 20
30.8510716431
 11
340.3268173604
 21
40.1172833779
  0
LWPOLYLINE
  5
23D
100
AcDbEntity
  8
0
100
AcDbPolyline
 62
7
  6
CONTINUOUS
 90
2
 70
0
 43
0.2
 10
322.4405451256
 20
26.3146660112
 10
322.4405451256
 20
24.4576027618
  0
LWPOLYLINE
  5
23E
100
AcDbEntity
  8
0
100
AcDbPolyline
 62
7
  6
CONTINUOUS
 90
2
 70
0
 43
0.2
 10
322.4405451256
 20
24.4576027618
 10
323.236261136
 20
24.4576027618
  0
LWPOLYLINE
  5
23F
100
AcDbEntity
  8
0
100
AcDbPolyline
 62
7
  6
CONTINUOUS
 90
2
 70
0
 43
0.2
 10
323.236261136
 20
24.4576027618
 10
323.236261136
 20
24.6695843334
  0
LWPOLYLINE
  5
240
100
AcDbEntity
  8
0
100
AcDbPolyline
 62
7
  6
CONTINUOUS
 90
2
 70
0
 43
0.2
 10
323.236261136
 20
24.6695843334
 10
322.6721546205
 20
24.6695843334
  0
LWPOLYLINE
  5
241
100
AcDbEntity
  8
0
100
AcDbPolyline
 62
7
  6
CONTINUOUS
 90
2
 70
0
 43
0.2
 10
322.6721546205
 20
24.6695843334
 10
322.6721546205
 20
26.3146660112
  0
LWPOLYLINE
  5
242
100
AcDbEntity
  8
0
100
AcDbPolyline
 62
7
  6
CONTINUOUS
 90
2
 70
0
 43
0.2
 10
322.6721546205
 20
26.3146660112
 10
322.4405451256
 20
26.3146660112
  0
SPLINE
  5
243
100
AcDbEntity
  8
0
100
AcDbSpline
 62
7
  6
CONTINUOUS
 70
2
 71
3
 72
35
 73
31
 74
0
 42
0.0000001
 43
0.0000001
 44
0.0000000001
 40
0.0
 40
0.0
 40
0.0
 40
0.0
 40
1.0
 40
1.0
 40
1.0
 40
2.0
 40
2.0
 40
2.0
 40
3.0
 40
3.0
 40
3.0
 40
4.0
 40
4.0
 40
4.0
 40
5.0
 40
5.0
 40
5.0
 40
6.0
 40
6.0
 40
6.0
 40
7.0
 40
7.0
 40
7.0
 40
8.0
 40
8.0
 40
8.0
 40
9.0
 40
9.0
 40
9.0
 40
10.0
 40
10.0
 40
10.0
 40
10.0
 10
324.6345543915
 20
25.6101544177
 30
0.0
 10
324.6345543915
 20
25.6101544177
 30
0.0
 10
324.6345543915
 20
24.9480391385
 30
0.0
 10
324.6345543915
 20
24.9480391385
 30
0.0
 10
324.6345543915
 20
24.6329455432
 30
0.0
 10
324.7824180804
 20
24.4183469152
 30
0.0
 10
325.1225045647
 20
24.4183469152
 30
0.0
 10
325.4620676377
 20
24.4183469152
 30
0.0
 10
325.6101930321
 20
24.6329455432
 30
0.0
 10
325.6101930321
 20
24.9480391385
 30
0.0
 10
325.6101930321
 20
24.9480391385
 30
0.0
 10
325.6101930321
 20
25.6101544177
 30
0.0
 10
325.6101930321
 20
25.6101544177
 30
0.0
 10
325.6101930321
 20
25.6101544177
 30
0.0
 10
325.3881357933
 20
25.6101544177
 30
0.0
 10
325.3881357933
 20
25.6101544177
 30
0.0
 10
325.3881357933
 20
25.6101544177
 30
0.0
 10
325.3881357933
 20
24.9731628803
 30
0.0
 10
325.3881357933
 20
24.9731628803
 30
0.0
 10
325.3881357933
 20
24.7873518732
 30
0.0
 10
325.3414213358
 20
24.6245709626
 30
0.0
 10
325.1225045647
 20
24.6245709626
 30
0.0
 10
324.9030643822
 20
24.6245709626
 30
0.0
 10
324.8563499248
 20
24.7873518732
 30
0.0
 10
324.8563499248
 20
24.9731628803
 30
0.0
 10
324.8563499248
 20
24.9731628803
 30
0.0
 10
324.8563499248
 20
25.6101544177
 30
0.0
 10
324.8563499248
 20
25.6101544177
 30
0.0
 10
324.8563499248
 20
25.6101544177
 30
0.0
 10
324.6345543915
 20
25.6101544177
 30
0.0
 10
324.6345543915
 20
25.6101544177
 30
0.0
  0
SPLINE
  5
244
100
AcDbEntity
  8
0
100
AcDbSpline
 62
7
  6
CONTINUOUS
 70
2
 71
3
 72
35
 73
31
 74
0
 42
0.0000001
 43
0.0000001
 44
0.0000000001
 40
0.0
 40
0.0
 40
0.0
 40
0.0
 40
1.0
 40
1.0
 40
1.0
 40
2.0
 40
2.0
 40
2.0
 40
3.0
 40
3.0
 40
3.0
 40
4.0
 40
4.0
 40
4.0
 40
5.0
 40
5.0
 40
5.0
 40
6.0
 40
6.0
 40
6.0
 40
7.0
 40
7.0
 40
7.0
 40
8.0
 40
8.0
 40
8.0
 40
9.0
 40
9.0
 40
9.0
 40
10.0
 40
10.0
 40
10.0
 40
10.0
 10
328.0333255893
 20
25.5688049259
 30
0.0
 10
327.9448690817
 20
25.6200992322
 30
0.0
 10
327.831419685
 20
25.645222974
 30
0.0
 10
327.72778425
 20
25.645222974
 30
0.0
 10
327.3729113969
 20
25.645222974
 30
0.0
 10
327.0974662066
 20
25.3814236849
 30
0.0
 10
327.0974662066
 20
25.0239337753
 30
0.0
 10
327.0974662066
 20
24.6790057366
 30
0.0
 10
327.3759210118
 20
24.4188703265
 30
0.0
 10
327.7154840848
 20
24.4188703265
 30
0.0
 10
327.831419685
 20
24.4188703265
 30
0.0
 10
327.9321763579
 20
24.4408536006
 30
0.0
 10
328.0333255893
 20
24.4947649632
 30
0.0
 10
328.0333255893
 20
24.4947649632
 30
0.0
 10
328.0333255893
 20
24.7774070587
 30
0.0
 10
328.0333255893
 20
24.7774070587
 30
0.0
 10
327.9494489304
 20
24.6842398494
 30
0.0
 10
327.8459443483
 20
24.6250943739
 30
0.0
 10
327.7178394356
 20
24.6250943739
 30
0.0
 10
327.4841362955
 20
24.6250943739
 30
0.0
 10
327.3188691814
 20
24.7972966876
 30
0.0
 10
327.3188691814
 20
25.0338785897
 30
0.0
 10
327.3188691814
 20
25.2458601613
 30
0.0
 10
327.4866224991
 20
25.437952104
 30
0.0
 10
327.7034456251
 20
25.437952104
 30
0.0
 10
327.8362612394
 20
25.437952104
 30
0.0
 10
327.9448690817
 20
25.3840407413
 30
0.0
 10
328.0333255893
 20
25.2830223628
 30
0.0
 10
328.0333255893
 20
25.2830223628
 30
0.0
 10
328.0333255893
 20
25.5688049259
 30
0.0
 10
328.0333255893
 20
25.5688049259
 30
0.0
  0
SPLINE
  5
245
100
AcDbEntity
  8
0
100
AcDbSpline
 62
7
  6
CONTINUOUS
 70
2
 71
3
 72
32
 73
28
 74
0
 42
0.0000001
 43
0.0000001
 44
0.0000000001
 40
0.0
 40
0.0
 40
0.0
 40
0.0
 40
1.0
 40
1.0
 40
1.0
 40
2.0
 40
2.0
 40
2.0
 40
3.0
 40
3.0
 40
3.0
 40
4.0
 40
4.0
 40
4.0
 40
5.0
 40
5.0
 40
5.0
 40
6.0
 40
6.0
 40
6.0
 40
7.0
 40
7.0
 40
7.0
 40
8.0
 40
8.0
 40
8.0
 40
9.0
 40
9.0
 40
9.0
 40
9.0
 10
330.5651968416
 20
24.9972397996
 30
0.0
 10
330.5651968416
 20
24.9972397996
 30
0.0
 10
330.5651968416
 20
25.0312615333
 30
0.0
 10
330.5651968416
 20
25.0312615333
 30
0.0
 10
330.5651968416
 20
25.3735725156
 30
0.0
 10
330.3923402638
 20
25.645222974
 30
0.0
 10
330.0256906566
 20
25.645222974
 30
0.0
 10
329.6540686422
 20
25.645222974
 30
0.0
 10
329.4643320504
 20
25.3788066284
 30
0.0
 10
329.4643320504
 20
25.0239337753
 30
0.0
 10
329.4643320504
 20
24.6842398494
 30
0.0
 10
329.6784072671
 20
24.4183469152
 30
0.0
 10
330.030532211
 20
24.4183469152
 30
0.0
 10
330.2545522422
 20
24.4183469152
 30
0.0
 10
330.4567198522
 20
24.5340208098
 30
0.0
 10
330.5651968416
 20
24.7334405105
 30
0.0
 10
330.5651968416
 20
24.7334405105
 30
0.0
 10
330.3775538949
 20
24.8402164132
 30
0.0
 10
330.3775538949
 20
24.8402164132
 30
0.0
 10
330.2940697945
 20
24.7015124219
 30
0.0
 10
330.2028653775
 20
24.6156729707
 30
0.0
 10
330.0332801203
 20
24.6156729707
 30
0.0
 10
329.8212985487
 20
24.6156729707
 30
0.0
 10
329.6883520816
 20
24.8004371554
 30
0.0
 10
329.6859967308
 20
24.9972397996
 30
0.0
 10
329.6859967308
 20
24.9972397996
 30
0.0
 10
330.5651968416
 20
24.9972397996
 30
0.0
 10
330.5651968416
 20
24.9972397996
 30
0.0
  0
SPLINE
  5
246
100
AcDbEntity
  8
0
100
AcDbSpline
 62
7
  6
CONTINUOUS
 70
2
 71
3
 72
14
 73
10
 74
0
 42
0.0000001
 43
0.0000001
 44
0.0000000001
 40
0.0
 40
0.0
 40
0.0
 40
0.0
 40
1.0
 40
1.0
 40
1.0
 40
2.0
 40
2.0
 40
2.0
 40
3.0
 40
3.0
 40
3.0
 40
3.0
 10
329.6980351904
 20
25.1647314117
 30
0.0
 10
329.7256451358
 20
25.3296059674
 30
0.0
 10
329.8534883429
 20
25.45260762
 30
0.0
 10
330.0256906566
 20
25.45260762
 30
0.0
 10
330.2028653775
 20
25.45260762
 30
0.0
 10
330.3163147742
 20
25.3369337254
 30
0.0
 10
330.3435321612
 20
25.1647314117
 30
0.0
 10
330.3435321612
 20
25.1647314117
 30
0.0
 10
329.6980351904
 20
25.1647314117
 30
0.0
 10
329.6980351904
 20
25.1647314117
 30
0.0
  0
SPLINE
  5
247
100
AcDbEntity
  8
0
100
AcDbSpline
 62
7
  6
CONTINUOUS
 70
2
 71
3
 72
20
 73
16
 74
0
 42
0.0000001
 43
0.0000001
 44
0.0000000001
 40
0.0
 40
0.0
 40
0.0
 40
0.0
 40
1.0
 40
1.0
 40
1.0
 40
2.0
 40
2.0
 40
2.0
 40
3.0
 40
3.0
 40
3.0
 40
4.0
 40
4.0
 40
4.0
 40
5.0
 40
5.0
 40
5.0
 40
5.0
 10
332.5892282918
 20
25.3740959269
 30
0.0
 10
332.5892282918
 20
25.3740959269
 30
0.0
 10
333.0003678584
 20
24.8716210905
 30
0.0
 10
333.0003678584
 20
24.8716210905
 30
0.0
 10
332.8843014053
 20
24.7559471959
 30
0.0
 10
332.7465133838
 20
24.6256177852
 30
0.0
 10
332.5745727757
 20
24.6256177852
 30
0.0
 10
332.3971363491
 20
24.6256177852
 30
0.0
 10
332.229644737
 20
24.7899689296
 30
0.0
 10
332.229644737
 20
24.9668819449
 30
0.0
 10
332.229644737
 20
25.1448417828
 30
0.0
 10
332.4394018106
 20
25.2709839031
 30
0.0
 10
332.566983312
 20
25.3589169995
 30
0.0
 10
332.566983312
 20
25.3589169995
 30
0.0
 10
332.5892282918
 20
25.3740959269
 30
0.0
 10
332.5892282918
 20
25.3740959269
 30
0.0
  0
SPLINE
  5
248
100
AcDbEntity
  8
0
100
AcDbSpline
 62
7
  6
CONTINUOUS
 70
2
 71
3
 72
23
 73
19
 74
0
 42
0.0000001
 43
0.0000001
 44
0.0000000001
 40
0.0
 40
0.0
 40
0.0
 40
0.0
 40
1.0
 40
1.0
 40
1.0
 40
2.0
 40
2.0
 40
2.0
 40
3.0
 40
3.0
 40
3.0
 40
4.0
 40
4.0
 40
4.0
 40
5.0
 40
5.0
 40
5.0
 40
6.0
 40
6.0
 40
6.0
 40
6.0
 10
332.6385598056
 20
25.6651126029
 30
0.0
 10
332.6385598056
 20
25.6651126029
 30
0.0
 10
332.5769281265
 20
25.7436242961
 30
0.0
 10
332.5769281265
 20
25.7436242961
 30
0.0
 10
332.5230167639
 20
25.8121911748
 30
0.0
 10
332.4662266391
 20
25.8812814648
 30
0.0
 10
332.4662266391
 20
25.9749720853
 30
0.0
 10
332.4662266391
 20
26.0937864477
 30
0.0
 10
332.5621417576
 20
26.1712513183
 30
0.0
 10
332.6731049506
 20
26.1712513183
 30
0.0
 10
332.7963683089
 20
26.1712513183
 30
0.0
 10
332.889666371
 20
26.1000673831
 30
0.0
 10
332.889666371
 20
25.9697379725
 30
0.0
 10
332.889666371
 20
25.8346978602
 30
0.0
 10
332.7615614583
 20
25.7582798122
 30
0.0
 10
332.6680016906
 20
25.6844788206
 30
0.0
 10
332.6680016906
 20
25.6844788206
 30
0.0
 10
332.6385598056
 20
25.6651126029
 30
0.0
 10
332.6385598056
 20
25.6651126029
 30
0.0
  0
SPLINE
  5
249
100
AcDbEntity
  8
0
100
AcDbSpline
 62
7
  6
CONTINUOUS
 70
2
 71
3
 72
50
 73
46
 74
0
 42
0.0000001
 43
0.0000001
 44
0.0000000001
 40
0.0
 40
0.0
 40
0.0
 40
0.0
 40
1.0
 40
1.0
 40
1.0
 40
2.0
 40
2.0
 40
2.0
 40
3.0
 40
3.0
 40
3.0
 40
4.0
 40
4.0
 40
4.0
 40
5.0
 40
5.0
 40
5.0
 40
6.0
 40
6.0
 40
6.0
 40
7.0
 40
7.0
 40
7.0
 40
8.0
 40
8.0
 40
8.0
 40
9.0
 40
9.0
 40
9.0
 40
10.0
 40
10.0
 40
10.0
 40
11.0
 40
11.0
 40
11.0
 40
12.0
 40
12.0
 40
12.0
 40
13.0
 40
13.0
 40
13.0
 40
14.0
 40
14.0
 40
14.0
 40
15.0
 40
15.0
 40
15.0
 40
15.0
 10
333.3407160483
 20
24.4581261731
 30
0.0
 10
333.3407160483
 20
24.4581261731
 30
0.0
 10
333.626106053
 20
24.4581261731
 30
0.0
 10
333.626106053
 20
24.4581261731
 30
0.0
 10
333.626106053
 20
24.4581261731
 30
0.0
 10
333.2937398852
 20
24.8690040341
 30
0.0
 10
333.2937398852
 20
24.8690040341
 30
0.0
 10
333.2937398852
 20
24.8690040341
 30
0.0
 10
333.5202461201
 20
25.1348969683
 30
0.0
 10
333.5202461201
 20
25.1348969683
 30
0.0
 10
333.5202461201
 20
25.1348969683
 30
0.0
 10
333.3719898728
 20
25.2877330644
 30
0.0
 10
333.3719898728
 20
25.2877330644
 30
0.0
 10
333.3719898728
 20
25.2877330644
 30
0.0
 10
333.1560827165
 20
25.0364956462
 30
0.0
 10
333.1560827165
 20
25.0364956462
 30
0.0
 10
333.1560827165
 20
25.0364956462
 30
0.0
 10
332.7690200692
 20
25.5044253375
 30
0.0
 10
332.7690200692
 20
25.5044253375
 30
0.0
 10
332.9244732216
 20
25.6185289983
 30
0.0
 10
333.1067512026
 20
25.7582798122
 30
0.0
 10
333.1067512026
 20
25.9676443273
 30
0.0
 10
333.1067512026
 20
26.2115539874
 30
0.0
 10
332.9047144455
 20
26.3549686803
 30
0.0
 10
332.6782082107
 20
26.3549686803
 30
0.0
 10
332.4340368449
 20
26.3549686803
 30
0.0
 10
332.2496652188
 20
26.2042262294
 30
0.0
 10
332.2496652188
 20
25.9477546984
 30
0.0
 10
332.2496652188
 20
25.7902079007
 30
0.0
 10
332.3483282465
 20
25.652550732
 30
0.0
 10
332.4536647682
 20
25.541587539
 30
0.0
 10
332.4536647682
 20
25.541587539
 30
0.0
 10
332.3381217264
 20
25.4578417329
 30
0.0
 10
332.3381217264
 20
25.4578417329
 30
0.0
 10
332.1604235942
 20
25.3296059674
 30
0.0
 10
332.0130833166
 20
25.2018936131
 30
0.0
 10
332.0130833166
 20
24.9647882997
 30
0.0
 10
332.0130833166
 20
24.6444605916
 30
0.0
 10
332.2716484929
 20
24.4183469152
 30
0.0
 10
332.5820313866
 20
24.4183469152
 30
0.0
 10
332.8009481577
 20
24.4183469152
 30
0.0
 10
332.9981433604
 20
24.543442213
 30
0.0
 10
333.1384175856
 20
24.7093635913
 30
0.0
 10
333.1384175856
 20
24.7093635913
 30
0.0
 10
333.3407160483
 20
24.4581261731
 30
0.0
 10
333.3407160483
 20
24.4581261731
 30
0.0
  0
LWPOLYLINE
  5
24A
100
AcDbEntity
  8
0
100
AcDbPolyline
 62
7
  6
CONTINUOUS
 90
2
 70
0
 43
0.2
 10
335.276160138
 20
26.3146660112
 10
335.0448123488
 20
26.3146660112
  0
LWPOLYLINE
  5
24B
100
AcDbEntity
  8
0
100
AcDbPolyline
 62
7
  6
CONTINUOUS
 90
2
 70
0
 43
0.2
 10
335.0448123488
 20
26.3146660112
 10
335.0448123488
 20
24.4576027618
  0
LWPOLYLINE
  5
24C
100
AcDbEntity
  8
0
100
AcDbPolyline
 62
7
  6
CONTINUOUS
 90
2
 70
0
 43
0.2
 10
335.0448123488
 20
24.4576027618
 10
335.8401358007
 20
24.4576027618
  0
LWPOLYLINE
  5
24D
100
AcDbEntity
  8
0
100
AcDbPolyline
 62
7
  6
CONTINUOUS
 90
2
 70
0
 43
0.2
 10
335.8401358007
 20
24.4576027618
 10
335.8401358007
 20
24.6695843334
  0
LWPOLYLINE
  5
24E
100
AcDbEntity
  8
0
100
AcDbPolyline
 62
7
  6
CONTINUOUS
 90
2
 70
0
 43
0.2
 10
335.8401358007
 20
24.6695843334
 10
335.276160138
 20
24.6695843334
  0
LWPOLYLINE
  5
24F
100
AcDbEntity
  8
0
100
AcDbPolyline
 62
7
  6
CONTINUOUS
 90
2
 70
0
 43
0.2
 10
335.276160138
 20
24.6695843334
 10
335.276160138
 20
26.3146660112
  0
LWPOLYLINE
  5
250
100
AcDbEntity
  8
0
100
AcDbPolyline
 62
7
  6
CONTINUOUS
 90
2
 70
0
 43
0.2
 10
337.5192392122
 20
25.6101544177
 10
337.2980979431
 20
25.6101544177
  0
LWPOLYLINE
  5
251
100
AcDbEntity
  8
0
100
AcDbPolyline
 62
7
  6
CONTINUOUS
 90
2
 70
0
 43
0.2
 10
337.2980979431
 20
25.6101544177
 10
337.2980979431
 20
24.4581261731
  0
LWPOLYLINE
  5
252
100
AcDbEntity
  8
0
100
AcDbPolyline
 62
7
  6
CONTINUOUS
 90
2
 70
0
 43
0.2
 10
337.2980979431
 20
24.4581261731
 10
337.5192392122
 20
24.4581261731
  0
LWPOLYLINE
  5
253
100
AcDbEntity
  8
0
100
AcDbPolyline
 62
7
  6
CONTINUOUS
 90
2
 70
0
 43
0.2
 10
337.5192392122
 20
24.4581261731
 10
337.5192392122
 20
25.6101544177
  0
LWPOLYLINE
  5
254
100
AcDbEntity
  8
0
100
AcDbPolyline
 62
7
  6
CONTINUOUS
 90
2
 70
1
 43
0.2
 10
337.256215935
 20
26.1401083467
 42
1.0
 10
337.5613829259
 20
26.1401083467
 42
1.0
  0
SPLINE
  5
255
100
AcDbEntity
  8
0
100
AcDbSpline
 62
7
  6
CONTINUOUS
 70
2
 71
3
 72
17
 73
13
 74
0
 42
0.0000001
 43
0.0000001
 44
0.0000000001
 40
0.0
 40
0.0
 40
0.0
 40
0.0
 40
1.0
 40
1.0
 40
1.0
 40
2.0
 40
2.0
 40
2.0
 40
3.0
 40
3.0
 40
3.0
 40
4.0
 40
4.0
 40
4.0
 40
4.0
 10
339.6495231538
 20
24.6156729707
 30
0.0
 10
339.4155583082
 20
24.6156729707
 30
0.0
 10
339.2852288975
 20
24.8177097279
 30
0.0
 10
339.2852288975
 20
25.0338785897
 30
0.0
 10
339.2852288975
 20
25.2484772178
 30
0.0
 10
339.4210541267
 20
25.4473735072
 30
0.0
 10
339.6495231538
 20
25.4473735072
 30
0.0
 10
339.888983818
 20
25.4473735072
 30
0.0
 10
340.0245473416
 20
25.2584220322
 30
0.0
 10
340.0245473416
 20
25.0338785897
 30
0.0
 10
340.0245473416
 20
24.8077649134
 30
0.0
 10
339.8913391688
 20
24.6156729707
 30
0.0
 10
339.6495231538
 20
24.6156729707
 30
0.0
  0
SPLINE
  5
256
100
AcDbEntity
  8
0
100
AcDbSpline
 62
7
  6
CONTINUOUS
 70
2
 71
3
 72
50
 73
46
 74
0
 42
0.0000001
 43
0.0000001
 44
0.0000000001
 40
0.0
 40
0.0
 40
0.0
 40
0.0
 40
1.0
 40
1.0
 40
1.0
 40
2.0
 40
2.0
 40
2.0
 40
3.0
 40
3.0
 40
3.0
 40
4.0
 40
4.0
 40
4.0
 40
5.0
 40
5.0
 40
5.0
 40
6.0
 40
6.0
 40
6.0
 40
7.0
 40
7.0
 40
7.0
 40
8.0
 40
8.0
 40
8.0
 40
9.0
 40
9.0
 40
9.0
 40
10.0
 40
10.0
 40
10.0
 40
11.0
 40
11.0
 40
11.0
 40
12.0
 40
12.0
 40
12.0
 40
13.0
 40
13.0
 40
13.0
 40
14.0
 40
14.0
 40
14.0
 40
15.0
 40
15.0
 40
15.0
 40
15.0
 10
340.2336501511
 20
25.610677829
 30
0.0
 10
340.2336501511
 20
25.610677829
 30
0.0
 10
340.0119854707
 20
25.610677829
 30
0.0
 10
340.0119854707
 20
25.610677829
 30
0.0
 10
340.0119854707
 20
25.610677829
 30
0.0
 10
340.0119854707
 20
25.4133517734
 30
0.0
 10
340.0119854707
 20
25.4133517734
 30
0.0
 10
340.0119854707
 20
25.4133517734
 30
0.0
 10
340.0072747691
 20
25.4133517734
 30
0.0
 10
340.0072747691
 20
25.4133517734
 30
0.0
 10
339.9159394994
 20
25.556243055
 30
0.0
 10
339.778020625
 20
25.6446995627
 30
0.0
 10
339.6052949
 20
25.6446995627
 30
0.0
 10
339.2729287322
 20
25.6446995627
 30
0.0
 10
339.0638259227
 20
25.3568233544
 30
0.0
 10
339.0638259227
 20
25.0412063478
 30
0.0
 10
339.0638259227
 20
24.7114572364
 30
0.0
 10
339.2608902726
 20
24.4183469152
 30
0.0
 10
339.6157631258
 20
24.4183469152
 30
0.0
 10
339.778020625
 20
24.4183469152
 30
0.0
 10
339.9180331445
 20
24.5068034229
 30
0.0
 10
340.0072747691
 20
24.6376562448
 30
0.0
 10
340.0072747691
 20
24.6376562448
 30
0.0
 10
340.0119854707
 20
24.6376562448
 30
0.0
 10
340.0119854707
 20
24.6376562448
 30
0.0
 10
340.0119854707
 20
24.6376562448
 30
0.0
 10
340.0119854707
 20
24.4183469152
 30
0.0
 10
340.0119854707
 20
24.4183469152
 30
0.0
 10
340.0119854707
 20
24.1817650131
 30
0.0
 10
339.9554570516
 20
23.9949071833
 30
0.0
 10
339.6822363593
 20
23.9949071833
 30
0.0
 10
339.4799378966
 20
23.9949071833
 30
0.0
 10
339.3373083206
 20
24.1131981344
 30
0.0
 10
339.3373083206
 20
24.3194221818
 30
0.0
 10
339.3373083206
 20
24.3194221818
 30
0.0
 10
339.1156436402
 20
24.3194221818
 30
0.0
 10
339.1156436402
 20
24.3194221818
 30
0.0
 10
339.1206160475
 20
23.9949071833
 30
0.0
 10
339.351702131
 20
23.7981045391
 30
0.0
 10
339.6720298392
 20
23.7981045391
 30
0.0
 10
340.1200699016
 20
23.7981045391
 30
0.0
 10
340.2336501511
 20
24.083363691
 30
0.0
 10
340.2336501511
 20
24.4801094472
 30
0.0
 10
340.2336501511
 20
24.4801094472
 30
0.0
 10
340.2336501511
 20
25.610677829
 30
0.0
 10
340.2336501511
 20
25.610677829
 30
0.0
  0
SPLINE
  5
257
100
AcDbEntity
  8
0
100
AcDbSpline
 62
7
  6
CONTINUOUS
 70
2
 71
3
 72
44
 73
40
 74
0
 42
0.0000001
 43
0.0000001
 44
0.0000000001
 40
0.0
 40
0.0
 40
0.0
 40
0.0
 40
1.0
 40
1.0
 40
1.0
 40
2.0
 40
2.0
 40
2.0
 40
3.0
 40
3.0
 40
3.0
 40
4.0
 40
4.0
 40
4.0
 40
5.0
 40
5.0
 40
5.0
 40
6.0
 40
6.0
 40
6.0
 40
7.0
 40
7.0
 40
7.0
 40
8.0
 40
8.0
 40
8.0
 40
9.0
 40
9.0
 40
9.0
 40
10.0
 40
10.0
 40
10.0
 40
11.0
 40
11.0
 40
11.0
 40
12.0
 40
12.0
 40
12.0
 40
13.0
 40
13.0
 40
13.0
 40
13.0
 10
341.8025754865
 20
26.5957378727
 30
0.0
 10
341.8025754865
 20
26.5957378727
 30
0.0
 10
341.8025754865
 20
24.4576027618
 30
0.0
 10
341.8025754865
 20
24.4576027618
 30
0.0
 10
341.8025754865
 20
24.4576027618
 30
0.0
 10
342.0239784613
 20
24.4576027618
 30
0.0
 10
342.0239784613
 20
24.4576027618
 30
0.0
 10
342.0239784613
 20
24.4576027618
 30
0.0
 10
342.0239784613
 20
24.9872949851
 30
0.0
 10
342.0239784613
 20
24.9872949851
 30
0.0
 10
342.0239784613
 20
25.1971829116
 30
0.0
 10
342.0239784613
 20
25.4478969184
 30
0.0
 10
342.3092376132
 20
25.4478969184
 30
0.0
 10
342.5361364065
 20
25.4478969184
 30
0.0
 10
342.5630920878
 20
25.3149504513
 30
0.0
 10
342.5630920878
 20
25.1186712184
 30
0.0
 10
342.5630920878
 20
25.1186712184
 30
0.0
 10
342.5630920878
 20
24.4576027618
 30
0.0
 10
342.5630920878
 20
24.4576027618
 30
0.0
 10
342.5630920878
 20
24.4576027618
 30
0.0
 10
342.7850184738
 20
24.4576027618
 30
0.0
 10
342.7850184738
 20
24.4576027618
 30
0.0
 10
342.7850184738
 20
24.4576027618
 30
0.0
 10
342.7850184738
 20
25.1448417828
 30
0.0
 10
342.7850184738
 20
25.1448417828
 30
0.0
 10
342.7850184738
 20
25.4253902331
 30
0.0
 10
342.7010109621
 20
25.645222974
 30
0.0
 10
342.3759725524
 20
25.645222974
 30
0.0
 10
342.2362217385
 20
25.645222974
 30
0.0
 10
342.0980411585
 20
25.5787497404
 30
0.0
 10
342.0286891629
 20
25.4557480878
 30
0.0
 10
342.0286891629
 20
25.4557480878
 30
0.0
 10
342.0239784613
 20
25.4557480878
 30
0.0
 10
342.0239784613
 20
25.4557480878
 30
0.0
 10
342.0239784613
 20
25.4557480878
 30
0.0
 10
342.0239784613
 20
26.5957378727
 30
0.0
 10
342.0239784613
 20
26.5957378727
 30
0.0
 10
342.0239784613
 20
26.5957378727
 30
0.0
 10
341.8025754865
 20
26.5957378727
 30
0.0
 10
341.8025754865
 20
26.5957378727
 30
0.0
  0
LWPOLYLINE
  5
258
100
AcDbEntity
  8
0
100
AcDbPolyline
 62
7
  6
CONTINUOUS
 90
2
 70
0
 43
0.2
 10
344.6248091507
 20
25.403406959
 10
344.8412397182
 20
25.403406959
  0
LWPOLYLINE
  5
259
100
AcDbEntity
  8
0
100
AcDbPolyline
 62
7
  6
CONTINUOUS
 90
2
 70
0
 43
0.2
 10
344.8412397182
 20
25.403406959
 10
344.8412397182
 20
25.6101544177
  0
LWPOLYLINE
  5
25A
100
AcDbEntity
  8
0
100
AcDbPolyline
 62
7
  6
CONTINUOUS
 90
2
 70
0
 43
0.2
 10
344.8412397182
 20
25.6101544177
 10
344.6248091507
 20
25.6101544177
  0
LWPOLYLINE
  5
25B
100
AcDbEntity
  8
0
100
AcDbPolyline
 62
7
  6
CONTINUOUS
 90
2
 70
0
 43
0.2
 10
344.6248091507
 20
25.6101544177
 10
344.6248091507
 20
26.0508667221
  0
LWPOLYLINE
  5
25C
100
AcDbEntity
  8
0
100
AcDbPolyline
 62
7
  6
CONTINUOUS
 90
2
 70
0
 43
0.2
 10
344.6248091507
 20
26.0508667221
 10
344.4031444703
 20
26.0508667221
  0
LWPOLYLINE
  5
25D
100
AcDbEntity
  8
0
100
AcDbPolyline
 62
7
  6
CONTINUOUS
 90
2
 70
0
 43
0.2
 10
344.4031444703
 20
26.0508667221
 10
344.4031444703
 20
25.6101544177
  0
LWPOLYLINE
  5
25E
100
AcDbEntity
  8
0
100
AcDbPolyline
 62
7
  6
CONTINUOUS
 90
2
 70
0
 43
0.2
 10
344.4031444703
 20
25.6101544177
 10
344.2824981684
 20
25.6101544177
  0
LWPOLYLINE
  5
25F
100
AcDbEntity
  8
0
100
AcDbPolyline
 62
7
  6
CONTINUOUS
 90
2
 70
0
 43
0.2
 10
344.2824981684
 20
25.6101544177
 10
344.2824981684
 20
25.403406959
  0
LWPOLYLINE
  5
260
100
AcDbEntity
  8
0
100
AcDbPolyline
 62
7
  6
CONTINUOUS
 90
2
 70
0
 43
0.2
 10
344.2824981684
 20
25.403406959
 10
344.4031444703
 20
25.403406959
  0
LWPOLYLINE
  5
261
100
AcDbEntity
  8
0
100
AcDbPolyline
 62
7
  6
CONTINUOUS
 90
2
 70
0
 43
0.2
 10
344.4031444703
 20
25.403406959
 10
344.4031444703
 20
24.4576027618
  0
LWPOLYLINE
  5
262
100
AcDbEntity
  8
0
100
AcDbPolyline
 62
7
  6
CONTINUOUS
 90
2
 70
0
 43
0.2
 10
344.4031444703
 20
24.4576027618
 10
344.6248091507
 20
24.4576027618
  0
LWPOLYLINE
  5
263
100
AcDbEntity
  8
0
100
AcDbPolyline
 62
7
  6
CONTINUOUS
 90
2
 70
0
 43
0.2
 10
344.6248091507
 20
24.4576027618
 10
344.6248091507
 20
25.403406959
  0
SPLINE
  5
264
100
AcDbEntity
  8
0
100
AcDbSpline
 62
7
  6
CONTINUOUS
 70
2
 71
3
 72
20
 73
16
 74
0
 42
0.0000001
 43
0.0000001
 44
0.0000000001
 40
0.0
 40
0.0
 40
0.0
 40
0.0
 40
1.0
 40
1.0
 40
1.0
 40
2.0
 40
2.0
 40
2.0
 40
3.0
 40
3.0
 40
3.0
 40
4.0
 40
4.0
 40
4.0
 40
5.0
 40
5.0
 40
5.0
 40
5.0
 10
332.4068194579
 20
34.8185292052
 30
0.0
 10
332.4068194579
 20
34.8185292052
 30
0.0
 10
334.7231761124
 20
31.988967783
 30
0.0
 10
334.7231761124
 20
31.988967783
 30
0.0
 10
334.071529059
 20
31.3367973183
 30
0.0
 10
333.294655855
 20
30.6008810475
 30
0.0
 10
332.3234662104
 20
30.6008810475
 30
0.0
 10
331.3249283259
 20
30.6008810475
 30
0.0
 10
330.3816103324
 20
31.5304594948
 30
0.0
 10
330.3816103324
 20
32.5296516433
 30
0.0
 10
330.3816103324
 20
33.5288437919
 30
0.0
 10
331.5604634055
 20
34.2354490305
 30
0.0
 10
332.2819858658
 20
34.7353068104
 30
0.0
 10
332.2819858658
 20
34.7353068104
 30
0.0
 10
332.4068194579
 20
34.8185292052
 30
0.0
 10
332.4068194579
 20
34.8185292052
 30
0.0
  0
SPLINE
  5
265
100
AcDbEntity
  8
0
100
AcDbSpline
 62
7
  6
CONTINUOUS
 70
2
 71
3
 72
23
 73
19
 74
0
 42
0.0000001
 43
0.0000001
 44
0.0000000001
 40
0.0
 40
0.0
 40
0.0
 40
0.0
 40
1.0
 40
1.0
 40
1.0
 40
2.0
 40
2.0
 40
2.0
 40
3.0
 40
3.0
 40
3.0
 40
4.0
 40
4.0
 40
4.0
 40
5.0
 40
5.0
 40
5.0
 40
6.0
 40
6.0
 40
6.0
 40
6.0
 10
332.6842274405
 20
36.4562831249
 30
0.0
 10
332.6842274405
 20
36.4562831249
 30
0.0
 10
332.3377291679
 20
36.8996124858
 30
0.0
 10
332.3377291679
 20
36.8996124858
 30
0.0
 10
332.031926123
 20
37.2877219557
 30
0.0
 10
331.7130377959
 20
37.6762239841
 30
0.0
 10
331.7130377959
 20
38.2031682982
 30
0.0
 10
331.7130377959
 20
38.8693400148
 30
0.0
 10
332.2543759204
 20
39.3130619341
 30
0.0
 10
332.8782821755
 20
39.3130619341
 30
0.0
 10
333.5720638376
 20
39.3130619341
 30
0.0
 10
334.0992698573
 20
38.9108203594
 30
0.0
 10
334.0992698573
 20
38.1758200584
 30
0.0
 10
334.0992698573
 20
37.4125555479
 30
0.0
 10
333.3780091026
 20
36.9824423221
 30
0.0
 10
332.8509339357
 20
36.5667229067
 30
0.0
 10
332.8509339357
 20
36.5667229067
 30
0.0
 10
332.6842274405
 20
36.4562831249
 30
0.0
 10
332.6842274405
 20
36.4562831249
 30
0.0
  0
SPLINE
  5
266
100
AcDbEntity
  8
0
100
AcDbSpline
 62
7
  6
CONTINUOUS
 70
2
 71
3
 72
50
 73
46
 74
0
 42
0.0000001
 43
0.0000001
 44
0.0000000001
 40
0.0
 40
0.0
 40
0.0
 40
0.0
 40
1.0
 40
1.0
 40
1.0
 40
2.0
 40
2.0
 40
2.0
 40
3.0
 40
3.0
 40
3.0
 40
4.0
 40
4.0
 40
4.0
 40
5.0
 40
5.0
 40
5.0
 40
6.0
 40
6.0
 40
6.0
 40
7.0
 40
7.0
 40
7.0
 40
8.0
 40
8.0
 40
8.0
 40
9.0
 40
9.0
 40
9.0
 40
10.0
 40
10.0
 40
10.0
 40
11.0
 40
11.0
 40
11.0
 40
12.0
 40
12.0
 40
12.0
 40
13.0
 40
13.0
 40
13.0
 40
14.0
 40
14.0
 40
14.0
 40
15.0
 40
15.0
 40
15.0
 40
15.0
 10
336.6378146034
 20
29.6576939068
 30
0.0
 10
336.6378146034
 20
29.6576939068
 30
0.0
 10
338.247042608
 20
29.6576939068
 30
0.0
 10
338.247042608
 20
29.6576939068
 30
0.0
 10
338.247042608
 20
29.6576939068
 30
0.0
 10
336.3740153144
 20
31.9748356782
 30
0.0
 10
336.3740153144
 20
31.9748356782
 30
0.0
 10
336.3740153144
 20
31.9748356782
 30
0.0
 10
337.6503537398
 20
33.4723153728
 30
0.0
 10
337.6503537398
 20
33.4723153728
 30
0.0
 10
337.6503537398
 20
33.4723153728
 30
0.0
 10
336.8181297921
 20
34.3333269413
 30
0.0
 10
336.8181297921
 20
34.3333269413
 30
0.0
 10
336.8181297921
 20
34.3333269413
 30
0.0
 10
335.5975346688
 20
32.9180228189
 30
0.0
 10
335.5975346688
 20
32.9180228189
 30
0.0
 10
335.5975346688
 20
32.9180228189
 30
0.0
 10
333.4196203
 20
35.5533986534
 30
0.0
 10
333.4196203
 20
35.5533986534
 30
0.0
 10
334.2931937394
 20
36.1914370133
 30
0.0
 10
335.3198649806
 20
36.9824423221
 30
0.0
 10
335.3198649806
 20
38.1612953952
 30
0.0
 10
335.3198649806
 20
39.5349883202
 30
0.0
 10
334.1819688408
 20
40.3394714696
 30
0.0
 10
332.9066772379
 20
40.3394714696
 30
0.0
 10
331.5332460185
 20
40.3394714696
 30
0.0
 10
330.4923118197
 20
39.49324627
 30
0.0
 10
330.4923118197
 20
38.0505939078
 30
0.0
 10
330.4923118197
 20
37.1630192164
 30
0.0
 10
331.0476511962
 20
36.3861460124
 30
0.0
 10
331.6438166531
 20
35.7617163459
 30
0.0
 10
331.6438166531
 20
35.7617163459
 30
0.0
 10
330.991907894
 20
35.2901227756
 30
0.0
 10
330.991907894
 20
35.2901227756
 30
0.0
 10
329.9933700096
 20
34.5688620209
 30
0.0
 10
329.1604917978
 20
33.8476012662
 30
0.0
 10
329.1604917978
 20
32.5160429498
 30
0.0
 10
329.1604917978
 20
30.7123676518
 30
0.0
 10
330.6175379704
 20
29.4357675207
 30
0.0
 10
332.3650774077
 20
29.4357675207
 30
0.0
 10
333.5999354886
 20
29.4357675207
 30
0.0
 10
334.7093057133
 20
30.1439429932
 30
0.0
 10
335.5001801693
 20
31.0724746179
 30
0.0
 10
335.5001801693
 20
31.0724746179
 30
0.0
 10
336.6378146034
 20
29.6576939068
 30
0.0
 10
336.6378146034
 20
29.6576939068
 30
0.0
  0
LINE
  5
267
100
AcDbEntity
  8
0
100
AcDbLine
 62
7
  6
CONTINUOUS
 10
322.4406759784
 20
27.6315688114
 11
344.8545867061
 21
27.6315688114
  0
LINE
  5
268
100
AcDbEntity
  8
0
100
AcDbLine
 62
7
  6
CONTINUOUS
 10
344.8545867061
 20
27.6315688114
 11
344.8545867061
 21
50.0454795391
  0
LINE
  5
269
100
AcDbEntity
  8
0
100
AcDbLine
 62
7
  6
CONTINUOUS
 10
344.8545867061
 20
50.0454795391
 11
322.4406759784
 21
50.0454795391
  0
LINE
  5
26A
100
AcDbEntity
  8
0
100
AcDbLine
 62
7
  6
CONTINUOUS
 10
322.4406759784
 20
50.0454795391
 11
322.4406759784
 21
27.6315688114
  0
ENDBLK
  5
26B
100
AcDbEntity
  8
0
  6
BYBLOCK
 62
0
100
AcDbBlockEnd
  0
BLOCK
  5
26C
100
AcDbEntity
  8
0
100
AcDbBlockBegin
  2
_CLOSED
 70
64
 10
0.0
 20
0.0
  3
_CLOSED
  1

  0
LINE
  5
26D
100
AcDbEntity
  8
0
  6
BYBLOCK
 62
0
100
AcDbLine
 10
0.0
 20
0.0
 11
-1.0
 21
0.2
  0
LINE
  5
26E
100
AcDbEntity
  8
0
  6
BYBLOCK
 62
0
100
AcDbLine
 10
-1.0
 20
0.2
 11
-1.0
 21
-0.2
  0
LINE
  5
26F
100
AcDbEntity
  8
0
  6
BYBLOCK
 62
0
100
AcDbLine
 10
-1.0
 20
-0.2
 11
0.0
 21
0.0
  0
LINE
  5
270
100
AcDbEntity
  8
0
  6
BYBLOCK
 62
0
100
AcDbLine
 10
-1.0
 20
0.0
 11
0.0
 21
0.0
  0
ENDBLK
  5
271
100
AcDbEntity
  8
0
  6
BYBLOCK
 62
0
100
AcDbBlockEnd
  0
BLOCK
  5
272
100
AcDbEntity
  8
0
100
AcDbBlockBegin
 62
2
  6
CONTINUOUS
  2
*D0
 70
65
 10
0.0
 20
0.0
  3
*D0
  1

  0
MTEXT
  5
273
100
AcDbEntity
  8
0
100
AcDbMText
 62
2
  6
CONTINUOUS
  7
STANDARD
 71
2
 72
1
 10
67.5297723872
 20
78.1483559989
 30
0.0
 11
0.0
 21
1.0
 31
0.0
  1
71,1
 40
3.0
 41
8.1524163569
  0
LINE
  5
274
100
AcDbEntity
  8
0
100
AcDbLine
 62
2
  6
CONTINUOUS
 10
83.4128821043
 20
113.6983559989
 11
70.5297723872
 21
113.6983559989
  0
LINE
  5
275
100
AcDbEntity
  8
0
100
AcDbLine
 62
2
  6
CONTINUOUS
 10
83.4128821043
 20
42.5983559989
 11
70.5297723872
 21
42.5983559989
  0
LINE
  5
276
100
AcDbEntity
  8
0
100
AcDbLine
 62
2
  6
CONTINUOUS
 10
71.2797723872
 20
113.6983559989
 11
71.2797723872
 21
78.1483559989
  0
LINE
  5
277
100
AcDbEntity
  8
0
100
AcDbLine
 62
2
  6
CONTINUOUS
 10
71.2797723872
 20
42.5983559989
 11
71.2797723872
 21
78.1483559989
  0
INSERT
  5
278
100
AcDbEntity
  8
0
100
AcDbBlockReference
 62
2
  6
CONTINUOUS
  2
_CLOSED
 10
71.2797723872
 20
113.6983559989
 41
2.5
 42
2.5
 43
2.5
 50
90.0
  0
INSERT
  5
279
100
AcDbEntity
  8
0
100
AcDbBlockReference
 62
2
  6
CONTINUOUS
  2
_CLOSED
 10
71.2797723872
 20
42.5983559989
 41
2.5
 42
2.5
 43
2.5
 50
270.0
  0
ENDBLK
  5
27A
100
AcDbEntity
  8
0
  6
BYBLOCK
 62
0
100
AcDbBlockEnd
  0
BLOCK
  5
27B
100
AcDbEntity
  8
0
100
AcDbBlockBegin
 62
2
  6
CONTINUOUS
  2
*D1
 70
65
 10
0.0
 20
0.0
  3
*D1
  1

  0
MTEXT
  5
27C
100
AcDbEntity
  8
0
100
AcDbMText
 62
2
  6
CONTINUOUS
  7
STANDARD
 71
2
 72
1
 10
121.1503948962
 20
131.8162658211
 30
0.0
 11
1.0
 21
0.0
 31
0.0
  1
71,1
 40
3.0
 41
8.1524163569
  0
LINE
  5
27D
100
AcDbEntity
  8
0
100
AcDbLine
 62
2
  6
CONTINUOUS
 10
85.6003948962
 20
116.4283723726
 11
85.6003948962
 21
128.8162658211
  0
LINE
  5
27E
100
AcDbEntity
  8
0
100
AcDbLine
 62
2
  6
CONTINUOUS
 10
156.7003948962
 20
116.4283723726
 11
156.7003948962
 21
128.8162658211
  0
LINE
  5
27F
100
AcDbEntity
  8
0
100
AcDbLine
 62
2
  6
CONTINUOUS
 10
85.6003948962
 20
128.0662658211
 11
121.1503948962
 21
128.0662658211
  0
LINE
  5
280
100
AcDbEntity
  8
0
100
AcDbLine
 62
2
  6
CONTINUOUS
 10
156.7003948962
 20
128.0662658211
 11
121.1503948962
 21
128.0662658211
  0
INSERT
  5
281
100
AcDbEntity
  8
0
100
AcDbBlockReference
 62
2
  6
CONTINUOUS
  2
_CLOSED
 10
85.6003948962
 20
128.0662658211
 41
2.5
 42
2.5
 43
2.5
 50
180.0
  0
INSERT
  5
282
100
AcDbEntity
  8
0
100
AcDbBlockReference
 62
2
  6
CONTINUOUS
  2
_CLOSED
 10
156.7003948962
 20
128.0662658211
 41
2.5
 42
2.5
 43
2.5
  0
ENDBLK
  5
283
100
AcDbEntity
  8
0
  6
BYBLOCK
 62
0
100
AcDbBlockEnd
  0
BLOCK
  5
284
100
AcDbEntity
  8
0
100
AcDbBlockBegin
 62
2
  6
CONTINUOUS
  2
*D2
 70
65
 10
0.0
 20
0.0
  3
*D2
  1

  0
MTEXT
  5
285
100
AcDbEntity
  8
0
100
AcDbMText
 62
2
  6
CONTINUOUS
  7
STANDARD
 71
2
 72
1
 10
65.6906689656
 20
204.3300862417
 30
0.0
 11
0.0
 21
1.0
 31
0.0
  1
73,6
 40
3.0
 41
8.1524163569
  0
LINE
  5
286
100
AcDbEntity
  8
0
100
AcDbLine
 62
2
  6
CONTINUOUS
 10
83.2191308251
 20
241.1300862417
 11
68.6906689656
 21
241.1300862417
  0
LINE
  5
287
100
AcDbEntity
  8
0
100
AcDbLine
 62
2
  6
CONTINUOUS
 10
83.0502909063
 20
167.5300862417
 11
68.6906689656
 21
167.5300862417
  0
LINE
  5
288
100
AcDbEntity
  8
0
100
AcDbLine
 62
2
  6
CONTINUOUS
 10
69.4406689656
 20
241.1300862417
 11
69.4406689656
 21
204.3300862417
  0
LINE
  5
289
100
AcDbEntity
  8
0
100
AcDbLine
 62
2
  6
CONTINUOUS
 10
69.4406689656
 20
167.5300862417
 11
69.4406689656
 21
204.3300862417
  0
INSERT
  5
28A
100
AcDbEntity
  8
0
100
AcDbBlockReference
 62
2
  6
CONTINUOUS
  2
_CLOSED
 10
69.4406689656
 20
241.1300862417
 41
2.5
 42
2.5
 43
2.5
 50
90.0
  0
INSERT
  5
28B
100
AcDbEntity
  8
0
100
AcDbBlockReference
 62
2
  6
CONTINUOUS
  2
_CLOSED
 10
69.4406689656
 20
167.5300862417
 41
2.5
 42
2.5
 43
2.5
 50
270.0
  0
ENDBLK
  5
28C
100
AcDbEntity
  8
0
  6
BYBLOCK
 62
0
100
AcDbBlockEnd
  0
BLOCK
  5
28D
100
AcDbEntity
  8
0
100
AcDbBlockBegin
 62
2
  6
CONTINUOUS
  2
*D3
 70
65
 10
0.0
 20
0.0
  3
*D3
  1

  0
MTEXT
  5
28E
100
AcDbEntity
  8
0
100
AcDbMText
 62
2
  6
CONTINUOUS
  7
STANDARD
 71
2
 72
1
 10
169.3355899442
 20
235.3300862417
 30
0.0
 11
0.0
 21
1.0
 31
0.0
  1
11,6
 40
3.0
 41
8.1524163569
  0
LINE
  5
28F
100
AcDbEntity
  8
0
100
AcDbLine
 62
2
  6
CONTINUOUS
 10
160.5200629136
 20
241.1300862417
 11
173.8355899442
 21
241.1300862417
  0
LINE
  5
290
100
AcDbEntity
  8
0
100
AcDbLine
 62
2
  6
CONTINUOUS
 10
160.5200629136
 20
229.5300862417
 11
173.8355899442
 21
229.5300862417
  0
LINE
  5
291
100
AcDbEntity
  8
0
100
AcDbLine
 62
2
  6
CONTINUOUS
 10
173.0855899442
 20
241.1300862417
 11
173.0855899442
 21
242.1300862417
  0
LINE
  5
292
100
AcDbEntity
  8
0
100
AcDbLine
 62
2
  6
CONTINUOUS
 10
173.0855899442
 20
242.1300862417
 11
173.0855899442
 21
235.3300862417
  0
LINE
  5
293
100
AcDbEntity
  8
0
100
AcDbLine
 62
2
  6
CONTINUOUS
 10
173.0855899442
 20
229.5300862417
 11
173.0855899442
 21
228.5300862417
  0
LINE
  5
294
100
AcDbEntity
  8
0
100
AcDbLine
 62
2
  6
CONTINUOUS
 10
173.0855899442
 20
228.5300862417
 11
173.0855899442
 21
235.3300862417
  0
INSERT
  5
295
100
AcDbEntity
  8
0
100
AcDbBlockReference
 62
2
  6
CONTINUOUS
  2
_CLOSED
 10
173.0855899442
 20
241.1300862417
 41
2.5
 42
2.5
 43
2.5
 50
270.0
  0
INSERT
  5
296
100
AcDbEntity
  8
0
100
AcDbBlockReference
 62
2
  6
CONTINUOUS
  2
_CLOSED
 10
173.0855899442
 20
229.5300862417
 41
2.5
 42
2.5
 43
2.5
 50
90.0
  0
ENDBLK
  5
297
100
AcDbEntity
  8
0
  6
BYBLOCK
 62
0
100
AcDbBlockEnd
  0
BLOCK
  5
298
100
AcDbEntity
  8
0
100
AcDbBlockBegin
 62
2
  6
CONTINUOUS
  2
*D4
 70
65
 10
0.0
 20
0.0
  3
*D4
  1

  0
MTEXT
  5
299
100
AcDbEntity
  8
0
100
AcDbMText
 62
2
  6
CONTINUOUS
  7
STANDARD
 71
2
 72
1
 10
169.3355899442
 20
206.5300862417
 30
0.0
 11
0.0
 21
1.0
 31
0.0
  1
46
 40
3.0
 41
4.6617100372
  0
LINE
  5
29A
100
AcDbEntity
  8
0
100
AcDbLine
 62
2
  6
CONTINUOUS
 10
160.5200629136
 20
229.5300862417
 11
173.8355899442
 21
229.5300862417
  0
LINE
  5
29B
100
AcDbEntity
  8
0
100
AcDbLine
 62
2
  6
CONTINUOUS
 10
160.5567152522
 20
183.5300862417
 11
173.8355899442
 21
183.5300862417
  0
LINE
  5
29C
100
AcDbEntity
  8
0
100
AcDbLine
 62
2
  6
CONTINUOUS
 10
173.0855899442
 20
229.5300862417
 11
173.0855899442
 21
206.5300862417
  0
LINE
  5
29D
100
AcDbEntity
  8
0
100
AcDbLine
 62
2
  6
CONTINUOUS
 10
173.0855899442
 20
183.5300862417
 11
173.0855899442
 21
206.5300862417
  0
INSERT
  5
29E
100
AcDbEntity
  8
0
100
AcDbBlockReference
 62
2
  6
CONTINUOUS
  2
_CLOSED
 10
173.0855899442
 20
229.5300862417
 41
2.5
 42
2.5
 43
2.5
 50
90.0
  0
INSERT
  5
29F
100
AcDbEntity
  8
0
100
AcDbBlockReference
 62
2
  6
CONTINUOUS
  2
_CLOSED
 10
173.0855899442
 20
183.5300862417
 41
2.5
 42
2.5
 43
2.5
 50
270.0
  0
ENDBLK
  5
2A0
100
AcDbEntity
  8
0
  6
BYBLOCK
 62
0
100
AcDbBlockEnd
  0
BLOCK
  5
2A1
100
AcDbEntity
  8
0
100
AcDbBlockBegin
 62
2
  6
CONTINUOUS
  2
*D5
 70
65
 10
0.0
 20
0.0
  3
*D5
  1

  0
MTEXT
  5
2A2
100
AcDbEntity
  8
0
100
AcDbMText
 62
2
  6
CONTINUOUS
  7
TEXTSTYLE_2
 71
2
 72
1
 10
121.1503948962
 20
158.6829541159
 30
0.0
 11
1.0
 21
0.0
 31
0.0
  1
{\Fgdt;n}\Farial.ttf;58
 40
3.0
 41
8.6617100372
  0
LINE
  5
2A3
100
AcDbEntity
  8
0
100
AcDbLine
 62
2
  6
CONTINUOUS
 10
92.1503948962
 20
166.2649706021
 11
92.1503948962
 21
154.1829541159
  0
LINE
  5
2A4
100
AcDbEntity
  8
0
100
AcDbLine
 62
2
  6
CONTINUOUS
 10
150.1503948962
 20
166.8849746955
 11
150.1503948962
 21
154.1829541159
  0
LINE
  5
2A5
100
AcDbEntity
  8
0
100
AcDbLine
 62
2
  6
CONTINUOUS
 10
92.1503948962
 20
154.9329541159
 11
121.1503948962
 21
154.9329541159
  0
LINE
  5
2A6
100
AcDbEntity
  8
0
100
AcDbLine
 62
2
  6
CONTINUOUS
 10
150.1503948962
 20
154.9329541159
 11
121.1503948962
 21
154.9329541159
  0
INSERT
  5
2A7
100
AcDbEntity
  8
0
100
AcDbBlockReference
 62
2
  6
CONTINUOUS
  2
_CLOSED
 10
92.1503948962
 20
154.9329541159
 41
2.5
 42
2.5
 43
2.5
 50
180.0
  0
INSERT
  5
2A8
100
AcDbEntity
  8
0
100
AcDbBlockReference
 62
2
  6
CONTINUOUS
  2
_CLOSED
 10
150.1503948962
 20
154.9329541159
 41
2.5
 42
2.5
 43
2.5
  0
ENDBLK
  5
2A9
100
AcDbEntity
  8
0
  6
BYBLOCK
 62
0
100
AcDbBlockEnd
  0
ENDSEC
  0
SECTION
  2
ENTITIES
  0
DIMENSION
  5
2AA
100
AcDbEntity
  8
0
100
AcDbDimension
 62
2
  6
CONTINUOUS
  2
*D0
 10
71.2797723872
 20
42.5983559989
 11
71.2797723872
 21
77.8600731871
 70
160
  3
DIMSTYLE_1
100
AcDbAlignedDimension
 13
84.1628821043
 23
113.6983559989
 14
84.1628821043
 24
42.5983559989
 50
270.0
100
AcDbRotatedDimension
  0
DIMENSION
  5
2AB
100
AcDbEntity
  8
0
100
AcDbDimension
 62
2
  6
CONTINUOUS
  2
*D1
 10
156.7003948962
 20
128.0662658211
 11
120.8621072388
 21
128.0662658211
 70
160
  3
DIMSTYLE_1
100
AcDbAlignedDimension
 13
85.6003948962
 23
115.6783723726
 14
156.7003948962
 24
115.6783723726
100
AcDbRotatedDimension
  0
DIMENSION
  5
2AC
100
AcDbEntity
  8
0
100
AcDbDimension
 62
2
  6
CONTINUOUS
  2
*D2
 10
69.4406689656
 20
167.5300862417
 11
69.4406689656
 21
204.3317659214
 70
160
  3
DIMSTYLE_1
100
AcDbAlignedDimension
 13
83.9691308251
 23
241.1300862417
 14
83.8002909063
 24
167.5300862417
 50
270.0
100
AcDbRotatedDimension
  0
DIMENSION
  5
2AD
100
AcDbEntity
  8
0
100
AcDbDimension
 62
2
  6
CONTINUOUS
  2
*D3
 10
173.0855899442
 20
229.5300862417
 11
173.0855899442
 21
235.4600227382
 70
160
  3
DIMSTYLE_2
100
AcDbAlignedDimension
 13
159.7700629136
 23
241.1300862417
 14
159.7700629136
 24
229.5300862417
 50
270.0
100
AcDbRotatedDimension
  0
DIMENSION
  5
2AE
100
AcDbEntity
  8
0
100
AcDbDimension
 62
2
  6
CONTINUOUS
  2
*D4
 10
173.0855899442
 20
183.5300862417
 11
173.0855899442
 21
206.4551277901
 70
160
  3
DIMSTYLE_1
100
AcDbAlignedDimension
 13
159.7700629136
 23
229.5300862417
 14
159.8067152522
 24
183.5300862417
 50
270.0
100
AcDbRotatedDimension
  0
DIMENSION
  5
2AF
100
AcDbEntity
  8
0
100
AcDbDimension
 62
2
  6
CONTINUOUS
  2
*D5
 10
150.1503948962
 20
154.9329541159
 11
121.1503948962
 21
154.9329541159
 70
160
  1
%%c<>
  3
DIMSTYLE_1
100
AcDbAlignedDimension
 13
92.1503948962
 23
167.0149706021
 14
150.1503948962
 24
167.6349746955
100
AcDbRotatedDimension
  0
LINE
  5
2B0
100
AcDbEntity
  8
0
100
AcDbLine
 62
2
  6
CONTINUOUS
 10
319.8215188711
 20
50.4217920391
 11
409.8215188711
 21
50.4217920391
  0
LINE
  5
2B1
100
AcDbEntity
  8
0
100
AcDbLine
 62
2
  6
CONTINUOUS
 10
319.8215188711
 20
50.4217920391
 11
319.8215188711
 21
10.4217920391
  0
LINE
  5
2B2
100
AcDbEntity
  8
0
100
AcDbLine
 62
2
  6
CONTINUOUS
 10
349.8215188711
 20
44.4217920391
 11
409.8215188711
 21
44.4217920391
  0
LINE
  5
2B3
100
AcDbEntity
  8
0
100
AcDbLine
 62
2
  6
CONTINUOUS
 10
349.8215188711
 20
38.4217920391
 11
409.8215188711
 21
38.4217920391
  0
LINE
  5
2B4
100
AcDbEntity
  8
0
100
AcDbLine
 62
2
  6
CONTINUOUS
 10
349.8215188711
 20
28.4217920391
 11
409.8215188711
 21
28.4217920391
  0
LINE
  5
2B5
100
AcDbEntity
  8
0
100
AcDbLine
 62
2
  6
CONTINUOUS
 10
319.8215188711
 20
23.4217920391
 11
409.8215188711
 21
23.4217920391
  0
LINE
  5
2B6
100
AcDbEntity
  8
0
100
AcDbLine
 62
2
  6
CONTINUOUS
 10
319.8215188711
 20
10.4217920391
 11
409.8215188711
 21
10.4217920391
  0
LINE
  5
2B7
100
AcDbEntity
  8
0
100
AcDbLine
 62
2
  6
CONTINUOUS
 10
349.8215188711
 20
50.4217920391
 11
349.8215188711
 21
23.4217920391
  0
LINE
  5
2B8
100
AcDbEntity
  8
0
100
AcDbLine
 62
2
  6
CONTINUOUS
 10
389.8215188711
 20
50.4217920391
 11
389.8215188711
 21
38.4217920391
  0
LINE
  5
2B9
100
AcDbEntity
  8
0
100
AcDbLine
 62
2
  6
CONTINUOUS
 10
409.8215188711
 20
50.4217920391
 11
409.8215188711
 21
10.4217920391
  0
INSERT
  5
2BA
100
AcDbEntity
  8
0
100
AcDbBlockReference
 62
2
  6
CONTINUOUS
  2
LOGO2_BL0
 10
333.6475659158
 20
36.9217920391
  0
MTEXT
  5
2BB
100
AcDbEntity
  8
9_SOLID
100
AcDbMText
 62
2
  6
CONTINUOUS
  7
TEXTSTYLE_3
 71
1
 72
1
 10
351.3090188711
 20
48.9217920391
 30
0.0
 11
1.0
 21
0.0
 31
0.0
  1
2F5_C_001
 40
3.0
 41
31.2857142857
  0
MTEXT
  5
2BC
100
AcDbEntity
  8
0
100
AcDbMText
 62
2
  6
CONTINUOUS
  7
TEXTSTYLE_3
 71
1
 72
1
 10
391.3090188711
 20
49.1717920391
 30
0.0
 11
1.0
 21
0.0
 31
0.0
  1
Rev:00
 40
3.5
 41
22.75
  0
MTEXT
  5
2BD
100
AcDbEntity
  8
9_SOLID
100
AcDbMText
 62
2
  6
CONTINUOUS
  7
TEXTSTYLE_3
 71
1
 72
1
 10
351.3090188711
 20
42.6717920391
 30
0.0
 11
1.0
 21
0.0
 31
0.0
  1
Scale:1:1
 40
3.5
 41
28.375
  0
MTEXT
  5
2BE
100
AcDbEntity
  8
9_SOLID
100
AcDbMText
 62
2
  6
CONTINUOUS
  7
TEXTSTYLE_3
 71
1
 72
1
 10
391.3090188711
 20
43.1717920391
 30
0.0
 11
1.0
 21
0.0
 31
0.0
  1
A3
 40
3.5
 41
9.25
  0
MTEXT
  5
2BF
100
AcDbEntity
  8
0
100
AcDbMText
 62
2
  6
CONTINUOUS
  7
TEXTSTYLE_3
 71
1
 72
1
 10
351.3090188711
 20
35.1717920391
 30
0.0
 11
1.0
 21
0.0
 31
0.0
  1
LITUS 2.9
 40
3.5
 41
35.875
  0
MTEXT
  5
2C0
100
AcDbEntity
  8
0
100
AcDbMText
 62
2
  6
CONTINUOUS
  7
TEXTSTYLE_3
 71
1
 72
1
 10
351.3090188711
 20
27.1717920391
 30
0.0
 11
1.0
 21
0.0
 31
0.0
  1
DATE:06/07/2018
 40
2.5
 41
43.0357142857
  0
MTEXT
  5
2C1
100
AcDbEntity
  8
9_SOLID
100
AcDbMText
 62
2
  6
CONTINUOUS
  7
TEXTSTYLE_3
 71
1
 72
1
 10
321.3090188711
 20
23.1092920391
 30
0.0
 11
1.0
 21
0.0
 31
0.0
  1
Any integral or partial reproductions are prohibited \Pwithout prior authorisation of L {\Ftxt.shx;\W0.190476;\H2.250000; }& L Luce & Light s.r.l., \Pin accordance with the law in force. \PAll rights reserved.
 40
2.25
 41
134.5982142857
  0
LINE
  5
2C2
100
AcDbEntity
  8
0
100
AcDbLine
 62
7
  6
CONTINUOUS
 10
0.0
 20
0.0
 11
0.0
 21
297.0
  0
LINE
  5
2C3
100
AcDbEntity
  8
0
100
AcDbLine
 62
7
  6
CONTINUOUS
 10
0.0
 20
0.0
 11
420.0
 21
0.0
  0
LINE
  5
2C4
100
AcDbEntity
  8
0
100
AcDbLine
 62
7
  6
CONTINUOUS
 10
0.0
 20
297.0
 11
420.0
 21
297.0
  0
LINE
  5
2C5
100
AcDbEntity
  8
0
100
AcDbLine
 62
7
  6
CONTINUOUS
 10
420.0
 20
0.0
 11
420.0
 21
297.0
  0
LINE
  5
2C6
100
AcDbEntity
  8
7_ALL_FEATURES
100
AcDbLine
 62
7
  6
CONTINUOUS
 10
85.6003948962
 20
113.1983559989
 11
86.1003948962
 21
113.6983559989
  0
LINE
  5
2C7
100
AcDbEntity
  8
7_ALL_FEATURES
100
AcDbLine
 62
7
  6
CONTINUOUS
 10
86.1003948962
 20
42.5983559989
 11
85.6003948962
 21
43.0983559989
  0
LINE
  5
2C8
100
AcDbEntity
  8
7_ALL_FEATURES
100
AcDbLine
 62
7
  6
CONTINUOUS
 10
85.6003948962
 20
113.1983559989
 11
85.6003948962
 21
43.0983559989
  0
LINE
  5
2C9
100
AcDbEntity
  8
7_ALL_FEATURES
100
AcDbLine
 62
7
  6
CONTINUOUS
 10
86.1003948962
 20
113.1983559989
 11
86.1003948962
 21
43.0983559989
  0
LINE
  5
2CA
100
AcDbEntity
  8
7_ALL_FEATURES
100
AcDbLine
 62
7
  6
CONTINUOUS
 10
86.1003948962
 20
42.5983559989
 11
156.2003948962
 21
42.5983559989
  0
LINE
  5
2CB
100
AcDbEntity
  8
7_ALL_FEATURES
100
AcDbLine
 62
7
  6
CONTINUOUS
 10
86.1003948962
 20
43.0983559989
 11
156.2003948962
 21
43.0983559989
  0
LINE
  5
2CC
100
AcDbEntity
  8
7_ALL_FEATURES
100
AcDbLine
 62
7
  6
CONTINUOUS
 10
156.4503948962
 20
113.4483559989
 11
156.2003948962
 21
113.1983559989
  0
LINE
  5
2CD
100
AcDbEntity
  8
7_ALL_FEATURES
100
AcDbLine
 62
7
  6
CONTINUOUS
 10
86.1003948962
 20
43.0983559989
 11
85.8503948962
 21
42.8483559989
  0
LINE
  5
2CE
100
AcDbEntity
  8
7_ALL_FEATURES
100
AcDbLine
 62
7
  6
CONTINUOUS
 10
156.4503948962
 20
42.8483559989
 11
156.2003948962
 21
43.0983559989
  0
LINE
  5
2CF
100
AcDbEntity
  8
7_ALL_FEATURES
100
AcDbLine
 62
7
  6
CONTINUOUS
 10
85.8503948962
 20
113.4483559989
 11
86.1003948962
 21
113.1983559989
  0
LINE
  5
2D0
100
AcDbEntity
  8
7_ALL_FEATURES
100
AcDbLine
 62
7
  6
CONTINUOUS
 10
156.2003948962
 20
43.0983559989
 11
156.2003948962
 21
113.1983559989
  0
LINE
  5
2D1
100
AcDbEntity
  8
7_ALL_FEATURES
100
AcDbLine
 62
7
  6
CONTINUOUS
 10
156.7003948962
 20
43.0983559989
 11
156.7003948962
 21
113.1983559989
  0
LINE
  5
2D2
100
AcDbEntity
  8
7_ALL_FEATURES
100
AcDbLine
 62
7
  6
CONTINUOUS
 10
156.2003948962
 20
113.1983559989
 11
86.1003948962
 21
113.1983559989
  0
LINE
  5
2D3
100
AcDbEntity
  8
7_ALL_FEATURES
100
AcDbLine
 62
7
  6
CONTINUOUS
 10
156.2003948962
 20
113.6983559989
 11
86.1003948962
 21
113.6983559989
  0
LINE
  5
2D4
100
AcDbEntity
  8
7_ALL_FEATURES
100
AcDbLine
 62
7
  6
CONTINUOUS
 10
156.2003948962
 20
42.5983559989
 11
156.7003948962
 21
43.0983559989
  0
LINE
  5
2D5
100
AcDbEntity
  8
7_ALL_FEATURES
100
AcDbLine
 62
7
  6
CONTINUOUS
 10
156.2003948962
 20
113.6983559989
 11
156.7003948962
 21
113.1983559989
  0
LINE
  5
2D6
100
AcDbEntity
  8
7_ALL_FEATURES
100
AcDbLine
 62
7
  6
CONTINUOUS
 10
86.1003948962
 20
241.1300862417
 11
85.6003948962
 21
240.6300862417
  0
LINE
  5
2D7
100
AcDbEntity
  8
7_ALL_FEATURES
100
AcDbLine
 62
7
  6
CONTINUOUS
 10
86.1003948962
 20
235.6300862417
 11
85.8503948962
 21
235.3800862417
  0
LINE
  5
2D8
100
AcDbEntity
  8
7_ALL_FEATURES
100
AcDbLine
 62
7
  6
CONTINUOUS
 10
85.6003948962
 20
233.5300862417
 11
86.1003948962
 21
234.0300862417
  0
LINE
  5
2D9
100
AcDbEntity
  8
7_ALL_FEATURES
100
AcDbLine
 62
7
  6
CONTINUOUS
 10
85.8503948962
 20
229.7800862417
 11
86.1003948962
 21
230.0300862417
  0
LINE
  5
2DA
100
AcDbEntity
  8
7_ALL_FEATURES
100
AcDbLine
 62
7
  6
CONTINUOUS
 10
85.6003948962
 20
230.0300862417
 11
85.6003948962
 21
233.5300862417
  0
LINE
  5
2DB
100
AcDbEntity
  8
7_ALL_FEATURES
100
AcDbLine
 62
7
  6
CONTINUOUS
 10
85.6003948962
 20
235.6300862417
 11
85.6003948962
 21
240.6300862417
  0
LINE
  5
2DC
100
AcDbEntity
  8
7_ALL_FEATURES
100
AcDbLine
 62
7
  6
CONTINUOUS
 10
86.1003948962
 20
230.0300862417
 11
86.1003948962
 21
233.5300862417
  0
LINE
  5
2DD
100
AcDbEntity
  8
7_ALL_FEATURES
100
AcDbLine
 62
7
  6
CONTINUOUS
 10
86.1003948962
 20
235.6300862417
 11
86.1003948962
 21
240.6300862417
  0
LINE
  5
2DE
100
AcDbEntity
  8
7_ALL_FEATURES
100
AcDbLine
 62
7
  6
CONTINUOUS
 10
86.4003948962
 20
235.1300862417
 11
86.4003948962
 21
234.0300862417
  0
LINE
  5
2DF
100
AcDbEntity
  8
3_ALL_AXES
100
AcDbLine
 62
7
  6
CONTINUOUS
 10
117.6533847419
 20
167.5300862417
 11
118.6755211621
 21
167.5300862417
  0
LINE
  5
2E0
100
AcDbEntity
  8
7_ALL_FEATURES
100
AcDbLine
 62
7
  6
CONTINUOUS
 10
117.6503948962
 20
167.5300862417
 11
124.6503948962
 21
167.5300862417
  0
LINE
  5
2E1
100
AcDbEntity
  8
3_ALL_AXES
100
AcDbLine
 62
7
  6
CONTINUOUS
 10
123.6252686304
 20
167.5300862417
 11
124.6474050506
 21
167.5300862417
  0
LINE
  5
2E2
100
AcDbEntity
  8
7_ALL_FEATURES
100
AcDbLine
 62
7
  6
CONTINUOUS
 10
93.1503948962
 20
183.5300862417
 11
92.1503948962
 21
184.5300862417
  0
LINE
  5
2E3
100
AcDbEntity
  8
7_ALL_FEATURES
100
AcDbLine
 62
9
  6
CONTINUOUS
 10
88.4003948962
 20
235.1300862417
 11
88.4003948962
 21
234.0300862417
  0
LINE
  5
2E4
100
AcDbEntity
  8
3_ALL_AXES
100
AcDbLine
 62
9
  6
CONTINUOUS
 10
128.1503948962
 20
171.0300862417
 11
126.756481163
 21
171.0300862417
  0
LINE
  5
2E5
100
AcDbEntity
  8
3_ALL_AXES
100
AcDbLine
 62
9
  6
CONTINUOUS
 10
125.3422676006
 20
171.0300862417
 11
120.3231697782
 21
171.0300862417
  0
LINE
  5
2E6
100
AcDbEntity
  8
3_ALL_AXES
100
AcDbLine
 62
9
  6
CONTINUOUS
 10
114.1503948962
 20
171.0300862417
 11
114.1994454212
 21
171.0300862417
  0
LINE
  5
2E7
100
AcDbEntity
  8
3_ALL_AXES
100
AcDbLine
 62
9
  6
CONTINUOUS
 10
114.7170835114
 20
171.0300862417
 11
118.3913181256
 21
171.0300862417
  0
LINE
  5
2E8
100
AcDbEntity
  8
3_ALL_AXES
100
AcDbLine
 62
7
  6
CONTINUOUS
 10
128.1503948962
 20
171.5300862417
 11
126.756481163
 21
171.5300862417
  0
LINE
  5
2E9
100
AcDbEntity
  8
3_ALL_AXES
100
AcDbLine
 62
7
  6
CONTINUOUS
 10
125.3422676006
 20
171.5300862417
 11
120.3231697782
 21
171.5300862417
  0
LINE
  5
2EA
100
AcDbEntity
  8
3_ALL_AXES
100
AcDbLine
 62
7
  6
CONTINUOUS
 10
114.1503948962
 20
171.5300862417
 11
114.1994454212
 21
171.5300862417
  0
LINE
  5
2EB
100
AcDbEntity
  8
3_ALL_AXES
100
AcDbLine
 62
7
  6
CONTINUOUS
 10
114.7170835114
 20
171.5300862417
 11
118.3913181256
 21
171.5300862417
  0
LINE
  5
2EC
100
AcDbEntity
  8
03___PRT_ALL_CURVES
100
AcDbLine
 62
40
  6
CONTINUOUS
 10
92.1521093006
 20
226.5781102598
 11
92.1503949194
 21
226.7882718667
  0
LINE
  5
2ED
100
AcDbEntity
  8
03___PRT_ALL_CURVES
100
AcDbLine
 62
40
  6
CONTINUOUS
 10
92.1503957309
 20
226.5863618478
 11
92.1510825188
 21
226.4200908404
  0
LINE
  5
2EE
100
AcDbEntity
  8
02___PRT_ALL_AXES
100
AcDbLine
 62
7
  6
CONTINUOUS
 10
92.1503948962
 20
229.0300862417
 11
92.1503948962
 21
211.0300862417
  0
LINE
  5
2EF
100
AcDbEntity
  8
02___PRT_ALL_AXES
100
AcDbLine
 62
7
  6
CONTINUOUS
 10
92.1503948962
 20
202.5300862417
 11
92.1503948962
 21
184.5300862417
  0
LINE
  5
2F0
100
AcDbEntity
  8
03___PRT_ALL_CURVES
100
AcDbLine
 62
40
  6
CONTINUOUS
 10
92.15078451
 20
224.1297617629
 11
92.15078451
 21
221.9304107204
  0
LINE
  5
2F1
100
AcDbEntity
  8
03___PRT_ALL_CURVES
100
AcDbLine
 62
40
  6
CONTINUOUS
 10
92.15078451
 20
213.0794372842
 11
92.15078451
 21
211.3800862417
  0
LINE
  5
2F2
100
AcDbEntity
  8
7_ALL_FEATURES
100
AcDbLine
 62
7
  6
CONTINUOUS
 10
92.4003948962
 20
207.979621122
 11
92.4003948962
 21
205.5805513446
  0
LINE
  5
2F3
100
AcDbEntity
  8
03___PRT_ALL_CURVES
100
AcDbLine
 62
40
  6
CONTINUOUS
 10
92.1510838576
 20
225.1154051658
 11
92.1503951049
 21
224.9478897825
  0
LINE
  5
2F4
100
AcDbEntity
  8
02___PRT_ALL_AXES
100
AcDbLine
 62
7
  6
CONTINUOUS
 10
92.1718440522
 20
202.7026524654
 11
92.1540141354
 21
202.55849332
  0
LINE
  5
2F5
100
AcDbEntity
  8
02___PRT_ALL_AXES
100
AcDbLine
 62
7
  6
CONTINUOUS
 10
92.1689007954
 20
202.6772577606
 11
92.1504154485
 21
202.5301460619
  0
LINE
  5
2F6
100
AcDbEntity
  8
3_ALL_AXES
100
AcDbLine
 62
7
  6
CONTINUOUS
 10
128.8778015066
 20
177.0300862417
 11
113.4229882859
 21
177.0300862417
  0
LINE
  5
2F7
100
AcDbEntity
  8
3_ALL_AXES
100
AcDbLine
 62
7
  6
CONTINUOUS
 10
114.1503948962
 20
171.5300862417
 11
113.9777911189
 21
171.702690019
  0
LINE
  5
2F8
100
AcDbEntity
  8
02___PRT_ALL_AXES
100
AcDbLine
 62
7
  6
CONTINUOUS
 10
92.1540139304
 20
211.001680771
 11
92.1503948962
 21
211.0300624419
  0
LINE
  5
2F9
100
AcDbEntity
  8
3_ALL_AXES
100
AcDbLine
 62
7
  6
CONTINUOUS
 10
128.8778015066
 20
180.0300862417
 11
113.4229882859
 21
180.0300862417
  0
LINE
  5
2FA
100
AcDbEntity
  8
3_ALL_AXES
100
AcDbLine
 62
7
  6
CONTINUOUS
 10
102.2148515001
 20
180.8300862417
 11
106.1448127954
 21
180.8300862417
  0
LINE
  5
2FB
100
AcDbEntity
  8
3_ALL_AXES
100
AcDbLine
 62
7
  6
CONTINUOUS
 10
136.1559769971
 20
180.8300862417
 11
140.0859382924
 21
180.8300862417
  0
LINE
  5
2FC
100
AcDbEntity
  8
7_ALL_FEATURES
100
AcDbLine
 62
9
  6
CONTINUOUS
 10
97.7928875912
 20
183.0300862417
 11
97.7928875912
 21
183.5300862417
  0
LINE
  5
2FD
100
AcDbEntity
  8
3_ALL_AXES
100
AcDbLine
 62
7
  6
CONTINUOUS
 10
100.3798321478
 20
183.0300862417
 11
100.3798321478
 21
182.6500862417
  0
LINE
  5
2FE
100
AcDbEntity
  8
3_ALL_AXES
100
AcDbLine
 62
7
  6
CONTINUOUS
 10
100.3798321478
 20
182.6500862417
 11
107.9798321478
 21
182.6500862417
  0
LINE
  5
2FF
100
AcDbEntity
  8
3_ALL_AXES
100
AcDbLine
 62
7
  6
CONTINUOUS
 10
134.3209576447
 20
182.6500862417
 11
141.9209576447
 21
182.6500862417
  0
LINE
  5
300
100
AcDbEntity
  8
7_ALL_FEATURES
100
AcDbLine
 62
3
  6
CONTINUOUS
 10
110.7559252128
 20
183.0300862417
 11
97.7928875912
 21
183.0300862417
  0
LINE
  5
301
100
AcDbEntity
  8
7_ALL_FEATURES
100
AcDbLine
 62
3
  6
CONTINUOUS
 10
131.5448645797
 20
183.0300862417
 11
139.6420207352
 21
183.0300862417
  0
LINE
  5
302
100
AcDbEntity
  8
3_ALL_AXES
100
AcDbLine
 62
7
  6
CONTINUOUS
 10
139.6420207352
 20
183.0300862417
 11
141.5956090744
 21
183.0300862417
  0
LINE
  5
303
100
AcDbEntity
  8
7_ALL_FEATURES
100
AcDbLine
 62
3
  6
CONTINUOUS
 10
141.5956090744
 20
183.0300862417
 11
144.5079022013
 21
183.0300862417
  0
LINE
  5
304
100
AcDbEntity
  8
7_ALL_FEATURES
100
AcDbLine
 62
7
  6
CONTINUOUS
 10
149.1501394569
 20
183.5300862417
 11
145.1560227885
 21
183.5300862417
  0
LINE
  5
305
100
AcDbEntity
  8
7_ALL_FEATURES
100
AcDbLine
 62
7
  6
CONTINUOUS
 10
136.7297276083
 20
183.5300862417
 11
93.1506503355
 21
183.5300862417
  0
LINE
  5
306
100
AcDbEntity
  8
7_ALL_FEATURES
100
AcDbLine
 62
9
  6
CONTINUOUS
 10
137.4196601209
 20
183.6221627671
 11
145.1978347139
 21
183.6221627671
  0
LINE
  5
307
100
AcDbEntity
  8
7_ALL_FEATURES
100
AcDbLine
 62
7
  6
CONTINUOUS
 10
102.9777506197
 20
183.0300862417
 11
102.9777506197
 21
183.5300862417
  0
LINE
  5
308
100
AcDbEntity
  8
7_ALL_FEATURES
100
AcDbLine
 62
7
  6
CONTINUOUS
 10
92.1503948962
 20
184.5300862417
 11
137.3552738566
 21
184.5300862417
  0
LINE
  5
309
100
AcDbEntity
  8
7_ALL_FEATURES
100
AcDbLine
 62
7
  6
CONTINUOUS
 10
145.5320381595
 20
184.5300862417
 11
150.1503948962
 21
184.5300862417
  0
LINE
  5
30A
100
AcDbEntity
  8
7_ALL_FEATURES
100
AcDbLine
 62
4
  6
CONTINUOUS
 10
139.8458201962
 20
185.4108055213
 11
144.0884608833
 21
185.4108055213
  0
LINE
  5
30B
100
AcDbEntity
  8
7_ALL_FEATURES
100
AcDbLine
 62
7
  6
CONTINUOUS
 10
144.0676121703
 20
186.0713329217
 11
143.3534343214
 21
186.0713329217
  0
LINE
  5
30C
100
AcDbEntity
  8
7_ALL_FEATURES
100
AcDbLine
 62
7
  6
CONTINUOUS
 10
141.2391850456
 20
186.0713329217
 11
140.5250071966
 21
186.0713329217
  0
LINE
  5
30D
100
AcDbEntity
  8
7_ALL_FEATURES
100
AcDbLine
 62
4
  6
CONTINUOUS
 10
146.0474943371
 20
190.7328705203
 11
141.80485365
 21
190.7328705203
  0
LINE
  5
30E
100
AcDbEntity
  8
3_ALL_AXES
100
AcDbLine
 62
7
  6
CONTINUOUS
 10
107.9798321478
 20
183.0300862417
 11
107.9798321478
 21
182.6500862417
  0
LINE
  5
30F
100
AcDbEntity
  8
7_ALL_FEATURES
100
AcDbLine
 62
7
  6
CONTINUOUS
 10
110.7559252128
 20
183.0300862417
 11
110.7559252128
 21
183.5300862417
  0
LINE
  5
310
100
AcDbEntity
  8
7_ALL_FEATURES
100
AcDbLine
 62
9
  6
CONTINUOUS
 10
140.6954798194
 20
192.5215132745
 11
148.4736544124
 21
192.5215132745
  0
LINE
  5
311
100
AcDbEntity
  8
3_ALL_AXES
100
AcDbLine
 62
7
  6
CONTINUOUS
 10
113.4229882859
 20
183.5300862417
 11
113.4229882859
 21
180.0300862417
  0
LINE
  5
312
100
AcDbEntity
  8
3_ALL_AXES
100
AcDbLine
 62
7
  6
CONTINUOUS
 10
113.4229882859
 20
177.0300862417
 11
113.4229882859
 21
172.5300862417
  0
LINE
  5
313
100
AcDbEntity
  8
3_ALL_AXES
100
AcDbLine
 62
7
  6
CONTINUOUS
 10
114.1503948962
 20
171.0300862417
 11
114.1503948962
 21
171.5300862417
  0
LINE
  5
314
100
AcDbEntity
  8
3_ALL_AXES
100
AcDbLine
 62
7
  6
CONTINUOUS
 10
114.1994454212
 20
171.0300862417
 11
114.1994454212
 21
171.5300862417
  0
LINE
  5
315
100
AcDbEntity
  8
3_ALL_AXES
100
AcDbLine
 62
7
  6
CONTINUOUS
 10
114.7170835114
 20
171.0300862417
 11
114.7170835114
 21
171.5300862417
  0
LINE
  5
316
100
AcDbEntity
  8
7_ALL_FEATURES
100
AcDbLine
 62
9
  6
CONTINUOUS
 10
140.5469649653
 20
197.7813625494
 11
147.4772668903
 21
197.7813625494
  0
LINE
  5
317
100
AcDbEntity
  8
7_ALL_FEATURES
100
AcDbLine
 62
9
  6
CONTINUOUS
 10
137.4196601209
 20
183.6221627671
 11
137.1060544333
 21
183.8530370737
  0
LINE
  5
318
100
AcDbEntity
  8
7_ALL_FEATURES
100
AcDbLine
 62
7
  6
CONTINUOUS
 10
86.1003948962
 20
229.5300862417
 11
85.6003948962
 21
230.0300862417
  0
LINE
  5
319
100
AcDbEntity
  8
3_ALL_AXES
100
AcDbLine
 62
7
  6
CONTINUOUS
 10
115.1503948962
 20
177.0300862417
 11
115.1503948962
 21
180.0300862417
  0
LINE
  5
31A
100
AcDbEntity
  8
3_ALL_AXES
100
AcDbLine
 62
7
  6
CONTINUOUS
 10
115.4935406467
 20
183.5300862417
 11
115.4935406467
 21
180.0300862417
  0
LINE
  5
31B
100
AcDbEntity
  8
3_ALL_AXES
100
AcDbLine
 62
7
  6
CONTINUOUS
 10
115.4935406467
 20
177.0300862417
 11
115.4935406467
 21
172.5300862417
  0
LINE
  5
31C
100
AcDbEntity
  8
7_ALL_FEATURES
100
AcDbLine
 62
3
  6
CONTINUOUS
 10
145.7867579186
 20
198.7716397777
 11
140.8370104503
 21
198.7716397777
  0
LINE
  5
31D
100
AcDbEntity
  8
7_ALL_FEATURES
100
AcDbLine
 62
7
  6
CONTINUOUS
 10
146.047499994
 20
201.0300862417
 11
136.0209751724
 21
201.0300862417
  0
LINE
  5
31E
100
AcDbEntity
  8
7_ALL_FEATURES
100
AcDbLine
 62
7
  6
CONTINUOUS
 10
86.1003948962
 20
233.5300862417
 11
85.8503948962
 21
233.7800862417
  0
LINE
  5
31F
100
AcDbEntity
  8
7_ALL_FEATURES
100
AcDbLine
 62
7
  6
CONTINUOUS
 10
92.1503948962
 20
229.0300862417
 11
91.6503948962
 21
229.5300862417
  0
LINE
  5
320
100
AcDbEntity
  8
7_ALL_FEATURES
100
AcDbLine
 62
7
  6
CONTINUOUS
 10
85.6003948962
 20
235.6300862417
 11
86.1003948962
 21
235.1300862417
  0
LINE
  5
321
100
AcDbEntity
  8
3_ALL_AXES
100
AcDbLine
 62
7
  6
CONTINUOUS
 10
118.3913181256
 20
171.0300862417
 11
118.3913181256
 21
171.5300862417
  0
LINE
  5
322
100
AcDbEntity
  8
3_ALL_AXES
100
AcDbLine
 62
7
  6
CONTINUOUS
 10
120.3231697782
 20
171.0300862417
 11
120.3231697782
 21
171.5300862417
  0
LINE
  5
323
100
AcDbEntity
  8
7_ALL_FEATURES
100
AcDbLine
 62
7
  6
CONTINUOUS
 10
156.2003948962
 20
240.6300862417
 11
156.4503948962
 21
240.8800862417
  0
LINE
  5
324
100
AcDbEntity
  8
3_ALL_AXES
100
AcDbLine
 62
7
  6
CONTINUOUS
 10
123.2209472571
 20
183.5300862417
 11
123.2209472571
 21
180.0300862417
  0
LINE
  5
325
100
AcDbEntity
  8
3_ALL_AXES
100
AcDbLine
 62
7
  6
CONTINUOUS
 10
123.2209472571
 20
177.0300862417
 11
123.2209472571
 21
172.5300862417
  0
LINE
  5
326
100
AcDbEntity
  8
7_ALL_FEATURES
100
AcDbLine
 62
7
  6
CONTINUOUS
 10
156.2003948962
 20
235.1300862417
 11
156.7003948962
 21
235.6300862417
  0
LINE
  5
327
100
AcDbEntity
  8
7_ALL_FEATURES
100
AcDbLine
 62
7
  6
CONTINUOUS
 10
150.1503948962
 20
229.0300862417
 11
150.6503948962
 21
229.5300862417
  0
LINE
  5
328
100
AcDbEntity
  8
03___PRT_ALL_CURVES
100
AcDbLine
 62
40
  6
CONTINUOUS
 10
92.8428309523
 20
206.6297617629
 11
92.5175466202
 21
206.6297617629
  0
LINE
  5
329
100
AcDbEntity
  8
03___PRT_ALL_CURVES
100
AcDbLine
 62
40
  6
CONTINUOUS
 10
92.5175466272
 20
206.9304107204
 11
92.8428309618
 21
206.9304107204
  0
LINE
  5
32A
100
AcDbEntity
  8
7_ALL_FEATURES
100
AcDbLine
 62
9
  6
CONTINUOUS
 10
140.6954798194
 20
192.5215132745
 11
140.3818741318
 21
192.7523875811
  0
LINE
  5
32B
100
AcDbEntity
  8
7_ALL_FEATURES
100
AcDbLine
 62
7
  6
CONTINUOUS
 10
86.1003948962
 20
240.6300862417
 11
85.8503948962
 21
240.8800862417
  0
LINE
  5
32C
100
AcDbEntity
  8
3_ALL_AXES
100
AcDbLine
 62
7
  6
CONTINUOUS
 10
125.3422676006
 20
171.0300862417
 11
125.3422676006
 21
171.5300862417
  0
LINE
  5
32D
100
AcDbEntity
  8
3_ALL_AXES
100
AcDbLine
 62
7
  6
CONTINUOUS
 10
126.756481163
 20
171.0300862417
 11
126.756481163
 21
171.5300862417
  0
LINE
  5
32E
100
AcDbEntity
  8
3_ALL_AXES
100
AcDbLine
 62
7
  6
CONTINUOUS
 10
127.1503948962
 20
177.0300862417
 11
127.1503948962
 21
180.0300862417
  0
LINE
  5
32F
100
AcDbEntity
  8
3_ALL_AXES
100
AcDbLine
 62
7
  6
CONTINUOUS
 10
128.1503948962
 20
171.0300862417
 11
128.1503948962
 21
171.5300862417
  0
LINE
  5
330
100
AcDbEntity
  8
7_ALL_FEATURES
100
AcDbLine
 62
7
  6
CONTINUOUS
 10
156.2003948962
 20
233.5300862417
 11
156.4503948962
 21
233.7800862417
  0
LINE
  5
331
100
AcDbEntity
  8
7_ALL_FEATURES
100
AcDbLine
 62
7
  6
CONTINUOUS
 10
156.2003948962
 20
229.5300862417
 11
156.7003948962
 21
230.0300862417
  0
LINE
  5
332
100
AcDbEntity
  8
3_ALL_AXES
100
AcDbLine
 62
7
  6
CONTINUOUS
 10
128.8778015066
 20
183.5300862417
 11
128.8778015066
 21
180.0300862417
  0
LINE
  5
333
100
AcDbEntity
  8
3_ALL_AXES
100
AcDbLine
 62
7
  6
CONTINUOUS
 10
128.8778015066
 20
177.0300862417
 11
128.8778015066
 21
172.5300862417
  0
LINE
  5
334
100
AcDbEntity
  8
7_ALL_FEATURES
100
AcDbLine
 62
7
  6
CONTINUOUS
 10
131.5448645797
 20
183.0300862417
 11
131.5448645797
 21
183.5300862417
  0
LINE
  5
335
100
AcDbEntity
  8
7_ALL_FEATURES
100
AcDbLine
 62
3
  6
CONTINUOUS
 10
147.4772668903
 20
197.7813625494
 11
145.7867579186
 21
198.7716397777
  0
LINE
  5
336
100
AcDbEntity
  8
3_ALL_AXES
100
AcDbLine
 62
7
  6
CONTINUOUS
 10
134.3209576447
 20
183.0300862417
 11
134.3209576447
 21
182.6500862417
  0
LINE
  5
337
100
AcDbEntity
  8
03___PRT_ALL_CURVES
100
AcDbLine
 62
40
  6
CONTINUOUS
 10
145.1978347139
 20
183.6221627671
 11
140.6954798194
 21
192.5215132745
  0
LINE
  5
338
100
AcDbEntity
  8
7_ALL_FEATURES
100
AcDbLine
 62
7
  6
CONTINUOUS
 10
136.0209751724
 20
201.0300862417
 11
136.0209751724
 21
184.5300862417
  0
LINE
  5
339
100
AcDbEntity
  8
7_ALL_FEATURES
100
AcDbLine
 62
9
  6
CONTINUOUS
 10
136.7297276083
 20
183.0300862417
 11
136.7297276083
 21
183.5300862417
  0
LINE
  5
33A
100
AcDbEntity
  8
7_ALL_FEATURES
100
AcDbLine
 62
4
  6
CONTINUOUS
 10
142.8704188465
 20
185.908714269
 11
142.3550102339
 21
187.7344692559
  0
LINE
  5
33B
100
AcDbEntity
  8
3_ALL_AXES
100
AcDbLine
 62
7
  6
CONTINUOUS
 10
141.9209576447
 20
183.0300862417
 11
141.9209576447
 21
182.6500862417
  0
LINE
  5
33C
100
AcDbEntity
  8
7_ALL_FEATURES
100
AcDbLine
 62
7
  6
CONTINUOUS
 10
140.2969649653
 20
197.4278091588
 11
140.5870104503
 21
198.4180863871
  0
LINE
  5
33D
100
AcDbEntity
  8
7_ALL_FEATURES
100
AcDbLine
 62
3
  6
CONTINUOUS
 10
140.8370104503
 20
198.7716397777
 11
140.5469649653
 21
197.7813625494
  0
LINE
  5
33E
100
AcDbEntity
  8
7_ALL_FEATURES
100
AcDbLine
 62
7
  6
CONTINUOUS
 10
140.5870104503
 20
198.4180863871
 11
140.8370104503
 21
198.7716397777
  0
LINE
  5
33F
100
AcDbEntity
  8
7_ALL_FEATURES
100
AcDbLine
 62
7
  6
CONTINUOUS
 10
140.1502040266
 20
196.971921694
 11
140.4027383652
 21
197.3290591806
  0
LINE
  5
340
100
AcDbEntity
  8
7_ALL_FEATURES
100
AcDbLine
 62
7
  6
CONTINUOUS
 10
140.3818741318
 20
192.7523875811
 11
137.1060544333
 21
183.8530370737
  0
LINE
  5
341
100
AcDbEntity
  8
7_ALL_FEATURES
100
AcDbLine
 62
3
  6
CONTINUOUS
 10
140.6954798194
 20
192.5215132745
 11
137.4196601209
 21
183.6221627671
  0
LINE
  5
342
100
AcDbEntity
  8
7_ALL_FEATURES
100
AcDbLine
 62
4
  6
CONTINUOUS
 10
141.80485365
 20
190.7328705203
 11
139.8458201962
 21
185.4108055213
  0
LINE
  5
343
100
AcDbEntity
  8
7_ALL_FEATURES
100
AcDbLine
 62
7
  6
CONTINUOUS
 10
146.047499994
 20
201.0300862417
 11
146.047499994
 21
198.6189006062
  0
LINE
  5
344
100
AcDbEntity
  8
7_ALL_FEATURES
100
AcDbLine
 62
7
  6
CONTINUOUS
 10
146.047499994
 20
185.9304305711
 11
146.047499994
 21
184.5300862417
  0
LINE
  5
345
100
AcDbEntity
  8
7_ALL_FEATURES
100
AcDbLine
 62
7
  6
CONTINUOUS
 10
141.3750100451
 20
188.3805177907
 11
140.5250071966
 21
186.0713329217
  0
LINE
  5
346
100
AcDbEntity
  8
7_ALL_FEATURES
100
AcDbLine
 62
7
  6
CONTINUOUS
 10
144.2034371699
 20
188.3805177907
 11
143.3534343214
 21
186.0713329217
  0
LINE
  5
347
100
AcDbEntity
  8
7_ALL_FEATURES
100
AcDbLine
 62
4
  6
CONTINUOUS
 10
142.0057096183
 20
187.0199729279
 11
142.8873987133
 21
187.675412823
  0
LINE
  5
348
100
AcDbEntity
  8
7_ALL_FEATURES
100
AcDbLine
 62
7
  6
CONTINUOUS
 10
150.1503948962
 20
229.0300862417
 11
92.1503948962
 21
229.0300862417
  0
LINE
  5
349
100
AcDbEntity
  8
7_ALL_FEATURES
100
AcDbLine
 62
7
  6
CONTINUOUS
 10
156.2003948962
 20
229.5300862417
 11
86.1003948962
 21
229.5300862417
  0
LINE
  5
34A
100
AcDbEntity
  8
7_ALL_FEATURES
100
AcDbLine
 62
7
  6
CONTINUOUS
 10
156.2003948962
 20
230.0300862417
 11
86.1003948962
 21
230.0300862417
  0
LINE
  5
34B
100
AcDbEntity
  8
02___PRT_ALL_AXES
100
AcDbLine
 62
7
  6
CONTINUOUS
 10
150.1503948962
 20
229.0300862417
 11
150.1503948962
 21
211.0300862417
  0
LINE
  5
34C
100
AcDbEntity
  8
02___PRT_ALL_AXES
100
AcDbLine
 62
7
  6
CONTINUOUS
 10
150.1503948962
 20
202.5300862417
 11
150.1503948962
 21
184.5300862417
  0
LINE
  5
34D
100
AcDbEntity
  8
3_ALL_AXES
100
AcDbLine
 62
7
  6
CONTINUOUS
 10
150.3503948962
 20
204.8150862417
 11
150.3503948962
 21
208.7450862417
  0
LINE
  5
34E
100
AcDbEntity
  8
7_ALL_FEATURES
100
AcDbLine
 62
4
  6
CONTINUOUS
 10
144.0884608833
 20
185.4108055213
 11
146.0474943371
 21
190.7328705203
  0
LINE
  5
34F
100
AcDbEntity
  8
7_ALL_FEATURES
100
AcDbLine
 62
3
  6
CONTINUOUS
 10
145.1978347139
 20
183.6221627671
 11
148.4736544124
 21
192.5215132745
  0
LINE
  5
350
100
AcDbEntity
  8
3_ALL_AXES
100
AcDbLine
 62
7
  6
CONTINUOUS
 10
128.1503948962
 20
171.5300862417
 11
128.3229986736
 21
171.702690019
  0
LINE
  5
351
100
AcDbEntity
  8
7_ALL_FEATURES
100
AcDbLine
 62
4
  6
CONTINUOUS
 10
142.6138664781
 20
186.3749693077
 11
143.1519215286
 21
186.8879146396
  0
LINE
  5
352
100
AcDbEntity
  8
7_ALL_FEATURES
100
AcDbLine
 62
7
  6
CONTINUOUS
 10
86.1003948962
 20
233.5300862417
 11
156.2003948962
 21
233.5300862417
  0
LINE
  5
353
100
AcDbEntity
  8
7_ALL_FEATURES
100
AcDbLine
 62
7
  6
CONTINUOUS
 10
86.1003948962
 20
234.0300862417
 11
156.2003948962
 21
234.0300862417
  0
LINE
  5
354
100
AcDbEntity
  8
7_ALL_FEATURES
100
AcDbLine
 62
7
  6
CONTINUOUS
 10
156.2003948962
 20
235.1300862417
 11
86.1003948962
 21
235.1300862417
  0
LINE
  5
355
100
AcDbEntity
  8
06___PRT_ALL_SURFS
100
AcDbLine
 62
7
  6
CONTINUOUS
 10
156.2003948962
 20
235.1300862417
 11
86.1003948962
 21
235.1300862417
  0
LINE
  5
356
100
AcDbEntity
  8
02___PRT_ALL_AXES
100
AcDbLine
 62
7
  6
CONTINUOUS
 10
150.1503715456
 20
202.530128827
 11
150.145905455
 21
202.560828894
  0
LINE
  5
357
100
AcDbEntity
  8
7_ALL_FEATURES
100
AcDbLine
 62
9
  6
CONTINUOUS
 10
153.9003948962
 20
235.1300862417
 11
153.9003948962
 21
234.0300862417
  0
LINE
  5
358
100
AcDbEntity
  8
7_ALL_FEATURES
100
AcDbLine
 62
7
  6
CONTINUOUS
 10
145.2757577282
 20
183.5601216546
 11
145.2518439916
 21
183.5300862417
  0
LINE
  5
359
100
AcDbEntity
  8
7_ALL_FEATURES
100
AcDbLine
 62
7
  6
CONTINUOUS
 10
149.1503948962
 20
183.5300862417
 11
150.1503948962
 21
184.5300862417
  0
LINE
  5
35A
100
AcDbEntity
  8
7_ALL_FEATURES
100
AcDbLine
 62
7
  6
CONTINUOUS
 10
156.2003948962
 20
235.6300862417
 11
86.1003948962
 21
235.6300862417
  0
LINE
  5
35B
100
AcDbEntity
  8
7_ALL_FEATURES
100
AcDbLine
 62
7
  6
CONTINUOUS
 10
155.9003948962
 20
235.1300862417
 11
155.9003948962
 21
234.0300862417
  0
LINE
  5
35C
100
AcDbEntity
  8
7_ALL_FEATURES
100
AcDbLine
 62
7
  6
CONTINUOUS
 10
156.2003948962
 20
230.0300862417
 11
156.2003948962
 21
233.5300862417
  0
LINE
  5
35D
100
AcDbEntity
  8
7_ALL_FEATURES
100
AcDbLine
 62
7
  6
CONTINUOUS
 10
156.2003948962
 20
235.6300862417
 11
156.2003948962
 21
240.6300862417
  0
LINE
  5
35E
100
AcDbEntity
  8
7_ALL_FEATURES
100
AcDbLine
 62
7
  6
CONTINUOUS
 10
156.7003948962
 20
230.0300862417
 11
156.7003948962
 21
233.5300862417
  0
LINE
  5
35F
100
AcDbEntity
  8
7_ALL_FEATURES
100
AcDbLine
 62
7
  6
CONTINUOUS
 10
156.7003948962
 20
235.6300862417
 11
156.7003948962
 21
240.6300862417
  0
LINE
  5
360
100
AcDbEntity
  8
7_ALL_FEATURES
100
AcDbLine
 62
7
  6
CONTINUOUS
 10
86.1003948962
 20
240.6300862417
 11
156.2003948962
 21
240.6300862417
  0
LINE
  5
361
100
AcDbEntity
  8
7_ALL_FEATURES
100
AcDbLine
 62
7
  6
CONTINUOUS
 10
86.1003948962
 20
241.1300862417
 11
156.2003948962
 21
241.1300862417
  0
LINE
  5
362
100
AcDbEntity
  8
7_ALL_FEATURES
100
AcDbLine
 62
7
  6
CONTINUOUS
 10
156.2003948962
 20
230.0300862417
 11
156.4503948962
 21
229.7800862417
  0
LINE
  5
363
100
AcDbEntity
  8
7_ALL_FEATURES
100
AcDbLine
 62
7
  6
CONTINUOUS
 10
156.7003948962
 20
233.5300862417
 11
156.2003948962
 21
234.0300862417
  0
LINE
  5
364
100
AcDbEntity
  8
7_ALL_FEATURES
100
AcDbLine
 62
7
  6
CONTINUOUS
 10
156.2003948962
 20
235.6300862417
 11
156.4503948962
 21
235.3800862417
  0
LINE
  5
365
100
AcDbEntity
  8
7_ALL_FEATURES
100
AcDbLine
 62
7
  6
CONTINUOUS
 10
156.7003948962
 20
240.6300862417
 11
156.2003948962
 21
241.1300862417
  0
LINE
  5
366
100
AcDbEntity
  8
7_ALL_FEATURES
100
AcDbLine
 62
7
  6
CONTINUOUS
 10
238.1185636297
 20
240.6300862417
 11
238.6185636297
 21
241.1300862417
  0
LINE
  5
367
100
AcDbEntity
  8
7_ALL_FEATURES
100
AcDbLine
 62
7
  6
CONTINUOUS
 10
238.3685636297
 20
235.3800862417
 11
238.6185636297
 21
235.6300862417
  0
LINE
  5
368
100
AcDbEntity
  8
7_ALL_FEATURES
100
AcDbLine
 62
7
  6
CONTINUOUS
 10
238.1185636297
 20
233.5300862417
 11
238.6185636297
 21
234.0300862417
  0
LINE
  5
369
100
AcDbEntity
  8
7_ALL_FEATURES
100
AcDbLine
 62
7
  6
CONTINUOUS
 10
238.3685636297
 20
229.7800862417
 11
238.6185636297
 21
230.0300862417
  0
LINE
  5
36A
100
AcDbEntity
  8
7_ALL_FEATURES
100
AcDbLine
 62
7
  6
CONTINUOUS
 10
238.1185636297
 20
230.0300862417
 11
238.1185636297
 21
233.5300862417
  0
LINE
  5
36B
100
AcDbEntity
  8
7_ALL_FEATURES
100
AcDbLine
 62
7
  6
CONTINUOUS
 10
238.1185636297
 20
235.6300862417
 11
238.1185636297
 21
240.6300862417
  0
LINE
  5
36C
100
AcDbEntity
  8
7_ALL_FEATURES
100
AcDbLine
 62
7
  6
CONTINUOUS
 10
238.6185636297
 20
230.0300862417
 11
238.6185636297
 21
233.5300862417
  0
LINE
  5
36D
100
AcDbEntity
  8
7_ALL_FEATURES
100
AcDbLine
 62
7
  6
CONTINUOUS
 10
238.6185636297
 20
235.6300862417
 11
238.6185636297
 21
240.6300862417
  0
LINE
  5
36E
100
AcDbEntity
  8
7_ALL_FEATURES
100
AcDbLine
 62
7
  6
CONTINUOUS
 10
238.9185636297
 20
235.1300862417
 11
238.9185636297
 21
234.0300862417
  0
LINE
  5
36F
100
AcDbEntity
  8
3_ALL_AXES
100
AcDbLine
 62
7
  6
CONTINUOUS
 10
270.1715534754
 20
167.5300862417
 11
271.1936898956
 21
167.5300862417
  0
LINE
  5
370
100
AcDbEntity
  8
7_ALL_FEATURES
100
AcDbLine
 62
7
  6
CONTINUOUS
 10
270.1685636297
 20
167.5300862417
 11
277.1685636297
 21
167.5300862417
  0
LINE
  5
371
100
AcDbEntity
  8
3_ALL_AXES
100
AcDbLine
 62
7
  6
CONTINUOUS
 10
276.1434373639
 20
167.5300862417
 11
277.1655737841
 21
167.5300862417
  0
LINE
  5
372
100
AcDbEntity
  8
7_ALL_FEATURES
100
AcDbLine
 62
7
  6
CONTINUOUS
 10
245.6685636297
 20
183.5300862417
 11
244.6685636297
 21
184.5300862417
  0
LINE
  5
373
100
AcDbEntity
  8
7_ALL_FEATURES
100
AcDbLine
 62
9
  6
CONTINUOUS
 10
240.9185636297
 20
235.1300862417
 11
240.9185636297
 21
234.0300862417
  0
LINE
  5
374
100
AcDbEntity
  8
3_ALL_AXES
100
AcDbLine
 62
9
  6
CONTINUOUS
 10
280.6685636297
 20
171.0300862417
 11
280.6195131047
 21
171.0300862417
  0
LINE
  5
375
100
AcDbEntity
  8
3_ALL_AXES
100
AcDbLine
 62
9
  6
CONTINUOUS
 10
266.6685636297
 20
171.0300862417
 11
268.062477363
 21
171.0300862417
  0
LINE
  5
376
100
AcDbEntity
  8
3_ALL_AXES
100
AcDbLine
 62
9
  6
CONTINUOUS
 10
269.4766909253
 20
171.0300862417
 11
274.4957887478
 21
171.0300862417
  0
LINE
  5
377
100
AcDbEntity
  8
3_ALL_AXES
100
AcDbLine
 62
9
  6
CONTINUOUS
 10
276.4276404004
 20
171.0300862417
 11
280.1018750145
 21
171.0300862417
  0
LINE
  5
378
100
AcDbEntity
  8
3_ALL_AXES
100
AcDbLine
 62
7
  6
CONTINUOUS
 10
280.6685636297
 20
171.5300862417
 11
280.6195131047
 21
171.5300862417
  0
LINE
  5
379
100
AcDbEntity
  8
3_ALL_AXES
100
AcDbLine
 62
7
  6
CONTINUOUS
 10
266.6685636297
 20
171.5300862417
 11
268.062477363
 21
171.5300862417
  0
LINE
  5
37A
100
AcDbEntity
  8
3_ALL_AXES
100
AcDbLine
 62
7
  6
CONTINUOUS
 10
269.4766909253
 20
171.5300862417
 11
274.4957887478
 21
171.5300862417
  0
LINE
  5
37B
100
AcDbEntity
  8
3_ALL_AXES
100
AcDbLine
 62
7
  6
CONTINUOUS
 10
276.4276404004
 20
171.5300862417
 11
280.1018750145
 21
171.5300862417
  0
LINE
  5
37C
100
AcDbEntity
  8
7_ALL_FEATURES
100
AcDbLine
 62
7
  6
CONTINUOUS
 10
249.5431940128
 20
183.5601210079
 11
249.5671145343
 21
183.5300862417
  0
LINE
  5
37D
100
AcDbEntity
  8
02___PRT_ALL_AXES
100
AcDbLine
 62
7
  6
CONTINUOUS
 10
244.6685636297
 20
229.0300862417
 11
244.6685636297
 21
184.5300862417
  0
LINE
  5
37E
100
AcDbEntity
  8
3_ALL_AXES
100
AcDbLine
 62
7
  6
CONTINUOUS
 10
281.39597024
 20
177.0300862417
 11
265.9411570194
 21
177.0300862417
  0
LINE
  5
37F
100
AcDbEntity
  8
7_ALL_FEATURES
100
AcDbLine
 62
4
  6
CONTINUOUS
 10
253.3885393666
 20
185.908714269
 11
251.529022744
 21
187.7344692559
  0
LINE
  5
380
100
AcDbEntity
  8
3_ALL_AXES
100
AcDbLine
 62
7
  6
CONTINUOUS
 10
266.6685636297
 20
171.5300862417
 11
266.4959598524
 21
171.702690019
  0
LINE
  5
381
100
AcDbEntity
  8
7_ALL_FEATURES
100
AcDbLine
 62
3
  6
CONTINUOUS
 10
246.3453041136
 20
192.5215132745
 11
249.621123812
 21
183.6221627671
  0
LINE
  5
382
100
AcDbEntity
  8
7_ALL_FEATURES
100
AcDbLine
 62
4
  6
CONTINUOUS
 10
248.7714641889
 20
190.7328705203
 11
250.7304976426
 21
185.4108055213
  0
LINE
  5
383
100
AcDbEntity
  8
7_ALL_FEATURES
100
AcDbLine
 62
7
  6
CONTINUOUS
 10
250.0734061572
 20
188.3805177907
 11
250.9234090057
 21
186.0713329217
  0
LINE
  5
384
100
AcDbEntity
  8
7_ALL_FEATURES
100
AcDbLine
 62
7
  6
CONTINUOUS
 10
248.7714585319
 20
201.0300862417
 11
248.7714585319
 21
198.6189006062
  0
LINE
  5
385
100
AcDbEntity
  8
7_ALL_FEATURES
100
AcDbLine
 62
7
  6
CONTINUOUS
 10
248.7714585319
 20
185.9304305711
 11
248.7714585319
 21
184.5300862417
  0
LINE
  5
386
100
AcDbEntity
  8
3_ALL_AXES
100
AcDbLine
 62
7
  6
CONTINUOUS
 10
281.39597024
 20
180.0300862417
 11
265.9411570194
 21
180.0300862417
  0
LINE
  5
387
100
AcDbEntity
  8
3_ALL_AXES
100
AcDbLine
 62
7
  6
CONTINUOUS
 10
254.7330202336
 20
180.8300862417
 11
258.6629815289
 21
180.8300862417
  0
LINE
  5
388
100
AcDbEntity
  8
3_ALL_AXES
100
AcDbLine
 62
7
  6
CONTINUOUS
 10
288.6741457306
 20
180.8300862417
 11
292.6041070258
 21
180.8300862417
  0
LINE
  5
389
100
AcDbEntity
  8
03___PRT_ALL_CURVES
100
AcDbLine
 62
40
  6
CONTINUOUS
 10
257.3992984051
 20
183.6221627671
 11
246.3453041136
 21
192.5215132745
  0
LINE
  5
38A
100
AcDbEntity
  8
7_ALL_FEATURES
100
AcDbLine
 62
7
  6
CONTINUOUS
 10
252.9018332819
 20
188.3805177907
 11
253.7518361305
 21
186.0713329217
  0
LINE
  5
38B
100
AcDbEntity
  8
7_ALL_FEATURES
100
AcDbLine
 62
4
  6
CONTINUOUS
 10
254.9731383297
 20
185.4108055213
 11
253.014104876
 21
190.7328705203
  0
LINE
  5
38C
100
AcDbEntity
  8
3_ALL_AXES
100
AcDbLine
 62
7
  6
CONTINUOUS
 10
252.8980008812
 20
183.0300862417
 11
252.8980008812
 21
182.6500862417
  0
LINE
  5
38D
100
AcDbEntity
  8
03___PRT_ALL_CURVES
100
AcDbLine
 62
40
  6
CONTINUOUS
 10
268.1494750654
 20
224.5011750444
 11
267.9815084216
 21
224.4335703904
  0
LINE
  5
38E
100
AcDbEntity
  8
3_ALL_AXES
100
AcDbLine
 62
7
  6
CONTINUOUS
 10
252.8980008812
 20
182.6500862417
 11
260.4980008812
 21
182.6500862417
  0
LINE
  5
38F
100
AcDbEntity
  8
3_ALL_AXES
100
AcDbLine
 62
7
  6
CONTINUOUS
 10
286.8391263782
 20
182.6500862417
 11
294.4391263782
 21
182.6500862417
  0
LINE
  5
390
100
AcDbEntity
  8
7_ALL_FEATURES
100
AcDbLine
 62
3
  6
CONTINUOUS
 10
297.0260709348
 20
183.0300862417
 11
284.0630333132
 21
183.0300862417
  0
LINE
  5
391
100
AcDbEntity
  8
3_ALL_AXES
100
AcDbLine
 62
7
  6
CONTINUOUS
 10
253.2233494516
 20
183.0300862417
 11
255.1769377908
 21
183.0300862417
  0
LINE
  5
392
100
AcDbEntity
  8
7_ALL_FEATURES
100
AcDbLine
 62
3
  6
CONTINUOUS
 10
250.3110563247
 20
183.0300862417
 11
253.2233494516
 21
183.0300862417
  0
LINE
  5
393
100
AcDbEntity
  8
7_ALL_FEATURES
100
AcDbLine
 62
3
  6
CONTINUOUS
 10
255.1769377908
 20
183.0300862417
 11
263.2740939463
 21
183.0300862417
  0
LINE
  5
394
100
AcDbEntity
  8
7_ALL_FEATURES
100
AcDbLine
 62
7
  6
CONTINUOUS
 10
301.6683081904
 20
183.5300862417
 11
258.0892309177
 21
183.5300862417
  0
LINE
  5
395
100
AcDbEntity
  8
7_ALL_FEATURES
100
AcDbLine
 62
7
  6
CONTINUOUS
 10
249.6629357374
 20
183.5300862417
 11
245.668819069
 21
183.5300862417
  0
LINE
  5
396
100
AcDbEntity
  8
7_ALL_FEATURES
100
AcDbLine
 62
9
  6
CONTINUOUS
 10
249.621123812
 20
183.6221627671
 11
257.3992984051
 21
183.6221627671
  0
LINE
  5
397
100
AcDbEntity
  8
7_ALL_FEATURES
100
AcDbLine
 62
3
  6
CONTINUOUS
 10
257.3992984051
 20
183.6221627671
 11
254.1234787066
 21
192.5215132745
  0
LINE
  5
398
100
AcDbEntity
  8
7_ALL_FEATURES
100
AcDbLine
 62
7
  6
CONTINUOUS
 10
257.7129040926
 20
183.8530370737
 11
254.4370843942
 21
192.7523875811
  0
LINE
  5
399
100
AcDbEntity
  8
7_ALL_FEATURES
100
AcDbLine
 62
3
  6
CONTINUOUS
 10
254.2719935606
 20
197.7813625494
 11
253.9819480757
 21
198.7716397777
  0
LINE
  5
39A
100
AcDbEntity
  8
7_ALL_FEATURES
100
AcDbLine
 62
7
  6
CONTINUOUS
 10
254.2319480757
 20
198.4180863871
 11
254.5219935606
 21
197.4278091588
  0
LINE
  5
39B
100
AcDbEntity
  8
7_ALL_FEATURES
100
AcDbLine
 62
7
  6
CONTINUOUS
 10
244.6685636297
 20
184.5300862417
 11
249.2869203665
 21
184.5300862417
  0
LINE
  5
39C
100
AcDbEntity
  8
7_ALL_FEATURES
100
AcDbLine
 62
7
  6
CONTINUOUS
 10
257.4636846693
 20
184.5300862417
 11
302.6685636297
 21
184.5300862417
  0
LINE
  5
39D
100
AcDbEntity
  8
7_ALL_FEATURES
100
AcDbLine
 62
4
  6
CONTINUOUS
 10
250.7304976426
 20
185.4108055213
 11
254.9731383297
 21
185.4108055213
  0
LINE
  5
39E
100
AcDbEntity
  8
7_ALL_FEATURES
100
AcDbLine
 62
7
  6
CONTINUOUS
 10
254.4660139794
 20
186.0713329217
 11
253.7518361305
 21
186.0713329217
  0
LINE
  5
39F
100
AcDbEntity
  8
7_ALL_FEATURES
100
AcDbLine
 62
7
  6
CONTINUOUS
 10
251.6375868547
 20
186.0713329217
 11
250.9234090057
 21
186.0713329217
  0
LINE
  5
3A0
100
AcDbEntity
  8
7_ALL_FEATURES
100
AcDbLine
 62
7
  6
CONTINUOUS
 10
254.6687544993
 20
196.971921694
 11
254.4162201607
 21
197.3290591806
  0
LINE
  5
3A1
100
AcDbEntity
  8
7_ALL_FEATURES
100
AcDbLine
 62
7
  6
CONTINUOUS
 10
254.2319480757
 20
198.4180863871
 11
253.9819480757
 21
198.7716397777
  0
LINE
  5
3A2
100
AcDbEntity
  8
7_ALL_FEATURES
100
AcDbLine
 62
9
  6
CONTINUOUS
 10
258.0892309177
 20
183.0300862417
 11
258.0892309177
 21
183.5300862417
  0
LINE
  5
3A3
100
AcDbEntity
  8
7_ALL_FEATURES
100
AcDbLine
 62
7
  6
CONTINUOUS
 10
258.7979833536
 20
201.0300862417
 11
258.7979833536
 21
184.5300862417
  0
LINE
  5
3A4
100
AcDbEntity
  8
7_ALL_FEATURES
100
AcDbLine
 62
4
  6
CONTINUOUS
 10
252.7887333104
 20
186.3749693077
 11
252.9491616069
 21
186.8879146396
  0
LINE
  5
3A5
100
AcDbEntity
  8
7_ALL_FEATURES
100
AcDbLine
 62
4
  6
CONTINUOUS
 10
253.014104876
 20
190.7328705203
 11
248.7714641889
 21
190.7328705203
  0
LINE
  5
3A6
100
AcDbEntity
  8
3_ALL_AXES
100
AcDbLine
 62
7
  6
CONTINUOUS
 10
260.4980008812
 20
183.0300862417
 11
260.4980008812
 21
182.6500862417
  0
LINE
  5
3A7
100
AcDbEntity
  8
7_ALL_FEATURES
100
AcDbLine
 62
7
  6
CONTINUOUS
 10
263.2740939463
 20
183.0300862417
 11
263.2740939463
 21
183.5300862417
  0
LINE
  5
3A8
100
AcDbEntity
  8
7_ALL_FEATURES
100
AcDbLine
 62
9
  6
CONTINUOUS
 10
246.3453041136
 20
192.5215132745
 11
254.1234787066
 21
192.5215132745
  0
LINE
  5
3A9
100
AcDbEntity
  8
3_ALL_AXES
100
AcDbLine
 62
7
  6
CONTINUOUS
 10
265.9411570194
 20
183.5300862417
 11
265.9411570194
 21
180.0300862417
  0
LINE
  5
3AA
100
AcDbEntity
  8
3_ALL_AXES
100
AcDbLine
 62
7
  6
CONTINUOUS
 10
265.9411570194
 20
177.0300862417
 11
265.9411570194
 21
172.5300862417
  0
LINE
  5
3AB
100
AcDbEntity
  8
3_ALL_AXES
100
AcDbLine
 62
7
  6
CONTINUOUS
 10
266.6685636297
 20
171.0300862417
 11
266.6685636297
 21
171.5300862417
  0
LINE
  5
3AC
100
AcDbEntity
  8
7_ALL_FEATURES
100
AcDbLine
 62
4
  6
CONTINUOUS
 10
251.7057293114
 20
187.0199729279
 11
252.1048881548
 21
187.675412823
  0
LINE
  5
3AD
100
AcDbEntity
  8
7_ALL_FEATURES
100
AcDbLine
 62
3
  6
CONTINUOUS
 10
249.0322006074
 20
198.7716397777
 11
247.3416916357
 21
197.7813625494
  0
LINE
  5
3AE
100
AcDbEntity
  8
7_ALL_FEATURES
100
AcDbLine
 62
9
  6
CONTINUOUS
 10
247.3416916357
 20
197.7813625494
 11
254.2719935606
 21
197.7813625494
  0
LINE
  5
3AF
100
AcDbEntity
  8
7_ALL_FEATURES
100
AcDbLine
 62
7
  6
CONTINUOUS
 10
238.6185636297
 20
229.5300862417
 11
238.1185636297
 21
230.0300862417
  0
LINE
  5
3B0
100
AcDbEntity
  8
3_ALL_AXES
100
AcDbLine
 62
7
  6
CONTINUOUS
 10
267.6685636297
 20
177.0300862417
 11
267.6685636297
 21
180.0300862417
  0
LINE
  5
3B1
100
AcDbEntity
  8
3_ALL_AXES
100
AcDbLine
 62
7
  6
CONTINUOUS
 10
268.062477363
 20
171.0300862417
 11
268.062477363
 21
171.5300862417
  0
LINE
  5
3B2
100
AcDbEntity
  8
3_ALL_AXES
100
AcDbLine
 62
7
  6
CONTINUOUS
 10
269.4766909253
 20
171.0300862417
 11
269.4766909253
 21
171.5300862417
  0
LINE
  5
3B3
100
AcDbEntity
  8
7_ALL_FEATURES
100
AcDbLine
 62
3
  6
CONTINUOUS
 10
253.9819480757
 20
198.7716397777
 11
249.0322006074
 21
198.7716397777
  0
LINE
  5
3B4
100
AcDbEntity
  8
7_ALL_FEATURES
100
AcDbLine
 62
7
  6
CONTINUOUS
 10
258.7979833536
 20
201.0300862417
 11
248.7714585319
 21
201.0300862417
  0
LINE
  5
3B5
100
AcDbEntity
  8
7_ALL_FEATURES
100
AcDbLine
 62
7
  6
CONTINUOUS
 10
238.6185636297
 20
233.5300862417
 11
238.3685636297
 21
233.7800862417
  0
LINE
  5
3B6
100
AcDbEntity
  8
7_ALL_FEATURES
100
AcDbLine
 62
7
  6
CONTINUOUS
 10
244.6685636297
 20
229.0300862417
 11
244.1685636297
 21
229.5300862417
  0
LINE
  5
3B7
100
AcDbEntity
  8
7_ALL_FEATURES
100
AcDbLine
 62
7
  6
CONTINUOUS
 10
238.6185636297
 20
235.1300862417
 11
238.1185636297
 21
235.6300862417
  0
LINE
  5
3B8
100
AcDbEntity
  8
03___PRT_ALL_CURVES
100
AcDbLine
 62
40
  6
CONTINUOUS
 10
267.7663428037
 20
225.8772792888
 11
267.9015246616
 21
224.8485649473
  0
LINE
  5
3B9
100
AcDbEntity
  8
03___PRT_ALL_CURVES
100
AcDbLine
 62
40
  6
CONTINUOUS
 10
268.0247935465
 20
225.1457101872
 11
267.9581276427
 21
225.685738088
  0
LINE
  5
3BA
100
AcDbEntity
  8
03___PRT_ALL_CURVES
100
AcDbLine
 62
40
  6
CONTINUOUS
 10
272.5277329995
 20
221.8873969647
 11
272.4590775438
 21
222.9348732538
  0
LINE
  5
3BB
100
AcDbEntity
  8
03___PRT_ALL_CURVES
100
AcDbLine
 62
40
  6
CONTINUOUS
 10
272.7590795597
 20
222.9545364248
 11
272.8277345524
 21
221.9070601054
  0
LINE
  5
3BC
100
AcDbEntity
  8
3_ALL_AXES
100
AcDbLine
 62
7
  6
CONTINUOUS
 10
271.5980112689
 20
183.5300862417
 11
271.5980112689
 21
180.0300862417
  0
LINE
  5
3BD
100
AcDbEntity
  8
3_ALL_AXES
100
AcDbLine
 62
7
  6
CONTINUOUS
 10
271.5980112689
 20
177.0300862417
 11
271.5980112689
 21
172.5300862417
  0
LINE
  5
3BE
100
AcDbEntity
  8
7_ALL_FEATURES
100
AcDbLine
 62
7
  6
CONTINUOUS
 10
272.9185636291
 20
203.463838362
 11
272.9185636303
 21
210.0963341216
  0
LINE
  5
3BF
100
AcDbEntity
  8
03___PRT_ALL_CURVES
100
AcDbLine
 62
40
  6
CONTINUOUS
 10
273.518239151
 20
211.3800862417
 11
273.518239151
 21
213.0794372842
  0
LINE
  5
3C0
100
AcDbEntity
  8
03___PRT_ALL_CURVES
100
AcDbLine
 62
40
  6
CONTINUOUS
 10
273.518239151
 20
221.9304107204
 11
273.518239151
 21
224.1297617629
  0
LINE
  5
3C1
100
AcDbEntity
  8
03___PRT_ALL_CURVES
100
AcDbLine
 62
40
  6
CONTINUOUS
 10
273.8188881084
 20
224.1297617629
 11
273.8188881084
 21
221.9304107204
  0
LINE
  5
3C2
100
AcDbEntity
  8
03___PRT_ALL_CURVES
100
AcDbLine
 62
40
  6
CONTINUOUS
 10
273.8188881084
 20
213.0794372842
 11
273.8188881084
 21
211.3800862417
  0
LINE
  5
3C3
100
AcDbEntity
  8
03___PRT_ALL_CURVES
100
AcDbLine
 62
40
  6
CONTINUOUS
 10
274.509392707
 20
221.9070601054
 11
274.5780476997
 21
222.9545364248
  0
LINE
  5
3C4
100
AcDbEntity
  8
03___PRT_ALL_CURVES
100
AcDbLine
 62
40
  6
CONTINUOUS
 10
274.8780497157
 20
222.9348732538
 11
274.80939426
 21
221.8873969647
  0
LINE
  5
3C5
100
AcDbEntity
  8
03___PRT_ALL_CURVES
100
AcDbLine
 62
40
  6
CONTINUOUS
 10
275.4970393629
 20
221.820418876
 11
275.7841122798
 21
224.0009541655
  0
LINE
  5
3C6
100
AcDbEntity
  8
03___PRT_ALL_CURVES
100
AcDbLine
 62
40
  6
CONTINUOUS
 10
276.0821891437
 20
223.9617116019
 11
275.7951162268
 21
221.7811763124
  0
LINE
  5
3C7
100
AcDbEntity
  8
03___PRT_ALL_CURVES
100
AcDbLine
 62
40
  6
CONTINUOUS
 10
276.4766655959
 20
221.6678965292
 11
276.6814563311
 21
222.6974502687
  0
LINE
  5
3C8
100
AcDbEntity
  8
03___PRT_ALL_CURVES
100
AcDbLine
 62
40
  6
CONTINUOUS
 10
276.9763252293
 20
222.6387971981
 11
276.7715340392
 21
221.6092435491
  0
LINE
  5
3C9
100
AcDbEntity
  8
03___PRT_ALL_CURVES
100
AcDbLine
 62
40
  6
CONTINUOUS
 10
277.444553848
 20
221.4530827703
 11
278.0137877847
 21
223.5774927434
  0
LINE
  5
3CA
100
AcDbEntity
  8
03___PRT_ALL_CURVES
100
AcDbLine
 62
40
  6
CONTINUOUS
 10
278.6122545658
 20
225.2301919921
 11
278.5529345043
 21
225.0088065084
  0
LINE
  5
3CB
100
AcDbEntity
  8
03___PRT_ALL_CURVES
100
AcDbLine
 62
40
  6
CONTINUOUS
 10
278.3041923773
 20
223.4996790674
 11
277.7349584406
 21
221.3752690943
  0
LINE
  5
3CC
100
AcDbEntity
  8
03___PRT_ALL_CURVES
100
AcDbLine
 62
40
  6
CONTINUOUS
 10
279.1194140046
 20
225.6578395532
 11
278.9785288738
 21
225.1320490871
  0
LINE
  5
3CD
100
AcDbEntity
  8
03___PRT_ALL_CURVES
100
AcDbLine
 62
40
  6
CONTINUOUS
 10
278.9192088122
 20
224.9106636034
 11
278.777264399
 21
224.3809198414
  0
LINE
  5
3CE
100
AcDbEntity
  8
03___PRT_ALL_CURVES
100
AcDbLine
 62
40
  6
CONTINUOUS
 10
278.9340791166
 20
224.3389014645
 11
279.0760235298
 21
224.8686452264
  0
LINE
  5
3CF
100
AcDbEntity
  8
03___PRT_ALL_CURVES
100
AcDbLine
 62
40
  6
CONTINUOUS
 10
279.1353435914
 20
225.0900307101
 11
279.2762287222
 21
225.6158211763
  0
LINE
  5
3D0
100
AcDbEntity
  8
03___PRT_ALL_CURVES
100
AcDbLine
 62
40
  6
CONTINUOUS
 10
279.442297899
 20
224.770502305
 11
279.5016179606
 21
224.9918877887
  0
LINE
  5
3D1
100
AcDbEntity
  8
03___PRT_ALL_CURVES
100
AcDbLine
 62
40
  6
CONTINUOUS
 10
281.1154091184
 20
225.4633983579
 11
280.7181228708
 21
224.5049146759
  0
LINE
  5
3D2
100
AcDbEntity
  8
03___PRT_ALL_CURVES
100
AcDbLine
 62
40
  6
CONTINUOUS
 10
280.9734494765
 20
224.7006155598
 11
281.1857290606
 21
225.2016263926
  0
LINE
  5
3D3
100
AcDbEntity
  8
7_ALL_FEATURES
100
AcDbLine
 62
7
  6
CONTINUOUS
 10
308.9685636297
 20
240.8800862417
 11
308.7185636297
 21
240.6300862417
  0
LINE
  5
3D4
100
AcDbEntity
  8
7_ALL_FEATURES
100
AcDbLine
 62
9
  6
CONTINUOUS
 10
254.1234787066
 20
192.5215132745
 11
254.4370843942
 21
192.7523875811
  0
LINE
  5
3D5
100
AcDbEntity
  8
03___PRT_ALL_CURVES
100
AcDbLine
 62
40
  6
CONTINUOUS
 10
266.2098265608
 20
224.2935842644
 11
266.2737368564
 21
224.0550677941
  0
LINE
  5
3D6
100
AcDbEntity
  8
03___PRT_ALL_CURVES
100
AcDbLine
 62
40
  6
CONTINUOUS
 10
266.781144398
 20
224.1910272351
 11
266.7172341024
 21
224.4295437054
  0
LINE
  5
3D7
100
AcDbEntity
  8
03___PRT_ALL_CURVES
100
AcDbLine
 62
40
  6
CONTINUOUS
 10
266.8076733931
 20
225.1359574867
 11
266.8691120195
 21
224.9066654115
  0
LINE
  5
3D8
100
AcDbEntity
  8
03___PRT_ALL_CURVES
100
AcDbLine
 62
40
  6
CONTINUOUS
 10
267.1229212799
 20
225.2811603209
 11
267.5279218833
 21
223.7696774921
  0
LINE
  5
3D9
100
AcDbEntity
  8
03___PRT_ALL_CURVES
100
AcDbLine
 62
40
  6
CONTINUOUS
 10
267.6936974698
 20
223.8140969266
 11
267.173940784
 21
225.7538552859
  0
LINE
  5
3DA
100
AcDbEntity
  8
03___PRT_ALL_CURVES
100
AcDbLine
 62
40
  6
CONTINUOUS
 10
270.5655932203
 20
221.6092435491
 11
270.3608020301
 21
222.6387971981
  0
LINE
  5
3DB
100
AcDbEntity
  8
03___PRT_ALL_CURVES
100
AcDbLine
 62
40
  6
CONTINUOUS
 10
271.2549381157
 20
223.9617116019
 11
271.5420110327
 21
221.7811763124
  0
LINE
  5
3DC
100
AcDbEntity
  8
7_ALL_FEATURES
100
AcDbLine
 62
7
  6
CONTINUOUS
 10
274.4185636291
 20
203.4638383618
 11
274.4185636303
 21
210.0963341213
  0
LINE
  5
3DD
100
AcDbEntity
  8
3_ALL_AXES
100
AcDbLine
 62
7
  6
CONTINUOUS
 10
274.4957887478
 20
171.0300862417
 11
274.4957887478
 21
171.5300862417
  0
LINE
  5
3DE
100
AcDbEntity
  8
3_ALL_AXES
100
AcDbLine
 62
7
  6
CONTINUOUS
 10
276.4276404004
 20
171.0300862417
 11
276.4276404004
 21
171.5300862417
  0
LINE
  5
3DF
100
AcDbEntity
  8
03___PRT_ALL_CURVES
100
AcDbLine
 62
40
  6
CONTINUOUS
 10
279.914516154
 20
225.3007295501
 11
279.8530775276
 21
225.0714374749
  0
LINE
  5
3E0
100
AcDbEntity
  8
03___PRT_ALL_CURVES
100
AcDbLine
 62
40
  6
CONTINUOUS
 10
280.2601302495
 20
225.2688549499
 11
279.8551296462
 21
223.757372121
  0
LINE
  5
3E1
100
AcDbEntity
  8
03___PRT_ALL_CURVES
100
AcDbLine
 62
40
  6
CONTINUOUS
 10
280.0209052327
 20
223.7129526865
 11
280.5406619186
 21
225.6527110457
  0
LINE
  5
3E2
100
AcDbEntity
  8
03___PRT_ALL_CURVES
100
AcDbLine
 62
40
  6
CONTINUOUS
 10
281.7233794371
 20
225.0575634084
 11
281.7841118855
 21
225.2842199915
  0
LINE
  5
3E3
100
AcDbEntity
  8
7_ALL_FEATURES
100
AcDbLine
 62
7
  6
CONTINUOUS
 10
309.2185636297
 20
235.6300862417
 11
308.7185636297
 21
235.1300862417
  0
LINE
  5
3E4
100
AcDbEntity
  8
7_ALL_FEATURES
100
AcDbLine
 62
7
  6
CONTINUOUS
 10
302.6685636297
 20
229.0300862417
 11
303.1685636297
 21
229.5300862417
  0
LINE
  5
3E5
100
AcDbEntity
  8
03___PRT_ALL_CURVES
100
AcDbLine
 62
40
  6
CONTINUOUS
 10
279.9679146723
 20
206.6297617629
 11
278.2685635865
 21
206.6297617629
  0
LINE
  5
3E6
100
AcDbEntity
  8
03___PRT_ALL_CURVES
100
AcDbLine
 62
40
  6
CONTINUOUS
 10
267.3692125872
 20
206.6297617629
 11
269.0685636729
 21
206.6297617629
  0
LINE
  5
3E7
100
AcDbEntity
  8
03___PRT_ALL_CURVES
100
AcDbLine
 62
40
  6
CONTINUOUS
 10
269.0685636297
 20
206.9304107204
 11
267.3692125444
 21
206.9304107204
  0
LINE
  5
3E8
100
AcDbEntity
  8
03___PRT_ALL_CURVES
100
AcDbLine
 62
40
  6
CONTINUOUS
 10
278.2685636297
 20
206.9304107204
 11
279.967914715
 21
206.9304107204
  0
LINE
  5
3E9
100
AcDbEntity
  8
7_ALL_FEATURES
100
AcDbLine
 62
7
  6
CONTINUOUS
 10
238.6185636297
 20
240.6300862417
 11
238.3685636297
 21
240.8800862417
  0
LINE
  5
3EA
100
AcDbEntity
  8
03___PRT_ALL_CURVES
100
AcDbLine
 62
40
  6
CONTINUOUS
 10
269.0329348822
 20
223.4996790674
 11
269.6021688188
 21
221.3752690943
  0
LINE
  5
3EB
100
AcDbEntity
  8
03___PRT_ALL_CURVES
100
AcDbLine
 62
40
  6
CONTINUOUS
 10
268.4957780192
 20
225.8298010722
 11
268.4350455708
 21
226.0564576553
  0
LINE
  5
3EC
100
AcDbEntity
  8
03___PRT_ALL_CURVES
100
AcDbLine
 62
40
  6
CONTINUOUS
 10
269.8925734115
 20
221.4530827703
 11
269.3233394748
 21
223.5774927434
  0
LINE
  5
3ED
100
AcDbEntity
  8
03___PRT_ALL_CURVES
100
AcDbLine
 62
40
  6
CONTINUOUS
 10
270.6556709283
 20
222.6974502687
 11
270.8604616635
 21
221.6678965292
  0
LINE
  5
3EE
100
AcDbEntity
  8
03___PRT_ALL_CURVES
100
AcDbLine
 62
40
  6
CONTINUOUS
 10
271.8400878966
 20
221.820418876
 11
271.5530149796
 21
224.0009541655
  0
LINE
  5
3EF
100
AcDbEntity
  8
3_ALL_AXES
100
AcDbLine
 62
7
  6
CONTINUOUS
 10
279.3254178792
 20
183.5300862417
 11
279.3254178792
 21
180.0300862417
  0
LINE
  5
3F0
100
AcDbEntity
  8
3_ALL_AXES
100
AcDbLine
 62
7
  6
CONTINUOUS
 10
279.3254178792
 20
177.0300862417
 11
279.3254178792
 21
172.5300862417
  0
LINE
  5
3F1
100
AcDbEntity
  8
3_ALL_AXES
100
AcDbLine
 62
7
  6
CONTINUOUS
 10
279.6685636297
 20
177.0300862417
 11
279.6685636297
 21
180.0300862417
  0
LINE
  5
3F2
100
AcDbEntity
  8
3_ALL_AXES
100
AcDbLine
 62
7
  6
CONTINUOUS
 10
280.1018750145
 20
171.0300862417
 11
280.1018750145
 21
171.5300862417
  0
LINE
  5
3F3
100
AcDbEntity
  8
3_ALL_AXES
100
AcDbLine
 62
7
  6
CONTINUOUS
 10
280.6195131047
 20
171.0300862417
 11
280.6195131047
 21
171.5300862417
  0
LINE
  5
3F4
100
AcDbEntity
  8
3_ALL_AXES
100
AcDbLine
 62
7
  6
CONTINUOUS
 10
280.6685636297
 20
171.0300862417
 11
280.6685636297
 21
171.5300862417
  0
LINE
  5
3F5
100
AcDbEntity
  8
7_ALL_FEATURES
100
AcDbLine
 62
7
  6
CONTINUOUS
 10
308.7185636297
 20
233.5300862417
 11
308.9685636297
 21
233.7800862417
  0
LINE
  5
3F6
100
AcDbEntity
  8
7_ALL_FEATURES
100
AcDbLine
 62
7
  6
CONTINUOUS
 10
308.7185636297
 20
229.5300862417
 11
309.2185636297
 21
230.0300862417
  0
LINE
  5
3F7
100
AcDbEntity
  8
7_ALL_FEATURES
100
AcDbLine
 62
9
  6
CONTINUOUS
 10
257.3992984051
 20
183.6221627671
 11
257.7129040926
 21
183.8530370737
  0
LINE
  5
3F8
100
AcDbEntity
  8
3_ALL_AXES
100
AcDbLine
 62
7
  6
CONTINUOUS
 10
281.39597024
 20
183.5300862417
 11
281.39597024
 21
180.0300862417
  0
LINE
  5
3F9
100
AcDbEntity
  8
3_ALL_AXES
100
AcDbLine
 62
7
  6
CONTINUOUS
 10
281.39597024
 20
177.0300862417
 11
281.39597024
 21
172.5300862417
  0
LINE
  5
3FA
100
AcDbEntity
  8
7_ALL_FEATURES
100
AcDbLine
 62
7
  6
CONTINUOUS
 10
284.0630333132
 20
183.0300862417
 11
284.0630333132
 21
183.5300862417
  0
LINE
  5
3FB
100
AcDbEntity
  8
3_ALL_AXES
100
AcDbLine
 62
7
  6
CONTINUOUS
 10
286.8391263782
 20
183.0300862417
 11
286.8391263782
 21
182.6500862417
  0
LINE
  5
3FC
100
AcDbEntity
  8
7_ALL_FEATURES
100
AcDbLine
 62
7
  6
CONTINUOUS
 10
291.8412079062
 20
183.0300862417
 11
291.8412079062
 21
183.5300862417
  0
LINE
  5
3FD
100
AcDbEntity
  8
3_ALL_AXES
100
AcDbLine
 62
7
  6
CONTINUOUS
 10
294.4391263782
 20
183.0300862417
 11
294.4391263782
 21
182.6500862417
  0
LINE
  5
3FE
100
AcDbEntity
  8
03___PRT_ALL_CURVES
100
AcDbLine
 62
40
  6
CONTINUOUS
 10
267.5279218833
 20
223.7696774921
 11
267.6936974698
 21
223.8140969266
  0
LINE
  5
3FF
100
AcDbEntity
  8
03___PRT_ALL_CURVES
100
AcDbLine
 62
40
  6
CONTINUOUS
 10
267.9015246616
 20
224.8485649473
 11
268.0649873918
 21
224.8612922671
  0
LINE
  5
400
100
AcDbEntity
  8
03___PRT_ALL_CURVES
100
AcDbLine
 62
40
  6
CONTINUOUS
 10
280.7591592679
 20
224.0800909931
 11
280.5798935603
 21
224.1055269672
  0
LINE
  5
401
100
AcDbEntity
  8
03___PRT_ALL_CURVES
100
AcDbLine
 62
40
  6
CONTINUOUS
 10
279.8551296462
 20
223.757372121
 11
280.0209052327
 21
223.7129526865
  0
LINE
  5
402
100
AcDbEntity
  8
03___PRT_ALL_CURVES
100
AcDbLine
 62
40
  6
CONTINUOUS
 10
278.777264399
 20
224.3809198414
 11
278.9340791166
 21
224.3389014645
  0
LINE
  5
403
100
AcDbEntity
  8
7_ALL_FEATURES
100
AcDbLine
 62
9
  6
CONTINUOUS
 10
297.0260709348
 20
183.0300862417
 11
297.0260709348
 21
183.5300862417
  0
LINE
  5
404
100
AcDbEntity
  8
03___PRT_ALL_CURVES
100
AcDbLine
 62
40
  6
CONTINUOUS
 10
266.2737368564
 20
224.0550677941
 11
266.781144398
 21
224.1910272351
  0
LINE
  5
405
100
AcDbEntity
  8
03___PRT_ALL_CURVES
100
AcDbLine
 62
40
  6
CONTINUOUS
 10
266.7172341024
 20
224.4295437054
 11
266.2098265608
 21
224.2935842644
  0
LINE
  5
406
100
AcDbEntity
  8
03___PRT_ALL_CURVES
100
AcDbLine
 62
40
  6
CONTINUOUS
 10
267.9581276427
 20
225.685738088
 11
268.4957780192
 21
225.8298010722
  0
LINE
  5
407
100
AcDbEntity
  8
03___PRT_ALL_CURVES
100
AcDbLine
 62
40
  6
CONTINUOUS
 10
268.4350455708
 20
226.0564576553
 11
267.7663428037
 21
225.8772792888
  0
LINE
  5
408
100
AcDbEntity
  8
03___PRT_ALL_CURVES
100
AcDbLine
 62
40
  6
CONTINUOUS
 10
267.173940784
 20
225.7538552859
 11
267.0664106499
 21
225.7250426733
  0
LINE
  5
409
100
AcDbEntity
  8
03___PRT_ALL_CURVES
100
AcDbLine
 62
40
  6
CONTINUOUS
 10
278.5529345043
 20
225.0088065084
 11
278.9192088122
 21
224.9106636034
  0
LINE
  5
40A
100
AcDbEntity
  8
03___PRT_ALL_CURVES
100
AcDbLine
 62
40
  6
CONTINUOUS
 10
279.0760235298
 20
224.8686452264
 11
279.442297899
 21
224.770502305
  0
LINE
  5
40B
100
AcDbEntity
  8
03___PRT_ALL_CURVES
100
AcDbLine
 62
40
  6
CONTINUOUS
 10
279.5016179606
 20
224.9918877887
 11
279.1353435914
 21
225.0900307101
  0
LINE
  5
40C
100
AcDbEntity
  8
03___PRT_ALL_CURVES
100
AcDbLine
 62
40
  6
CONTINUOUS
 10
278.9785288738
 20
225.1320490871
 11
278.6122545658
 21
225.2301919921
  0
LINE
  5
40D
100
AcDbEntity
  8
03___PRT_ALL_CURVES
100
AcDbLine
 62
40
  6
CONTINUOUS
 10
279.2762287222
 20
225.6158211763
 11
279.1194140046
 21
225.6578395532
  0
LINE
  5
40E
100
AcDbEntity
  8
03___PRT_ALL_CURVES
100
AcDbLine
 62
40
  6
CONTINUOUS
 10
281.1857290606
 20
225.2016263926
 11
281.7233794371
 21
225.0575634084
  0
LINE
  5
40F
100
AcDbEntity
  8
03___PRT_ALL_CURVES
100
AcDbLine
 62
40
  6
CONTINUOUS
 10
281.7841118855
 20
225.2842199915
 11
281.1154091184
 21
225.4633983579
  0
LINE
  5
410
100
AcDbEntity
  8
03___PRT_ALL_CURVES
100
AcDbLine
 62
40
  6
CONTINUOUS
 10
280.5406619186
 20
225.6527110457
 11
280.4331316867
 21
225.6815236845
  0
LINE
  5
411
100
AcDbEntity
  8
03___PRT_ALL_CURVES
100
AcDbLine
 62
40
  6
CONTINUOUS
 10
280.7181228708
 20
224.5049146759
 11
280.8660492118
 21
224.4342055455
  0
LINE
  5
412
100
AcDbEntity
  8
7_ALL_FEATURES
100
AcDbLine
 62
7
  6
CONTINUOUS
 10
302.6685636297
 20
229.0300862417
 11
244.6685636297
 21
229.0300862417
  0
LINE
  5
413
100
AcDbEntity
  8
7_ALL_FEATURES
100
AcDbLine
 62
7
  6
CONTINUOUS
 10
308.7185636297
 20
229.5300862417
 11
238.6185636297
 21
229.5300862417
  0
LINE
  5
414
100
AcDbEntity
  8
7_ALL_FEATURES
100
AcDbLine
 62
7
  6
CONTINUOUS
 10
308.7185636297
 20
230.0300862417
 11
238.6185636297
 21
230.0300862417
  0
LINE
  5
415
100
AcDbEntity
  8
02___PRT_ALL_AXES
100
AcDbLine
 62
7
  6
CONTINUOUS
 10
302.6685636297
 20
229.0300862417
 11
302.6685636297
 21
184.5300862417
  0
LINE
  5
416
100
AcDbEntity
  8
3_ALL_AXES
100
AcDbLine
 62
7
  6
CONTINUOUS
 10
280.6685636297
 20
171.5300862417
 11
280.8411674071
 21
171.702690019
  0
LINE
  5
417
100
AcDbEntity
  8
7_ALL_FEATURES
100
AcDbLine
 62
7
  6
CONTINUOUS
 10
238.6185636297
 20
233.5300862417
 11
308.7185636297
 21
233.5300862417
  0
LINE
  5
418
100
AcDbEntity
  8
7_ALL_FEATURES
100
AcDbLine
 62
7
  6
CONTINUOUS
 10
238.6185636297
 20
234.0300862417
 11
308.7185636297
 21
234.0300862417
  0
LINE
  5
419
100
AcDbEntity
  8
7_ALL_FEATURES
100
AcDbLine
 62
7
  6
CONTINUOUS
 10
308.7185636297
 20
235.1300862417
 11
238.6185636297
 21
235.1300862417
  0
LINE
  5
41A
100
AcDbEntity
  8
06___PRT_ALL_SURFS
100
AcDbLine
 62
7
  6
CONTINUOUS
 10
308.7185636297
 20
235.1300862417
 11
238.6185636297
 21
235.1300862417
  0
LINE
  5
41B
100
AcDbEntity
  8
7_ALL_FEATURES
100
AcDbLine
 62
9
  6
CONTINUOUS
 10
306.4185636297
 20
235.1300862417
 11
306.4185636297
 21
234.0300862417
  0
LINE
  5
41C
100
AcDbEntity
  8
7_ALL_FEATURES
100
AcDbLine
 62
7
  6
CONTINUOUS
 10
301.6685636297
 20
183.5300862417
 11
302.6685636297
 21
184.5300862417
  0
LINE
  5
41D
100
AcDbEntity
  8
7_ALL_FEATURES
100
AcDbLine
 62
7
  6
CONTINUOUS
 10
308.7185636297
 20
235.6300862417
 11
238.6185636297
 21
235.6300862417
  0
LINE
  5
41E
100
AcDbEntity
  8
7_ALL_FEATURES
100
AcDbLine
 62
7
  6
CONTINUOUS
 10
308.4185636297
 20
235.1300862417
 11
308.4185636297
 21
234.0300862417
  0
LINE
  5
41F
100
AcDbEntity
  8
7_ALL_FEATURES
100
AcDbLine
 62
7
  6
CONTINUOUS
 10
308.7185636297
 20
230.0300862417
 11
308.7185636297
 21
233.5300862417
  0
LINE
  5
420
100
AcDbEntity
  8
7_ALL_FEATURES
100
AcDbLine
 62
7
  6
CONTINUOUS
 10
308.7185636297
 20
235.6300862417
 11
308.7185636297
 21
240.6300862417
  0
LINE
  5
421
100
AcDbEntity
  8
7_ALL_FEATURES
100
AcDbLine
 62
7
  6
CONTINUOUS
 10
309.2185636297
 20
230.0300862417
 11
309.2185636297
 21
233.5300862417
  0
LINE
  5
422
100
AcDbEntity
  8
7_ALL_FEATURES
100
AcDbLine
 62
7
  6
CONTINUOUS
 10
309.2185636297
 20
235.6300862417
 11
309.2185636297
 21
240.6300862417
  0
LINE
  5
423
100
AcDbEntity
  8
7_ALL_FEATURES
100
AcDbLine
 62
7
  6
CONTINUOUS
 10
238.6185636297
 20
240.6300862417
 11
308.7185636297
 21
240.6300862417
  0
LINE
  5
424
100
AcDbEntity
  8
7_ALL_FEATURES
100
AcDbLine
 62
7
  6
CONTINUOUS
 10
238.6185636297
 20
241.1300862417
 11
308.7185636297
 21
241.1300862417
  0
LINE
  5
425
100
AcDbEntity
  8
7_ALL_FEATURES
100
AcDbLine
 62
7
  6
CONTINUOUS
 10
308.7185636297
 20
230.0300862417
 11
308.9685636297
 21
229.7800862417
  0
LINE
  5
426
100
AcDbEntity
  8
7_ALL_FEATURES
100
AcDbLine
 62
7
  6
CONTINUOUS
 10
309.2185636297
 20
233.5300862417
 11
308.7185636297
 21
234.0300862417
  0
LINE
  5
427
100
AcDbEntity
  8
7_ALL_FEATURES
100
AcDbLine
 62
7
  6
CONTINUOUS
 10
308.7185636297
 20
235.6300862417
 11
308.9685636297
 21
235.3800862417
  0
LINE
  5
428
100
AcDbEntity
  8
7_ALL_FEATURES
100
AcDbLine
 62
7
  6
CONTINUOUS
 10
308.7185636297
 20
241.1300862417
 11
309.2185636297
 21
240.6300862417
  0
ARC
  5
429
100
AcDbEntity
  8
02___PRT_ALL_AXES
100
AcDbCircle
 62
7
  6
CONTINUOUS
 10
179.2218973949
 20
206.7518671147
 40
29.3846288002
100
AcDbArc
 50
171.6284188579
 51
179.9449767721
  0
ARC
  5
42A
100
AcDbEntity
  8
02___PRT_ALL_AXES
100
AcDbCircle
 62
7
  6
CONTINUOUS
 10
179.2218973864
 20
206.808305368
 40
29.3846287918
100
AcDbArc
 50
180.0550232267
 51
188.3715811433
  0
ARC
  5
42B
100
AcDbEntity
  8
03___PRT_ALL_CURVES
100
AcDbCircle
 62
40
  6
CONTINUOUS
 10
63.1505734515
 20
213.0794367372
 40
29.0002110586
100
AcDbArc
 50
0.0000010808
 51
0.2969988074
  0
ARC
  5
42C
100
AcDbEntity
  8
03___PRT_ALL_CURVES
100
AcDbCircle
 62
40
  6
CONTINUOUS
 10
63.1505734515
 20
224.1297612159
 40
29.0002110586
100
AcDbArc
 50
0.0000010808
 51
0.2969988074
  0
ARC
  5
42D
100
AcDbEntity
  8
3_ALL_AXES
100
AcDbCircle
 62
7
  6
CONTINUOUS
 10
146.6777548046
 20
206.6376434443
 40
4.1
100
AcDbArc
 50
323.2508756915
 51
333.6069742257
  0
ARC
  5
42E
100
AcDbEntity
  8
3_ALL_AXES
100
AcDbCircle
 62
7
  6
CONTINUOUS
 10
146.6777548046
 20
206.922529039
 40
4.1
100
AcDbArc
 50
26.3930257743
 51
36.7491245739
  0
ARC
  5
42F
100
AcDbEntity
  8
3_ALL_AXES
100
AcDbCircle
 62
7
  6
CONTINUOUS
 10
104.3222749451
 20
184.5027263333
 40
4.1
100
AcDbArc
 50
296.3930257743
 51
333.1366968699
  0
ARC
  5
430
100
AcDbEntity
  8
3_ALL_AXES
100
AcDbCircle
 62
7
  6
CONTINUOUS
 10
104.0373893504
 20
184.5027263333
 40
4.1
100
AcDbArc
 50
206.8633031301
 51
243.6069742257
  0
ARC
  5
431
100
AcDbEntity
  8
3_ALL_AXES
100
AcDbCircle
 62
7
  6
CONTINUOUS
 10
138.2634004421
 20
184.5027263333
 40
4.1
100
AcDbArc
 50
296.3930257743
 51
333.1366968699
  0
ARC
  5
432
100
AcDbEntity
  8
3_ALL_AXES
100
AcDbCircle
 62
7
  6
CONTINUOUS
 10
137.9785148474
 20
184.5027263333
 40
4.1
100
AcDbArc
 50
206.8633031301
 51
243.6069742257
  0
ARC
  5
433
100
AcDbEntity
  8
3_ALL_AXES
100
AcDbCircle
 62
7
  6
CONTINUOUS
 10
124.6503948962
 20
171.0300862417
 40
3.5
100
AcDbArc
 50
270.0
 51
360.0
  0
ARC
  5
434
100
AcDbEntity
  8
3_ALL_AXES
100
AcDbCircle
 62
7
  6
CONTINUOUS
 10
117.6503948962
 20
171.0300862417
 40
3.5
100
AcDbArc
 50
180.0
 51
270.0
  0
ARC
  5
435
100
AcDbEntity
  8
03___PRT_ALL_CURVES
100
AcDbCircle
 62
40
  6
CONTINUOUS
 10
92.1363172803
 20
225.4901677639
 40
0.8041808604
100
AcDbArc
 50
334.8383785867
 51
344.0258882498
  0
ARC
  5
436
100
AcDbEntity
  8
3_ALL_AXES
100
AcDbCircle
 62
7
  6
CONTINUOUS
 10
114.5599847466
 20
172.1826525872
 40
0.7455410388
100
AcDbArc
 50
238.2447371668
 51
241.0795905089
  0
ARC
  5
437
100
AcDbEntity
  8
3_ALL_AXES
100
AcDbCircle
 62
7
  6
CONTINUOUS
 10
256.5555580839
 20
184.5027263333
 40
4.1
100
AcDbArc
 50
206.8633031301
 51
243.6069742257
  0
ARC
  5
438
100
AcDbEntity
  8
3_ALL_AXES
100
AcDbCircle
 62
7
  6
CONTINUOUS
 10
256.8404436786
 20
184.5027263333
 40
4.1
100
AcDbArc
 50
296.3930257743
 51
333.1366968699
  0
ARC
  5
439
100
AcDbEntity
  8
3_ALL_AXES
100
AcDbCircle
 62
7
  6
CONTINUOUS
 10
270.1685636297
 20
171.0300862417
 40
3.5
100
AcDbArc
 50
180.0
 51
270.0
  0
ARC
  5
43A
100
AcDbEntity
  8
02___PRT_ALL_AXES
100
AcDbCircle
 62
7
  6
CONTINUOUS
 10
273.1514925618
 20
206.7800838972
 40
4.4931987048
100
AcDbArc
 50
359.6646541938
 51
0.3353459012
  0
ARC
  5
43B
100
AcDbEntity
  8
03___PRT_ALL_CURVES
100
AcDbCircle
 62
40
  6
CONTINUOUS
 10
267.3692125872
 20
206.7800862417
 40
0.1503244787
100
AcDbArc
 50
90.0
 51
270.0
  0
ARC
  5
43C
100
AcDbEntity
  8
03___PRT_ALL_CURVES
100
AcDbCircle
 62
40
  6
CONTINUOUS
 10
272.677685
 20
221.8979727127
 40
0.1503244787
100
AcDbArc
 50
184.0342511234
 51
3.4657488765
  0
ARC
  5
43D
100
AcDbEntity
  8
03___PRT_ALL_CURVES
100
AcDbCircle
 62
40
  6
CONTINUOUS
 10
272.6090329362
 20
222.9454007981
 40
0.1503244787
100
AcDbArc
 50
3.4841670038
 51
184.0158329972
  0
ARC
  5
43E
100
AcDbEntity
  8
03___PRT_ALL_CURVES
100
AcDbCircle
 62
40
  6
CONTINUOUS
 10
270.7128819485
 20
221.6393014837
 40
0.1503244787
100
AcDbArc
 50
191.5342511238
 51
10.9657488758
  0
ARC
  5
43F
100
AcDbEntity
  8
03___PRT_ALL_CURVES
100
AcDbCircle
 62
40
  6
CONTINUOUS
 10
270.5081004131
 20
222.6688077842
 40
0.1503244787
100
AcDbArc
 50
10.9841670018
 51
191.5158329961
  0
ARC
  5
440
100
AcDbEntity
  8
03___PRT_ALL_CURVES
100
AcDbCircle
 62
40
  6
CONTINUOUS
 10
269.0685636297
 20
206.7800862417
 40
0.1503244787
100
AcDbArc
 50
270.0
 51
90.0
  0
ARC
  5
441
100
AcDbEntity
  8
03___PRT_ALL_CURVES
100
AcDbCircle
 62
40
  6
CONTINUOUS
 10
271.4039765477
 20
223.9813328837
 40
0.1503244787
100
AcDbArc
 50
7.5
 51
187.5
  0
ARC
  5
442
100
AcDbEntity
  8
03___PRT_ALL_CURVES
100
AcDbCircle
 62
40
  6
CONTINUOUS
 10
271.6910494646
 20
221.8007975942
 40
0.1503244787
100
AcDbArc
 50
187.5
 51
7.5
  0
ARC
  5
443
100
AcDbEntity
  8
03___PRT_ALL_CURVES
100
AcDbCircle
 62
40
  6
CONTINUOUS
 10
269.1781371785
 20
223.5385859054
 40
0.1503244787
100
AcDbArc
 50
15.0
 51
195.0
  0
ARC
  5
444
100
AcDbEntity
  8
03___PRT_ALL_CURVES
100
AcDbCircle
 62
40
  6
CONTINUOUS
 10
269.7473711152
 20
221.4141759323
 40
0.1503244787
100
AcDbArc
 50
195.0
 51
15.0
  0
ARC
  5
445
100
AcDbEntity
  8
3_ALL_AXES
100
AcDbCircle
 62
7
  6
CONTINUOUS
 10
290.4966835809
 20
184.5027263333
 40
4.1
100
AcDbArc
 50
206.8633031301
 51
243.6069742257
  0
ARC
  5
446
100
AcDbEntity
  8
3_ALL_AXES
100
AcDbCircle
 62
7
  6
CONTINUOUS
 10
290.7815691756
 20
184.5027263333
 40
4.1
100
AcDbArc
 50
296.3930257743
 51
333.1366968699
  0
ARC
  5
447
100
AcDbEntity
  8
3_ALL_AXES
100
AcDbCircle
 62
7
  6
CONTINUOUS
 10
277.1685636297
 20
171.0300862417
 40
3.5
100
AcDbArc
 50
270.0
 51
360.0
  0
ARC
  5
448
100
AcDbEntity
  8
3_ALL_AXES
100
AcDbCircle
 62
7
  6
CONTINUOUS
 10
280.2589745121
 20
172.1826512828
 40
0.7455395427
100
AcDbArc
 50
298.9204086756
 51
301.7552064423
  0
ARC
  5
449
100
AcDbEntity
  8
02___PRT_ALL_AXES
100
AcDbCircle
 62
7
  6
CONTINUOUS
 10
274.1856346921
 20
206.7800885861
 40
4.4931986993
100
AcDbArc
 50
179.6646541938
 51
180.3353459015
  0
CIRCLE
  5
44A
100
AcDbEntity
  8
02___PRT_ALL_AXES
100
AcDbCircle
 62
7
  6
CONTINUOUS
 10
273.6685636297
 20
206.7800862417
 40
3.75
  0
CIRCLE
  5
44B
100
AcDbEntity
  8
3_ALL_AXES
100
AcDbCircle
 62
7
  6
CONTINUOUS
 10
273.6685636297
 20
206.7800862417
 40
3.67
  0
CIRCLE
  5
44C
100
AcDbEntity
  8
7_ALL_FEATURES
100
AcDbCircle
 62
7
  6
CONTINUOUS
 10
273.6685636297
 20
206.7800862417
 40
3.4
  0
ARC
  5
44D
100
AcDbEntity
  8
7_ALL_FEATURES
100
AcDbCircle
 62
7
  6
CONTINUOUS
 10
273.6685636297
 20
206.7800862417
 40
3.1
100
AcDbArc
 50
104.0008023758
 51
255.9991976033
  0
ARC
  5
44E
100
AcDbEntity
  8
7_ALL_FEATURES
100
AcDbCircle
 62
7
  6
CONTINUOUS
 10
273.6685636297
 20
206.7800862417
 40
3.1
100
AcDbArc
 50
284.0008023758
 51
75.9991976033
  0
ARC
  5
44F
100
AcDbEntity
  8
03___PRT_ALL_CURVES
100
AcDbCircle
 62
40
  6
CONTINUOUS
 10
273.6685636297
 20
213.0794372842
 40
0.1503244787
100
AcDbArc
 50
0.0
 51
180.0
  0
ARC
  5
450
100
AcDbEntity
  8
03___PRT_ALL_CURVES
100
AcDbCircle
 62
40
  6
CONTINUOUS
 10
273.6685636297
 20
211.3800862417
 40
0.1503244787
100
AcDbArc
 50
180.0
 51
360.0
  0
ARC
  5
451
100
AcDbEntity
  8
03___PRT_ALL_CURVES
100
AcDbCircle
 62
40
  6
CONTINUOUS
 10
279.9679146723
 20
206.7800862417
 40
0.1503244787
100
AcDbArc
 50
270.0
 51
90.0
  0
ARC
  5
452
100
AcDbEntity
  8
03___PRT_ALL_CURVES
100
AcDbCircle
 62
40
  6
CONTINUOUS
 10
278.2685636297
 20
206.7800862417
 40
0.1503244787
100
AcDbArc
 50
90.0
 51
270.0
  0
ARC
  5
453
100
AcDbEntity
  8
03___PRT_ALL_CURVES
100
AcDbCircle
 62
40
  6
CONTINUOUS
 10
274.6594422595
 20
221.8979727127
 40
0.1503244787
100
AcDbArc
 50
176.5342511233
 51
355.9657488761
  0
ARC
  5
454
100
AcDbEntity
  8
03___PRT_ALL_CURVES
100
AcDbCircle
 62
40
  6
CONTINUOUS
 10
274.7280943233
 20
222.9454007981
 40
0.1503244787
100
AcDbArc
 50
355.9841670032
 51
176.5158329959
  0
ARC
  5
455
100
AcDbEntity
  8
03___PRT_ALL_CURVES
100
AcDbCircle
 62
40
  6
CONTINUOUS
 10
276.6242453109
 20
221.6393014837
 40
0.1503244787
100
AcDbArc
 50
169.0342511232
 51
348.4657488758
  0
ARC
  5
456
100
AcDbEntity
  8
03___PRT_ALL_CURVES
100
AcDbCircle
 62
40
  6
CONTINUOUS
 10
276.8290268464
 20
222.6688077842
 40
0.1503244787
100
AcDbArc
 50
348.4841670032
 51
169.0158329963
  0
ARC
  5
457
100
AcDbEntity
  8
03___PRT_ALL_CURVES
100
AcDbCircle
 62
40
  6
CONTINUOUS
 10
277.5897561443
 20
221.4141759323
 40
0.1503244787
100
AcDbArc
 50
165.0
 51
345.0
  0
ARC
  5
458
100
AcDbEntity
  8
03___PRT_ALL_CURVES
100
AcDbCircle
 62
40
  6
CONTINUOUS
 10
278.158990081
 20
223.5385859054
 40
0.1503244787
100
AcDbArc
 50
345.0
 51
165.0
  0
ARC
  5
459
100
AcDbEntity
  8
03___PRT_ALL_CURVES
100
AcDbCircle
 62
40
  6
CONTINUOUS
 10
275.6460777948
 20
221.8007975942
 40
0.1503244787
100
AcDbArc
 50
172.5
 51
352.5
  0
ARC
  5
45A
100
AcDbEntity
  8
03___PRT_ALL_CURVES
100
AcDbCircle
 62
40
  6
CONTINUOUS
 10
275.9331507118
 20
223.9813328837
 40
0.1503244787
100
AcDbArc
 50
352.5
 51
172.5
  0
ARC
  5
45B
100
AcDbEntity
  8
03___PRT_ALL_CURVES
100
AcDbCircle
 62
40
  6
CONTINUOUS
 10
273.6685636297
 20
224.1297617629
 40
0.1503244787
100
AcDbArc
 50
0.0
 51
180.0
  0
ARC
  5
45C
100
AcDbEntity
  8
03___PRT_ALL_CURVES
100
AcDbCircle
 62
40
  6
CONTINUOUS
 10
273.6685636297
 20
221.9304107204
 40
0.1503244787
100
AcDbArc
 50
180.0
 51
360.0
  0
SPLINE
  5
45D
100
AcDbEntity
  8
3_ALL_AXES
100
AcDbSpline
 62
7
  6
CONTINUOUS
 70
0
 71
3
 72
11
 73
7
 74
0
 42
0.0000001
 43
0.0000001
 44
0.0000000001
 40
0.0
 40
0.0
 40
0.0
 40
0.0
 40
0.2812284586
 40
0.543347676
 40
0.7836700157
 40
1.0
 40
1.0
 40
1.0
 40
1.0
 10
128.8778015066
 20
172.5300862417
 30
0.0
 10
128.8347271796
 20
172.446873032
 30
0.0
 10
128.7484683532
 20
172.2876363038
 30
0.0
 10
128.612411679
 20
172.0645912308
 30
0.0
 10
128.4737504333
 20
171.8690764218
 30
0.0
 10
128.3739651476
 20
171.7536550983
 30
0.0
 10
128.3229987896
 20
171.7026882584
 30
0.0
  0
SPLINE
  5
45E
100
AcDbEntity
  8
3_ALL_AXES
100
AcDbSpline
 62
7
  6
CONTINUOUS
 70
0
 71
3
 72
11
 73
7
 74
0
 42
0.0000001
 43
0.0000001
 44
0.0000000001
 40
0.0
 40
0.0
 40
0.0
 40
0.0
 40
0.2812284586
 40
0.543347676
 40
0.7836700157
 40
1.0
 40
1.0
 40
1.0
 40
1.0
 10
113.4229882859
 20
172.5300862417
 30
0.0
 10
113.4660626128
 20
172.446873032
 30
0.0
 10
113.5523214393
 20
172.2876363038
 30
0.0
 10
113.6883781135
 20
172.0645912308
 30
0.0
 10
113.8270393592
 20
171.8690764218
 30
0.0
 10
113.9268246449
 20
171.7536550983
 30
0.0
 10
113.9777910028
 20
171.7026882584
 30
0.0
  0
SPLINE
  5
45F
100
AcDbEntity
  8
3_ALL_AXES
100
AcDbSpline
 62
7
  6
CONTINUOUS
 70
0
 71
3
 72
23
 73
19
 74
0
 42
0.0000001
 43
0.0000001
 44
0.0000000001
 40
0.0
 40
0.0
 40
0.0
 40
0.0
 40
0.1041170889
 40
0.1987311506
 40
0.2791747916
 40
0.3449979218
 40
0.3976280174
 40
0.4391112132
 40
0.4720285887
 40
0.5000276534
 40
0.5280319966
 40
0.5609638799
 40
0.6024544255
 40
0.6550865092
 40
0.720913556
 40
0.8013534514
 40
0.8959302724
 40
1.0
 40
1.0
 40
1.0
 40
1.0
 10
114.1994454212
 20
171.0300862417
 30
0.0
 10
114.1994454212
 20
170.9747322624
 30
0.0
 10
114.2039333925
 20
170.869013463
 30
0.0
 10
114.2231491309
 20
170.7216445765
 30
0.0
 10
114.2516801465
 20
170.5965726281
 30
0.0
 10
114.2864357672
 20
170.4964372634
 30
0.0
 10
114.3251699925
 20
170.4203487354
 30
0.0
 10
114.3666601101
 20
170.3664210569
 30
0.0
 10
114.4108351045
 20
170.3329535689
 30
0.0
 10
114.4583134486
 20
170.3210456629
 30
0.0
 10
114.5057918958
 20
170.3329920621
 30
0.0
 10
114.549945338
 20
170.3665111833
 30
0.0
 10
114.5914210866
 20
170.4204617812
 30
0.0
 10
114.630148305
 20
170.4965621371
 30
0.0
 10
114.6648871803
 20
170.5967045222
 30
0.0
 10
114.6933971099
 20
170.7217607316
 30
0.0
 10
114.7125990027
 20
170.8690836746
 30
0.0
 10
114.7170835114
 20
170.9747574421
 30
0.0
 10
114.7170835114
 20
171.0300862417
 30
0.0
  0
SPLINE
  5
460
100
AcDbEntity
  8
3_ALL_AXES
100
AcDbSpline
 62
7
  6
CONTINUOUS
 70
0
 71
3
 72
10
 73
6
 74
0
 42
0.0000001
 43
0.0000001
 44
0.0000000001
 40
0.0
 40
0.0
 40
0.0
 40
0.0
 40
0.2421734631
 40
0.6149310735
 40
1.0
 40
1.0
 40
1.0
 40
1.0
 10
126.756481163
 20
171.5300862417
 30
0.0
 10
126.9432377807
 20
171.5678167762
 30
0.0
 10
127.4106074402
 20
171.6997238919
 30
0.0
 10
128.127381467
 20
172.032740601
 30
0.0
 10
128.6304415816
 20
172.3551763614
 30
0.0
 10
128.8778015066
 20
172.5300862417
 30
0.0
  0
SPLINE
  5
461
100
AcDbEntity
  8
3_ALL_AXES
100
AcDbSpline
 62
7
  6
CONTINUOUS
 70
0
 71
3
 72
19
 73
15
 74
0
 42
0.0000001
 43
0.0000001
 44
0.0000000001
 40
0.0
 40
0.0
 40
0.0
 40
0.0
 40
0.0755313105
 40
0.1475271142
 40
0.2145707967
 40
0.2770181017
 40
0.3917437342
 40
0.5000509034
 40
0.6083537473
 40
0.7230719906
 40
0.7855182774
 40
0.8525486482
 40
0.9245023644
 40
1.0
 40
1.0
 40
1.0
 40
1.0
 10
125.3422676006
 20
171.0300862417
 30
0.0
 10
125.3422676006
 20
170.9743999028
 30
0.0
 10
125.3552340981
 20
170.865184371
 30
0.0
 10
125.4099341699
 20
170.7153811397
 30
0.0
 10
125.4906004059
 20
170.5892643623
 30
0.0
 10
125.616961604
 20
170.4596238277
 30
0.0
 10
125.8041202988
 20
170.3527729527
 30
0.0
 10
126.0494868986
 20
170.3111971981
 30
0.0
 10
126.29483055
 20
170.3528578009
 30
0.0
 10
126.4819550635
 20
170.4597458105
 30
0.0
 10
126.6082705124
 20
170.5894105423
 30
0.0
 10
126.6888699233
 20
170.7155193381
 30
0.0
 10
126.7435271023
 20
170.8652650607
 30
0.0
 10
126.756481163
 20
170.97442473
 30
0.0
 10
126.756481163
 20
171.0300862417
 30
0.0
  0
SPLINE
  5
462
100
AcDbEntity
  8
3_ALL_AXES
100
AcDbSpline
 62
7
  6
CONTINUOUS
 70
0
 71
3
 72
11
 73
7
 74
0
 42
0.0000001
 43
0.0000001
 44
0.0000000001
 40
0.0
 40
0.0
 40
0.0
 40
0.0
 40
0.2493691879
 40
0.4991371759
 40
0.749356754
 40
1.0
 40
1.0
 40
1.0
 40
1.0
 10
120.3231697782
 20
171.5300862417
 30
0.0
 10
120.576324876
 20
171.5675270192
 30
0.0
 10
121.0791723525
 20
171.6709299693
 30
0.0
 10
121.8144904563
 20
171.8993573319
 30
0.0
 10
122.5295144353
 20
172.1878312919
 30
0.0
 10
122.9925202157
 20
172.4118437042
 30
0.0
 10
123.2209472571
 20
172.5300862417
 30
0.0
  0
SPLINE
  5
463
100
AcDbEntity
  8
3_ALL_AXES
100
AcDbSpline
 62
7
  6
CONTINUOUS
 70
0
 71
3
 72
19
 73
15
 74
0
 42
0.0000001
 43
0.0000001
 44
0.0000000001
 40
0.0
 40
0.0
 40
0.0
 40
0.0
 40
0.0638036974
 40
0.1272626836
 40
0.1902376798
 40
0.2527732141
 40
0.3766396511
 40
0.5000560147
 40
0.6234651895
 40
0.7473195124
 40
0.8098500054
 40
0.8728049193
 40
0.9362224762
 40
1.0
 40
1.0
 40
1.0
 40
1.0
 10
118.3913181256
 20
171.0300862417
 30
0.0
 10
118.3913181256
 20
170.9740658273
 30
0.0
 10
118.4100099214
 20
170.8615658819
 30
0.0
 10
118.4868193727
 20
170.7108824137
 30
0.0
 10
118.5979162735
 20
170.5856515902
 30
0.0
 10
118.7747632945
 20
170.4545647806
 30
0.0
 10
119.0311946369
 20
170.3510757778
 30
0.0
 10
119.3573875311
 20
170.3116684818
 30
0.0
 10
119.6835580141
 20
170.3511549702
 30
0.0
 10
119.939950619
 20
170.4546814018
 30
0.0
 10
120.1167392194
 20
170.5857957864
 30
0.0
 10
120.2277480426
 20
170.7110249622
 30
0.0
 10
120.3044964377
 20
170.8616480852
 30
0.0
 10
120.3231697782
 20
170.974088808
 30
0.0
 10
120.3231697782
 20
171.0300862417
 30
0.0
  0
SPLINE
  5
464
100
AcDbEntity
  8
3_ALL_AXES
100
AcDbSpline
 62
7
  6
CONTINUOUS
 70
0
 71
3
 72
11
 73
7
 74
0
 42
0.0000001
 43
0.0000001
 44
0.0000000001
 40
0.0
 40
0.0
 40
0.0
 40
0.0
 40
0.2506432543
 40
0.5008628457
 40
0.7506308309
 40
1.0
 40
1.0
 40
1.0
 40
1.0
 10
115.4935406467
 20
172.5300862417
 30
0.0
 10
115.7219676957
 20
172.4118437003
 30
0.0
 10
116.1849734951
 20
172.1878312762
 30
0.0
 10
116.8999974939
 20
171.8993573129
 30
0.0
 10
117.635315592
 20
171.6709299603
 30
0.0
 10
118.138163047
 20
171.5675270164
 30
0.0
 10
118.3913181256
 20
171.5300862417
 30
0.0
  0
SPLINE
  5
465
100
AcDbEntity
  8
3_ALL_AXES
100
AcDbSpline
 62
7
  6
CONTINUOUS
 70
0
 71
3
 72
10
 73
6
 74
0
 42
0.0000001
 43
0.0000001
 44
0.0000000001
 40
0.0
 40
0.0
 40
0.0
 40
0.0
 40
0.258124603
 40
0.6351527744
 40
1.0
 40
1.0
 40
1.0
 40
1.0
 10
123.2209472571
 20
172.5300862417
 30
0.0
 10
123.3867316298
 20
172.4128589875
 30
0.0
 10
123.8037305171
 20
172.136976286
 30
0.0
 10
124.5014078458
 20
171.768528803
 30
0.0
 10
125.0609584763
 20
171.5869192672
 30
0.0
 10
125.3422676006
 20
171.5300862417
 30
0.0
  0
SPLINE
  5
466
100
AcDbEntity
  8
3_ALL_AXES
100
AcDbSpline
 62
7
  6
CONTINUOUS
 70
0
 71
3
 72
9
 73
5
 74
0
 42
0.0000001
 43
0.0000001
 44
0.0000000001
 40
0.0
 40
0.0
 40
0.0
 40
0.0
 40
0.2659622152
 40
1.0
 40
1.0
 40
1.0
 40
1.0
 10
113.9777910028
 20
171.7026882584
 30
0.0
 10
113.9931308168
 20
171.6873482994
 30
0.0
 10
114.0520685093
 20
171.6309962403
 30
0.0
 10
114.1166889348
 20
171.5802065975
 30
0.0
 10
114.1676124403
 20
171.5487161443
 30
0.0
  0
SPLINE
  5
467
100
AcDbEntity
  8
3_ALL_AXES
100
AcDbSpline
 62
7
  6
CONTINUOUS
 70
0
 71
3
 72
11
 73
7
 74
0
 42
0.0000001
 43
0.0000001
 44
0.0000000001
 40
0.0
 40
0.0
 40
0.0
 40
0.0
 40
0.1976182287
 40
0.4318039509
 40
0.7009288274
 40
1.0
 40
1.0
 40
1.0
 40
1.0
 10
114.7170835114
 20
171.5300862417
 30
0.0
 10
114.7909260941
 20
171.5708442175
 30
0.0
 10
114.936613021
 20
171.6878046309
 30
0.0
 10
115.1296776517
 20
171.9173070994
 30
0.0
 10
115.3179137926
 20
172.204100351
 30
0.0
 10
115.4348622906
 20
172.4167283624
 30
0.0
 10
115.4935406467
 20
172.5300862417
 30
0.0
  0
SPLINE
  5
468
100
AcDbEntity
  8
7_ALL_FEATURES
100
AcDbSpline
 62
7
  6
CONTINUOUS
 70
0
 71
3
 72
11
 73
7
 74
0
 42
0.0000001
 43
0.0000001
 44
0.0000000001
 40
0.0
 40
0.0
 40
0.0
 40
0.0
 40
0.2831751286
 40
0.5424836409
 40
0.7785831462
 40
1.0
 40
1.0
 40
1.0
 40
1.0
 10
137.1060544333
 20
183.8530370737
 30
0.0
 10
137.0889120331
 20
183.8064666754
 30
0.0
 10
137.0466960315
 20
183.7202118453
 30
0.0
 10
136.9573526707
 20
183.6149017357
 30
0.0
 10
136.8494027983
 20
183.5463405306
 30
0.0
 10
136.7685299682
 20
183.5300862417
 30
0.0
 10
136.7297276083
 20
183.5300862417
 30
0.0
  0
SPLINE
  5
469
100
AcDbEntity
  8
7_ALL_FEATURES
100
AcDbSpline
 62
7
  6
CONTINUOUS
 70
0
 71
3
 72
11
 73
7
 74
0
 42
0.0000001
 43
0.0000001
 44
0.0000000001
 40
0.0
 40
0.0
 40
0.0
 40
0.0
 40
0.2414252117
 40
0.4947937597
 40
0.7509014051
 40
1.0
 40
1.0
 40
1.0
 40
1.0
 10
140.1502040266
 20
196.971921694
 30
0.0
 10
140.3113824834
 20
196.6625219209
 30
0.0
 10
140.5644243166
 20
195.9863286766
 30
0.0
 10
140.7290127638
 20
194.9069928581
 30
0.0
 10
140.6818972784
 20
193.8052199318
 30
0.0
 10
140.5062153122
 20
193.0901826519
 30
0.0
 10
140.3818741318
 20
192.7523875811
 30
0.0
  0
SPLINE
  5
46A
100
AcDbEntity
  8
7_ALL_FEATURES
100
AcDbSpline
 62
4
  6
CONTINUOUS
 70
0
 71
3
 72
53
 73
49
 74
0
 42
0.0000001
 43
0.0000001
 44
0.0000000001
 40
0.0
 40
0.0
 40
0.0
 40
0.0
 40
0.0625
 40
0.09375
 40
0.125
 40
0.140625
 40
0.15625
 40
0.1640625
 40
0.171875
 40
0.1875
 40
0.21875
 40
0.25
 40
0.28125
 40
0.3125
 40
0.328125
 40
0.3359375
 40
0.34375
 40
0.359375
 40
0.375
 40
0.4375
 40
0.46875
 40
0.484375
 40
0.4921875
 40
0.5
 40
0.5078125
 40
0.515625
 40
0.53125
 40
0.5625
 40
0.625
 40
0.640625
 40
0.65625
 40
0.6640625
 40
0.671875
 40
0.6875
 40
0.71875
 40
0.75
 40
0.78125
 40
0.8125
 40
0.8203125
 40
0.828125
 40
0.83203125
 40
0.8359375
 40
0.84375
 40
0.859375
 40
0.875
 40
0.90625
 40
0.9375
 40
1.0
 40
1.0
 40
1.0
 40
1.0
 10
142.1334735006
 20
186.028822767
 30
0.0
 10
142.1437258862
 20
186.0343934694
 30
0.0
 10
142.1591043736
 20
186.0427504485
 30
0.0
 10
142.1796093876
 20
186.0538893859
 30
0.0
 10
142.1924242628
 20
186.0608589328
 30
0.0
 10
142.2026778923
 20
186.0664169893
 30
0.0
 10
142.2090824669
 20
186.0699308716
 30
0.0
 10
142.2142151593
 20
186.07265014
 30
0.0
 10
142.2193148759
 20
186.0757046804
 30
0.0
 10
142.228224047
 20
186.0812059683
 30
0.0
 10
142.2409595399
 20
186.0889829505
 30
0.0
 10
142.2562382714
 20
186.0983527205
 30
0.0
 10
142.2715194739
 20
186.1077041259
 30
0.0
 10
142.284248789
 20
186.1155270197
 30
0.0
 10
142.2931687713
 20
186.1209479622
 30
0.0
 10
142.2982511901
 20
186.1241310551
 30
0.0
 10
142.3032782081
 20
186.1276356632
 30
0.0
 10
142.3095809339
 20
186.1319064571
 30
0.0
 10
142.324691727
 20
186.1422474926
 30
0.0
 10
142.342327823
 20
186.1542751999
 30
0.0
 10
142.3599571873
 20
186.1663336706
 30
0.0
 10
142.3687778647
 20
186.1723388613
 30
0.0
 10
142.3738089359
 20
186.1758072235
 30
0.0
 10
142.3776084739
 20
186.1783048912
 30
0.0
 10
142.3813077313
 20
186.1811985621
 30
0.0
 10
142.3862750566
 20
186.1849186534
 30
0.0
 10
142.3949515456
 20
186.1914932363
 30
0.0
 10
142.4123168309
 20
186.2045945407
 30
0.0
 10
142.4296735934
 20
186.217725321
 30
0.0
 10
142.4445602906
 20
186.2289512997
 30
0.0
 10
142.4507513525
 20
186.2336630476
 30
0.0
 10
142.4557314036
 20
186.2373531273
 30
0.0
 10
142.460612031
 20
186.2413330762
 30
0.0
 10
142.4691069354
 20
186.2484327111
 30
0.0
 10
142.4812666244
 20
186.258504358
 30
0.0
 10
142.4958481022
 20
186.2706216982
 30
0.0
 10
142.5104315978
 20
186.2827266849
 30
0.0
 10
142.521370778
 20
186.2918189624
 30
0.0
 10
142.5286603368
 20
186.2978617787
 30
0.0
 10
142.5317026
 20
186.3004070285
 30
0.0
 10
142.5341248604
 20
186.3023793155
 30
0.0
 10
142.5365893638
 20
186.304585326
 30
0.0
 10
142.5409218721
 20
186.3085544373
 30
0.0
 10
142.5471009291
 20
186.314167938
 30
0.0
 10
142.5569931433
 20
186.3231812031
 30
0.0
 10
142.5693564506
 20
186.334436938
 30
0.0
 10
142.5891388429
 20
186.3524522031
 30
0.0
 10
142.6039753895
 20
186.3659622818
 30
0.0
 10
142.6138664756
 20
186.3749693054
 30
0.0
  0
SPLINE
  5
46B
100
AcDbEntity
  8
7_ALL_FEATURES
100
AcDbSpline
 62
4
  6
CONTINUOUS
 70
0
 71
3
 72
123
 73
119
 74
0
 42
0.0000001
 43
0.0000001
 44
0.0000000001
 40
0.0
 40
0.0
 40
0.0
 40
0.0
 40
0.03125
 40
0.0625
 40
0.078125
 40
0.09375
 40
0.1015625
 40
0.109375
 40
0.1171875
 40
0.12109375
 40
0.123046875
 40
0.125
 40
0.126953125
 40
0.12890625
 40
0.1328125
 40
0.140625
 40
0.1484375
 40
0.15625
 40
0.171875
 40
0.1875
 40
0.203125
 40
0.21875
 40
0.2265625
 40
0.234375
 40
0.2421875
 40
0.24609375
 40
0.248046875
 40
0.25
 40
0.251953125
 40
0.25390625
 40
0.2578125
 40
0.265625
 40
0.2734375
 40
0.28125
 40
0.296875
 40
0.3125
 40
0.328125
 40
0.34375
 40
0.3515625
 40
0.359375
 40
0.3671875
 40
0.37109375
 40
0.373046875
 40
0.375
 40
0.376953125
 40
0.37890625
 40
0.3828125
 40
0.390625
 40
0.3984375
 40
0.40625
 40
0.421875
 40
0.4375
 40
0.453125
 40
0.46875
 40
0.4765625
 40
0.484375
 40
0.4921875
 40
0.49609375
 40
0.498046875
 40
0.5
 40
0.501953125
 40
0.50390625
 40
0.5078125
 40
0.515625
 40
0.5234375
 40
0.53125
 40
0.546875
 40
0.5625
 40
0.578125
 40
0.59375
 40
0.6015625
 40
0.609375
 40
0.6171875
 40
0.62109375
 40
0.623046875
 40
0.625
 40
0.626953125
 40
0.62890625
 40
0.6328125
 40
0.640625
 40
0.6484375
 40
0.65625
 40
0.671875
 40
0.6875
 40
0.703125
 40
0.71875
 40
0.7265625
 40
0.734375
 40
0.7421875
 40
0.74609375
 40
0.748046875
 40
0.75
 40
0.751953125
 40
0.75390625
 40
0.7578125
 40
0.765625
 40
0.7734375
 40
0.78125
 40
0.796875
 40
0.8125
 40
0.828125
 40
0.84375
 40
0.8515625
 40
0.859375
 40
0.8671875
 40
0.87109375
 40
0.873046875
 40
0.875
 40
0.876953125
 40
0.87890625
 40
0.8828125
 40
0.890625
 40
0.8984375
 40
0.90625
 40
0.921875
 40
0.9375
 40
0.96875
 40
1.0
 40
1.0
 40
1.0
 40
1.0
 10
142.6837560209
 20
188.3600807782
 30
0.0
 10
142.6773105393
 20
188.3558440755
 30
0.0
 10
142.6644195822
 20
188.3473706428
 30
0.0
 10
142.648305855
 20
188.336778988
 30
0.0
 10
142.6354149381
 20
188.3283053785
 30
0.0
 10
142.6273579684
 20
188.3230100187
 30
0.0
 10
142.6209127284
 20
188.3187722515
 30
0.0
 10
142.6160778789
 20
188.3155979765
 30
0.0
 10
142.6120517629
 20
188.3129398625
 30
0.0
 10
142.609227741
 20
188.3111044688
 30
0.0
 10
142.6076229778
 20
188.3100161902
 30
0.0
 10
142.6063941549
 20
188.3093112032
 30
0.0
 10
142.605261852
 20
188.3081810697
 30
0.0
 10
142.6037184475
 20
188.3068225209
 30
0.0
 10
142.6010331759
 20
188.3043759666
 30
0.0
 10
142.5971888727
 20
188.3009170123
 30
0.0
 10
142.5925792192
 20
188.2967508048
 30
0.0
 10
142.5864317875
 20
188.291201264
 30
0.0
 10
142.5787479254
 20
188.284262475
 30
0.0
 10
142.5695270793
 20
188.2759367669
 30
0.0
 10
142.5603063953
 20
188.2676106849
 30
0.0
 10
142.5526221281
 20
188.2606728306
 30
0.0
 10
142.5464755065
 20
188.2551214204
 30
0.0
 10
142.5418633822
 20
188.2509609144
 30
0.0
 10
142.538026809
 20
188.2474841235
 30
0.0
 10
142.5353277381
 20
188.2450694103
 30
0.0
 10
142.5338064436
 20
188.2436598442
 30
0.0
 10
142.532606226
 20
188.2426864194
 30
0.0
 10
142.5316324794
 20
188.2413928605
 30
0.0
 10
142.530255155
 20
188.2397797817
 30
0.0
 10
142.5278816428
 20
188.2369048663
 30
0.0
 10
142.5244716688
 20
188.2328250449
 30
0.0
 10
142.5203879366
 20
188.2279176163
 30
0.0
 10
142.5149400819
 20
188.221378446
 30
0.0
 10
142.5081312601
 20
188.2132030811
 30
0.0
 10
142.4999602079
 20
188.2033932716
 30
0.0
 10
142.4917894255
 20
188.193583192
 30
0.0
 10
142.4849799292
 20
188.1854085022
 30
0.0
 10
142.4795334235
 20
188.1788679816
 30
0.0
 10
142.4754455768
 20
188.1739646714
 30
0.0
 10
142.4720484747
 20
188.1698719661
 30
0.0
 10
142.4696519841
 20
188.1670200504
 30
0.0
 10
142.4683114769
 20
188.1653701202
 30
0.0
 10
142.4672246396
 20
188.164189757
 30
0.0
 10
142.4664491719
 20
188.1627911882
 30
0.0
 10
142.4653066057
 20
188.1610025423
 30
0.0
 10
142.463357718
 20
188.1578369498
 30
0.0
 10
142.4605471367
 20
188.1533332149
 30
0.0
 10
142.4571857636
 20
188.147920797
 30
0.0
 10
142.4526999754
 20
188.1407070125
 30
0.0
 10
142.4470941089
 20
188.1316888274
 30
0.0
 10
142.4403664348
 20
188.1208674277
 30
0.0
 10
142.4336391082
 20
188.1100458655
 30
0.0
 10
142.4280323731
 20
188.1010280867
 30
0.0
 10
142.4235483222
 20
188.0938134896
 30
0.0
 10
142.4201816503
 20
188.0884035502
 30
0.0
 10
142.4173876458
 20
188.0838920617
 30
0.0
 10
142.415409166
 20
188.0807403104
 30
0.0
 10
142.4143140137
 20
188.0789294874
 30
0.0
 10
142.4133929059
 20
188.0775990397
 30
0.0
 10
142.4128530685
 20
188.0761628251
 30
0.0
 10
142.412000294
 20
188.0742847649
 30
0.0
 10
142.4105699017
 20
188.0709809707
 30
0.0
 10
142.408494089
 20
188.0662702513
 30
0.0
 10
142.4060169803
 20
188.0606135414
 30
0.0
 10
142.4027093233
 20
188.0530726051
 30
0.0
 10
142.398576427
 20
188.0436459741
 30
0.0
 10
142.3936161794
 20
188.0323342129
 30
0.0
 10
142.3886563402
 20
188.0210224046
 30
0.0
 10
142.384522423
 20
188.0115958914
 30
0.0
 10
142.3812168078
 20
188.0040547194
 30
0.0
 10
142.3787334714
 20
187.9983987286
 30
0.0
 10
142.3766771418
 20
187.9936857595
 30
0.0
 10
142.3752119692
 20
187.9903859813
 30
0.0
 10
142.3744149214
 20
187.9885014865
 30
0.0
 10
142.3737039095
 20
187.9870850372
 30
0.0
 10
142.3734257046
 20
187.9856803542
 30
0.0
 10
142.3729037968
 20
187.9838033393
 30
0.0
 10
142.372060797
 20
187.9805204755
 30
0.0
 10
142.3708197374
 20
187.9758296703
 30
0.0
 10
142.3693462069
 20
187.9702011321
 30
0.0
 10
142.3673759991
 20
187.9626962645
 30
0.0
 10
142.3649151401
 20
187.9533152351
 30
0.0
 10
142.3619612366
 20
187.9420579601
 30
0.0
 10
142.3590077828
 20
187.9308007556
 30
0.0
 10
142.3565457997
 20
187.92141955
 30
0.0
 10
142.3545778401
 20
187.9139150348
 30
0.0
 10
142.3530974528
 20
187.9082854218
 30
0.0
 10
142.3518778442
 20
187.9035979791
 30
0.0
 10
142.3509965511
 20
187.9003091127
 30
0.0
 10
142.3505359986
 20
187.8984417155
 30
0.0
 10
142.3500693297
 20
187.89700749
 30
0.0
 10
142.3500661574
 20
187.8957019973
 30
0.0
 10
142.3499002548
 20
187.8939164368
 30
0.0
 10
142.3496852517
 20
187.8908126274
 30
0.0
 10
142.3493387228
 20
187.886367676
 30
0.0
 10
142.3489397452
 20
187.8810384164
 30
0.0
 10
142.3484018847
 20
187.8739311005
 30
0.0
 10
142.347731594
 20
187.8650475232
 30
0.0
 10
142.346926313
 20
187.8543869603
 30
0.0
 10
142.3461215046
 20
187.8437265702
 30
0.0
 10
142.3454500326
 20
187.8348425607
 30
0.0
 10
142.3449145348
 20
187.8277361093
 30
0.0
 10
142.344508351
 20
187.8224042129
 30
0.0
 10
142.3441843659
 20
187.8179675103
 30
0.0
 10
142.3439291186
 20
187.8148489755
 30
0.0
 10
142.3438276973
 20
187.8130870089
 30
0.0
 10
142.3436264594
 20
187.8117090433
 30
0.0
 10
142.3439036918
 20
187.810547014
 30
0.0
 10
142.3441064392
 20
187.8089223207
 30
0.0
 10
142.344539007
 20
187.8061142008
 30
0.0
 10
142.3451163074
 20
187.8020842537
 30
0.0
 10
142.3458264688
 20
187.7972561705
 30
0.0
 10
142.3467672729
 20
187.7908159831
 30
0.0
 10
142.3479453592
 20
187.7827666881
 30
0.0
 10
142.3498291337
 20
187.7698872911
 30
0.0
 10
142.3521842538
 20
187.7537882262
 30
0.0
 10
142.3540682273
 20
187.7409089189
 30
0.0
 10
142.3550102294
 20
187.7344692722
 30
0.0
  0
SPLINE
  5
46C
100
AcDbEntity
  8
7_ALL_FEATURES
100
AcDbSpline
 62
4
  6
CONTINUOUS
 70
0
 71
3
 72
91
 73
87
 74
0
 42
0.0000001
 43
0.0000001
 44
0.0000000001
 40
0.0
 40
0.0
 40
0.0
 40
0.0
 40
0.0625
 40
0.09375
 40
0.109375
 40
0.125
 40
0.140625
 40
0.1484375
 40
0.15625
 40
0.16015625
 40
0.1640625
 40
0.166015625
 40
0.16796875
 40
0.171875
 40
0.1796875
 40
0.1875
 40
0.203125
 40
0.21875
 40
0.25
 40
0.28125
 40
0.296875
 40
0.3125
 40
0.3203125
 40
0.328125
 40
0.33203125
 40
0.333984375
 40
0.3359375
 40
0.33984375
 40
0.34375
 40
0.3515625
 40
0.359375
 40
0.375
 40
0.390625
 40
0.40625
 40
0.421875
 40
0.4375
 40
0.453125
 40
0.46875
 40
0.4765625
 40
0.484375
 40
0.4921875
 40
0.49609375
 40
0.498046875
 40
0.5
 40
0.501953125
 40
0.50390625
 40
0.5078125
 40
0.515625
 40
0.5234375
 40
0.53125
 40
0.546875
 40
0.5625
 40
0.578125
 40
0.59375
 40
0.609375
 40
0.625
 40
0.640625
 40
0.6484375
 40
0.65625
 40
0.66015625
 40
0.6640625
 40
0.666015625
 40
0.66796875
 40
0.671875
 40
0.6796875
 40
0.6875
 40
0.703125
 40
0.71875
 40
0.75
 40
0.78125
 40
0.796875
 40
0.8125
 40
0.8203125
 40
0.828125
 40
0.83203125
 40
0.833984375
 40
0.8359375
 40
0.83984375
 40
0.84375
 40
0.8515625
 40
0.859375
 40
0.875
 40
0.890625
 40
0.90625
 40
0.9375
 40
1.0
 40
1.0
 40
1.0
 40
1.0
 10
142.0057096183
 20
187.0199729279
 30
0.0
 10
141.9929968888
 20
187.0090346198
 30
0.0
 10
141.97392781
 20
186.9926271324
 30
0.0
 10
141.9516804972
 20
186.9734851517
 30
0.0
 10
141.9389678245
 20
186.9625467514
 30
0.0
 10
141.929433103
 20
186.954343303
 30
0.0
 10
141.9214881926
 20
186.9475059757
 30
0.0
 10
141.9151307148
 20
186.9420386265
 30
0.0
 10
141.9111608195
 20
186.9386158119
 30
0.0
 10
141.9079768227
 20
186.9358906634
 30
0.0
 10
141.9060052619
 20
186.9341575483
 30
0.0
 10
141.904385784
 20
186.9328395337
 30
0.0
 10
141.9029204735
 20
186.9312715272
 30
0.0
 10
141.9004277974
 20
186.928411384
 30
0.0
 10
141.8968294651
 20
186.9243860569
 30
0.0
 10
141.8910930162
 20
186.9179116714
 30
0.0
 10
141.8839153008
 20
186.9098302883
 30
0.0
 10
141.8724349774
 20
186.8968935679
 30
0.0
 10
141.8580830312
 20
186.880725078
 30
0.0
 10
141.8437322263
 20
186.8645550798
 30
0.0
 10
141.8322500768
 20
186.8516207726
 30
0.0
 10
141.8250769268
 20
186.8435333565
 30
0.0
 10
141.8193311188
 20
186.8370713385
 30
0.0
 10
141.8157566122
 20
186.8330145272
 30
0.0
 10
141.8132211427
 20
186.830210933
 30
0.0
 10
141.8118244272
 20
186.8285522822
 30
0.0
 10
141.8106240715
 20
186.8266804224
 30
0.0
 10
141.8090563937
 20
186.8244136001
 30
0.0
 10
141.8065856822
 20
186.8207458872
 30
0.0
 10
141.8034844278
 20
186.8161752152
 30
0.0
 10
141.7985296111
 20
186.8088543325
 30
0.0
 10
141.7923336227
 20
186.7997059084
 30
0.0
 10
141.7848994954
 20
186.7887266506
 30
0.0
 10
141.777465081
 20
186.7777477014
 30
0.0
 10
141.7700307561
 20
186.7667686663
 30
0.0
 10
141.7625963605
 20
186.7557896664
 30
0.0
 10
141.7551621581
 20
186.744810612
 30
0.0
 10
141.7489664044
 20
186.7356615521
 30
0.0
 10
141.7440111089
 20
186.7283419663
 30
0.0
 10
141.7402910658
 20
186.7228531993
 30
0.0
 10
141.7372023902
 20
186.7182762931
 30
0.0
 10
141.735018023
 20
186.715078216
 30
0.0
 10
141.7338046238
 20
186.713241754
 30
0.0
 10
141.7327965125
 20
186.7118897305
 30
0.0
 10
141.7321632435
 20
186.7104409098
 30
0.0
 10
141.7311881357
 20
186.7085429129
 30
0.0
 10
141.7295426155
 20
186.705205687
 30
0.0
 10
141.7271600234
 20
186.7004464458
 30
0.0
 10
141.7243145454
 20
186.6947318361
 30
0.0
 10
141.7205158126
 20
186.6871135862
 30
0.0
 10
141.7157690312
 20
186.6775903518
 30
0.0
 10
141.7100721907
 20
186.6661626518
 30
0.0
 10
141.7043755462
 20
186.6547349018
 30
0.0
 10
141.6986788203
 20
186.6433071705
 30
0.0
 10
141.6929822238
 20
186.6318794142
 30
0.0
 10
141.6872851914
 20
186.6204517395
 30
0.0
 10
141.6825390096
 20
186.6109284259
 30
0.0
 10
141.6787390536
 20
186.6033103375
 30
0.0
 10
141.6763709348
 20
186.5985477518
 30
0.0
 10
141.6744607436
 20
186.5947406157
 30
0.0
 10
141.6733026877
 20
186.5923544647
 30
0.0
 10
141.6722942144
 20
186.5904608691
 30
0.0
 10
141.6715852043
 20
186.5885113251
 30
0.0
 10
141.6704835499
 20
186.5850736328
 30
0.0
 10
141.6688371755
 20
186.5801762041
 30
0.0
 10
141.6662435399
 20
186.5723327402
 30
0.0
 10
141.6629875994
 20
186.5625310037
 30
0.0
 10
141.6577859013
 20
186.5468467837
 30
0.0
 10
141.6512808128
 20
186.5272419473
 30
0.0
 10
141.6447778296
 20
186.5076371589
 30
0.0
 10
141.639572763
 20
186.4919528619
 30
0.0
 10
141.6363252438
 20
186.4821513179
 30
0.0
 10
141.6337143446
 20
186.4743074595
 30
0.0
 10
141.6321119186
 20
186.4694110352
 30
0.0
 10
141.6309313282
 20
186.4659715388
 30
0.0
 10
141.6303488473
 20
186.4640248865
 30
0.0
 10
141.6301134793
 20
186.4621489593
 30
0.0
 10
141.6297004184
 20
186.4597798341
 30
0.0
 10
141.6291059405
 20
186.4560027669
 30
0.0
 10
141.628340101
 20
186.4512767992
 30
0.0
 10
141.6271274683
 20
186.4437178406
 30
0.0
 10
141.6256073166
 20
186.4342682538
 30
0.0
 10
141.623785001
 20
186.42292913
 30
0.0
 10
141.6213545956
 20
186.4078101656
 30
0.0
 10
141.6171016915
 20
186.38135204
 30
0.0
 10
141.6134562404
 20
186.3586736253
 30
0.0
 10
141.611025963
 20
186.3435546869
 30
0.0
  0
SPLINE
  5
46D
100
AcDbEntity
  8
7_ALL_FEATURES
100
AcDbSpline
 62
4
  6
CONTINUOUS
 70
0
 71
3
 72
83
 73
79
 74
0
 42
0.0000001
 43
0.0000001
 44
0.0000000001
 40
0.0
 40
0.0
 40
0.0
 40
0.0
 40
0.0625
 40
0.09375
 40
0.109375
 40
0.125
 40
0.140625
 40
0.15625
 40
0.16015625
 40
0.1640625
 40
0.166015625
 40
0.16796875
 40
0.171875
 40
0.1796875
 40
0.1875
 40
0.203125
 40
0.21875
 40
0.25
 40
0.28125
 40
0.296875
 40
0.3125
 40
0.3203125
 40
0.328125
 40
0.33203125
 40
0.333984375
 40
0.3359375
 40
0.33984375
 40
0.34375
 40
0.359375
 40
0.375
 40
0.390625
 40
0.40625
 40
0.4375
 40
0.453125
 40
0.46875
 40
0.4765625
 40
0.484375
 40
0.4921875
 40
0.49609375
 40
0.5
 40
0.50390625
 40
0.5078125
 40
0.515625
 40
0.5234375
 40
0.53125
 40
0.546875
 40
0.5625
 40
0.59375
 40
0.609375
 40
0.625
 40
0.640625
 40
0.65625
 40
0.66015625
 40
0.6640625
 40
0.666015625
 40
0.66796875
 40
0.671875
 40
0.6796875
 40
0.6875
 40
0.703125
 40
0.71875
 40
0.75
 40
0.78125
 40
0.796875
 40
0.8125
 40
0.8203125
 40
0.828125
 40
0.83203125
 40
0.833984375
 40
0.8359375
 40
0.83984375
 40
0.84375
 40
0.859375
 40
0.875
 40
0.890625
 40
0.90625
 40
0.9375
 40
1.0
 40
1.0
 40
1.0
 40
1.0
 10
143.0880407778
 20
188.3600807782
 30
0.0
 10
143.0817026404
 20
188.3644722526
 30
0.0
 10
143.0721954802
 20
188.3710595357
 30
0.0
 10
143.0611036326
 20
188.3787444495
 30
0.0
 10
143.0547656636
 20
188.3831361856
 30
0.0
 10
143.0500115439
 20
188.3864289885
 30
0.0
 10
143.0452598811
 20
188.3897256099
 30
0.0
 10
143.0416892455
 20
188.39218737
 30
0.0
 10
143.0393195348
 20
188.3938451933
 30
0.0
 10
143.0383162138
 20
188.394511177
 30
0.0
 10
143.0375507454
 20
188.3951017614
 30
0.0
 10
143.0366492764
 20
188.3954809771
 30
0.0
 10
143.0350085164
 20
188.3960463979
 30
0.0
 10
143.0326975426
 20
188.3969053813
 30
0.0
 10
143.0289815595
 20
188.3982511191
 30
0.0
 10
143.024342892
 20
188.3999431006
 30
0.0
 10
143.016917481
 20
188.4026447631
 30
0.0
 10
143.0076370444
 20
188.4060239139
 30
0.0
 10
142.9983557279
 20
188.4094016587
 30
0.0
 10
142.9909317248
 20
188.4121055708
 30
0.0
 10
142.9862895377
 20
188.4137919282
 30
0.0
 10
142.9825807698
 20
188.4151491956
 30
0.0
 10
142.9802514279
 20
188.4159788278
 30
0.0
 10
142.9786436588
 20
188.4165969664
 30
0.0
 10
142.9776893076
 20
188.4168916789
 30
0.0
 10
142.9766007713
 20
188.4169660159
 30
0.0
 10
142.975285966
 20
188.4171342625
 30
0.0
 10
142.9720926842
 20
188.4174760581
 30
0.0
 10
142.9673186164
 20
188.4180147902
 30
0.0
 10
142.960944131
 20
188.4187182187
 30
0.0
 10
142.9545720683
 20
188.419425622
 30
0.0
 10
142.9460751461
 20
188.420367469
 30
0.0
 10
142.9375784101
 20
188.42130951
 30
0.0
 10
142.9290817445
 20
188.4222519872
 30
0.0
 10
142.9237709972
 20
188.4228397833
 30
0.0
 10
142.9195231769
 20
188.4233129164
 30
0.0
 10
142.916335178
 20
188.4236598287
 30
0.0
 10
142.9136853002
 20
188.4239741739
 30
0.0
 10
142.9115501739
 20
188.4241690151
 30
0.0
 10
142.9099904287
 20
188.4244698997
 30
0.0
 10
142.9082718972
 20
188.4241800873
 30
0.0
 10
142.906035988
 20
188.4240000089
 30
0.0
 10
142.9032220713
 20
188.4237041173
 30
0.0
 10
142.8998535168
 20
188.4233793493
 30
0.0
 10
142.8953592659
 20
188.4229357419
 30
0.0
 10
142.8897424252
 20
188.4223848529
 30
0.0
 10
142.8807549435
 20
188.421501428
 30
0.0
 10
142.8717675676
 20
188.4206184333
 30
0.0
 10
142.8627802767
 20
188.4197356497
 30
0.0
 10
142.8560394476
 20
188.4190724984
 30
0.0
 10
142.8493000198
 20
188.4184134963
 30
0.0
 10
142.8442415159
 20
188.4179075945
 30
0.0
 10
142.8408752971
 20
188.4175884472
 30
0.0
 10
142.8394636032
 20
188.4174285044
 30
0.0
 10
142.8383554828
 20
188.4173634534
 30
0.0
 10
142.837169706
 20
188.4170683613
 30
0.0
 10
142.8350585155
 20
188.4164450675
 30
0.0
 10
142.8320613543
 20
188.4156104139
 30
0.0
 10
142.827255376
 20
188.4142438028
 30
0.0
 10
142.8212515055
 20
188.4125462142
 30
0.0
 10
142.8116432981
 20
188.4098240812
 30
0.0
 10
142.799633739
 20
188.4064236489
 30
0.0
 10
142.7876238973
 20
188.4030217698
 30
0.0
 10
142.7780161422
 20
188.4003019516
 30
0.0
 10
142.7720111411
 20
188.3985985759
 30
0.0
 10
142.7672074805
 20
188.3972438285
 30
0.0
 10
142.7642044189
 20
188.3963789733
 30
0.0
 10
142.7621038262
 20
188.3958099247
 30
0.0
 10
142.7609010618
 20
188.3954278812
 30
0.0
 10
142.7596891609
 20
188.3948316266
 30
0.0
 10
142.7581774077
 20
188.3941595267
 30
0.0
 10
142.7545466297
 20
188.3924862248
 30
0.0
 10
142.7491015423
 20
188.3900015827
 30
0.0
 10
142.7418408086
 20
188.38667426
 30
0.0
 10
142.7345802401
 20
188.3833508072
 30
0.0
 10
142.7248994244
 20
188.3789181865
 30
0.0
 10
142.707958024
 20
188.3711617332
 30
0.0
 10
142.6934368143
 20
188.3645131277
 30
0.0
 10
142.6837560099
 20
188.3600807722
 30
0.0
  0
SPLINE
  5
46E
100
AcDbEntity
  8
7_ALL_FEATURES
100
AcDbSpline
 62
4
  6
CONTINUOUS
 70
0
 71
3
 72
121
 73
117
 74
0
 42
0.0000001
 43
0.0000001
 44
0.0000000001
 40
0.0
 40
0.0
 40
0.0
 40
0.0
 40
0.03125
 40
0.0625
 40
0.078125
 40
0.0859375
 40
0.09375
 40
0.1015625
 40
0.10546875
 40
0.109375
 40
0.111328125
 40
0.11328125
 40
0.1171875
 40
0.125
 40
0.140625
 40
0.15625
 40
0.171875
 40
0.1875
 40
0.1953125
 40
0.203125
 40
0.2109375
 40
0.21484375
 40
0.21875
 40
0.22265625
 40
0.224609375
 40
0.2265625
 40
0.234375
 40
0.25
 40
0.265625
 40
0.28125
 40
0.296875
 40
0.3125
 40
0.3203125
 40
0.328125
 40
0.33203125
 40
0.333984375
 40
0.3359375
 40
0.33984375
 40
0.34375
 40
0.3515625
 40
0.359375
 40
0.375
 40
0.390625
 40
0.40625
 40
0.421875
 40
0.4296875
 40
0.4375
 40
0.44140625
 40
0.4453125
 40
0.447265625
 40
0.44921875
 40
0.453125
 40
0.4609375
 40
0.46875
 40
0.5
 40
0.515625
 40
0.53125
 40
0.5390625
 40
0.546875
 40
0.55078125
 40
0.552734375
 40
0.5546875
 40
0.55859375
 40
0.5625
 40
0.5703125
 40
0.578125
 40
0.59375
 40
0.609375
 40
0.625
 40
0.640625
 40
0.6484375
 40
0.65625
 40
0.66015625
 40
0.6640625
 40
0.666015625
 40
0.6669921875
 40
0.66796875
 40
0.669921875
 40
0.671875
 40
0.6796875
 40
0.6875
 40
0.6953125
 40
0.703125
 40
0.71875
 40
0.734375
 40
0.75
 40
0.765625
 40
0.76953125
 40
0.7734375
 40
0.775390625
 40
0.77734375
 40
0.779296875
 40
0.78125
 40
0.78515625
 40
0.7890625
 40
0.796875
 40
0.8046875
 40
0.8125
 40
0.828125
 40
0.84375
 40
0.859375
 40
0.8671875
 40
0.875
 40
0.8828125
 40
0.88671875
 40
0.8876953125
 40
0.888671875
 40
0.890625
 40
0.89453125
 40
0.8984375
 40
0.90625
 40
0.9140625
 40
0.921875
 40
0.9375
 40
0.96875
 40
1.0
 40
1.0
 40
1.0
 40
1.0
 10
142.8873987133
 20
187.675412823
 30
0.0
 10
142.8942870587
 20
187.6813821966
 30
0.0
 10
142.9080637746
 20
187.6933209043
 30
0.0
 10
142.9252845438
 20
187.7082444859
 30
0.0
 10
142.9373393132
 20
187.718690631
 30
0.0
 10
142.9442273947
 20
187.7246604183
 30
0.0
 10
142.9493944644
 20
187.7291361778
 30
0.0
 10
142.953697143
 20
187.732871013
 30
0.0
 10
142.9571464925
 20
187.7358475863
 30
0.0
 10
142.9592859257
 20
187.7377336639
 30
0.0
 10
142.9610350551
 20
187.7391836235
 30
0.0
 10
142.9625274132
 20
187.741036012
 30
0.0
 10
142.9652584416
 20
187.7440905575
 30
0.0
 10
142.9706357262
 20
187.7503325093
 30
0.0
 10
142.9783618838
 20
187.7591801153
 30
0.0
 10
142.9876142904
 20
187.7698270068
 30
0.0
 10
142.996871711
 20
187.7804659902
 30
0.0
 10
143.0045853336
 20
187.7893333666
 30
0.0
 10
143.0107558718
 20
187.7964274851
 30
0.0
 10
143.0153853919
 20
187.8017464876
 30
0.0
 10
143.0192380869
 20
187.8061841871
 30
0.0
 10
143.0223320068
 20
187.809722666
 30
0.0
 10
143.0246202981
 20
187.8124084491
 30
0.0
 10
143.0266294682
 20
187.8145450553
 30
0.0
 10
143.0278909981
 20
187.8165977309
 30
0.0
 10
143.0298721409
 20
187.8195885168
 30
0.0
 10
143.034112693
 20
187.8261201169
 30
0.0
 10
143.0406716791
 20
187.8361338945
 30
0.0
 10
143.048527551
 20
187.848165337
 30
0.0
 10
143.0563869727
 20
187.860192883
 30
0.0
 10
143.0642471066
 20
187.8722211057
 30
0.0
 10
143.0707918863
 20
187.882245616
 30
0.0
 10
143.0760401503
 20
187.8902625066
 30
0.0
 10
143.0792918806
 20
187.8952793616
 30
0.0
 10
143.0816250835
 20
187.898778528
 30
0.0
 10
143.0828691726
 20
187.9007978171
 30
0.0
 10
143.0837773457
 20
187.9028915655
 30
0.0
 10
143.0850275792
 20
187.9054832564
 30
0.0
 10
143.0869636759
 20
187.9096442093
 30
0.0
 10
143.0894058046
 20
187.9148405222
 30
0.0
 10
143.0933009138
 20
187.9231573488
 30
0.0
 10
143.0981739946
 20
187.9335524497
 30
0.0
 10
143.1040200044
 20
187.9460269575
 30
0.0
 10
143.1098660516
 20
187.95850141
 30
0.0
 10
143.114739039
 20
187.9688966491
 30
0.0
 10
143.1186343349
 20
187.9772131993
 30
0.0
 10
143.1210759891
 20
187.9824102149
 30
0.0
 10
143.1230130599
 20
187.9865697255
 30
0.0
 10
143.1242608134
 20
187.9891650883
 30
0.0
 10
143.1248230054
 20
187.9912923041
 30
0.0
 10
143.1254612393
 20
187.9934106384
 30
0.0
 10
143.1265427279
 20
187.9971218604
 30
0.0
 10
143.1281061603
 20
188.0024214506
 30
0.0
 10
143.131843214
 20
188.0151422484
 30
0.0
 10
143.1362080681
 20
188.0299825159
 30
0.0
 10
143.141194658
 20
188.0469433143
 30
0.0
 10
143.1443101472
 20
188.0575433394
 30
0.0
 10
143.1468057029
 20
188.0660243737
 30
0.0
 10
143.148358079
 20
188.0713227216
 30
0.0
 10
143.1494594772
 20
188.0750361702
 30
0.0
 10
143.1500657916
 20
188.077150936
 30
0.0
 10
143.1507587168
 20
188.0792927668
 30
0.0
 10
143.1510041126
 20
188.0817760736
 30
0.0
 10
143.1514643276
 20
188.0857704831
 30
0.0
 10
143.1520164565
 20
188.090756264
 30
0.0
 10
143.152912794
 20
188.0987375541
 30
0.0
 10
143.1540287902
 20
188.1087127856
 30
0.0
 10
143.1553698326
 20
188.1206836321
 30
0.0
 10
143.156710568
 20
188.1326544135
 30
0.0
 10
143.1578273317
 20
188.1426298079
 30
0.0
 10
143.1587221342
 20
188.1506107721
 30
0.0
 10
143.1592781646
 20
188.1555973814
 30
0.0
 10
143.1597303719
 20
188.1595900905
 30
0.0
 10
143.1599961547
 20
188.1620777262
 30
0.0
 10
143.1602159657
 20
188.1638347185
 30
0.0
 10
143.1602887466
 20
188.1648142324
 30
0.0
 10
143.1601625613
 20
188.1657015363
 30
0.0
 10
143.1600728371
 20
188.1668421839
 30
0.0
 10
143.1598015259
 20
188.1695537976
 30
0.0
 10
143.1594180682
 20
188.1736321134
 30
0.0
 10
143.1588933554
 20
188.179063641
 30
0.0
 10
143.1583722333
 20
188.1844968322
 30
0.0
 10
143.1576761683
 20
188.1917405175
 30
0.0
 10
143.1568063765
 20
188.2007952371
 30
0.0
 10
143.15576309
 20
188.2116612129
 30
0.0
 10
143.1547174855
 20
188.2225257585
 30
0.0
 10
143.1539398886
 20
188.2306782243
 30
0.0
 10
143.1534112043
 20
188.2361068874
 30
0.0
 10
143.1532062279
 20
188.238378227
 30
0.0
 10
143.1530065345
 20
188.2401733782
 30
0.0
 10
143.1529547161
 20
188.241579865
 30
0.0
 10
143.1525289473
 20
188.2427568185
 30
0.0
 10
143.151951653
 20
188.2443201955
 30
0.0
 10
143.151233323
 20
188.246276435
 30
0.0
 10
143.1500821575
 20
188.2494052903
 30
0.0
 10
143.1486438308
 20
188.2533167461
 30
0.0
 10
143.1469175699
 20
188.2580103285
 30
0.0
 10
143.1446159779
 20
188.2642684913
 30
0.0
 10
143.1417389914
 20
188.2720912096
 30
0.0
 10
143.1382864574
 20
188.2814783208
 30
0.0
 10
143.1354098415
 20
188.2893013962
 30
0.0
 10
143.1331074341
 20
188.2955587735
 30
0.0
 10
143.1313836753
 20
188.3002547658
 30
0.0
 10
143.129937518
 20
188.3041586795
 30
0.0
 10
143.1290151768
 20
188.306713377
 30
0.0
 10
143.1285709199
 20
188.3078744405
 30
0.0
 10
143.1283206217
 20
188.3086930379
 30
0.0
 10
143.1274139247
 20
188.3096703744
 30
0.0
 10
143.1262790652
 20
188.3112223821
 30
0.0
 10
143.12437363
 20
188.3136185105
 30
0.0
 10
143.1220225977
 20
188.3166435489
 30
0.0
 10
143.1191881932
 20
188.3202608074
 30
0.0
 10
143.1154135796
 20
188.3250882793
 30
0.0
 10
143.1088058652
 20
188.333534276
 30
0.0
 10
143.0993673998
 20
188.3456010799
 30
0.0
 10
143.0918162841
 20
188.3552541895
 30
0.0
 10
143.0880407692
 20
188.360080786
 30
0.0
  0
SPLINE
  5
46F
100
AcDbEntity
  8
7_ALL_FEATURES
100
AcDbSpline
 62
4
  6
CONTINUOUS
 70
0
 71
3
 72
153
 73
149
 74
0
 42
0.0000001
 43
0.0000001
 44
0.0000000001
 40
0.0
 40
0.0
 40
0.0
 40
0.0
 40
0.03125
 40
0.046875
 40
0.0625
 40
0.078125
 40
0.09375
 40
0.1015625
 40
0.109375
 40
0.11328125
 40
0.1171875
 40
0.12109375
 40
0.123046875
 40
0.1240234375
 40
0.125
 40
0.1259765625
 40
0.126953125
 40
0.12890625
 40
0.1328125
 40
0.13671875
 40
0.140625
 40
0.1484375
 40
0.15625
 40
0.171875
 40
0.1875
 40
0.203125
 40
0.21875
 40
0.2265625
 40
0.234375
 40
0.23828125
 40
0.2421875
 40
0.24609375
 40
0.248046875
 40
0.2490234375
 40
0.25
 40
0.2509765625
 40
0.251953125
 40
0.25390625
 40
0.2578125
 40
0.26171875
 40
0.265625
 40
0.2734375
 40
0.28125
 40
0.296875
 40
0.3125
 40
0.328125
 40
0.34375
 40
0.3515625
 40
0.359375
 40
0.36328125
 40
0.3671875
 40
0.37109375
 40
0.373046875
 40
0.3740234375
 40
0.375
 40
0.3759765625
 40
0.376953125
 40
0.37890625
 40
0.3828125
 40
0.38671875
 40
0.390625
 40
0.3984375
 40
0.40625
 40
0.421875
 40
0.4375
 40
0.453125
 40
0.46875
 40
0.4765625
 40
0.484375
 40
0.48828125
 40
0.4921875
 40
0.49609375
 40
0.498046875
 40
0.4990234375
 40
0.5
 40
0.5009765625
 40
0.501953125
 40
0.50390625
 40
0.5078125
 40
0.51171875
 40
0.515625
 40
0.5234375
 40
0.53125
 40
0.546875
 40
0.5625
 40
0.578125
 40
0.59375
 40
0.6015625
 40
0.609375
 40
0.61328125
 40
0.6171875
 40
0.62109375
 40
0.623046875
 40
0.6240234375
 40
0.625
 40
0.6259765625
 40
0.626953125
 40
0.62890625
 40
0.6328125
 40
0.63671875
 40
0.640625
 40
0.6484375
 40
0.65625
 40
0.671875
 40
0.6875
 40
0.703125
 40
0.71875
 40
0.7265625
 40
0.734375
 40
0.73828125
 40
0.7421875
 40
0.74609375
 40
0.748046875
 40
0.7490234375
 40
0.75
 40
0.7509765625
 40
0.751953125
 40
0.75390625
 40
0.7578125
 40
0.76171875
 40
0.765625
 40
0.7734375
 40
0.78125
 40
0.796875
 40
0.8125
 40
0.828125
 40
0.84375
 40
0.8515625
 40
0.859375
 40
0.86328125
 40
0.8671875
 40
0.87109375
 40
0.873046875
 40
0.8740234375
 40
0.875
 40
0.8759765625
 40
0.876953125
 40
0.87890625
 40
0.8828125
 40
0.88671875
 40
0.890625
 40
0.8984375
 40
0.90625
 40
0.921875
 40
0.9375
 40
0.953125
 40
0.96875
 40
1.0
 40
1.0
 40
1.0
 40
1.0
 10
141.6110259635
 20
186.343554695
 30
0.0
 10
141.6112789914
 20
186.3346747428
 30
0.0
 10
141.6116585324
 20
186.3213548142
 30
0.0
 10
141.6121645901
 20
186.3035949109
 30
0.0
 10
141.6125441259
 20
186.2902749795
 30
0.0
 10
141.61292369
 20
186.2769550631
 30
0.0
 10
141.6132399054
 20
186.265855086
 30
0.0
 10
141.6134930747
 20
186.2569752091
 30
0.0
 10
141.6136508572
 20
186.2514250474
 30
0.0
 10
141.61377811
 20
186.2469854644
 30
0.0
 10
141.613870738
 20
186.2436542814
 30
0.0
 10
141.613956872
 20
186.2408830539
 30
0.0
 10
141.6139996136
 20
186.2389338566
 30
0.0
 10
141.6140514437
 20
186.2378346101
 30
0.0
 10
141.6140131123
 20
186.2369691016
 30
0.0
 10
141.6142698936
 20
186.2362605973
 30
0.0
 10
141.6145093301
 20
186.23526116
 30
0.0
 10
141.6149763049
 20
186.2335376607
 30
0.0
 10
141.6156183372
 20
186.2310621789
 30
0.0
 10
141.6163995088
 20
186.2280973107
 30
0.0
 10
141.6174373221
 20
186.2241421587
 30
0.0
 10
141.6187358724
 20
186.2191989015
 30
0.0
 10
141.6208128352
 20
186.2112893083
 30
0.0
 10
141.6234092865
 20
186.201402449
 30
0.0
 10
141.6265249151
 20
186.1895381555
 30
0.0
 10
141.6296405991
 20
186.1776739
 30
0.0
 10
141.6322369118
 20
186.1677869459
 30
0.0
 10
141.6343141517
 20
186.1598775424
 30
0.0
 10
141.6356119977
 20
186.1549338029
 30
0.0
 10
141.6366512565
 20
186.150979641
 30
0.0
 10
141.6374280118
 20
186.1480117478
 30
0.0
 10
141.6380838615
 20
186.1455457304
 30
0.0
 10
141.6385261701
 20
186.1438053355
 30
0.0
 10
141.6388051281
 20
186.1428329693
 30
0.0
 10
141.6389405119
 20
186.1420413115
 30
0.0
 10
141.6393581297
 20
186.1414881134
 30
0.0
 10
141.639816507
 20
186.1406673386
 30
0.0
 10
141.6406645354
 20
186.1392697365
 30
0.0
 10
141.6418520242
 20
186.137252901
 30
0.0
 10
141.643287275
 20
186.1348413709
 30
0.0
 10
141.6451973578
 20
186.1316229683
 30
0.0
 10
141.6475861887
 20
186.1276010022
 30
0.0
 10
141.651407632
 20
186.1211652766
 30
0.0
 10
141.6561846729
 20
186.1131208202
 30
0.0
 10
141.6619170144
 20
186.1034673797
 30
0.0
 10
141.6676494075
 20
186.0938139893
 30
0.0
 10
141.6724263195
 20
186.0857694075
 30
0.0
 10
141.6762480207
 20
186.0793339326
 30
0.0
 10
141.678636196
 20
186.0753113293
 30
0.0
 10
141.6805476244
 20
186.0720942347
 30
0.0
 10
141.6819787642
 20
186.0696787084
 30
0.0
 10
141.6831791154
 20
186.0676743759
 30
0.0
 10
141.6840041822
 20
186.066254454
 30
0.0
 10
141.6844993497
 20
186.0654694411
 30
0.0
 10
141.6848039598
 20
186.0648063937
 30
0.0
 10
141.685363782
 20
186.0644273115
 30
0.0
 10
141.6860211907
 20
186.0638228184
 30
0.0
 10
141.6872131324
 20
186.0628111047
 30
0.0
 10
141.6888942219
 20
186.061341672
 30
0.0
 10
141.6909208109
 20
186.0595886802
 30
0.0
 10
141.6936196878
 20
186.0572477505
 30
0.0
 10
141.6969943939
 20
186.0543228236
 30
0.0
 10
141.702393303
 20
186.04964225
 30
0.0
 10
141.7091421536
 20
186.0437917716
 30
0.0
 10
141.7172406773
 20
186.0367710877
 30
0.0
 10
141.7253392463
 20
186.0297504615
 30
0.0
 10
141.7320879836
 20
186.0238998389
 30
0.0
 10
141.7374871194
 20
186.0192195538
 30
0.0
 10
141.7408612494
 20
186.0162938937
 30
0.0
 10
141.7435613086
 20
186.0139544688
 30
0.0
 10
141.7455842853
 20
186.0121968796
 30
0.0
 10
141.7472766769
 20
186.010741831
 30
0.0
 10
141.7484484425
 20
186.0097044394
 30
0.0
 10
141.7491381784
 20
186.0091410887
 30
0.0
 10
141.7495987019
 20
186.0086356301
 30
0.0
 10
141.7502762615
 20
186.0084472315
 30
0.0
 10
141.7511039697
 20
186.0080854393
 30
0.0
 10
141.7525877312
 20
186.0075038308
 30
0.0
 10
141.7546889497
 20
186.0066460222
 30
0.0
 10
141.7572183053
 20
186.0056281827
 30
0.0
 10
141.7605880223
 20
186.0042670359
 30
0.0
 10
141.7648011127
 20
186.0025669814
 30
0.0
 10
141.7715415295
 20
185.9998461233
 30
0.0
 10
141.7799672326
 20
185.9964453171
 30
0.0
 10
141.7900779941
 20
185.9923642273
 30
0.0
 10
141.8001887928
 20
185.9882832003
 30
0.0
 10
141.8086144031
 20
185.9848822373
 30
0.0
 10
141.8153550054
 20
185.9821616927
 30
0.0
 10
141.8195676244
 20
185.9804608413
 30
0.0
 10
141.8229383089
 20
185.9791013303
 30
0.0
 10
141.8254647087
 20
185.9780784932
 30
0.0
 10
141.8275751751
 20
185.977236321
 30
0.0
 10
141.8290424278
 20
185.9766267988
 30
0.0
 10
141.8298965872
 20
185.9763097314
 30
0.0
 10
141.830492897
 20
185.9759839525
 30
0.0
 10
141.8312585814
 20
185.9759944714
 30
0.0
 10
141.8322204142
 20
185.9758911923
 30
0.0
 10
141.833931148
 20
185.975765108
 30
0.0
 10
141.8363606623
 20
185.9755564137
 30
0.0
 10
141.8392822394
 20
185.9753182111
 30
0.0
 10
141.8431755239
 20
185.9749963358
 30
0.0
 10
141.8480428662
 20
185.9745954544
 30
0.0
 10
141.8558302022
 20
185.9739532263
 30
0.0
 10
141.865564514
 20
185.9731507237
 30
0.0
 10
141.8772456247
 20
185.9721875914
 30
0.0
 10
141.8889267626
 20
185.971224524
 30
0.0
 10
141.8986610063
 20
185.9704218589
 30
0.0
 10
141.9064484784
 20
185.9697799558
 30
0.0
 10
141.9113154747
 20
185.9693782484
 30
0.0
 10
141.9152094695
 20
185.9690580684
 30
0.0
 10
141.9181288766
 20
185.9688146863
 30
0.0
 10
141.9205651802
 20
185.9686221976
 30
0.0
 10
141.922263794
 20
185.9684671837
 30
0.0
 10
141.9232450461
 20
185.968410257
 30
0.0
 10
141.9239510806
 20
185.968278396
 30
0.0
 10
141.9247714258
 20
185.9684873727
 30
0.0
 10
141.9258253465
 20
185.9686471203
 30
0.0
 10
141.9276882853
 20
185.9689820708
 30
0.0
 10
141.9303399139
 20
185.9694316118
 30
0.0
 10
141.9335260255
 20
185.9699834567
 30
0.0
 10
141.9377727223
 20
185.9707149204
 30
0.0
 10
141.9430815904
 20
185.9716307324
 30
0.0
 10
141.9515755015
 20
185.9730952028
 30
0.0
 10
141.9621929861
 20
185.9749260772
 30
0.0
 10
141.9749339248
 20
185.9771229955
 30
0.0
 10
141.9876748818
 20
185.9793199793
 30
0.0
 10
141.9982923207
 20
185.9811506898
 30
0.0
 10
142.0067863232
 20
185.9826154878
 30
0.0
 10
142.012094959
 20
185.9835304674
 30
0.0
 10
142.0163421327
 20
185.9842636396
 30
0.0
 10
142.0195267874
 20
185.9848102645
 30
0.0
 10
142.0221829742
 20
185.9852761377
 30
0.0
 10
142.0240377758
 20
185.9855819324
 30
0.0
 10
142.0251047344
 20
185.985788395
 30
0.0
 10
142.0258850317
 20
185.9858538785
 30
0.0
 10
142.0267414793
 20
185.986260954
 30
0.0
 10
142.0278568474
 20
185.9866845702
 30
0.0
 10
142.0298211174
 20
185.9874814133
 30
0.0
 10
142.0326207471
 20
185.9885907368
 30
0.0
 10
142.0359830722
 20
185.9899343482
 30
0.0
 10
142.040465205
 20
185.9917214908
 30
0.0
 10
142.0460682023
 20
185.9939569048
 30
0.0
 10
142.0550328127
 20
185.9975327369
 30
0.0
 10
142.0662386394
 20
186.002002812
 30
0.0
 10
142.0796856041
 20
186.0073667798
 30
0.0
 10
142.0931325761
 20
186.0127307804
 30
0.0
 10
142.1110618695
 20
186.0198827697
 30
0.0
 10
142.1245088402
 20
186.0252467643
 30
0.0
 10
142.1334734872
 20
186.0288227601
 30
0.0
  0
SPLINE
  5
470
100
AcDbEntity
  8
02___PRT_ALL_AXES
100
AcDbSpline
 62
7
  6
CONTINUOUS
 70
0
 71
3
 72
21
 73
17
 74
0
 42
0.0000001
 43
0.0000001
 44
0.0000000001
 40
0.0
 40
0.0
 40
0.0
 40
0.0
 40
0.0012988216
 40
0.005195285
 40
0.0116861025
 40
0.0207371661
 40
0.0463160832
 40
0.0815153855
 40
0.1257782982
 40
0.1784312835
 40
0.238769929
 40
0.3060281275
 40
0.4581935342
 40
0.6286474062
 40
0.8113529706
 40
1.0
 40
1.0
 40
1.0
 40
1.0
 10
92.1504154485
 20
211.0300264214
 30
0.0
 10
92.1510083535
 20
211.0282792773
 30
0.0
 10
92.1510598598
 20
211.0207554883
 30
0.0
 10
92.1539979924
 20
211.0044827949
 30
0.0
 10
92.15699723
 20
210.9769795952
 30
0.0
 10
92.164589886
 20
210.9190915896
 30
0.0
 10
92.1765403397
 20
210.8205968057
 30
0.0
 10
92.1944082298
 20
210.6724677441
 30
0.0
 10
92.2158195028
 20
210.4860150486
 30
0.0
 10
92.2400184555
 20
210.2639459264
 30
0.0
 10
92.2659699488
 20
210.0092122676
 30
0.0
 10
92.3031112379
 20
209.6135392899
 30
0.0
 10
92.3472371162
 20
209.0614329088
 30
0.0
 10
92.389728866
 20
208.3448084782
 30
0.0
 10
92.4177538282
 20
207.5756016174
 30
0.0
 10
92.4242672593
 20
207.0480637633
 30
0.0
 10
92.4242672593
 20
206.7800862417
 30
0.0
  0
SPLINE
  5
471
100
AcDbEntity
  8
02___PRT_ALL_AXES
100
AcDbSpline
 62
7
  6
CONTINUOUS
 70
0
 71
3
 72
21
 73
17
 74
0
 42
0.0000001
 43
0.0000001
 44
0.0000000001
 40
0.0
 40
0.0
 40
0.0
 40
0.0
 40
0.0012988208
 40
0.0051952845
 40
0.0116861035
 40
0.020737168
 40
0.0463160863
 40
0.0815153926
 40
0.1257783105
 40
0.178431299
 40
0.2387699452
 40
0.3060281428
 40
0.4581935443
 40
0.6286474118
 40
0.8113529732
 40
1.0
 40
1.0
 40
1.0
 40
1.0
 10
92.1504154485
 20
202.5301460619
 30
0.0
 10
92.1498225514
 20
202.5283989163
 30
0.0
 10
92.1527615086
 20
202.5444313717
 30
0.0
 10
92.1529119233
 20
202.5524892884
 30
0.0
 10
92.1574872631
 20
202.5846369038
 30
0.0
 10
92.164129627
 20
202.6397246167
 30
0.0
 10
92.1767777966
 20
202.7402754206
 30
0.0
 10
92.194316185
 20
202.887433525
 30
0.0
 10
92.2158520636
 20
203.074253416
 30
0.0
 10
92.2400076434
 20
203.2961947386
 30
0.0
 10
92.2659733258
 20
203.5509702157
 30
0.0
 10
92.3031089272
 20
203.9466264277
 30
0.0
 10
92.3472380357
 20
204.4987423189
 30
0.0
 10
92.3897285883
 20
205.2153632096
 30
0.0
 10
92.4177539133
 20
205.9845711276
 30
0.0
 10
92.4242672593
 20
206.5121087236
 30
0.0
 10
92.4242672593
 20
206.7800862417
 30
0.0
  0
SPLINE
  5
472
100
AcDbEntity
  8
7_ALL_FEATURES
100
AcDbSpline
 62
7
  6
CONTINUOUS
 70
0
 71
3
 72
8
 73
4
 74
0
 42
0.0000001
 43
0.0000001
 44
0.0000000001
 40
0.0
 40
0.0
 40
0.0
 40
0.0
 40
1.0
 40
1.0
 40
1.0
 40
1.0
 10
135.4024176124
 20
183.5300862417
 30
0.0
 10
135.608411436
 20
183.86353828
 30
0.0
 10
135.8146008808
 20
184.1968695419
 30
0.0
 10
136.0209751724
 20
184.5300862417
 30
0.0
  0
SPLINE
  5
473
100
AcDbEntity
  8
7_ALL_FEATURES
100
AcDbSpline
 62
7
  6
CONTINUOUS
 70
0
 71
3
 72
8
 73
4
 74
0
 42
0.0000001
 43
0.0000001
 44
0.0000000001
 40
0.0
 40
0.0
 40
0.0
 40
0.0
 40
1.0
 40
1.0
 40
1.0
 40
1.0
 10
146.047499994
 20
184.5300862417
 30
0.0
 10
145.7904050172
 20
184.2066450632
 30
0.0
 10
145.5331623037
 20
183.8833212561
 30
0.0
 10
145.2757645132
 20
183.5601210079
 30
0.0
  0
SPLINE
  5
474
100
AcDbEntity
  8
03___PRT_ALL_CURVES
100
AcDbSpline
 62
40
  6
CONTINUOUS
 70
0
 71
3
 72
23
 73
19
 74
0
 42
0.0000001
 43
0.0000001
 44
0.0000000001
 40
0.0
 40
0.0
 40
0.0
 40
0.0
 40
0.0416666667
 40
0.0833333333
 40
0.125
 40
0.1666666667
 40
0.25
 40
0.3333333333
 40
0.4166666667
 40
0.5
 40
0.5833333333
 40
0.6666666667
 40
0.75
 40
0.8333333333
 40
0.875
 40
0.9166666667
 40
0.9583333333
 40
1.0
 40
1.0
 40
1.0
 40
1.0
 10
92.8428309523
 20
206.9304107204
 30
0.0
 10
92.8444658902
 20
206.9304107204
 30
0.0
 10
92.8474864942
 20
206.9294084231
 30
0.0
 10
92.8519737654
 20
206.9251994109
 30
0.0
 10
92.8561722797
 20
206.9185188719
 30
0.0
 10
92.861378873
 20
206.9067466949
 30
0.0
 10
92.8673605772
 20
206.8859142371
 30
0.0
 10
92.8727061017
 20
206.8540286056
 30
0.0
 10
92.8759618689
 20
206.8182162105
 30
0.0
 10
92.8770727772
 20
206.7800838516
 30
0.0
 10
92.8759616029
 20
206.7419518419
 30
0.0
 10
92.8727056194
 20
206.706140231
 30
0.0
 10
92.8673601235
 20
206.6742564051
 30
0.0
 10
92.8613786032
 20
206.6534250658
 30
0.0
 10
92.8561720954
 20
206.6416532727
 30
0.0
 10
92.8519736485
 20
206.6349729413
 30
0.0
 10
92.8474864412
 20
206.6307640372
 30
0.0
 10
92.8444658668
 20
206.6297617629
 30
0.0
 10
92.8428309523
 20
206.6297617629
 30
0.0
  0
SPLINE
  5
475
100
AcDbEntity
  8
03___PRT_ALL_CURVES
100
AcDbSpline
 62
40
  6
CONTINUOUS
 70
0
 71
3
 72
23
 73
19
 74
0
 42
0.0000001
 43
0.0000001
 44
0.0000000001
 40
0.0
 40
0.0
 40
0.0
 40
0.0
 40
0.0416666667
 40
0.0833333333
 40
0.125
 40
0.1666666667
 40
0.25
 40
0.3333333333
 40
0.4166666667
 40
0.5
 40
0.5833333333
 40
0.6666666667
 40
0.75
 40
0.8333333333
 40
0.875
 40
0.9166666667
 40
0.9583333333
 40
1.0
 40
1.0
 40
1.0
 40
1.0
 10
92.5175466272
 20
206.6297617629
 30
0.0
 10
92.5163775436
 20
206.6297617629
 30
0.0
 10
92.5142303145
 20
206.6307421238
 30
0.0
 10
92.511051417
 20
206.6348781628
 30
0.0
 10
92.5080911814
 20
206.6414731931
 30
0.0
 10
92.5044342708
 20
206.6531353987
 30
0.0
 10
92.5002460996
 20
206.6739480813
 30
0.0
 10
92.496541632
 20
206.7059485456
 30
0.0
 10
92.494307593
 20
206.741843921
 30
0.0
 10
92.4935472459
 20
206.780091014
 30
0.0
 10
92.4943079556
 20
206.818337419
 30
0.0
 10
92.4965422954
 20
206.8542312273
 30
0.0
 10
92.5002467191
 20
206.8862279811
 30
0.0
 10
92.5044346211
 20
206.9070384045
 30
0.0
 10
92.5080914143
 20
206.9186998897
 30
0.0
 10
92.5110515603
 20
206.9252945415
 30
0.0
 10
92.5142303763
 20
206.9294303963
 30
0.0
 10
92.5163775729
 20
206.9304107204
 30
0.0
 10
92.5175466272
 20
206.9304107204
 30
0.0
  0
LINE
  5
476
100
AcDbEntity
  8
03___PRT_ALL_CURVES
100
AcDbLine
 62
40
  6
CONTINUOUS
 10
92.15078451
 20
211.3800862417
 11
92.1503948962
 21
211.229761763
  0
SPLINE
  5
477
100
AcDbEntity
  8
03___PRT_ALL_CURVES
100
AcDbSpline
 62
40
  6
CONTINUOUS
 70
0
 71
3
 72
10
 73
6
 74
0
 42
0.0000001
 43
0.0000001
 44
0.0000000001
 40
0.0
 40
0.0
 40
0.0
 40
0.0
 40
0.3333333333
 40
0.6666666667
 40
1.0
 40
1.0
 40
1.0
 40
1.0
 10
93.0348643761
 20
223.7803663192
 30
0.0
 10
93.0318706913
 20
223.8085179246
 30
0.0
 10
93.0280647817
 20
223.8690778013
 30
0.0
 10
93.0272227015
 20
223.971296059
 30
0.0
 10
93.029137783
 20
224.0429306769
 30
0.0
 10
93.030589536
 20
224.0800909931
 30
0.0
  0
SPLINE
  5
478
100
AcDbEntity
  8
03___PRT_ALL_CURVES
100
AcDbSpline
 62
40
  6
CONTINUOUS
 70
0
 71
3
 72
10
 73
6
 74
0
 42
0.0000001
 43
0.0000001
 44
0.0000000001
 40
0.0
 40
0.0
 40
0.0
 40
0.0
 40
0.3333333333
 40
0.6666666667
 40
1.0
 40
1.0
 40
1.0
 40
1.0
 10
93.0710829275
 20
223.6463384709
 30
0.0
 10
93.0654940618
 20
223.6521389915
 30
0.0
 10
93.0553976619
 20
223.6700135411
 30
0.0
 10
93.0432890125
 20
223.7155534889
 30
0.0
 10
93.0373597058
 20
223.7569010782
 30
0.0
 10
93.0348643761
 20
223.7803663192
 30
0.0
  0
SPLINE
  5
479
100
AcDbEntity
  8
03___PRT_ALL_CURVES
100
AcDbSpline
 62
40
  6
CONTINUOUS
 70
0
 71
3
 72
13
 73
9
 74
0
 42
0.0000001
 43
0.0000001
 44
0.0000000001
 40
0.0
 40
0.0
 40
0.0
 40
0.0
 40
0.1666666667
 40
0.3333333333
 40
0.5
 40
0.6666666667
 40
0.8333333333
 40
1.0
 40
1.0
 40
1.0
 40
1.0
 10
93.1331178666
 20
223.7192593657
 30
0.0
 10
93.1298319102
 20
223.7084330906
 30
0.0
 10
93.1232682862
 20
223.6888971196
 30
0.0
 10
93.1132098
 20
223.6655864158
 30
0.0
 10
93.1028239704
 20
223.6487729512
 30
0.0
 10
93.0922809134
 20
223.6394733451
 30
0.0
 10
93.0817423628
 20
223.6380997127
 30
0.0
 10
93.0746330719
 20
223.6426538797
 30
0.0
 10
93.0710829275
 20
223.6463384709
 30
0.0
  0
SPLINE
  5
47A
100
AcDbEntity
  8
03___PRT_ALL_CURVES
100
AcDbSpline
 62
40
  6
CONTINUOUS
 70
0
 71
3
 72
10
 73
6
 74
0
 42
0.0000001
 43
0.0000001
 44
0.0000000001
 40
0.0
 40
0.0
 40
0.0
 40
0.0
 40
0.3333333333
 40
0.6666666667
 40
1.0
 40
1.0
 40
1.0
 40
1.0
 10
93.1815030821
 20
224.0436021984
 30
0.0
 10
93.1781694707
 20
223.9982010556
 30
0.0
 10
93.1703524602
 20
223.9133259277
 30
0.0
 10
93.154119913
 20
223.8017522484
 30
0.0
 10
93.1406317763
 20
223.7440155221
 30
0.0
 10
93.1331178666
 20
223.7192593657
 30
0.0
  0
SPLINE
  5
47B
100
AcDbEntity
  8
03___PRT_ALL_CURVES
100
AcDbSpline
 62
40
  6
CONTINUOUS
 70
0
 71
3
 72
10
 73
6
 74
0
 42
0.0000001
 43
0.0000001
 44
0.0000000001
 40
0.0
 40
0.0
 40
0.0
 40
0.0
 40
0.3333333333
 40
0.6666666667
 40
1.0
 40
1.0
 40
1.0
 40
1.0
 10
93.1823986824
 20
224.3873478936
 30
0.0
 10
93.1857913321
 20
224.3545677535
 30
0.0
 10
93.1899642281
 20
224.2849721278
 30
0.0
 10
93.189112876
 20
224.1670311948
 30
0.0
 10
93.184594073
 20
224.0856990418
 30
0.0
 10
93.1815030821
 20
224.0436021984
 30
0.0
  0
SPLINE
  5
47C
100
AcDbEntity
  8
03___PRT_ALL_CURVES
100
AcDbSpline
 62
40
  6
CONTINUOUS
 70
0
 71
3
 72
12
 73
8
 74
0
 42
0.0000001
 43
0.0000001
 44
0.0000000001
 40
0.0
 40
0.0
 40
0.0
 40
0.0
 40
0.1666666667
 40
0.3333333333
 40
0.5
 40
0.6666666667
 40
1.0
 40
1.0
 40
1.0
 40
1.0
 10
93.1349077614
 20
224.5572180375
 30
0.0
 10
93.1385303167
 20
224.5535884395
 30
0.0
 10
93.1454666941
 20
224.5444703082
 30
0.0
 10
93.1549338209
 20
224.5250784545
 30
0.0
 10
93.1634996374
 20
224.4995382834
 30
0.0
 10
93.1734854377
 20
224.4575038923
 30
0.0
 10
93.1792575003
 20
224.4176983269
 30
0.0
 10
93.1823986824
 20
224.3873478936
 30
0.0
  0
SPLINE
  5
47D
100
AcDbEntity
  8
03___PRT_ALL_CURVES
100
AcDbSpline
 62
40
  6
CONTINUOUS
 70
0
 71
3
 72
10
 73
6
 74
0
 42
0.0000001
 43
0.0000001
 44
0.0000000001
 40
0.0
 40
0.0
 40
0.0
 40
0.0
 40
0.3333333333
 40
0.6666666667
 40
1.0
 40
1.0
 40
1.0
 40
1.0
 10
93.0940324268
 20
224.5449593315
 30
0.0
 10
93.0986740157
 20
224.5521377024
 30
0.0
 10
93.1078931181
 20
224.5626141298
 30
0.0
 10
93.121571685
 20
224.5666801435
 30
0.0
 10
93.1304900246
 20
224.5616443631
 30
0.0
 10
93.1349077614
 20
224.5572180375
 30
0.0
  0
SPLINE
  5
47E
100
AcDbEntity
  8
03___PRT_ALL_CURVES
100
AcDbSpline
 62
40
  6
CONTINUOUS
 70
0
 71
3
 72
10
 73
6
 74
0
 42
0.0000001
 43
0.0000001
 44
0.0000000001
 40
0.0
 40
0.0
 40
0.0
 40
0.0
 40
0.3333333333
 40
0.6666666667
 40
1.0
 40
1.0
 40
1.0
 40
1.0
 10
93.0577588274
 20
224.4342055455
 30
0.0
 10
93.0611925056
 20
224.451630027
 30
0.0
 10
93.0684490599
 20
224.4830789088
 30
0.0
 10
93.0807039158
 20
224.5204236664
 30
0.0
 10
93.0894749164
 20
224.5379109907
 30
0.0
 10
93.0940324268
 20
224.5449593315
 30
0.0
  0
SPLINE
  5
47F
100
AcDbEntity
  8
03___PRT_ALL_CURVES
100
AcDbSpline
 62
40
  6
CONTINUOUS
 70
0
 71
3
 72
13
 73
9
 74
0
 42
0.0000001
 43
0.0000001
 44
0.0000000001
 40
0.0
 40
0.0
 40
0.0
 40
0.0
 40
0.1666666667
 40
0.3333333333
 40
0.5
 40
0.6666666667
 40
0.8333333333
 40
1.0
 40
1.0
 40
1.0
 40
1.0
 10
93.1617949816
 20
224.7550384665
 30
0.0
 10
93.1576772447
 20
224.7591060524
 30
0.0
 10
93.1493653196
 20
224.7648144876
 30
0.0
 10
93.1367783974
 20
224.7660982069
 30
0.0
 10
93.1238843241
 20
224.7600790761
 30
0.0
 10
93.1109421284
 20
224.74687009
 30
0.0
 10
93.0982044293
 20
224.727280494
 30
0.0
 10
93.0897401826
 20
224.7101752027
 30
0.0
 10
93.0854943483
 20
224.7006155598
 30
0.0
  0
SPLINE
  5
480
100
AcDbEntity
  8
03___PRT_ALL_CURVES
100
AcDbSpline
 62
40
  6
CONTINUOUS
 70
0
 71
3
 72
10
 73
6
 74
0
 42
0.0000001
 43
0.0000001
 44
0.0000000001
 40
0.0
 40
0.0
 40
0.0
 40
0.0
 40
0.3333333333
 40
0.6666666667
 40
1.0
 40
1.0
 40
1.0
 40
1.0
 10
93.2305396988
 20
224.5061115845
 30
0.0
 10
93.2257814066
 20
224.5498350714
 30
0.0
 10
93.2144779333
 20
224.6268966152
 30
0.0
 10
93.1914494197
 20
224.711726345
 30
0.0
 10
93.1723101443
 20
224.7446513707
 30
0.0
 10
93.1617949816
 20
224.7550384665
 30
0.0
  0
SPLINE
  5
481
100
AcDbEntity
  8
03___PRT_ALL_CURVES
100
AcDbSpline
 62
40
  6
CONTINUOUS
 70
0
 71
3
 72
12
 73
8
 74
0
 42
0.0000001
 43
0.0000001
 44
0.0000000001
 40
0.0
 40
0.0
 40
0.0
 40
0.0
 40
0.3333333333
 40
0.5
 40
0.6666666667
 40
0.8333333333
 40
1.0
 40
1.0
 40
1.0
 40
1.0
 10
93.2313620645
 20
224.0152304966
 30
0.0
 10
93.2359275316
 20
224.0758759321
 30
0.0
 10
93.2406805776
 20
224.1635468372
 30
0.0
 10
93.2423773215
 20
224.2772600137
 30
0.0
 10
93.2410802556
 20
224.3588938608
 30
0.0
 10
93.2372761499
 20
224.4350191479
 30
0.0
 10
93.2330618388
 20
224.4829358837
 30
0.0
 10
93.2305396988
 20
224.5061115845
 30
0.0
  0
SPLINE
  5
482
100
AcDbEntity
  8
03___PRT_ALL_CURVES
100
AcDbSpline
 62
40
  6
CONTINUOUS
 70
0
 71
3
 72
10
 73
6
 74
0
 42
0.0000001
 43
0.0000001
 44
0.0000000001
 40
0.0
 40
0.0
 40
0.0
 40
0.0
 40
0.3333333333
 40
0.6666666667
 40
1.0
 40
1.0
 40
1.0
 40
1.0
 10
93.160714681
 20
223.5628845073
 30
0.0
 10
93.1713328264
 20
223.6000061148
 30
0.0
 10
93.190908624
 20
223.6825875312
 30
0.0
 10
93.2149024588
 20
223.8342720613
 30
0.0
 10
93.2266026414
 20
223.9520086425
 30
0.0
 10
93.2313620645
 20
224.0152304966
 30
0.0
  0
SPLINE
  5
483
100
AcDbEntity
  8
03___PRT_ALL_CURVES
100
AcDbSpline
 62
40
  6
CONTINUOUS
 70
0
 71
3
 72
10
 73
6
 74
0
 42
0.0000001
 43
0.0000001
 44
0.0000000001
 40
0.0
 40
0.0
 40
0.0
 40
0.0
 40
0.3333333333
 40
0.6666666667
 40
1.0
 40
1.0
 40
1.0
 40
1.0
 10
93.0582171834
 20
223.4507081825
 30
0.0
 10
93.0700041258
 20
223.4383842221
 30
0.0
 10
93.0932965729
 20
223.4295784407
 30
0.0
 10
93.1280244814
 20
223.4669218964
 30
0.0
 10
93.1499703227
 20
223.5253216528
 30
0.0
 10
93.160714681
 20
223.5628845073
 30
0.0
  0
SPLINE
  5
484
100
AcDbEntity
  8
03___PRT_ALL_CURVES
100
AcDbSpline
 62
40
  6
CONTINUOUS
 70
0
 71
3
 72
10
 73
6
 74
0
 42
0.0000001
 43
0.0000001
 44
0.0000000001
 40
0.0
 40
0.0
 40
0.0
 40
0.0
 40
0.3333333333
 40
0.6666666667
 40
1.0
 40
1.0
 40
1.0
 40
1.0
 10
92.9934634684
 20
223.6722620436
 30
0.0
 10
92.9980106661
 20
223.6333562512
 30
0.0
 10
93.0088174373
 20
223.565073617
 30
0.0
 10
93.0304034371
 20
223.4910856112
 30
0.0
 10
93.0483274684
 20
223.461048477
 30
0.0
 10
93.0582171834
 20
223.4507081825
 30
0.0
  0
SPLINE
  5
485
100
AcDbEntity
  8
03___PRT_ALL_CURVES
100
AcDbSpline
 62
40
  6
CONTINUOUS
 70
0
 71
3
 72
10
 73
6
 74
0
 42
0.0000001
 43
0.0000001
 44
0.0000000001
 40
0.0
 40
0.0
 40
0.0
 40
0.0
 40
0.3333333333
 40
0.6666666667
 40
1.0
 40
1.0
 40
1.0
 40
1.0
 10
92.9859932766
 20
224.1055269672
 30
0.0
 10
92.9833465597
 20
224.0510593557
 30
0.0
 10
92.9800838838
 20
223.9465267198
 30
0.0
 10
92.9822266957
 20
223.7975180161
 30
0.0
 10
92.988811213
 20
223.7120667089
 30
0.0
 10
92.9934634684
 20
223.6722620436
 30
0.0
  0
SPLINE
  5
486
100
AcDbEntity
  8
03___PRT_ALL_CURVES
100
AcDbSpline
 62
40
  6
CONTINUOUS
 70
0
 71
3
 72
10
 73
6
 74
0
 42
0.0000001
 43
0.0000001
 44
0.0000000001
 40
0.0
 40
0.0
 40
0.0
 40
0.0
 40
0.3333333333
 40
0.6666666667
 40
1.0
 40
1.0
 40
1.0
 40
1.0
 10
92.8175202125
 20
225.0714374749
 30
0.0
 10
92.8225663986
 20
225.0764505719
 30
0.0
 10
92.8327244964
 20
225.0893777619
 30
0.0
 10
92.8482993368
 20
225.1157293716
 30
0.0
 10
92.858846355
 20
225.1368936075
 30
0.0
 10
92.8641884732
 20
225.1482529026
 30
0.0
  0
SPLINE
  5
487
100
AcDbEntity
  8
03___PRT_ALL_CURVES
100
AcDbSpline
 62
40
  6
CONTINUOUS
 70
0
 71
3
 72
10
 73
6
 74
0
 42
0.0000001
 43
0.0000001
 44
0.0000000001
 40
0.0
 40
0.0
 40
0.0
 40
0.0
 40
0.3333333333
 40
0.6666666667
 40
1.0
 40
1.0
 40
1.0
 40
1.0
 10
92.8991619157
 20
225.461164297
 30
0.0
 10
92.8918032303
 20
225.4372205424
 30
0.0
 10
92.8769072656
 20
225.3935720243
 30
0.0
 10
92.8542721626
 20
225.3405624442
 30
0.0
 10
92.8388028248
 20
225.3127358927
 30
0.0
 10
92.8310008867
 20
225.3007295501
 30
0.0
  0
SPLINE
  5
488
100
AcDbEntity
  8
03___PRT_ALL_CURVES
100
AcDbSpline
 62
40
  6
CONTINUOUS
 70
0
 71
3
 72
10
 73
6
 74
0
 42
0.0000001
 43
0.0000001
 44
0.0000000001
 40
0.0
 40
0.0
 40
0.0
 40
0.0
 40
0.3333333333
 40
0.6666666667
 40
1.0
 40
1.0
 40
1.0
 40
1.0
 10
92.950383921
 20
225.6815236845
 30
0.0
 10
92.9460214225
 20
225.654612402
 30
0.0
 10
92.936298635
 20
225.60265734
 30
0.0
 10
92.9189561077
 20
225.5290424802
 30
0.0
 10
92.9059861613
 20
225.4833690872
 30
0.0
 10
92.8991619157
 20
225.461164297
 30
0.0
  0
SPLINE
  5
489
100
AcDbEntity
  8
03___PRT_ALL_CURVES
100
AcDbSpline
 62
40
  6
CONTINUOUS
 70
0
 71
3
 72
15
 73
11
 74
0
 42
0.0000001
 43
0.0000001
 44
0.0000000001
 40
0.0
 40
0.0
 40
0.0
 40
0.0
 40
0.25
 40
0.5
 40
0.625
 40
0.75
 40
0.8125
 40
0.875
 40
0.9375
 40
1.0
 40
1.0
 40
1.0
 40
1.0
 10
92.1517415195
 20
225.7664436921
 30
0.0
 10
92.1517415195
 20
225.7029242084
 30
0.0
 10
92.1517216864
 20
225.5804427561
 30
0.0
 10
92.15163674
 20
225.4376903567
 30
0.0
 10
92.1515253006
 20
225.331572178
 30
0.0
 10
92.1514342881
 20
225.2679429644
 30
0.0
 10
92.1513436185
 20
225.2179117386
 30
0.0
 10
92.1512672866
 20
225.1818657317
 30
0.0
 10
92.151180595
 20
225.1471173848
 30
0.0
 10
92.1511187102
 20
225.1261252309
 30
0.0
 10
92.1510838576
 20
225.1154051658
 30
0.0
  0
SPLINE
  5
48A
100
AcDbEntity
  8
03___PRT_ALL_CURVES
100
AcDbSpline
 62
40
  6
CONTINUOUS
 70
0
 71
3
 72
15
 73
11
 74
0
 42
0.0000001
 43
0.0000001
 44
0.0000000001
 40
0.0
 40
0.0
 40
0.0
 40
0.0
 40
0.0625
 40
0.125
 40
0.1875
 40
0.25
 40
0.375
 40
0.5
 40
0.75
 40
1.0
 40
1.0
 40
1.0
 40
1.0
 10
92.1510825188
 20
226.4200908404
 30
0.0
 10
92.1511177481
 20
226.4095585244
 30
0.0
 10
92.1511798938
 20
226.3889345794
 30
0.0
 10
92.1512669988
 20
226.3545201525
 30
0.0
 10
92.1513435027
 20
226.3186942536
 30
0.0
 10
92.1514342966
 20
226.268810819
 30
0.0
 10
92.1515253674
 20
226.2051174194
 30
0.0
 10
92.1516367358
 20
226.0985588618
 30
0.0
 10
92.1517214111
 20
225.9553083964
 30
0.0
 10
92.1517415195
 20
225.8310659972
 30
0.0
 10
92.1517415195
 20
225.7664436921
 30
0.0
  0
SPLINE
  5
48B
100
AcDbEntity
  8
03___PRT_ALL_CURVES
100
AcDbSpline
 62
40
  6
CONTINUOUS
 70
0
 71
3
 72
10
 73
6
 74
0
 42
0.0000001
 43
0.0000001
 44
0.0000000001
 40
0.0
 40
0.0
 40
0.0
 40
0.0
 40
0.3333333333
 40
0.6666666667
 40
1.0
 40
1.0
 40
1.0
 40
1.0
 10
92.1539577723
 20
225.7664436921
 30
0.0
 10
92.1539577723
 20
225.8722598523
 30
0.0
 10
92.1538404334
 20
226.073736208
 30
0.0
 10
92.1532406474
 20
226.3489611103
 30
0.0
 10
92.1525304299
 20
226.5075825137
 30
0.0
 10
92.1521093006
 20
226.5781102598
 30
0.0
  0
SPLINE
  5
48C
100
AcDbEntity
  8
03___PRT_ALL_CURVES
100
AcDbSpline
 62
40
  6
CONTINUOUS
 70
0
 71
3
 72
10
 73
6
 74
0
 42
0.0000001
 43
0.0000001
 44
0.0000000001
 40
0.0
 40
0.0
 40
0.0
 40
0.0
 40
0.3333333333
 40
0.6666666667
 40
1.0
 40
1.0
 40
1.0
 40
1.0
 10
92.1523853498
 20
225.0051885632
 30
0.0
 10
92.1527486007
 20
225.0753717623
 30
0.0
 10
92.1533509246
 20
225.2277626802
 30
0.0
 10
92.1538586814
 20
225.4849067983
 30
0.0
 10
92.1539577723
 20
225.6700169843
 30
0.0
 10
92.1539577723
 20
225.7664436921
 30
0.0
  0
SPLINE
  5
48D
100
AcDbEntity
  8
03___PRT_ALL_CURVES
100
AcDbSpline
 62
40
  6
CONTINUOUS
 70
0
 71
3
 72
13
 73
9
 74
0
 42
0.0000001
 43
0.0000001
 44
0.0000000001
 40
0.0
 40
0.0
 40
0.0
 40
0.0
 40
0.1666666667
 40
0.3333333333
 40
0.5
 40
0.6666666667
 40
0.8333333333
 40
1.0
 40
1.0
 40
1.0
 40
1.0
 10
92.1503949194
 20
224.7459798306
 30
0.0
 10
92.1503938709
 20
224.7459798306
 30
0.0
 10
92.1504633602
 20
224.7512290551
 30
0.0
 10
92.1507230158
 20
224.7742555427
 30
0.0
 10
92.1510927035
 20
224.8124977832
 30
0.0
 10
92.1515217873
 20
224.8648528964
 30
0.0
 10
92.1519608555
 20
224.9285849965
 30
0.0
 10
92.1522459617
 20
224.9782575749
 30
0.0
 10
92.1523853498
 20
225.0051885632
 30
0.0
  0
SPLINE
  5
48E
100
AcDbEntity
  8
03___PRT_ALL_CURVES
100
AcDbSpline
 62
40
  6
CONTINUOUS
 70
0
 71
3
 72
27
 73
23
 74
0
 42
0.0000001
 43
0.0000001
 44
0.0000000001
 40
0.0
 40
0.0
 40
0.0
 40
0.0
 40
0.0208333333
 40
0.0416666667
 40
0.0625
 40
0.0833333333
 40
0.125
 40
0.1666666667
 40
0.25
 40
0.3333333333
 40
0.4166666667
 40
0.5
 40
0.5833333333
 40
0.6666666667
 40
0.75
 40
0.8333333333
 40
0.875
 40
0.9166666667
 40
0.9375
 40
0.9583333333
 40
0.9791666667
 40
1.0
 40
1.0
 40
1.0
 40
1.0
 10
92.1728431454
 20
221.8873969647
 30
0.0
 10
92.172833205
 20
221.8838169583
 30
0.0
 10
92.1728054794
 20
221.8772045307
 30
0.0
 10
92.1727365872
 20
221.8671238414
 30
0.0
 10
92.172643077
 20
221.8574035488
 30
0.0
 10
92.1724869834
 20
221.8447846766
 30
0.0
 10
92.1722350906
 20
221.8297474448
 30
0.0
 10
92.1717297346
 20
221.807592284
 30
0.0
 10
92.1708713006
 20
221.7823361804
 30
0.0
 10
92.1696278546
 20
221.7607208915
 30
0.0
 10
92.1683104832
 20
221.7487316326
 30
0.0
 10
92.1669813594
 20
221.7463380698
 30
0.0
 10
92.1657256665
 20
221.7537374145
 30
0.0
 10
92.1646133421
 20
221.7704205173
 30
0.0
 10
92.1636781898
 20
221.7962217117
 30
0.0
 10
92.1631122285
 20
221.8241903354
 30
0.0
 10
92.162816608
 20
221.8478622023
 30
0.0
 10
92.1626870005
 20
221.8636161315
 30
0.0
 10
92.1626199311
 20
221.8766501357
 30
0.0
 10
92.162588168
 20
221.8866007348
 30
0.0
 10
92.1625759326
 20
221.8968267076
 30
0.0
 10
92.1625807079
 20
221.9034767099
 30
0.0
 10
92.1625870029
 20
221.9070601054
 30
0.0
  0
SPLINE
  5
48F
100
AcDbEntity
  8
03___PRT_ALL_CURVES
100
AcDbSpline
 62
40
  6
CONTINUOUS
 70
0
 71
3
 72
31
 73
27
 74
0
 42
0.0000001
 43
0.0000001
 44
0.0000000001
 40
0.0
 40
0.0
 40
0.0
 40
0.0
 40
0.0208333333
 40
0.0416666667
 40
0.0625
 40
0.0833333333
 40
0.125
 40
0.1458333333
 40
0.1666666667
 40
0.2083333333
 40
0.25
 40
0.3333333333
 40
0.4166666667
 40
0.5
 40
0.5833333333
 40
0.6666666667
 40
0.75
 40
0.7916666667
 40
0.8333333333
 40
0.8541666667
 40
0.875
 40
0.9166666667
 40
0.9375
 40
0.9583333333
 40
0.9791666667
 40
1.0
 40
1.0
 40
1.0
 40
1.0
 10
92.1646598059
 20
222.9545364248
 30
0.0
 10
92.1646667001
 20
222.9581451805
 30
0.0
 10
92.1646869974
 20
222.964807379
 30
0.0
 10
92.1647396096
 20
222.9749725688
 30
0.0
 10
92.1648125359
 20
222.9847759811
 30
0.0
 10
92.1649361784
 20
222.9975116314
 30
0.0
 10
92.1650978098
 20
223.0096333652
 30
0.0
 10
92.1652959603
 20
223.0211103035
 30
0.0
 10
92.1655172662
 20
223.0320959156
 30
0.0
 10
92.1658440894
 20
223.0451941989
 30
0.0
 10
92.1664790343
 20
223.0642993987
 30
0.0
 10
92.1674199311
 20
223.0824623581
 30
0.0
 10
92.1687105197
 20
223.0946241746
 30
0.0
 10
92.1701133894
 20
223.0970517995
 30
0.0
 10
92.1715444381
 20
223.0895854556
 30
0.0
 10
92.1729078328
 20
223.0726963693
 30
0.0
 10
92.1739221918
 20
223.0510369971
 30
0.0
 10
92.1745996797
 20
223.029573194
 30
0.0
 10
92.174939996
 20
223.0152713014
 30
0.0
 10
92.1751624862
 20
223.0034823221
 30
0.0
 10
92.1753547985
 20
222.9912962831
 30
0.0
 10
92.175498946
 20
222.9786155737
 30
0.0
 10
92.1755913789
 20
222.9654805199
 30
0.0
 10
92.1756337539
 20
222.95546095
 30
0.0
 10
92.1756476417
 20
222.945166685
 30
0.0
 10
92.1756381053
 20
222.9384788534
 30
0.0
 10
92.175627539
 20
222.9348732538
 30
0.0
  0
SPLINE
  5
490
100
AcDbEntity
  8
03___PRT_ALL_CURVES
100
AcDbSpline
 62
40
  6
CONTINUOUS
 70
0
 71
3
 72
31
 73
27
 74
0
 42
0.0000001
 43
0.0000001
 44
0.0000000001
 40
0.0
 40
0.0
 40
0.0
 40
0.0
 40
0.0208333333
 40
0.0416666667
 40
0.0625
 40
0.0833333333
 40
0.125
 40
0.1458333333
 40
0.1666666667
 40
0.2083333333
 40
0.25
 40
0.3333333333
 40
0.4166666667
 40
0.5
 40
0.5833333333
 40
0.6666666667
 40
0.75
 40
0.7916666667
 40
0.8333333333
 40
0.8541666667
 40
0.875
 40
0.9166666667
 40
0.9375
 40
0.9583333333
 40
0.9791666667
 40
1.0
 40
1.0
 40
1.0
 40
1.0
 10
92.316880115
 20
221.6092435491
 30
0.0
 10
92.3168031975
 20
221.6057412313
 30
0.0
 10
92.3166360607
 20
221.5993056374
 30
0.0
 10
92.3163095332
 20
221.5895751603
 30
0.0
 10
92.3159217138
 20
221.5802793449
 30
0.0
 10
92.3153237136
 20
221.5683166937
 30
0.0
 10
92.314612699
 20
221.5571007461
 30
0.0
 10
92.3137973532
 20
221.5466515319
 30
0.0
 10
92.3129187059
 20
221.5367690512
 30
0.0
 10
92.3116774228
 20
221.5252136797
 30
0.0
 10
92.3093944231
 20
221.5089405688
 30
0.0
 10
92.3062501614
 20
221.4947276284
 30
0.0
 10
92.3023085333
 20
221.4875998938
 30
0.0
 10
92.2983734507
 20
221.4902712126
 30
0.0
 10
92.2946884405
 20
221.5025669386
 30
0.0
 10
92.2914615395
 20
221.5237163633
 30
0.0
 10
92.2892707523
 20
221.5482919797
 30
0.0
 10
92.2879272886
 20
221.5715511237
 30
0.0
 10
92.2873044603
 20
221.586686004
 30
0.0
 10
92.2869295593
 20
221.5989739496
 30
0.0
 10
92.2866308865
 20
221.6115556847
 30
0.0
 10
92.2864506151
 20
221.6244712789
 30
0.0
 10
92.28639426
 20
221.6376737936
 30
0.0
 10
92.2864154323
 20
221.64765915
 30
0.0
 10
92.2865045499
 20
221.6578281123
 30
0.0
 10
92.28660463
 20
221.6643813708
 30
0.0
 10
92.2866708928
 20
221.6678965292
 30
0.0
  0
SPLINE
  5
491
100
AcDbEntity
  8
03___PRT_ALL_CURVES
100
AcDbSpline
 62
40
  6
CONTINUOUS
 70
0
 71
3
 72
31
 73
27
 74
0
 42
0.0000001
 43
0.0000001
 44
0.0000000001
 40
0.0
 40
0.0
 40
0.0
 40
0.0
 40
0.0208333333
 40
0.0416666667
 40
0.0625
 40
0.0833333333
 40
0.125
 40
0.1458333333
 40
0.1666666667
 40
0.2083333333
 40
0.25
 40
0.3333333333
 40
0.4166666667
 40
0.5
 40
0.5833333333
 40
0.6666666667
 40
0.75
 40
0.7916666667
 40
0.8333333333
 40
0.8541666667
 40
0.875
 40
0.9166666667
 40
0.9375
 40
0.9583333333
 40
0.9791666667
 40
1.0
 40
1.0
 40
1.0
 40
1.0
 10
92.3073285272
 20
222.6974502687
 30
0.0
 10
92.3074001797
 20
222.7009843635
 30
0.0
 10
92.3075571872
 20
222.7074745439
 30
0.0
 10
92.3078677949
 20
222.7172962223
 30
0.0
 10
92.3082400185
 20
222.7266817627
 30
0.0
 10
92.3088180677
 20
222.7387647928
 30
0.0
 10
92.3095114713
 20
222.7500998007
 30
0.0
 10
92.3103137229
 20
222.7606658807
 30
0.0
 10
92.3111830745
 20
222.7706623553
 30
0.0
 10
92.3124215094
 20
222.7823611755
 30
0.0
 10
92.3147281224
 20
222.7988537794
 30
0.0
 10
92.3179639426
 20
222.8132688194
 30
0.0
 10
92.3221267391
 20
222.8205171439
 30
0.0
 10
92.326392794
 20
222.8178511573
 30
0.0
 10
92.330490341
 20
222.8054431447
 30
0.0
 10
92.3341581378
 20
222.7840837786
 30
0.0
 10
92.3366931835
 20
222.759250032
 30
0.0
 10
92.3382570308
 20
222.7357511475
 30
0.0
 10
92.3389814389
 20
222.72048128
 30
0.0
 10
92.3394153262
 20
222.7080988363
 30
0.0
 10
92.3397588292
 20
222.6954260277
 30
0.0
 10
92.3399613205
 20
222.6824274112
 30
0.0
 10
92.3400155413
 20
222.6691508411
 30
0.0
 10
92.3399803322
 20
222.6591156058
 30
0.0
 10
92.3398637695
 20
222.648900944
 30
0.0
 10
92.3397378916
 20
222.6423259113
 30
0.0
 10
92.33965535
 20
222.6387971981
 30
0.0
  0
SPLINE
  5
492
100
AcDbEntity
  8
03___PRT_ALL_CURVES
100
AcDbSpline
 62
40
  6
CONTINUOUS
 70
0
 71
3
 72
25
 73
21
 74
0
 42
0.0000001
 43
0.0000001
 44
0.0000000001
 40
0.0
 40
0.0
 40
0.0
 40
0.0
 40
0.0833333333
 40
0.1666666667
 40
0.25
 40
0.3333333333
 40
0.4166666667
 40
0.5
 40
0.5833333333
 40
0.6666666667
 40
0.75
 40
0.7916666667
 40
0.8333333333
 40
0.8541666667
 40
0.875
 40
0.9166666667
 40
0.9375
 40
0.9583333333
 40
0.9791666667
 40
1.0
 40
1.0
 40
1.0
 40
1.0
 10
92.4369061977
 20
221.3752690943
 30
0.0
 10
92.4363818934
 20
221.3614522974
 30
0.0
 10
92.4349098386
 20
221.3373848649
 30
0.0
 10
92.4315664205
 20
221.3064607115
 30
0.0
 10
92.4270463948
 20
221.2818044999
 30
0.0
 10
92.4218681697
 20
221.2668725213
 30
0.0
 10
92.4165734108
 20
221.2622101757
 30
0.0
 10
92.4113497445
 20
221.2674140819
 30
0.0
 10
92.406539241
 20
221.2821620347
 30
0.0
 10
92.4024059521
 20
221.3055115952
 30
0.0
 10
92.3996826913
 20
221.3316330969
 30
0.0
 10
92.398084494
 20
221.3558659722
 30
0.0
 10
92.3973831899
 20
221.3714519317
 30
0.0
 10
92.3969901589
 20
221.3840075911
 30
0.0
 10
92.3967025848
 20
221.3968019004
 30
0.0
 10
92.396577847
 20
221.4098430155
 30
0.0
 10
92.3966231447
 20
221.4230799669
 30
0.0
 10
92.3967436114
 20
221.4330442563
 30
0.0
 10
92.3969576377
 20
221.4431427
 30
0.0
 10
92.397153162
 20
221.4496174007
 30
0.0
 10
92.3972751025
 20
221.4530827703
 30
0.0
  0
SPLINE
  5
493
100
AcDbEntity
  8
03___PRT_ALL_CURVES
100
AcDbSpline
 62
40
  6
CONTINUOUS
 70
0
 71
3
 72
25
 73
21
 74
0
 42
0.0000001
 43
0.0000001
 44
0.0000000001
 40
0.0
 40
0.0
 40
0.0
 40
0.0
 40
0.0833333333
 40
0.1666666667
 40
0.25
 40
0.3333333333
 40
0.4166666667
 40
0.5
 40
0.5833333333
 40
0.6666666667
 40
0.75
 40
0.7916666667
 40
0.8333333333
 40
0.8541666667
 40
0.875
 40
0.9166666667
 40
0.9375
 40
0.9583333333
 40
0.9791666667
 40
1.0
 40
1.0
 40
1.0
 40
1.0
 10
92.4777768253
 20
223.5774927434
 30
0.0
 10
92.4783368548
 20
223.5912843108
 30
0.0
 10
92.4799109163
 20
223.6153112245
 30
0.0
 10
92.4835228448
 20
223.6462305172
 30
0.0
 10
92.4884868098
 20
223.670939048
 30
0.0
 10
92.4942786889
 20
223.6858957919
 30
0.0
 10
92.500310692
 20
223.6905539458
 30
0.0
 10
92.5063753607
 20
223.6853304357
 30
0.0
 10
92.5120619399
 20
223.6705555344
 30
0.0
 10
92.5170278782
 20
223.6471825821
 30
0.0
 10
92.520346702
 20
223.6210201098
 30
0.0
 10
92.5223059824
 20
223.5967497837
 30
0.0
 10
92.5231671182
 20
223.5811569945
 30
0.0
 10
92.5236495447
 20
223.568609273
 30
0.0
 10
92.5240023277
 20
223.5558275185
 30
0.0
 10
92.5241545278
 20
223.5428074894
 30
0.0
 10
92.5240972952
 20
223.5295990428
 30
0.0
 10
92.5239480005
 20
223.519659557
 30
0.0
 10
92.5236838614
 20
223.5095887562
 30
0.0
 10
92.5234432139
 20
223.5031342733
 30
0.0
 10
92.5232932945
 20
223.4996790674
 30
0.0
  0
SPLINE
  5
494
100
AcDbEntity
  8
03___PRT_ALL_CURVES
100
AcDbSpline
 62
40
  6
CONTINUOUS
 70
0
 71
3
 72
31
 73
27
 74
0
 42
0.0000001
 43
0.0000001
 44
0.0000000001
 40
0.0
 40
0.0
 40
0.0
 40
0.0
 40
0.0208333333
 40
0.0416666667
 40
0.0625
 40
0.0833333333
 40
0.125
 40
0.1458333333
 40
0.1666666667
 40
0.2083333333
 40
0.25
 40
0.3333333333
 40
0.4166666667
 40
0.5
 40
0.5833333333
 40
0.6666666667
 40
0.75
 40
0.7916666667
 40
0.8333333333
 40
0.8541666667
 40
0.875
 40
0.9166666667
 40
0.9375
 40
0.9583333333
 40
0.9791666667
 40
1.0
 40
1.0
 40
1.0
 40
1.0
 10
92.2284694062
 20
221.7811763124
 30
0.0
 10
92.2284348883
 20
221.7776104358
 30
0.0
 10
92.2283536611
 20
221.7710424537
 30
0.0
 10
92.228179961
 20
221.7610666219
 30
0.0
 10
92.2279617961
 20
221.7514908765
 30
0.0
 10
92.2276130926
 20
221.7391090347
 30
0.0
 10
92.2271830976
 20
221.7274109289
 30
0.0
 10
92.2266781827
 20
221.7164219051
 30
0.0
 10
92.2261274526
 20
221.7059640277
 30
0.0
 10
92.2253385495
 20
221.6936114139
 30
0.0
 10
92.2238664792
 20
221.6758881168
 30
0.0
 10
92.2218053074
 20
221.6596694211
 30
0.0
 10
92.219183817
 20
221.6500074548
 30
0.0
 10
92.2165382707
 20
221.6501307725
 30
0.0
 10
92.2140325784
 20
221.6600355142
 30
0.0
 10
92.2118095756
 20
221.6790990762
 30
0.0
 10
92.2102687852
 20
221.7022664781
 30
0.0
 10
92.2092950108
 20
221.7246747735
 30
0.0
 10
92.2088273842
 20
221.7394253019
 30
0.0
 10
92.2085337378
 20
221.7514912553
 30
0.0
 10
92.2082890483
 20
221.7639036687
 30
0.0
 10
92.2081207412
 20
221.77673182
 30
0.0
 10
92.2080324547
 20
221.789931758
 30
0.0
 10
92.2080074327
 20
221.7999579765
 30
0.0
 10
92.2080261575
 20
221.810213861
 30
0.0
 10
92.2080661259
 20
221.8168501463
 30
0.0
 10
92.2080958083
 20
221.820418876
 30
0.0
  0
SPLINE
  5
495
100
AcDbEntity
  8
03___PRT_ALL_CURVES
100
AcDbSpline
 62
40
  6
CONTINUOUS
 70
0
 71
3
 72
31
 73
27
 74
0
 42
0.0000001
 43
0.0000001
 44
0.0000000001
 40
0.0
 40
0.0
 40
0.0
 40
0.0
 40
0.0208333333
 40
0.0416666667
 40
0.0625
 40
0.0833333333
 40
0.125
 40
0.1458333333
 40
0.1666666667
 40
0.2083333333
 40
0.25
 40
0.3333333333
 40
0.4166666667
 40
0.5
 40
0.5833333333
 40
0.6666666667
 40
0.75
 40
0.7916666667
 40
0.8333333333
 40
0.8541666667
 40
0.875
 40
0.9166666667
 40
0.9375
 40
0.9583333333
 40
0.9791666667
 40
1.0
 40
1.0
 40
1.0
 40
1.0
 10
92.2276624197
 20
224.0009541655
 30
0.0
 10
92.2276967538
 20
224.0045196067
 30
0.0
 10
92.2277775832
 20
224.0110865449
 30
0.0
 10
92.2279507637
 20
224.0210612017
 30
0.0
 10
92.2281688332
 20
224.0306360193
 30
0.0
 10
92.228518482
 20
224.0430170959
 30
0.0
 10
92.2289518716
 20
224.0547151671
 30
0.0
 10
92.2294646071
 20
224.0657048586
 30
0.0
 10
92.2300267938
 20
224.0761637375
 30
0.0
 10
92.2308386861
 20
224.0885185545
 30
0.0
 10
92.2323746022
 20
224.1062457356
 30
0.0
 10
92.2345742536
 20
224.1224662079
 30
0.0
 10
92.2374714614
 20
224.1321254296
 30
0.0
 10
92.2405049459
 20
224.131997614
 30
0.0
 10
92.2434871358
 20
224.1220841623
 30
0.0
 10
92.2462257454
 20
224.1030100872
 30
0.0
 10
92.2481830691
 20
224.0798256214
 30
0.0
 10
92.2494410063
 20
224.0574008454
 30
0.0
 10
92.2500506134
 20
224.0426463982
 30
0.0
 10
92.2504350972
 20
224.030582778
 30
0.0
 10
92.2507563902
 20
224.0181745693
 30
0.0
 10
92.2509781794
 20
224.0053541654
 30
0.0
 10
92.2510945858
 20
223.9921652097
 30
0.0
 10
92.2511275163
 20
223.9821487866
 30
0.0
 10
92.2511026486
 20
223.9719040241
 30
0.0
 10
92.2510498077
 20
223.9652761365
 30
0.0
 10
92.2510106142
 20
223.9617116019
 30
0.0
  0
LINE
  5
496
100
AcDbEntity
  8
03___PRT_ALL_CURVES
100
AcDbLine
 62
40
  6
CONTINUOUS
 10
92.15078451
 20
221.9304107204
 11
92.1503948962
 21
221.7800862417
  0
SPLINE
  5
497
100
AcDbEntity
  8
7_ALL_FEATURES
100
AcDbSpline
 62
3
  6
CONTINUOUS
 70
0
 71
3
 72
11
 73
7
 74
0
 42
0.0000001
 43
0.0000001
 44
0.0000000001
 40
0.0
 40
0.0
 40
0.0
 40
0.0
 40
0.2804036224
 40
0.5381887091
 40
0.7753594197
 40
1.0
 40
1.0
 40
1.0
 40
1.0
 10
97.1421089892
 20
183.5276256189
 30
0.0
 10
97.1759649701
 20
183.4544817796
 30
0.0
 10
97.2550915272
 20
183.319877447
 30
0.0
 10
97.4119121148
 20
183.1580588364
 30
0.0
 10
97.5945749171
 20
183.0543278959
 30
0.0
 10
97.7283168289
 20
183.0300862417
 30
0.0
 10
97.7928875912
 20
183.0300862417
 30
0.0
  0
SPLINE
  5
498
100
AcDbEntity
  8
7_ALL_FEATURES
100
AcDbSpline
 62
3
  6
CONTINUOUS
 70
0
 71
3
 72
12
 73
8
 74
0
 42
0.0000001
 43
0.0000001
 44
0.0000000001
 40
0.0
 40
0.0
 40
0.0
 40
0.0
 40
0.2828944285
 40
0.5419458986
 40
0.777811368
 40
0.8899203884
 40
1.0
 40
1.0
 40
1.0
 40
1.0
 10
145.1978347139
 20
183.6221627671
 30
0.0
 10
145.1664069802
 20
183.5367837034
 30
0.0
 10
145.0889472689
 20
183.3786517904
 30
0.0
 10
144.9254100014
 20
183.1855753643
 30
0.0
 10
144.7569436701
 20
183.0790490204
 30
0.0
 10
144.6149497668
 20
183.0370824535
 30
0.0
 10
144.5433040955
 20
183.0300862417
 30
0.0
 10
144.5079022013
 20
183.0300862417
 30
0.0
  0
SPLINE
  5
499
100
AcDbEntity
  8
7_ALL_FEATURES
100
AcDbSpline
 62
3
  6
CONTINUOUS
 70
0
 71
3
 72
11
 73
7
 74
0
 42
0.0000001
 43
0.0000001
 44
0.0000000001
 40
0.0
 40
0.0
 40
0.0
 40
0.0
 40
0.2408198638
 40
0.4941501693
 40
0.7505632867
 40
1.0
 40
1.0
 40
1.0
 40
1.0
 10
148.1809129583
 20
197.3290591806
 30
0.0
 10
148.3693979573
 20
196.9797047981
 30
0.0
 10
148.6665081718
 20
196.2123404924
 30
0.0
 10
148.8632622489
 20
194.982847727
 30
0.0
 10
148.8150213892
 20
193.7245917589
 30
0.0
 10
148.615684677
 20
192.9073639084
 30
0.0
 10
148.4736544124
 20
192.5215132745
 30
0.0
  0
SPLINE
  5
49A
100
AcDbEntity
  8
7_ALL_FEATURES
100
AcDbSpline
 62
3
  6
CONTINUOUS
 70
0
 71
3
 72
11
 73
7
 74
0
 42
0.0000001
 43
0.0000001
 44
0.0000000001
 40
0.0
 40
0.0
 40
0.0
 40
0.0
 40
0.2408198638
 40
0.4941501693
 40
0.7505632867
 40
1.0
 40
1.0
 40
1.0
 40
1.0
 10
140.4027383652
 20
197.3290591806
 30
0.0
 10
140.5912233643
 20
196.9797047981
 30
0.0
 10
140.8883335787
 20
196.2123404924
 30
0.0
 10
141.0850876558
 20
194.982847727
 30
0.0
 10
141.0368467961
 20
193.7245917589
 30
0.0
 10
140.837510084
 20
192.9073639084
 30
0.0
 10
140.6954798194
 20
192.5215132745
 30
0.0
  0
SPLINE
  5
49B
100
AcDbEntity
  8
7_ALL_FEATURES
100
AcDbSpline
 62
3
  6
CONTINUOUS
 70
0
 71
3
 72
12
 73
8
 74
0
 42
0.0000001
 43
0.0000001
 44
0.0000000001
 40
0.0
 40
0.0
 40
0.0
 40
0.0
 40
0.2828944285
 40
0.5419458986
 40
0.777811368
 40
0.8899203884
 40
1.0
 40
1.0
 40
1.0
 40
1.0
 10
137.4196601209
 20
183.6221627671
 30
0.0
 10
137.3882323871
 20
183.5367837034
 30
0.0
 10
137.3107726758
 20
183.3786517904
 30
0.0
 10
137.1472354083
 20
183.1855753643
 30
0.0
 10
136.9787690771
 20
183.0790490204
 30
0.0
 10
136.8367751737
 20
183.0370824535
 30
0.0
 10
136.7651295025
 20
183.0300862417
 30
0.0
 10
136.7297276083
 20
183.0300862417
 30
0.0
  0
SPLINE
  5
49C
100
AcDbEntity
  8
3_ALL_AXES
100
AcDbSpline
 62
7
  6
CONTINUOUS
 70
0
 71
3
 72
11
 73
7
 74
0
 42
0.0000001
 43
0.0000001
 44
0.0000000001
 40
0.0
 40
0.0
 40
0.0
 40
0.0
 40
0.2163299934
 40
0.4566523293
 40
0.718771544
 40
1.0
 40
1.0
 40
1.0
 40
1.0
 10
280.8411675233
 20
171.702688256
 30
0.0
 10
280.892133886
 20
171.7536550955
 30
0.0
 10
280.9919191659
 20
171.8690764272
 30
0.0
 10
281.1305804171
 20
172.0645912332
 30
0.0
 10
281.2666370848
 20
172.2876363075
 30
0.0
 10
281.3528959135
 20
172.4468730327
 30
0.0
 10
281.39597024
 20
172.5300862417
 30
0.0
  0
SPLINE
  5
49D
100
AcDbEntity
  8
3_ALL_AXES
100
AcDbSpline
 62
7
  6
CONTINUOUS
 70
0
 71
3
 72
11
 73
7
 74
0
 42
0.0000001
 43
0.0000001
 44
0.0000000001
 40
0.0
 40
0.0
 40
0.0
 40
0.0
 40
0.2163299934
 40
0.4566523293
 40
0.718771544
 40
1.0
 40
1.0
 40
1.0
 40
1.0
 10
266.4959597362
 20
171.702688256
 30
0.0
 10
266.4449933734
 20
171.7536550955
 30
0.0
 10
266.3452080935
 20
171.8690764272
 30
0.0
 10
266.2065468423
 20
172.0645912332
 30
0.0
 10
266.0704901746
 20
172.2876363075
 30
0.0
 10
265.984231346
 20
172.4468730327
 30
0.0
 10
265.9411570194
 20
172.5300862417
 30
0.0
  0
SPLINE
  5
49E
100
AcDbEntity
  8
3_ALL_AXES
100
AcDbSpline
 62
7
  6
CONTINUOUS
 70
0
 71
3
 72
19
 73
15
 74
0
 42
0.0000001
 43
0.0000001
 44
0.0000000001
 40
0.0
 40
0.0
 40
0.0
 40
0.0
 40
0.0638114962
 40
0.1272689962
 40
0.1902443843
 40
0.2527839854
 40
0.3766579829
 40
0.5000634573
 40
0.6234641555
 40
0.7473062116
 40
0.8098329522
 40
0.8727912221
 40
0.9362181193
 40
1.0
 40
1.0
 40
1.0
 40
1.0
 10
274.4957887478
 20
171.0300862417
 30
0.0
 10
274.4957887478
 20
170.9740589873
 30
0.0
 10
274.5144819479
 20
170.8615527881
 30
0.0
 10
274.5913017988
 20
170.7108680127
 30
0.0
 10
274.7024025919
 20
170.5856377239
 30
0.0
 10
274.8792606446
 20
170.4545473456
 30
0.0
 10
275.1356983491
 20
170.3510715601
 30
0.0
 10
275.4618800177
 20
170.311669162
 30
0.0
 10
275.7880224636
 20
170.3511563452
 30
0.0
 10
276.0443944004
 20
170.4546719051
 30
0.0
 10
276.2211801557
 20
170.5857702741
 30
0.0
 10
276.3322043108
 20
170.7109968136
 30
0.0
 10
276.4089629668
 20
170.8616325167
 30
0.0
 10
276.4276404004
 20
170.9740849901
 30
0.0
 10
276.4276404004
 20
171.0300862417
 30
0.0
  0
SPLINE
  5
49F
100
AcDbEntity
  8
3_ALL_AXES
100
AcDbSpline
 62
7
  6
CONTINUOUS
 70
0
 71
3
 72
10
 73
6
 74
0
 42
0.0000001
 43
0.0000001
 44
0.0000000001
 40
0.0
 40
0.0
 40
0.0
 40
0.0
 40
0.258124603
 40
0.6351527744
 40
1.0
 40
1.0
 40
1.0
 40
1.0
 10
265.9411570194
 20
172.5300862417
 30
0.0
 10
266.1069413921
 20
172.4128589875
 30
0.0
 10
266.5239402795
 20
172.136976286
 30
0.0
 10
267.2216176081
 20
171.768528803
 30
0.0
 10
267.7811682386
 20
171.5869192672
 30
0.0
 10
268.062477363
 20
171.5300862417
 30
0.0
  0
SPLINE
  5
4A0
100
AcDbEntity
  8
3_ALL_AXES
100
AcDbSpline
 62
7
  6
CONTINUOUS
 70
0
 71
3
 72
9
 73
5
 74
0
 42
0.0000001
 43
0.0000001
 44
0.0000000001
 40
0.0
 40
0.0
 40
0.0
 40
0.0
 40
0.2348043861
 40
1.0
 40
1.0
 40
1.0
 40
1.0
 10
280.6513454072
 20
171.5487157258
 30
0.0
 10
280.6676373887
 20
171.5587904598
 30
0.0
 10
280.7354470043
 20
171.6042490582
 30
0.0
 10
280.7970267219
 20
171.6585470417
 30
0.0
 10
280.8411675233
 20
171.702688256
 30
0.0
  0
SPLINE
  5
4A1
100
AcDbEntity
  8
3_ALL_AXES
100
AcDbSpline
 62
7
  6
CONTINUOUS
 70
0
 71
3
 72
10
 73
6
 74
0
 42
0.0000001
 43
0.0000001
 44
0.0000000001
 40
0.0
 40
0.0
 40
0.0
 40
0.0
 40
0.2421734631
 40
0.6149310735
 40
1.0
 40
1.0
 40
1.0
 40
1.0
 10
269.4766909253
 20
171.5300862417
 30
0.0
 10
269.663447543
 20
171.5678167762
 30
0.0
 10
270.1308172025
 20
171.6997238919
 30
0.0
 10
270.8475912293
 20
172.032740601
 30
0.0
 10
271.350651344
 20
172.3551763614
 30
0.0
 10
271.5980112689
 20
172.5300862417
 30
0.0
  0
SPLINE
  5
4A2
100
AcDbEntity
  8
3_ALL_AXES
100
AcDbSpline
 62
7
  6
CONTINUOUS
 70
0
 71
3
 72
19
 73
15
 74
0
 42
0.0000001
 43
0.0000001
 44
0.0000000001
 40
0.0
 40
0.0
 40
0.0
 40
0.0
 40
0.0755313105
 40
0.1475271142
 40
0.2145707967
 40
0.2770181017
 40
0.3917437342
 40
0.5000509034
 40
0.6083537473
 40
0.7230719906
 40
0.7855182774
 40
0.8525486482
 40
0.9245023644
 40
1.0
 40
1.0
 40
1.0
 40
1.0
 10
268.062477363
 20
171.0300862417
 30
0.0
 10
268.062477363
 20
170.9743999028
 30
0.0
 10
268.0754438605
 20
170.865184371
 30
0.0
 10
268.1301439323
 20
170.7153811397
 30
0.0
 10
268.2108101683
 20
170.5892643623
 30
0.0
 10
268.3371713664
 20
170.4596238277
 30
0.0
 10
268.5243300611
 20
170.3527729527
 30
0.0
 10
268.7696966609
 20
170.3111971981
 30
0.0
 10
269.0150403124
 20
170.3528578009
 30
0.0
 10
269.2021648258
 20
170.4597458105
 30
0.0
 10
269.3284802748
 20
170.5894105423
 30
0.0
 10
269.4090796857
 20
170.7155193381
 30
0.0
 10
269.4637368647
 20
170.8652650607
 30
0.0
 10
269.4766909253
 20
170.97442473
 30
0.0
 10
269.4766909253
 20
171.0300862417
 30
0.0
  0
SPLINE
  5
4A3
100
AcDbEntity
  8
3_ALL_AXES
100
AcDbSpline
 62
7
  6
CONTINUOUS
 70
0
 71
3
 72
23
 73
19
 74
0
 42
0.0000001
 43
0.0000001
 44
0.0000000001
 40
0.0
 40
0.0
 40
0.0
 40
0.0
 40
0.1041045604
 40
0.198722586
 40
0.2791671156
 40
0.344987429
 40
0.3976144983
 40
0.4391006973
 40
0.4720229716
 40
0.500024351
 40
0.5280300251
 40
0.560964335
 40
0.6024594955
 40
0.6550984182
 40
0.7209332483
 40
0.8013730741
 40
0.8959372264
 40
1.0
 40
1.0
 40
1.0
 40
1.0
 10
280.1018750145
 20
171.0300862417
 30
0.0
 10
280.1018750145
 20
170.974738907
 30
0.0
 10
280.1063629002
 20
170.8690247246
 30
0.0
 10
280.1255755266
 20
170.7216594344
 30
0.0
 10
280.1541060528
 20
170.5965863776
 30
0.0
 10
280.1888584562
 20
170.4964523334
 30
0.0
 10
280.2275931095
 20
170.4203662769
 30
0.0
 10
280.2690769944
 20
170.3664307963
 30
0.0
 10
280.3132546485
 20
170.3329566188
 30
0.0
 10
280.3607369443
 20
170.3210460437
 30
0.0
 10
280.4082196386
 20
170.3329895392
 30
0.0
 10
280.4523768768
 20
170.36651206
 30
0.0
 10
280.4938558182
 20
170.4204694138
 30
0.0
 10
280.5325868662
 20
170.4965794573
 30
0.0
 10
280.5673242332
 20
170.5967307035
 30
0.0
 10
280.5958297061
 20
170.7217851277
 30
0.0
 10
280.6150296283
 20
170.8690977288
 30
0.0
 10
280.6195131047
 20
170.9747611231
 30
0.0
 10
280.6195131047
 20
171.0300862417
 30
0.0
  0
SPLINE
  5
4A4
100
AcDbEntity
  8
3_ALL_AXES
100
AcDbSpline
 62
7
  6
CONTINUOUS
 70
0
 71
3
 72
11
 73
7
 74
0
 42
0.0000001
 43
0.0000001
 44
0.0000000001
 40
0.0
 40
0.0
 40
0.0
 40
0.0
 40
0.299071183
 40
0.5681960717
 40
0.8023817875
 40
1.0
 40
1.0
 40
1.0
 40
1.0
 10
279.3254178792
 20
172.5300862417
 30
0.0
 10
279.3840962374
 20
172.4167283584
 30
0.0
 10
279.501044739
 20
172.2041003378
 30
0.0
 10
279.6892808855
 20
171.9173070813
 30
0.0
 10
279.8823455175
 20
171.6878046196
 30
0.0
 10
280.0280324379
 20
171.5708442141
 30
0.0
 10
280.1018750145
 20
171.5300862417
 30
0.0
  0
SPLINE
  5
4A5
100
AcDbEntity
  8
3_ALL_AXES
100
AcDbSpline
 62
7
  6
CONTINUOUS
 70
0
 71
3
 72
11
 73
7
 74
0
 42
0.0000001
 43
0.0000001
 44
0.0000000001
 40
0.0
 40
0.0
 40
0.0
 40
0.0
 40
0.2506432543
 40
0.5008628457
 40
0.7506308309
 40
1.0
 40
1.0
 40
1.0
 40
1.0
 10
271.5980112689
 20
172.5300862417
 30
0.0
 10
271.8264383179
 20
172.4118437003
 30
0.0
 10
272.2894441172
 20
172.1878312762
 30
0.0
 10
273.0044681161
 20
171.8993573129
 30
0.0
 10
273.7397862141
 20
171.6709299603
 30
0.0
 10
274.2426336691
 20
171.5675270164
 30
0.0
 10
274.4957887478
 20
171.5300862417
 30
0.0
  0
SPLINE
  5
4A6
100
AcDbEntity
  8
3_ALL_AXES
100
AcDbSpline
 62
7
  6
CONTINUOUS
 70
0
 71
3
 72
11
 73
7
 74
0
 42
0.0000001
 43
0.0000001
 44
0.0000000001
 40
0.0
 40
0.0
 40
0.0
 40
0.0
 40
0.2493691879
 40
0.4991371759
 40
0.749356754
 40
1.0
 40
1.0
 40
1.0
 40
1.0
 10
276.4276404004
 20
171.5300862417
 30
0.0
 10
276.6807954981
 20
171.5675270192
 30
0.0
 10
277.1836429747
 20
171.6709299693
 30
0.0
 10
277.9189610785
 20
171.8993573319
 30
0.0
 10
278.6339850574
 20
172.1878312919
 30
0.0
 10
279.0969908378
 20
172.4118437042
 30
0.0
 10
279.3254178792
 20
172.5300862417
 30
0.0
  0
SPLINE
  5
4A7
100
AcDbEntity
  8
7_ALL_FEATURES
100
AcDbSpline
 62
7
  6
CONTINUOUS
 70
0
 71
3
 72
11
 73
7
 74
0
 42
0.0000001
 43
0.0000001
 44
0.0000000001
 40
0.0
 40
0.0
 40
0.0
 40
0.0
 40
0.2831751286
 40
0.5424836409
 40
0.7785831462
 40
1.0
 40
1.0
 40
1.0
 40
1.0
 10
257.7129040926
 20
183.8530370737
 30
0.0
 10
257.7300464929
 20
183.8064666754
 30
0.0
 10
257.7722624944
 20
183.7202118453
 30
0.0
 10
257.8616058552
 20
183.6149017357
 30
0.0
 10
257.9695557276
 20
183.5463405306
 30
0.0
 10
258.0504285578
 20
183.5300862417
 30
0.0
 10
258.0892309177
 20
183.5300862417
 30
0.0
  0
SPLINE
  5
4A8
100
AcDbEntity
  8
7_ALL_FEATURES
100
AcDbSpline
 62
7
  6
CONTINUOUS
 70
0
 71
3
 72
11
 73
7
 74
0
 42
0.0000001
 43
0.0000001
 44
0.0000000001
 40
0.0
 40
0.0
 40
0.0
 40
0.0
 40
0.2414252117
 40
0.4947937597
 40
0.7509014051
 40
1.0
 40
1.0
 40
1.0
 40
1.0
 10
254.6687544993
 20
196.971921694
 30
0.0
 10
254.5075760425
 20
196.6625219209
 30
0.0
 10
254.2545342093
 20
195.9863286766
 30
0.0
 10
254.0899457622
 20
194.9069928581
 30
0.0
 10
254.1370612476
 20
193.8052199318
 30
0.0
 10
254.3127432138
 20
193.0901826519
 30
0.0
 10
254.4370843942
 20
192.7523875811
 30
0.0
  0
SPLINE
  5
4A9
100
AcDbEntity
  8
7_ALL_FEATURES
100
AcDbSpline
 62
4
  6
CONTINUOUS
 70
0
 71
3
 72
142
 73
138
 74
0
 42
0.0000001
 43
0.0000001
 44
0.0000000001
 40
0.0
 40
0.0
 40
0.0
 40
0.0
 40
0.03125
 40
0.0625
 40
0.078125
 40
0.09375
 40
0.1015625
 40
0.109375
 40
0.1171875
 40
0.12109375
 40
0.123046875
 40
0.125
 40
0.126953125
 40
0.12890625
 40
0.1328125
 40
0.140625
 40
0.1484375
 40
0.15625
 40
0.171875
 40
0.1875
 40
0.203125
 40
0.21875
 40
0.2265625
 40
0.234375
 40
0.2421875
 40
0.24609375
 40
0.248046875
 40
0.25
 40
0.251953125
 40
0.25390625
 40
0.2578125
 40
0.265625
 40
0.2734375
 40
0.28125
 40
0.296875
 40
0.3125
 40
0.328125
 40
0.34375
 40
0.3515625
 40
0.359375
 40
0.36328125
 40
0.3671875
 40
0.37109375
 40
0.373046875
 40
0.375
 40
0.376953125
 40
0.37890625
 40
0.3828125
 40
0.38671875
 40
0.390625
 40
0.3984375
 40
0.40625
 40
0.421875
 40
0.4375
 40
0.453125
 40
0.46875
 40
0.4765625
 40
0.484375
 40
0.48828125
 40
0.4921875
 40
0.49609375
 40
0.498046875
 40
0.4990234375
 40
0.5
 40
0.5009765625
 40
0.501953125
 40
0.50390625
 40
0.5078125
 40
0.51171875
 40
0.515625
 40
0.5234375
 40
0.53125
 40
0.546875
 40
0.5625
 40
0.578125
 40
0.59375
 40
0.6015625
 40
0.609375
 40
0.61328125
 40
0.6171875
 40
0.62109375
 40
0.623046875
 40
0.6240234375
 40
0.625
 40
0.6259765625
 40
0.626953125
 40
0.62890625
 40
0.6328125
 40
0.63671875
 40
0.640625
 40
0.6484375
 40
0.65625
 40
0.671875
 40
0.6875
 40
0.703125
 40
0.71875
 40
0.7265625
 40
0.734375
 40
0.73828125
 40
0.7421875
 40
0.74609375
 40
0.748046875
 40
0.7490234375
 40
0.75
 40
0.7509765625
 40
0.751953125
 40
0.75390625
 40
0.7578125
 40
0.76171875
 40
0.765625
 40
0.7734375
 40
0.78125
 40
0.796875
 40
0.8125
 40
0.828125
 40
0.84375
 40
0.8515625
 40
0.859375
 40
0.86328125
 40
0.8671875
 40
0.87109375
 40
0.873046875
 40
0.8740234375
 40
0.875
 40
0.8759765625
 40
0.876953125
 40
0.87890625
 40
0.8828125
 40
0.88671875
 40
0.890625
 40
0.8984375
 40
0.90625
 40
0.921875
 40
0.9375
 40
0.953125
 40
0.96875
 40
1.0
 40
1.0
 40
1.0
 40
1.0
 10
251.8090200133
 20
186.343554695
 30
0.0
 10
251.8158103996
 20
186.3346747428
 30
0.0
 10
251.8293911953
 20
186.3169148586
 30
0.0
 10
251.8463670749
 20
186.2947149028
 30
0.0
 10
251.8599480199
 20
186.2769551492
 30
0.0
 10
251.8684355648
 20
186.2658548259
 30
0.0
 10
251.8752268501
 20
186.2569756599
 30
0.0
 10
251.8803168934
 20
186.2503132939
 30
0.0
 10
251.8845694779
 20
186.2447708388
 30
0.0
 10
251.8875249318
 20
186.2408724442
 30
0.0
 10
251.8892471071
 20
186.2386739512
 30
0.0
 10
251.8904448067
 20
186.2369429343
 30
0.0
 10
251.8920015612
 20
186.2355259256
 30
0.0
 10
251.8939519916
 20
186.2335270511
 30
0.0
 10
251.8974235974
 20
186.2300800525
 30
0.0
 10
251.9023525268
 20
186.2251290888
 30
0.0
 10
251.9082803004
 20
186.2191993527
 30
0.0
 10
251.9161794363
 20
186.2112890467
 30
0.0
 10
251.9260549278
 20
186.2014025474
 30
0.0
 10
251.9379048172
 20
186.1895380957
 30
0.0
 10
251.9497549937
 20
186.1776740409
 30
0.0
 10
251.9596297673
 20
186.1677865496
 30
0.0
 10
251.9675303389
 20
186.1598782275
 30
0.0
 10
251.9734537336
 20
186.1539424407
 30
0.0
 10
251.9783963624
 20
186.149010406
 30
0.0
 10
251.9818435125
 20
186.1455296163
 30
0.0
 10
251.9838331271
 20
186.1435848837
 30
0.0
 10
251.9852695203
 20
186.1420015682
 30
0.0
 10
251.986919277
 20
186.140895172
 30
0.0
 10
251.9890445291
 20
186.1392536223
 30
0.0
 10
251.9927983955
 20
186.1364584181
 30
0.0
 10
251.9981429332
 20
186.1324247473
 30
0.0
 10
252.0045641382
 20
186.127601687
 30
0.0
 10
252.0131230342
 20
186.1211648818
 30
0.0
 10
252.0238225837
 20
186.1131209498
 30
0.0
 10
252.0366616477
 20
186.103467361
 30
0.0
 10
252.0495008063
 20
186.0938139345
 30
0.0
 10
252.0602001195
 20
186.0857695966
 30
0.0
 10
252.0687594882
 20
186.0793336031
 30
0.0
 10
252.074109291
 20
186.0753123232
 30
0.0
 10
252.0783886801
 20
186.0720925115
 30
0.0
 10
252.0815994628
 20
186.0696852863
 30
0.0
 10
252.0842711677
 20
186.0676549817
 30
0.0
 10
252.0864173848
 20
186.0660852019
 30
0.0
 10
252.0880028565
 20
186.0647590457
 30
0.0
 10
252.0896806661
 20
186.0640009428
 30
0.0
 10
252.0918854908
 20
186.0627917105
 30
0.0
 10
252.0946525882
 20
186.06134825
 30
0.0
 10
252.0979683682
 20
186.059586957
 30
0.0
 10
252.1023910626
 20
186.0572487445
 30
0.0
 10
252.1079188642
 20
186.0543224938
 30
0.0
 10
252.1167636634
 20
186.0496424404
 30
0.0
 10
252.1278195536
 20
186.0437917069
 30
0.0
 10
252.1410866689
 20
186.0367711051
 30
0.0
 10
252.1543537701
 20
186.0297504568
 30
0.0
 10
252.1654096955
 20
186.0238998395
 30
0.0
 10
252.1742544243
 20
186.0192195537
 30
0.0
 10
252.1797824047
 20
186.0162938937
 30
0.0
 10
252.1842047321
 20
186.0139544688
 30
0.0
 10
252.1875216337
 20
186.0121968796
 30
0.0
 10
252.1902852218
 20
186.010741831
 30
0.0
 10
252.1922207079
 20
186.0097044394
 30
0.0
 10
252.1933251786
 20
186.0091410887
 30
0.0
 10
252.1941578171
 20
186.0086356301
 30
0.0
 10
252.1949740744
 20
186.0084472315
 30
0.0
 10
252.1960681315
 20
186.0080854393
 30
0.0
 10
252.1979800691
 20
186.0075038308
 30
0.0
 10
252.2007128004
 20
186.0066460222
 30
0.0
 10
252.2039914822
 20
186.0056281827
 30
0.0
 10
252.208363266
 20
186.0042670359
 30
0.0
 10
252.2138279245
 20
186.0025669814
 30
0.0
 10
252.222571418
 20
185.9998461233
 30
0.0
 10
252.2335007707
 20
185.9964453171
 30
0.0
 10
252.2466160019
 20
185.9923642273
 30
0.0
 10
252.259731224
 20
185.9882832003
 30
0.0
 10
252.2706605995
 20
185.9848822373
 30
0.0
 10
252.2794040476
 20
185.9821616927
 30
0.0
 10
252.2848688214
 20
185.9804608413
 30
0.0
 10
252.2892403684
 20
185.9791013303
 30
0.0
 10
252.2925197737
 20
185.9780784932
 30
0.0
 10
252.2952502413
 20
185.977236321
 30
0.0
 10
252.29716622
 20
185.9766267988
 30
0.0
 10
252.2982538022
 20
185.9763097314
 30
0.0
 10
252.2990899481
 20
185.9759839525
 30
0.0
 10
252.2998478886
 20
185.9759944714
 30
0.0
 10
252.3008857548
 20
185.9758911923
 30
0.0
 10
252.302689311
 20
185.975765108
 30
0.0
 10
252.3052724645
 20
185.9755564137
 30
0.0
 10
252.3083694046
 20
185.9753182111
 30
0.0
 10
252.3124996515
 20
185.9749963358
 30
0.0
 10
252.31766212
 20
185.9745954544
 30
0.0
 10
252.3259222597
 20
185.9739532263
 30
0.0
 10
252.3362473683
 20
185.9731507237
 30
0.0
 10
252.3486375303
 20
185.9721875914
 30
0.0
 10
252.3610276716
 20
185.971224524
 30
0.0
 10
252.3713528318
 20
185.9704218589
 30
0.0
 10
252.3796128684
 20
185.9697799558
 30
0.0
 10
252.3847755989
 20
185.9693782484
 30
0.0
 10
252.3889053079
 20
185.9690580684
 30
0.0
 10
252.3920038912
 20
185.9688146863
 30
0.0
 10
252.3945819037
 20
185.9686221976
 30
0.0
 10
252.3963946376
 20
185.9684671837
 30
0.0
 10
252.3974177987
 20
185.968410257
 30
0.0
 10
252.3982209084
 20
185.968278396
 30
0.0
 10
252.3988874064
 20
185.9684873727
 30
0.0
 10
252.399823722
 20
185.9686471203
 30
0.0
 10
252.4014400727
 20
185.9689820708
 30
0.0
 10
252.4037607523
 20
185.9694316118
 30
0.0
 10
252.4065405996
 20
185.9699834567
 30
0.0
 10
252.4102487979
 20
185.9707149204
 30
0.0
 10
252.4148834517
 20
185.9716307324
 30
0.0
 10
252.4222992299
 20
185.9730952028
 30
0.0
 10
252.4315688377
 20
185.9749260772
 30
0.0
 10
252.4426924206
 20
185.9771229955
 30
0.0
 10
252.4538159735
 20
185.9793199793
 30
0.0
 10
252.4630856561
 20
185.9811506898
 30
0.0
 10
252.4705012847
 20
185.9826154878
 30
0.0
 10
252.4751363189
 20
185.9835304674
 30
0.0
 10
252.4788437363
 20
185.9842636396
 30
0.0
 10
252.4816259696
 20
185.9848102645
 30
0.0
 10
252.4839391838
 20
185.9852761377
 30
0.0
 10
252.4855688615
 20
185.9855819324
 30
0.0
 10
252.4864838238
 20
185.985788395
 30
0.0
 10
252.4872159126
 20
185.9858538785
 30
0.0
 10
252.4877726741
 20
185.986260954
 30
0.0
 10
252.4885761789
 20
185.9866845702
 30
0.0
 10
252.4899538186
 20
185.9874814133
 30
0.0
 10
252.4919367721
 20
185.9885907368
 30
0.0
 10
252.4943099399
 20
185.9899343482
 30
0.0
 10
252.4974763909
 20
185.9917214908
 30
0.0
 10
252.501433692
 20
185.9939569048
 30
0.0
 10
252.5077658
 20
185.9975327369
 30
0.0
 10
252.5156807888
 20
186.002002812
 30
0.0
 10
252.525178838
 20
186.0073667798
 30
0.0
 10
252.5346768704
 20
186.0127307804
 30
0.0
 10
252.5473409195
 20
186.0198827697
 30
0.0
 10
252.556838955
 20
186.0252467643
 30
0.0
 10
252.563170979
 20
186.0288227601
 30
0.0
  0
SPLINE
  5
4AA
100
AcDbEntity
  8
7_ALL_FEATURES
100
AcDbSpline
 62
4
  6
CONTINUOUS
 70
0
 71
3
 72
59
 73
55
 74
0
 42
0.0000001
 43
0.0000001
 44
0.0000000001
 40
0.0
 40
0.0
 40
0.0
 40
0.0
 40
0.0625
 40
0.09375
 40
0.125
 40
0.140625
 40
0.15625
 40
0.1640625
 40
0.16796875
 40
0.171875
 40
0.1796875
 40
0.1875
 40
0.21875
 40
0.25
 40
0.28125
 40
0.3125
 40
0.3203125
 40
0.328125
 40
0.33203125
 40
0.3359375
 40
0.34375
 40
0.359375
 40
0.375
 40
0.4375
 40
0.46875
 40
0.484375
 40
0.4921875
 40
0.5
 40
0.5078125
 40
0.515625
 40
0.53125
 40
0.5625
 40
0.625
 40
0.640625
 40
0.65625
 40
0.6640625
 40
0.66796875
 40
0.671875
 40
0.6796875
 40
0.6875
 40
0.71875
 40
0.75
 40
0.78125
 40
0.8125
 40
0.8203125
 40
0.828125
 40
0.83203125
 40
0.8359375
 40
0.84375
 40
0.859375
 40
0.875
 40
0.90625
 40
0.9375
 40
1.0
 40
1.0
 40
1.0
 40
1.0
 10
252.5631709874
 20
186.028822767
 30
0.0
 10
252.5693222609
 20
186.0343934694
 30
0.0
 10
252.5785488978
 20
186.0427498507
 30
0.0
 10
252.5908521738
 20
186.0538903822
 30
0.0
 10
252.5985394434
 20
186.0608559439
 30
0.0
 10
252.6046944527
 20
186.06642217
 30
0.0
 10
252.6085294884
 20
186.0699152548
 30
0.0
 10
252.611237752
 20
186.0723319693
 30
0.0
 10
252.61274819
 20
186.0737574535
 30
0.0
 10
252.6141187357
 20
186.0753505637
 30
0.0
 10
252.6158797347
 20
186.077284655
 30
0.0
 10
252.6200667674
 20
186.0819736423
 30
0.0
 10
252.6263639887
 20
186.0889871594
 30
0.0
 10
252.6347500942
 20
186.0983506533
 30
0.0
 10
252.6431413907
 20
186.1077081856
 30
0.0
 10
252.6494269322
 20
186.1147351163
 30
0.0
 10
252.6536288891
 20
186.119406964
 30
0.0
 10
252.655362581
 20
186.1213724157
 30
0.0
 10
252.6567894712
 20
186.1229008181
 30
0.0
 10
252.6580703135
 20
186.1245899777
 30
0.0
 10
252.6602439301
 20
186.1276206978
 30
0.0
 10
252.663384502
 20
186.1319113324
 30
0.0
 10
252.6708921881
 20
186.1422414811
 30
0.0
 10
252.6796670477
 20
186.154276368
 30
0.0
 10
252.6884202055
 20
186.1663335673
 30
0.0
 10
252.6928198017
 20
186.1723388702
 30
0.0
 10
252.6952974987
 20
186.1758072217
 30
0.0
 10
252.6972582688
 20
186.1783048921
 30
0.0
 10
252.6988272285
 20
186.1811985605
 30
0.0
 10
252.7010558384
 20
186.1849186614
 30
0.0
 10
252.7048922747
 20
186.1914931432
 30
0.0
 10
252.7126112346
 20
186.2045955939
 30
0.0
 10
252.7203081943
 20
186.2177199012
 30
0.0
 10
252.7269198122
 20
186.2289556953
 30
0.0
 10
252.7296614228
 20
186.2336495553
 30
0.0
 10
252.7316070891
 20
186.2369106621
 30
0.0
 10
252.7326773723
 20
186.2388126311
 30
0.0
 10
252.7335912468
 20
186.2408595324
 30
0.0
 10
252.7347870521
 20
186.2433686188
 30
0.0
 10
252.7376129744
 20
186.2494312152
 30
0.0
 10
252.7418704662
 20
186.2585077564
 30
0.0
 10
252.7475358985
 20
186.270620785
 30
0.0
 10
252.7532065271
 20
186.2827269394
 30
0.0
 10
252.7574523271
 20
186.2918189475
 30
0.0
 10
252.7602931889
 20
186.2978617805
 30
0.0
 10
252.7614616593
 20
186.3004070282
 30
0.0
 10
252.7624319356
 20
186.3023793155
 30
0.0
 10
252.7632723897
 20
186.3045853259
 30
0.0
 10
252.764682866
 20
186.3085544374
 30
0.0
 10
252.7667293032
 20
186.314167938
 30
0.0
 10
252.7699860148
 20
186.3231812031
 30
0.0
 10
252.7740629291
 20
186.334436938
 30
0.0
 10
252.7805826097
 20
186.3524522031
 30
0.0
 10
252.7854731311
 20
186.3659622818
 30
0.0
 10
252.7887333096
 20
186.3749693054
 30
0.0
  0
SPLINE
  5
4AB
100
AcDbEntity
  8
7_ALL_FEATURES
100
AcDbSpline
 62
4
  6
CONTINUOUS
 70
0
 71
3
 72
126
 73
122
 74
0
 42
0.0000001
 43
0.0000001
 44
0.0000000001
 40
0.0
 40
0.0
 40
0.0
 40
0.0
 40
0.03125
 40
0.046875
 40
0.0625
 40
0.078125
 40
0.09375
 40
0.1015625
 40
0.109375
 40
0.11328125
 40
0.1171875
 40
0.12109375
 40
0.123046875
 40
0.125
 40
0.126953125
 40
0.12890625
 40
0.1328125
 40
0.13671875
 40
0.140625
 40
0.1484375
 40
0.15625
 40
0.171875
 40
0.1875
 40
0.203125
 40
0.21875
 40
0.2265625
 40
0.234375
 40
0.2421875
 40
0.24609375
 40
0.248046875
 40
0.25
 40
0.251953125
 40
0.25390625
 40
0.2578125
 40
0.265625
 40
0.2734375
 40
0.28125
 40
0.296875
 40
0.3125
 40
0.328125
 40
0.34375
 40
0.3515625
 40
0.359375
 40
0.3671875
 40
0.37109375
 40
0.373046875
 40
0.375
 40
0.376953125
 40
0.37890625
 40
0.3828125
 40
0.390625
 40
0.3984375
 40
0.40625
 40
0.421875
 40
0.4375
 40
0.453125
 40
0.46875
 40
0.4765625
 40
0.484375
 40
0.4921875
 40
0.49609375
 40
0.498046875
 40
0.5
 40
0.501953125
 40
0.50390625
 40
0.5078125
 40
0.515625
 40
0.5234375
 40
0.53125
 40
0.546875
 40
0.5625
 40
0.578125
 40
0.59375
 40
0.6015625
 40
0.609375
 40
0.6171875
 40
0.62109375
 40
0.623046875
 40
0.625
 40
0.626953125
 40
0.62890625
 40
0.6328125
 40
0.640625
 40
0.6484375
 40
0.65625
 40
0.671875
 40
0.6875
 40
0.703125
 40
0.71875
 40
0.7265625
 40
0.734375
 40
0.7421875
 40
0.74609375
 40
0.748046875
 40
0.75
 40
0.751953125
 40
0.75390625
 40
0.7578125
 40
0.765625
 40
0.7734375
 40
0.78125
 40
0.796875
 40
0.8125
 40
0.828125
 40
0.84375
 40
0.8515625
 40
0.859375
 40
0.8671875
 40
0.87109375
 40
0.873046875
 40
0.875
 40
0.876953125
 40
0.87890625
 40
0.8828125
 40
0.890625
 40
0.8984375
 40
0.90625
 40
0.921875
 40
0.9375
 40
0.96875
 40
1.0
 40
1.0
 40
1.0
 40
1.0
 10
251.3971977182
 20
188.3600807782
 30
0.0
 10
251.3938712674
 20
188.3558440755
 30
0.0
 10
251.3888815926
 20
188.3494890199
 30
0.0
 10
251.3822286872
 20
188.3410156184
 30
0.0
 10
251.3772390226
 20
188.3346605522
 30
0.0
 10
251.3722493028
 20
188.3283055435
 30
0.0
 10
251.3680913751
 20
188.3230095241
 30
0.0
 10
251.3647646474
 20
188.3187731088
 30
0.0
 10
251.3626863204
 20
188.316124438
 30
0.0
 10
251.3610216484
 20
188.3140075884
 30
0.0
 10
251.3597786487
 20
188.3124142368
 30
0.0
 10
251.3587253058
 20
188.3111046222
 30
0.0
 10
251.3579219029
 20
188.3100161595
 30
0.0
 10
251.3572120422
 20
188.3093112185
 30
0.0
 10
251.35691178
 20
188.308181039
 30
0.0
 10
251.3563683523
 20
188.3068226743
 30
0.0
 10
251.3557381571
 20
188.3050737546
 30
0.0
 10
251.3549609109
 20
188.3029968652
 30
0.0
 10
251.3539319217
 20
188.30022006
 30
0.0
 10
251.3526431727
 20
188.2967516622
 30
0.0
 10
251.3505825766
 20
188.291200769
 30
0.0
 10
251.3480063634
 20
188.2842626432
 30
0.0
 10
251.3449150508
 20
188.2759367217
 30
0.0
 10
251.3418239145
 20
188.2676106972
 30
0.0
 10
251.3392472604
 20
188.260672829
 30
0.0
 10
251.3371875462
 20
188.2551214207
 30
0.0
 10
251.3356383575
 20
188.2509609144
 30
0.0
 10
251.3343613733
 20
188.2474841235
 30
0.0
 10
251.3334399974
 20
188.2450694103
 30
0.0
 10
251.3329564155
 20
188.2436598442
 30
0.0
 10
251.3324728264
 20
188.2426864194
 30
0.0
 10
251.3324513888
 20
188.2413928605
 30
0.0
 10
251.3322616017
 20
188.2397797817
 30
0.0
 10
251.3320045821
 20
188.2369048663
 30
0.0
 10
251.3315981439
 20
188.2328250449
 30
0.0
 10
251.3311272263
 20
188.2279176163
 30
0.0
 10
251.3304934628
 20
188.221378446
 30
0.0
 10
251.3297032873
 20
188.2132030811
 30
0.0
 10
251.3287541481
 20
188.2033932716
 30
0.0
 10
251.3278054774
 20
188.193583192
 30
0.0
 10
251.3270141304
 20
188.1854085022
 30
0.0
 10
251.32638271
 20
188.1788679816
 30
0.0
 10
251.3259046459
 20
188.1739646714
 30
0.0
 10
251.3255205647
 20
188.1698719661
 30
0.0
 10
251.3252236344
 20
188.1670200504
 30
0.0
 10
251.3250977943
 20
188.1653701202
 30
0.0
 10
251.3248799322
 20
188.164189757
 30
0.0
 10
251.325134081
 20
188.1627911882
 30
0.0
 10
251.3253083033
 20
188.1610025423
 30
0.0
 10
251.3256899026
 20
188.1578369498
 30
0.0
 10
251.3261949394
 20
188.1533332149
 30
0.0
 10
251.3268181502
 20
188.147920797
 30
0.0
 10
251.3276430996
 20
188.1407070125
 30
0.0
 10
251.3286763577
 20
188.1316888274
 30
0.0
 10
251.3299153222
 20
188.1208674277
 30
0.0
 10
251.3311547537
 20
188.1100458655
 30
0.0
 10
251.3321868441
 20
188.1010280867
 30
0.0
 10
251.333014129
 20
188.0938134896
 30
0.0
 10
251.3336302165
 20
188.0884035502
 30
0.0
 10
251.3341575381
 20
188.0838920617
 30
0.0
 10
251.3344993555
 20
188.0807403104
 30
0.0
 10
251.3347373183
 20
188.0789294874
 30
0.0
 10
251.3347956768
 20
188.0775990397
 30
0.0
 10
251.3353131706
 20
188.0761628251
 30
0.0
 10
251.3358430108
 20
188.0742847649
 30
0.0
 10
251.3368448486
 20
188.0709809707
 30
0.0
 10
251.3382370345
 20
188.0662702513
 30
0.0
 10
251.339924356
 20
188.0606135414
 30
0.0
 10
251.3421682833
 20
188.0530726051
 30
0.0
 10
251.3449752067
 20
188.0436459741
 30
0.0
 10
251.3483425982
 20
188.0323342129
 30
0.0
 10
251.3517104329
 20
188.0210224046
 30
0.0
 10
251.3545162486
 20
188.0115958914
 30
0.0
 10
251.3567623913
 20
188.0040547194
 30
0.0
 10
251.3584429556
 20
187.9983987286
 30
0.0
 10
251.3598562808
 20
187.9936857595
 30
0.0
 10
251.3608203818
 20
187.9903859813
 30
0.0
 10
251.3614106858
 20
187.9885014865
 30
0.0
 10
251.361742454
 20
187.9870850372
 30
0.0
 10
251.3624983669
 20
187.9856803542
 30
0.0
 10
251.3633583043
 20
187.9838033393
 30
0.0
 10
251.3649321257
 20
187.9805204755
 30
0.0
 10
251.367144404
 20
187.9758296703
 30
0.0
 10
251.3698145638
 20
187.9702011321
 30
0.0
 10
251.373369387
 20
187.9626962645
 30
0.0
 10
251.377814776
 20
187.9533152351
 30
0.0
 10
251.3831483993
 20
187.9420579601
 30
0.0
 10
251.3884824204
 20
187.9308007556
 30
0.0
 10
251.392926815
 20
187.92141955
 30
0.0
 10
251.3964836269
 20
187.9139150348
 30
0.0
 10
251.3991477212
 20
187.9082854218
 30
0.0
 10
251.401378975
 20
187.9035979791
 30
0.0
 10
251.4029189223
 20
187.9003091127
 30
0.0
 10
251.4038331346
 20
187.8984417155
 30
0.0
 10
251.4044223323
 20
187.89700749
 30
0.0
 10
251.4053802546
 20
187.8957019973
 30
0.0
 10
251.4065288691
 20
187.8939164368
 30
0.0
 10
251.4085988687
 20
187.8908126274
 30
0.0
 10
251.4115246818
 20
187.886367676
 30
0.0
 10
251.4150490678
 20
187.8810384164
 30
0.0
 10
251.4197435634
 20
187.8739311005
 30
0.0
 10
251.4256132999
 20
187.8650475232
 30
0.0
 10
251.4326562506
 20
187.8543869603
 30
0.0
 10
251.4396995466
 20
187.8437265702
 30
0.0
 10
251.44556842
 20
187.8348425607
 30
0.0
 10
251.4502646418
 20
187.8277361093
 30
0.0
 10
251.4537837628
 20
187.8224042129
 30
0.0
 10
251.4567260469
 20
187.8179675103
 30
0.0
 10
251.4587666432
 20
187.8148489755
 30
0.0
 10
251.4599623692
 20
187.8130870089
 30
0.0
 10
251.46077558
 20
187.8117090433
 30
0.0
 10
251.4619082901
 20
187.810547014
 30
0.0
 10
251.4633071254
 20
187.8089223207
 30
0.0
 10
251.4658070114
 20
187.8061142008
 30
0.0
 10
251.4693511305
 20
187.8020842537
 30
0.0
 10
251.473615693
 20
187.7972561705
 30
0.0
 10
251.4792977178
 20
187.7908159831
 30
0.0
 10
251.4864016386
 20
187.7827666881
 30
0.0
 10
251.4977671348
 20
187.7698872911
 30
0.0
 10
251.5119742735
 20
187.7537882262
 30
0.0
 10
251.5233399026
 20
187.7409089189
 30
0.0
 10
251.5290227274
 20
187.7344692722
 30
0.0
  0
SPLINE
  5
4AC
100
AcDbEntity
  8
7_ALL_FEATURES
100
AcDbSpline
 62
4
  6
CONTINUOUS
 70
0
 71
3
 72
84
 73
80
 74
0
 42
0.0000001
 43
0.0000001
 44
0.0000000001
 40
0.0
 40
0.0
 40
0.0
 40
0.0
 40
0.0625
 40
0.09375
 40
0.109375
 40
0.125
 40
0.140625
 40
0.15625
 40
0.16015625
 40
0.1640625
 40
0.16796875
 40
0.171875
 40
0.1796875
 40
0.1875
 40
0.203125
 40
0.21875
 40
0.25
 40
0.28125
 40
0.296875
 40
0.3125
 40
0.3203125
 40
0.328125
 40
0.33203125
 40
0.333984375
 40
0.3359375
 40
0.33984375
 40
0.34375
 40
0.359375
 40
0.375
 40
0.390625
 40
0.40625
 40
0.4375
 40
0.453125
 40
0.46875
 40
0.4765625
 40
0.484375
 40
0.4921875
 40
0.49609375
 40
0.498046875
 40
0.5
 40
0.501953125
 40
0.50390625
 40
0.5078125
 40
0.515625
 40
0.5234375
 40
0.53125
 40
0.546875
 40
0.5625
 40
0.59375
 40
0.609375
 40
0.625
 40
0.640625
 40
0.65625
 40
0.66015625
 40
0.6640625
 40
0.666015625
 40
0.66796875
 40
0.671875
 40
0.6796875
 40
0.6875
 40
0.703125
 40
0.71875
 40
0.75
 40
0.78125
 40
0.796875
 40
0.8125
 40
0.8203125
 40
0.828125
 40
0.83203125
 40
0.833984375
 40
0.8359375
 40
0.83984375
 40
0.84375
 40
0.859375
 40
0.875
 40
0.890625
 40
0.90625
 40
0.9375
 40
1.0
 40
1.0
 40
1.0
 40
1.0
 10
251.801482475
 20
188.3600807782
 30
0.0
 10
251.7919113649
 20
188.3644722526
 30
0.0
 10
251.7775547048
 20
188.3710594109
 30
0.0
 10
251.7608052506
 20
188.3787446159
 30
0.0
 10
251.7512341587
 20
188.3831358943
 30
0.0
 10
251.7440557703
 20
188.3864301018
 30
0.0
 10
251.7368776473
 20
188.3897214482
 30
0.0
 10
251.731493311
 20
188.3921979797
 30
0.0
 10
251.7279049107
 20
188.3938365253
 30
0.0
 10
251.726108644
 20
188.3946780751
 30
0.0
 10
251.7243204119
 20
188.3954330118
 30
0.0
 10
251.7219743324
 20
188.3960274731
 30
0.0
 10
251.7190286431
 20
188.3969116592
 30
0.0
 10
251.7143228555
 20
188.3982474978
 30
0.0
 10
251.7084381158
 20
188.3999443021
 30
0.0
 10
251.6990239357
 20
188.4026440687
 30
0.0
 10
251.6872557051
 20
188.4060241554
 30
0.0
 10
251.6754877418
 20
188.4094016287
 30
0.0
 10
251.6660731342
 20
188.4121055766
 30
0.0
 10
251.6601894633
 20
188.4137919275
 30
0.0
 10
251.6554814846
 20
188.4151491957
 30
0.0
 10
251.6525413733
 20
188.4159788278
 30
0.0
 10
251.6504785349
 20
188.4165969664
 30
0.0
 10
251.6493072184
 20
188.4168916789
 30
0.0
 10
251.6481639557
 20
188.4169660159
 30
0.0
 10
251.6467252885
 20
188.4171342625
 30
0.0
 10
251.6432803791
 20
188.4174760581
 30
0.0
 10
251.6381097003
 20
188.4180147907
 30
0.0
 10
251.6312173568
 20
188.4187182171
 30
0.0
 10
251.6243245052
 20
188.419425628
 30
0.0
 10
251.6151342196
 20
188.4203674369
 30
0.0
 10
251.6059438507
 20
188.4213097109
 30
0.0
 10
251.5967535944
 20
188.4222516438
 30
0.0
 10
251.5910094722
 20
188.4228408169
 30
0.0
 10
251.5864146552
 20
188.4233111245
 30
0.0
 10
251.5829672275
 20
188.4236666689
 30
0.0
 10
251.5800985537
 20
188.4239540066
 30
0.0
 10
251.5780822738
 20
188.4241727054
 30
0.0
 10
251.5769429304
 20
188.424270254
 30
0.0
 10
251.5760523183
 20
188.4244206643
 30
0.0
 10
251.5752997165
 20
188.42427579
 30
0.0
 10
251.5742481079
 20
188.424185623
 30
0.0
 10
251.5724302219
 20
188.4239798416
 30
0.0
 10
251.5698215158
 20
188.4237109575
 30
0.0
 10
251.5666960877
 20
188.4233775574
 30
0.0
 10
251.5625270969
 20
188.4229367756
 30
0.0
 10
251.5573164604
 20
188.4223845094
 30
0.0
 10
251.5489790955
 20
188.4215016288
 30
0.0
 10
251.540641883
 20
188.4206184011
 30
0.0
 10
251.5323044733
 20
188.4197356558
 30
0.0
 10
251.5260518552
 20
188.4190724967
 30
0.0
 10
251.519797579
 20
188.4184134968
 30
0.0
 10
251.5151115168
 20
188.4179075945
 30
0.0
 10
251.511980252
 20
188.4175884472
 30
0.0
 10
251.5106863069
 20
188.4174285044
 30
0.0
 10
251.5096260765
 20
188.4173634534
 30
0.0
 10
251.5086575444
 20
188.4170683613
 30
0.0
 10
251.5070052184
 20
188.4164450675
 30
0.0
 10
251.5046225234
 20
188.4156104139
 30
0.0
 10
251.5008226346
 20
188.4142438028
 30
0.0
 10
251.4960685169
 20
188.4125462142
 30
0.0
 10
251.4884643247
 20
188.4098240812
 30
0.0
 10
251.4789581401
 20
188.4064236489
 30
0.0
 10
251.4694527379
 20
188.4030217698
 30
0.0
 10
251.4618472938
 20
188.4003019516
 30
0.0
 10
251.4570963059
 20
188.3985985759
 30
0.0
 10
251.453290001
 20
188.3972438285
 30
0.0
 10
251.4509236396
 20
188.3963789733
 30
0.0
 10
251.4492419765
 20
188.3958099247
 30
0.0
 10
251.4483204699
 20
188.3954278812
 30
0.0
 10
251.4475475274
 20
188.3948316266
 30
0.0
 10
251.4465305695
 20
188.3941595267
 30
0.0
 10
251.4441316646
 20
188.3924862248
 30
0.0
 10
251.4405157532
 20
188.3900015827
 30
0.0
 10
251.4357045712
 20
188.38667426
 30
0.0
 10
251.4308907053
 20
188.3833508072
 30
0.0
 10
251.4244731538
 20
188.3789181865
 30
0.0
 10
251.4132419999
 20
188.3711617332
 30
0.0
 10
251.403615447
 20
188.3645131277
 30
0.0
 10
251.3971977116
 20
188.3600807722
 30
0.0
  0
SPLINE
  5
4AD
100
AcDbEntity
  8
7_ALL_FEATURES
100
AcDbSpline
 62
4
  6
CONTINUOUS
 70
0
 71
3
 72
95
 73
91
 74
0
 42
0.0000001
 43
0.0000001
 44
0.0000000001
 40
0.0
 40
0.0
 40
0.0
 40
0.0
 40
0.0625
 40
0.09375
 40
0.109375
 40
0.125
 40
0.140625
 40
0.1484375
 40
0.15625
 40
0.16015625
 40
0.1640625
 40
0.166015625
 40
0.16796875
 40
0.169921875
 40
0.171875
 40
0.1796875
 40
0.1875
 40
0.1953125
 40
0.203125
 40
0.21875
 40
0.25
 40
0.28125
 40
0.296875
 40
0.3046875
 40
0.3125
 40
0.3203125
 40
0.328125
 40
0.330078125
 40
0.33203125
 40
0.333984375
 40
0.3359375
 40
0.33984375
 40
0.34375
 40
0.3515625
 40
0.359375
 40
0.375
 40
0.390625
 40
0.40625
 40
0.421875
 40
0.4375
 40
0.453125
 40
0.46875
 40
0.4765625
 40
0.484375
 40
0.4921875
 40
0.49609375
 40
0.498046875
 40
0.5
 40
0.501953125
 40
0.50390625
 40
0.5078125
 40
0.515625
 40
0.5234375
 40
0.53125
 40
0.546875
 40
0.5625
 40
0.578125
 40
0.59375
 40
0.609375
 40
0.625
 40
0.640625
 40
0.6484375
 40
0.65625
 40
0.66015625
 40
0.6640625
 40
0.666015625
 40
0.66796875
 40
0.671875
 40
0.6796875
 40
0.6875
 40
0.703125
 40
0.71875
 40
0.75
 40
0.78125
 40
0.796875
 40
0.8125
 40
0.8203125
 40
0.828125
 40
0.83203125
 40
0.833984375
 40
0.8359375
 40
0.83984375
 40
0.84375
 40
0.8515625
 40
0.859375
 40
0.875
 40
0.890625
 40
0.90625
 40
0.9375
 40
1.0
 40
1.0
 40
1.0
 40
1.0
 10
251.7057293114
 20
187.0199729279
 30
0.0
 10
251.7010692876
 20
187.0090346198
 30
0.0
 10
251.694079285
 20
186.992627133
 30
0.0
 10
251.6859241661
 20
186.9734851509
 30
0.0
 10
251.6812642637
 20
186.9625467529
 30
0.0
 10
251.6777688731
 20
186.9543432973
 30
0.0
 10
251.6748575249
 20
186.9475059924
 30
0.0
 10
251.6725251327
 20
186.9420385977
 30
0.0
 10
251.6710749329
 20
186.9386158988
 30
0.0
 10
251.6698974928
 20
186.9358905127
 30
0.0
 10
251.6692010208
 20
186.9341580025
 30
0.0
 10
251.6685535358
 20
186.9328387463
 30
0.0
 10
251.6683151876
 20
186.9316665347
 30
0.0
 10
251.668146128
 20
186.9304431075
 30
0.0
 10
251.6677723665
 20
186.9280225987
 30
0.0
 10
251.6672266945
 20
186.9243807701
 30
0.0
 10
251.6664905754
 20
186.919531323
 30
0.0
 10
251.6657567452
 20
186.9146801842
 30
0.0
 10
251.6647775063
 20
186.9082125893
 30
0.0
 10
251.6630642126
 20
186.8968940219
 30
0.0
 10
251.6606164355
 20
186.8807247958
 30
0.0
 10
251.6581688042
 20
186.8645554722
 30
0.0
 10
251.6564553065
 20
186.8532370414
 30
0.0
 10
251.6554763883
 20
186.8467692317
 30
0.0
 10
251.654741574
 20
186.8419187521
 30
0.0
 10
251.6540091508
 20
186.8370668295
 30
0.0
 10
251.6534531293
 20
186.833431933
 30
0.0
 10
251.6530928745
 20
186.8310023772
 30
0.0
 10
251.6528941296
 20
186.8297988338
 30
0.0
 10
251.6527677694
 20
186.8285516106
 30
0.0
 10
251.6529437089
 20
186.8266808098
 30
0.0
 10
251.6530457046
 20
186.8244134716
 30
0.0
 10
251.6532748019
 20
186.8207459614
 30
0.0
 10
251.6535386077
 20
186.8161751906
 30
0.0
 10
251.6539733092
 20
186.8088543467
 30
0.0
 10
251.654512358
 20
186.7997059036
 30
0.0
 10
251.6551610731
 20
186.7887266518
 30
0.0
 10
251.6558092868
 20
186.7777477011
 30
0.0
 10
251.6564576497
 20
186.7667686664
 30
0.0
 10
251.657105917
 20
186.7557896663
 30
0.0
 10
251.6577544174
 20
186.744810612
 30
0.0
 10
251.6582941374
 20
186.7356615521
 30
0.0
 10
251.6587274696
 20
186.7283419663
 30
0.0
 10
251.6590482182
 20
186.7228531993
 30
0.0
 10
251.6593290288
 20
186.7182762931
 30
0.0
 10
251.6594990636
 20
186.715078216
 30
0.0
 10
251.6596376548
 20
186.713241754
 30
0.0
 10
251.6596248937
 20
186.7118897305
 30
0.0
 10
251.6600582364
 20
186.7104409098
 30
0.0
 10
251.6604804206
 20
186.7085429129
 30
0.0
 10
251.6612917427
 20
186.705205687
 30
0.0
 10
251.6624128705
 20
186.7004464458
 30
0.0
 10
251.6637744481
 20
186.6947318361
 30
0.0
 10
251.6655842174
 20
186.6871135862
 30
0.0
 10
251.6678483744
 20
186.6775903518
 30
0.0
 10
251.6705645264
 20
186.6661626518
 30
0.0
 10
251.6732809113
 20
186.6547349018
 30
0.0
 10
251.675997201
 20
186.6433071705
 30
0.0
 10
251.6787136385
 20
186.6318794142
 30
0.0
 10
251.68142958
 20
186.6204517395
 30
0.0
 10
251.6836943948
 20
186.6109284259
 30
0.0
 10
251.6855028221
 20
186.6033103375
 30
0.0
 10
251.6866408855
 20
186.5985477518
 30
0.0
 10
251.6875334811
 20
186.5947406157
 30
0.0
 10
251.6881320929
 20
186.5923544647
 30
0.0
 10
251.6885176714
 20
186.5904608691
 30
0.0
 10
251.6892439018
 20
186.5885113251
 30
0.0
 10
251.6906730525
 20
186.5850736328
 30
0.0
 10
251.6926321307
 20
186.5801762041
 30
0.0
 10
251.6958127981
 20
186.5723327402
 30
0.0
 10
251.6997728273
 20
186.5625310037
 30
0.0
 10
251.7061177419
 20
186.5468467837
 30
0.0
 10
251.7140455964
 20
186.5272419473
 30
0.0
 10
251.7219755209
 20
186.5076371589
 30
0.0
 10
251.7283171236
 20
186.4919528619
 30
0.0
 10
251.7322854324
 20
186.4821513179
 30
0.0
 10
251.7354491267
 20
186.4743074595
 30
0.0
 10
251.7374514138
 20
186.4694110352
 30
0.0
 10
251.7388029566
 20
186.4659715388
 30
0.0
 10
251.7396535874
 20
186.4640248865
 30
0.0
 10
251.7407992639
 20
186.4621489593
 30
0.0
 10
251.7421303364
 20
186.4597798341
 30
0.0
 10
251.7443165088
 20
186.4560027669
 30
0.0
 10
251.7470298936
 20
186.4512767992
 30
0.0
 10
251.7513821132
 20
186.4437178406
 30
0.0
 10
251.7568186809
 20
186.4342682538
 30
0.0
 10
251.7633441487
 20
186.42292913
 30
0.0
 10
251.7720442189
 20
186.4078101656
 30
0.0
 10
251.7872696011
 20
186.38135204
 30
0.0
 10
251.8003198398
 20
186.3586736253
 30
0.0
 10
251.8090200187
 20
186.3435546869
 30
0.0
  0
SPLINE
  5
4AE
100
AcDbEntity
  8
7_ALL_FEATURES
100
AcDbSpline
 62
4
  6
CONTINUOUS
 70
0
 71
3
 72
119
 73
115
 74
0
 42
0.0000001
 43
0.0000001
 44
0.0000000001
 40
0.0
 40
0.0
 40
0.0
 40
0.0
 40
0.03125
 40
0.0625
 40
0.078125
 40
0.0859375
 40
0.09375
 40
0.1015625
 40
0.10546875
 40
0.109375
 40
0.111328125
 40
0.11328125
 40
0.1171875
 40
0.125
 40
0.1328125
 40
0.140625
 40
0.15625
 40
0.171875
 40
0.1875
 40
0.1953125
 40
0.203125
 40
0.2109375
 40
0.21484375
 40
0.21875
 40
0.220703125
 40
0.22265625
 40
0.224609375
 40
0.2265625
 40
0.23046875
 40
0.234375
 40
0.25
 40
0.265625
 40
0.28125
 40
0.296875
 40
0.3046875
 40
0.3125
 40
0.3203125
 40
0.328125
 40
0.330078125
 40
0.33203125
 40
0.333984375
 40
0.3359375
 40
0.33984375
 40
0.34375
 40
0.3515625
 40
0.359375
 40
0.375
 40
0.390625
 40
0.40625
 40
0.421875
 40
0.4296875
 40
0.4375
 40
0.44140625
 40
0.4453125
 40
0.447265625
 40
0.44921875
 40
0.453125
 40
0.4609375
 40
0.46875
 40
0.484375
 40
0.5
 40
0.53125
 40
0.5390625
 40
0.546875
 40
0.55078125
 40
0.552734375
 40
0.5546875
 40
0.55859375
 40
0.5625
 40
0.5703125
 40
0.578125
 40
0.59375
 40
0.609375
 40
0.625
 40
0.640625
 40
0.6484375
 40
0.65625
 40
0.66015625
 40
0.6640625
 40
0.666015625
 40
0.66796875
 40
0.671875
 40
0.6796875
 40
0.6875
 40
0.703125
 40
0.71875
 40
0.734375
 40
0.75
 40
0.765625
 40
0.7734375
 40
0.775390625
 40
0.77734375
 40
0.78125
 40
0.78515625
 40
0.7890625
 40
0.796875
 40
0.8046875
 40
0.8125
 40
0.828125
 40
0.84375
 40
0.859375
 40
0.875
 40
0.8828125
 40
0.88671875
 40
0.888671875
 40
0.890625
 40
0.89453125
 40
0.8984375
 40
0.90625
 40
0.9140625
 40
0.921875
 40
0.9375
 40
0.96875
 40
1.0
 40
1.0
 40
1.0
 40
1.0
 10
252.1048881548
 20
187.675412823
 30
0.0
 10
252.1073818893
 20
187.6813821966
 30
0.0
 10
252.1123694124
 20
187.6933209043
 30
0.0
 10
252.1186035456
 20
187.7082444859
 30
0.0
 10
252.1229679363
 20
187.718690631
 30
0.0
 10
252.1254611021
 20
187.7246604183
 30
0.0
 10
252.1273331494
 20
187.7291361777
 30
0.0
 10
252.1288862675
 20
187.7328710135
 30
0.0
 10
252.1301442866
 20
187.7358475854
 30
0.0
 10
252.1308951977
 20
187.7377336666
 30
0.0
 10
252.1315768874
 20
187.7391836188
 30
0.0
 10
252.1317054879
 20
187.7410360379
 30
0.0
 10
252.1321882333
 20
187.7440902545
 30
0.0
 10
252.1327431439
 20
187.7485514571
 30
0.0
 10
252.133466704
 20
187.7538629374
 30
0.0
 10
252.1344113064
 20
187.7609595695
 30
0.0
 10
252.1355989738
 20
187.7698253284
 30
0.0
 10
252.1370212021
 20
187.7804664015
 30
0.0
 10
252.1382070816
 20
187.7893334627
 30
0.0
 10
252.1391556173
 20
187.7964272298
 30
0.0
 10
252.1398671092
 20
187.8017475005
 30
0.0
 10
252.1404597888
 20
187.8061811922
 30
0.0
 10
252.14093444
 20
187.8097278543
 30
0.0
 10
252.1412299434
 20
187.8119451798
 30
0.0
 10
252.1414689879
 20
187.8137175249
 30
0.0
 10
252.1416410381
 20
187.8150509329
 30
0.0
 10
252.141437522
 20
187.8165997841
 30
0.0
 10
252.1412973338
 20
187.8185896754
 30
0.0
 10
252.1410772651
 20
187.8211027582
 30
0.0
 10
252.1405860004
 20
187.8271129891
 30
0.0
 10
252.1398336025
 20
187.8361372269
 30
0.0
 10
252.1388392761
 20
187.8481644591
 30
0.0
 10
252.1378425352
 20
187.8601930624
 30
0.0
 10
252.1370125738
 20
187.8702165655
 30
0.0
 10
252.1363482374
 20
187.8782354815
 30
0.0
 10
252.1358506932
 20
187.8842495278
 30
0.0
 10
252.1353505004
 20
187.8902640803
 30
0.0
 10
252.1349827705
 20
187.8947735814
 30
0.0
 10
252.1347260871
 20
187.8977821128
 30
0.0
 10
252.1346183341
 20
187.899282455
 30
0.0
 10
252.1344305323
 20
187.9007980516
 30
0.0
 10
252.1337992431
 20
187.9028914303
 30
0.0
 10
252.1331405466
 20
187.9054833012
 30
0.0
 10
252.1320137503
 20
187.9096441834
 30
0.0
 10
252.130630209
 20
187.9148405307
 30
0.0
 10
252.1284025999
 20
187.9231573439
 30
0.0
 10
252.1256228455
 20
187.9335524514
 30
0.0
 10
252.1222852214
 20
187.9460269571
 30
0.0
 10
252.1189476612
 20
187.9585014102
 30
0.0
 10
252.1161677472
 20
187.9688966491
 30
0.0
 10
252.1139404572
 20
187.9772131993
 30
0.0
 10
252.112556105
 20
187.9824102149
 30
0.0
 10
252.1114309731
 20
187.9865697255
 30
0.0
 10
252.1107680389
 20
187.9891650883
 30
0.0
 10
252.1097641894
 20
187.9912923042
 30
0.0
 10
252.1088429209
 20
187.9934106383
 30
0.0
 10
252.1071922301
 20
187.9971218608
 30
0.0
 10
252.1048541712
 20
188.0024214478
 30
0.0
 10
252.1011020689
 20
188.0109019972
 30
0.0
 10
252.0964157181
 20
188.0215022446
 30
0.0
 10
252.0889157993
 20
188.0384630323
 30
0.0
 10
252.0823520217
 20
188.053302894
 30
0.0
 10
252.0767296405
 20
188.0660243651
 30
0.0
 10
252.0743814341
 20
188.0713227227
 30
0.0
 10
252.0727490145
 20
188.0750361701
 30
0.0
 10
252.0717984534
 20
188.077150936
 30
0.0
 10
252.0709145777
 20
188.0792927668
 30
0.0
 10
252.0693317805
 20
188.0817760737
 30
0.0
 10
252.0668513392
 20
188.0857704831
 30
0.0
 10
252.0637329715
 20
188.0907562642
 30
0.0
 10
252.0587535376
 20
188.0987375532
 30
0.0
 10
252.0525258509
 20
188.1087127935
 30
0.0
 10
252.0450539881
 20
188.1206836034
 30
0.0
 10
252.0375821113
 20
188.1326545204
 30
0.0
 10
252.0313544598
 20
188.142629493
 30
0.0
 10
252.0263749554
 20
188.1506113174
 30
0.0
 10
252.0232567669
 20
188.1555957375
 30
0.0
 10
252.0207759579
 20
188.1595929405
 30
0.0
 10
252.0191940967
 20
188.1620691352
 30
0.0
 10
252.0180004256
 20
188.1641006114
 30
0.0
 10
252.0165445679
 20
188.1659476515
 30
0.0
 10
252.0138750203
 20
188.1690942933
 30
0.0
 10
252.0101249275
 20
188.1736341974
 30
0.0
 10
252.0040892705
 20
188.1808730692
 30
0.0
 10
251.996556826
 20
188.1899301641
 30
0.0
 10
251.9875129473
 20
188.2007953157
 30
0.0
 10
251.9784694468
 20
188.2116603078
 30
0.0
 10
251.969429379
 20
188.2225293004
 30
0.0
 10
251.9618842316
 20
188.2315735919
 30
0.0
 10
251.9570014186
 20
188.2374765009
 30
0.0
 10
251.9547251716
 20
188.2401755656
 30
0.0
 10
251.9532636325
 20
188.2420376072
 30
0.0
 10
251.9510283375
 20
188.2439078483
 30
0.0
 10
251.9484619153
 20
188.2462819626
 30
0.0
 10
251.9449995227
 20
188.2494020994
 30
0.0
 10
251.940685425
 20
188.2533178257
 30
0.0
 10
251.9355025658
 20
188.2580100552
 30
0.0
 10
251.9285941388
 20
188.2642686006
 30
0.0
 10
251.9199580705
 20
188.2720915921
 30
0.0
 10
251.9095942763
 20
188.2814767363
 30
0.0
 10
251.8992333863
 20
188.2908719671
 30
0.0
 10
251.8905900574
 20
188.2986697419
 30
0.0
 10
251.8845578898
 20
188.3041900982
 30
0.0
 10
251.8815169913
 20
188.3068656963
 30
0.0
 10
251.8798192798
 20
188.3085307591
 30
0.0
 10
251.8779712422
 20
188.3096834447
 30
0.0
 10
251.8756886986
 20
188.3112180458
 30
0.0
 10
251.8720212572
 20
188.3136210139
 30
0.0
 10
251.8674422293
 20
188.3166426999
 30
0.0
 10
251.8619451387
 20
188.3202610295
 30
0.0
 10
251.8546164718
 20
188.3250881527
 30
0.0
 10
251.8417909378
 20
188.3335343674
 30
0.0
 10
251.8234689396
 20
188.3456010467
 30
0.0
 10
251.8088112821
 20
188.3552541895
 30
0.0
 10
251.8014824608
 20
188.360080786
 30
0.0
  0
SPLINE
  5
4AF
100
AcDbEntity
  8
02___PRT_ALL_AXES
100
AcDbSpline
 62
7
  6
CONTINUOUS
 70
0
 71
3
 72
15
 73
11
 74
0
 42
0.0000001
 43
0.0000001
 44
0.0000000001
 40
0.0
 40
0.0
 40
0.0
 40
0.0
 40
0.1252232689
 40
0.2502003269
 40
0.3750634075
 40
0.4999999968
 40
0.6249365928
 40
0.7497996766
 40
0.8747767314
 40
1.0
 40
1.0
 40
1.0
 40
1.0
 10
269.6925129528
 20
206.753790538
 30
0.0
 10
269.695636684
 20
206.2200427158
 30
0.0
 10
269.8936908706
 20
205.1448316797
 30
0.0
 10
270.7421494813
 20
203.7477628985
 30
0.0
 10
272.0597313274
 20
202.7684611238
 30
0.0
 10
273.6685636187
 20
202.4109534675
 30
0.0
 10
275.2773959319
 20
202.7684611161
 30
0.0
 10
276.5949777968
 20
203.7477629186
 30
0.0
 10
277.4434363941
 20
205.1448317035
 30
0.0
 10
277.6414905764
 20
206.2200427246
 30
0.0
 10
277.6446143067
 20
206.7537905453
 30
0.0
  0
SPLINE
  5
4B0
100
AcDbEntity
  8
02___PRT_ALL_AXES
100
AcDbSpline
 62
7
  6
CONTINUOUS
 70
0
 71
3
 72
15
 73
11
 74
0
 42
0.0000001
 43
0.0000001
 44
0.0000000001
 40
0.0
 40
0.0
 40
0.0
 40
0.0
 40
0.1252232686
 40
0.2502003234
 40
0.3750634072
 40
0.5000000032
 40
0.6249365925
 40
0.7497996731
 40
0.8747767311
 40
1.0
 40
1.0
 40
1.0
 40
1.0
 10
269.6925129527
 20
206.806381938
 30
0.0
 10
269.6956366831
 20
207.3401297587
 30
0.0
 10
269.8936908653
 20
208.4153407798
 30
0.0
 10
270.7421494626
 20
209.8124095648
 30
0.0
 10
272.0597313276
 20
210.7917113672
 30
0.0
 10
273.6685636408
 20
211.1492190158
 30
0.0
 10
275.277395932
 20
210.7917113595
 30
0.0
 10
276.5949777781
 20
209.8124095848
 30
0.0
 10
277.4434363889
 20
208.4153408036
 30
0.0
 10
277.6414905755
 20
207.3401297676
 30
0.0
 10
277.6446143067
 20
206.8063819454
 30
0.0
  0
SPLINE
  5
4B1
100
AcDbEntity
  8
7_ALL_FEATURES
100
AcDbSpline
 62
7
  6
CONTINUOUS
 70
0
 71
3
 72
8
 73
4
 74
0
 42
0.0000001
 43
0.0000001
 44
0.0000000001
 40
0.0
 40
0.0
 40
0.0
 40
0.0
 40
1.0
 40
1.0
 40
1.0
 40
1.0
 10
248.7714585319
 20
184.5300862417
 30
0.0
 10
249.0285535088
 20
184.2066450632
 30
0.0
 10
249.2857962223
 20
183.8833212561
 30
0.0
 10
249.5431940128
 20
183.5601210079
 30
0.0
  0
SPLINE
  5
4B2
100
AcDbEntity
  8
7_ALL_FEATURES
100
AcDbSpline
 62
7
  6
CONTINUOUS
 70
0
 71
3
 72
8
 73
4
 74
0
 42
0.0000001
 43
0.0000001
 44
0.0000000001
 40
0.0
 40
0.0
 40
0.0
 40
0.0
 40
1.0
 40
1.0
 40
1.0
 40
1.0
 10
258.7979833536
 20
184.5300862417
 30
0.0
 10
259.0043576452
 20
184.1968695419
 30
0.0
 10
259.21054709
 20
183.86353828
 30
0.0
 10
259.4165409136
 20
183.5300862417
 30
0.0
  0
SPLINE
  5
4B3
100
AcDbEntity
  8
03___PRT_ALL_CURVES
100
AcDbSpline
 62
40
  6
CONTINUOUS
 70
0
 71
3
 72
10
 73
6
 74
0
 42
0.0000001
 43
0.0000001
 44
0.0000000001
 40
0.0
 40
0.0
 40
0.0
 40
0.0
 40
0.3333333333
 40
0.6666666667
 40
1.0
 40
1.0
 40
1.0
 40
1.0
 10
280.7760908772
 20
223.7803663192
 30
0.0
 10
280.7642486379
 20
223.8085179246
 30
0.0
 10
280.7491409069
 20
223.8690778013
 30
0.0
 10
280.7457934564
 20
223.971296059
 30
0.0
 10
280.7534019218
 20
224.0429306769
 30
0.0
 10
280.7591592679
 20
224.0800909931
 30
0.0
  0
SPLINE
  5
4B4
100
AcDbEntity
  8
03___PRT_ALL_CURVES
100
AcDbSpline
 62
40
  6
CONTINUOUS
 70
0
 71
3
 72
10
 73
6
 74
0
 42
0.0000001
 43
0.0000001
 44
0.0000000001
 40
0.0
 40
0.0
 40
0.0
 40
0.0
 40
0.3333333333
 40
0.6666666667
 40
1.0
 40
1.0
 40
1.0
 40
1.0
 10
280.917855965
 20
223.6463384709
 30
0.0
 10
280.8962081274
 20
223.6521389915
 30
0.0
 10
280.8568966422
 20
223.6700135411
 30
0.0
 10
280.809375747
 20
223.7155534889
 30
0.0
 10
280.785961753
 20
223.7569010782
 30
0.0
 10
280.7760908772
 20
223.7803663192
 30
0.0
  0
SPLINE
  5
4B5
100
AcDbEntity
  8
03___PRT_ALL_CURVES
100
AcDbSpline
 62
40
  6
CONTINUOUS
 70
0
 71
3
 72
13
 73
9
 74
0
 42
0.0000001
 43
0.0000001
 44
0.0000000001
 40
0.0
 40
0.0
 40
0.0
 40
0.0
 40
0.1666666667
 40
0.3333333333
 40
0.5
 40
0.6666666667
 40
0.8333333333
 40
1.0
 40
1.0
 40
1.0
 40
1.0
 10
281.1540287353
 20
223.7192593657
 30
0.0
 10
281.1417297596
 20
223.7084330906
 30
0.0
 10
281.1170984393
 20
223.6888971196
 30
0.0
 10
281.079149685
 20
223.6655864158
 30
0.0
 10
281.0397463382
 20
223.6487729512
 30
0.0
 10
280.9995130031
 20
223.6394733451
 30
0.0
 10
280.9590599787
 20
223.6380997127
 30
0.0
 10
280.9316070467
 20
223.6426538797
 30
0.0
 10
280.917855965
 20
223.6463384709
 30
0.0
  0
SPLINE
  5
4B6
100
AcDbEntity
  8
03___PRT_ALL_CURVES
100
AcDbSpline
 62
40
  6
CONTINUOUS
 70
0
 71
3
 72
10
 73
6
 74
0
 42
0.0000001
 43
0.0000001
 44
0.0000000001
 40
0.0
 40
0.0
 40
0.0
 40
0.0
 40
0.3333333333
 40
0.6666666667
 40
1.0
 40
1.0
 40
1.0
 40
1.0
 10
281.3328372868
 20
224.0436021984
 30
0.0
 10
281.3206720873
 20
223.9982010556
 30
0.0
 10
281.2920900332
 20
223.9133259277
 30
0.0
 10
281.2323059995
 20
223.8017522484
 30
0.0
 10
281.1821524771
 20
223.7440155221
 30
0.0
 10
281.1540287353
 20
223.7192593657
 30
0.0
  0
SPLINE
  5
4B7
100
AcDbEntity
  8
03___PRT_ALL_CURVES
100
AcDbSpline
 62
40
  6
CONTINUOUS
 70
0
 71
3
 72
10
 73
6
 74
0
 42
0.0000001
 43
0.0000001
 44
0.0000000001
 40
0.0
 40
0.0
 40
0.0
 40
0.0
 40
0.3333333333
 40
0.6666666667
 40
1.0
 40
1.0
 40
1.0
 40
1.0
 10
281.3361048121
 20
224.3873478936
 30
0.0
 10
281.3484797851
 20
224.3545677535
 30
0.0
 10
281.3636469577
 20
224.2849721278
 30
0.0
 10
281.3605565794
 20
224.1670311948
 30
0.0
 10
281.344117102
 20
224.0856990418
 30
0.0
 10
281.3328372868
 20
224.0436021984
 30
0.0
  0
SPLINE
  5
4B8
100
AcDbEntity
  8
03___PRT_ALL_CURVES
100
AcDbSpline
 62
40
  6
CONTINUOUS
 70
0
 71
3
 72
12
 73
8
 74
0
 42
0.0000001
 43
0.0000001
 44
0.0000000001
 40
0.0
 40
0.0
 40
0.0
 40
0.0
 40
0.1666666667
 40
0.3333333333
 40
0.5
 40
0.6666666667
 40
1.0
 40
1.0
 40
1.0
 40
1.0
 10
281.1607249067
 20
224.5572180375
 30
0.0
 10
281.1742707511
 20
224.5535884395
 30
0.0
 10
281.2001293855
 20
224.5444703082
 30
0.0
 10
281.2352377386
 20
224.5250784545
 30
0.0
 10
281.2668534935
 20
224.4995382834
 30
0.0
 10
281.3035550815
 20
224.4575038923
 30
0.0
 10
281.3246470882
 20
224.4176983269
 30
0.0
 10
281.3361048121
 20
224.3873478936
 30
0.0
  0
SPLINE
  5
4B9
100
AcDbEntity
  8
03___PRT_ALL_CURVES
100
AcDbSpline
 62
40
  6
CONTINUOUS
 70
0
 71
3
 72
10
 73
6
 74
0
 42
0.0000001
 43
0.0000001
 44
0.0000000001
 40
0.0
 40
0.0
 40
0.0
 40
0.0
 40
0.3333333333
 40
0.6666666667
 40
1.0
 40
1.0
 40
1.0
 40
1.0
 10
281.0061739344
 20
224.5449593315
 30
0.0
 10
281.0239216881
 20
224.5521377024
 30
0.0
 10
281.0590349775
 20
224.5626141298
 30
0.0
 10
281.1107405561
 20
224.5666801435
 30
0.0
 10
281.1442056349
 20
224.5616443631
 30
0.0
 10
281.1607249067
 20
224.5572180375
 30
0.0
  0
SPLINE
  5
4BA
100
AcDbEntity
  8
03___PRT_ALL_CURVES
100
AcDbSpline
 62
40
  6
CONTINUOUS
 70
0
 71
3
 72
10
 73
6
 74
0
 42
0.0000001
 43
0.0000001
 44
0.0000000001
 40
0.0
 40
0.0
 40
0.0
 40
0.0
 40
0.3333333333
 40
0.6666666667
 40
1.0
 40
1.0
 40
1.0
 40
1.0
 10
280.8660492118
 20
224.4342055455
 30
0.0
 10
280.8794512632
 20
224.451630027
 30
0.0
 10
280.9076960703
 20
224.4830789088
 30
0.0
 10
280.9550789858
 20
224.5204236664
 30
0.0
 10
280.9887476664
 20
224.5379109907
 30
0.0
 10
281.0061739344
 20
224.5449593315
 30
0.0
  0
SPLINE
  5
4BB
100
AcDbEntity
  8
03___PRT_ALL_CURVES
100
AcDbSpline
 62
40
  6
CONTINUOUS
 70
0
 71
3
 72
13
 73
9
 74
0
 42
0.0000001
 43
0.0000001
 44
0.0000000001
 40
0.0
 40
0.0
 40
0.0
 40
0.0
 40
0.1666666667
 40
0.3333333333
 40
0.5
 40
0.6666666667
 40
0.8333333333
 40
1.0
 40
1.0
 40
1.0
 40
1.0
 10
281.2605511705
 20
224.7550384665
 30
0.0
 10
281.245370733
 20
224.7591060524
 30
0.0
 10
281.2146296762
 20
224.7648144876
 30
0.0
 10
281.1677702142
 20
224.7660982069
 30
0.0
 10
281.1194398209
 20
224.7600790761
 30
0.0
 10
281.0705858215
 20
224.74687009
 30
0.0
 10
281.0221643812
 20
224.727280494
 30
0.0
 10
280.9897616981
 20
224.7101752027
 30
0.0
 10
280.9734494765
 20
224.7006155598
 30
0.0
  0
SPLINE
  5
4BC
100
AcDbEntity
  8
03___PRT_ALL_CURVES
100
AcDbSpline
 62
40
  6
CONTINUOUS
 70
0
 71
3
 72
10
 73
6
 74
0
 42
0.0000001
 43
0.0000001
 44
0.0000000001
 40
0.0
 40
0.0
 40
0.0
 40
0.0
 40
0.3333333333
 40
0.6666666667
 40
1.0
 40
1.0
 40
1.0
 40
1.0
 10
281.5095894397
 20
224.5061115845
 30
0.0
 10
281.492646398
 20
224.5498350714
 30
0.0
 10
281.4522878387
 20
224.6268966152
 30
0.0
 10
281.3692458693
 20
224.711726345
 30
0.0
 10
281.2993163398
 20
224.7446513707
 30
0.0
 10
281.2605511705
 20
224.7550384665
 30
0.0
  0
SPLINE
  5
4BD
100
AcDbEntity
  8
03___PRT_ALL_CURVES
100
AcDbSpline
 62
40
  6
CONTINUOUS
 70
0
 71
3
 72
12
 73
8
 74
0
 42
0.0000001
 43
0.0000001
 44
0.0000000001
 40
0.0
 40
0.0
 40
0.0
 40
0.0
 40
0.3333333333
 40
0.5
 40
0.6666666667
 40
0.8333333333
 40
1.0
 40
1.0
 40
1.0
 40
1.0
 10
281.5125170808
 20
224.0152304966
 30
0.0
 10
281.5287669763
 20
224.0758759321
 30
0.0
 10
281.5456110115
 20
224.1635468372
 30
0.0
 10
281.551618437
 20
224.2772600137
 30
0.0
 10
281.5470266837
 20
224.3588938608
 30
0.0
 10
281.5335438201
 20
224.4350191479
 30
0.0
 10
281.5185701248
 20
224.4829358837
 30
0.0
 10
281.5095894397
 20
224.5061115845
 30
0.0
  0
SPLINE
  5
4BE
100
AcDbEntity
  8
03___PRT_ALL_CURVES
100
AcDbSpline
 62
40
  6
CONTINUOUS
 70
0
 71
3
 72
10
 73
6
 74
0
 42
0.0000001
 43
0.0000001
 44
0.0000000001
 40
0.0
 40
0.0
 40
0.0
 40
0.0
 40
0.3333333333
 40
0.6666666667
 40
1.0
 40
1.0
 40
1.0
 40
1.0
 10
281.2565674151
 20
223.5628845073
 30
0.0
 10
281.2957343031
 20
223.6000061148
 30
0.0
 10
281.3672969614
 20
223.6825875312
 30
0.0
 10
281.4538219844
 20
223.8342720613
 30
0.0
 10
281.4955768361
 20
223.9520086425
 30
0.0
 10
281.5125170808
 20
224.0152304966
 30
0.0
  0
SPLINE
  5
4BF
100
AcDbEntity
  8
03___PRT_ALL_CURVES
100
AcDbSpline
 62
40
  6
CONTINUOUS
 70
0
 71
3
 72
10
 73
6
 74
0
 42
0.0000001
 43
0.0000001
 44
0.0000000001
 40
0.0
 40
0.0
 40
0.0
 40
0.0
 40
0.3333333333
 40
0.6666666667
 40
1.0
 40
1.0
 40
1.0
 40
1.0
 10
280.8678379923
 20
223.4507081825
 30
0.0
 10
280.9138316389
 20
223.4383842221
 30
0.0
 10
281.0037935267
 20
223.4295784407
 30
0.0
 10
281.1353272972
 20
223.4669218964
 30
0.0
 10
281.2169349689
 20
223.5253216528
 30
0.0
 10
281.2565674151
 20
223.5628845073
 30
0.0
  0
SPLINE
  5
4C0
100
AcDbEntity
  8
03___PRT_ALL_CURVES
100
AcDbSpline
 62
40
  6
CONTINUOUS
 70
0
 71
3
 72
10
 73
6
 74
0
 42
0.0000001
 43
0.0000001
 44
0.0000000001
 40
0.0
 40
0.0
 40
0.0
 40
0.0
 40
0.3333333333
 40
0.6666666667
 40
1.0
 40
1.0
 40
1.0
 40
1.0
 10
280.6102646149
 20
223.6722620436
 30
0.0
 10
280.6287089609
 20
223.6333562512
 30
0.0
 10
280.6723938905
 20
223.565073617
 30
0.0
 10
280.7586507828
 20
223.4910856112
 30
0.0
 10
280.8292474879
 20
223.461048477
 30
0.0
 10
280.8678379923
 20
223.4507081825
 30
0.0
  0
SPLINE
  5
4C1
100
AcDbEntity
  8
03___PRT_ALL_CURVES
100
AcDbSpline
 62
40
  6
CONTINUOUS
 70
0
 71
3
 72
10
 73
6
 74
0
 42
0.0000001
 43
0.0000001
 44
0.0000000001
 40
0.0
 40
0.0
 40
0.0
 40
0.0
 40
0.3333333333
 40
0.6666666667
 40
1.0
 40
1.0
 40
1.0
 40
1.0
 10
280.5798935603
 20
224.1055269672
 30
0.0
 10
280.5691079085
 20
224.0510593557
 30
0.0
 10
280.5557651331
 20
223.9465267198
 30
0.0
 10
280.5645369919
 20
223.7975180161
 30
0.0
 10
280.5913941339
 20
223.7120667089
 30
0.0
 10
280.6102646149
 20
223.6722620436
 30
0.0
  0
SPLINE
  5
4C2
100
AcDbEntity
  8
03___PRT_ALL_CURVES
100
AcDbSpline
 62
40
  6
CONTINUOUS
 70
0
 71
3
 72
10
 73
6
 74
0
 42
0.0000001
 43
0.0000001
 44
0.0000000001
 40
0.0
 40
0.0
 40
0.0
 40
0.0
 40
0.3333333333
 40
0.6666666667
 40
1.0
 40
1.0
 40
1.0
 40
1.0
 10
280.0631336849
 20
225.1482529026
 30
0.0
 10
280.0874841268
 20
225.1599581711
 30
0.0
 10
280.134666118
 20
225.1842472263
 30
0.0
 10
280.2008767264
 20
225.2241590714
 30
0.0
 10
280.2411104729
 20
225.2533693824
 30
0.0
 10
280.2601302495
 20
225.2688549499
 30
0.0
  0
SPLINE
  5
4C3
100
AcDbEntity
  8
03___PRT_ALL_CURVES
100
AcDbSpline
 62
40
  6
CONTINUOUS
 70
0
 71
3
 72
10
 73
6
 74
0
 42
0.0000001
 43
0.0000001
 44
0.0000000001
 40
0.0
 40
0.0
 40
0.0
 40
0.0
 40
0.3333333333
 40
0.6666666667
 40
1.0
 40
1.0
 40
1.0
 40
1.0
 10
279.8530775276
 20
225.0714374749
 30
0.0
 10
279.8761954252
 20
225.0764505719
 30
0.0
 10
279.9224620138
 20
225.0893777619
 30
0.0
 10
279.9925745769
 20
225.1157293716
 30
0.0
 10
280.0395029707
 20
225.1368936075
 30
0.0
 10
280.0631336849
 20
225.1482529026
 30
0.0
  0
SPLINE
  5
4C4
100
AcDbEntity
  8
03___PRT_ALL_CURVES
100
AcDbSpline
 62
40
  6
CONTINUOUS
 70
0
 71
3
 72
10
 73
6
 74
0
 42
0.0000001
 43
0.0000001
 44
0.0000000001
 40
0.0
 40
0.0
 40
0.0
 40
0.0
 40
0.3333333333
 40
0.6666666667
 40
1.0
 40
1.0
 40
1.0
 40
1.0
 10
280.2159169177
 20
225.461164297
 30
0.0
 10
280.1841648608
 20
225.4372205424
 30
0.0
 10
280.1194005819
 20
225.3935720243
 30
0.0
 10
280.0193966694
 20
225.3405624442
 30
0.0
 10
279.9498904473
 20
225.3127358927
 30
0.0
 10
279.914516154
 20
225.3007295501
 30
0.0
  0
SPLINE
  5
4C5
100
AcDbEntity
  8
03___PRT_ALL_CURVES
100
AcDbSpline
 62
40
  6
CONTINUOUS
 70
0
 71
3
 72
10
 73
6
 74
0
 42
0.0000001
 43
0.0000001
 44
0.0000000001
 40
0.0
 40
0.0
 40
0.0
 40
0.0
 40
0.3333333333
 40
0.6666666667
 40
1.0
 40
1.0
 40
1.0
 40
1.0
 10
280.4331316867
 20
225.6815236845
 30
0.0
 10
280.4149453804
 20
225.654612402
 30
0.0
 10
280.374260401
 20
225.60265734
 30
0.0
 10
280.3009107808
 20
225.5290424802
 30
0.0
 10
280.2453629161
 20
225.4833690872
 30
0.0
 10
280.2159169177
 20
225.461164297
 30
0.0
  0
SPLINE
  5
4C6
100
AcDbEntity
  8
03___PRT_ALL_CURVES
100
AcDbSpline
 62
40
  6
CONTINUOUS
 70
0
 71
3
 72
10
 73
6
 74
0
 42
0.0000001
 43
0.0000001
 44
0.0000000001
 40
0.0
 40
0.0
 40
0.0
 40
0.0
 40
0.3333333333
 40
0.6666666667
 40
1.0
 40
1.0
 40
1.0
 40
1.0
 10
268.3140006442
 20
224.250071739
 30
0.0
 10
268.289683185
 20
224.2685199473
 30
0.0
 10
268.2463440634
 20
224.3133811832
 30
0.0
 10
268.1923548893
 20
224.4001595878
 30
0.0
 10
268.1630855227
 20
224.4660725361
 30
0.0
 10
268.1494750654
 20
224.5011750444
 30
0.0
  0
SPLINE
  5
4C7
100
AcDbEntity
  8
03___PRT_ALL_CURVES
100
AcDbSpline
 62
40
  6
CONTINUOUS
 70
0
 71
3
 72
10
 73
6
 74
0
 42
0.0000001
 43
0.0000001
 44
0.0000000001
 40
0.0
 40
0.0
 40
0.0
 40
0.0
 40
0.3333333333
 40
0.6666666667
 40
1.0
 40
1.0
 40
1.0
 40
1.0
 10
268.5037866977
 20
224.2048826898
 30
0.0
 10
268.4819420986
 20
224.1990294471
 30
0.0
 10
268.438680067
 20
224.1949147126
 30
0.0
 10
268.374745384
 20
224.2108146097
 30
0.0
 10
268.334100456
 20
224.2348232087
 30
0.0
 10
268.3140006442
 20
224.250071739
 30
0.0
  0
SPLINE
  5
4C8
100
AcDbEntity
  8
03___PRT_ALL_CURVES
100
AcDbSpline
 62
40
  6
CONTINUOUS
 70
0
 71
3
 72
12
 73
8
 74
0
 42
0.0000001
 43
0.0000001
 44
0.0000000001
 40
0.0
 40
0.0
 40
0.0
 40
0.0
 40
0.1666666667
 40
0.3333333333
 40
0.5
 40
0.6666666667
 40
1.0
 40
1.0
 40
1.0
 40
1.0
 10
268.671857869
 20
224.3861204223
 30
0.0
 10
268.6666351921
 20
224.3706407819
 30
0.0
 10
268.6551139519
 20
224.3414978707
 30
0.0
 10
268.6339664582
 20
224.3023910457
 30
0.0
 10
268.6083049828
 20
224.2681421888
 30
0.0
 10
268.5681486485
 20
224.2305502222
 30
0.0
 10
268.5314091882
 20
224.2122841138
 30
0.0
 10
268.5037866977
 20
224.2048826898
 30
0.0
  0
SPLINE
  5
4C9
100
AcDbEntity
  8
03___PRT_ALL_CURVES
100
AcDbSpline
 62
40
  6
CONTINUOUS
 70
0
 71
3
 72
10
 73
6
 74
0
 42
0.0000001
 43
0.0000001
 44
0.0000000001
 40
0.0
 40
0.0
 40
0.0
 40
0.0
 40
0.3333333333
 40
0.6666666667
 40
1.0
 40
1.0
 40
1.0
 40
1.0
 10
268.6645392007
 20
224.7564138307
 30
0.0
 10
268.6766238361
 20
224.7113133577
 30
0.0
 10
268.6942721418
 20
224.6239562085
 30
0.0
 10
268.698474092
 20
224.4974926697
 30
0.0
 10
268.6839440296
 20
224.4219429365
 30
0.0
 10
268.671857869
 20
224.3861204223
 30
0.0
  0
SPLINE
  5
4CA
100
AcDbEntity
  8
03___PRT_ALL_CURVES
100
AcDbSpline
 62
40
  6
CONTINUOUS
 70
0
 71
3
 72
10
 73
6
 74
0
 42
0.0000001
 43
0.0000001
 44
0.0000000001
 40
0.0
 40
0.0
 40
0.0
 40
0.0
 40
0.3333333333
 40
0.6666666667
 40
1.0
 40
1.0
 40
1.0
 40
1.0
 10
268.4954961549
 20
225.0557401699
 30
0.0
 10
268.5225698771
 20
225.0335666063
 30
0.0
 10
268.5704679505
 20
224.980929766
 30
0.0
 10
268.6267326935
 20
224.8774002575
 30
0.0
 10
268.6532347912
 20
224.7986024614
 30
0.0
 10
268.6645392007
 20
224.7564138307
 30
0.0
  0
SPLINE
  5
4CB
100
AcDbEntity
  8
03___PRT_ALL_CURVES
100
AcDbSpline
 62
40
  6
CONTINUOUS
 70
0
 71
3
 72
10
 73
6
 74
0
 42
0.0000001
 43
0.0000001
 44
0.0000000001
 40
0.0
 40
0.0
 40
0.0
 40
0.0
 40
0.3333333333
 40
0.6666666667
 40
1.0
 40
1.0
 40
1.0
 40
1.0
 10
268.2586775877
 20
225.1151620051
 30
0.0
 10
268.2861365432
 20
225.1225196101
 30
0.0
 10
268.3402340292
 20
225.1281340224
 30
0.0
 10
268.4202576529
 20
225.1078663913
 30
0.0
 10
268.4706736579
 20
225.0760699647
 30
0.0
 10
268.4954961549
 20
225.0557401699
 30
0.0
  0
SPLINE
  5
4CC
100
AcDbEntity
  8
03___PRT_ALL_CURVES
100
AcDbSpline
 62
40
  6
CONTINUOUS
 70
0
 71
3
 72
10
 73
6
 74
0
 42
0.0000001
 43
0.0000001
 44
0.0000000001
 40
0.0
 40
0.0
 40
0.0
 40
0.0
 40
0.3333333333
 40
0.6666666667
 40
1.0
 40
1.0
 40
1.0
 40
1.0
 10
268.130961915
 20
225.0272701235
 30
0.0
 10
268.1427559444
 20
225.0423775386
 30
0.0
 10
268.1679536272
 20
225.0690207338
 30
0.0
 10
268.2106287195
 20
225.0983438694
 30
0.0
 10
268.2421431574
 20
225.1107316179
 30
0.0
 10
268.2586775877
 20
225.1151620051
 30
0.0
  0
SPLINE
  5
4CD
100
AcDbEntity
  8
03___PRT_ALL_CURVES
100
AcDbSpline
 62
40
  6
CONTINUOUS
 70
0
 71
3
 72
10
 73
6
 74
0
 42
0.0000001
 43
0.0000001
 44
0.0000000001
 40
0.0
 40
0.0
 40
0.0
 40
0.0
 40
0.3333333333
 40
0.6666666667
 40
1.0
 40
1.0
 40
1.0
 40
1.0
 10
268.0649873918
 20
224.8612922671
 30
0.0
 10
268.0678707575
 20
224.8830016591
 30
0.0
 10
268.0765620367
 20
224.9242546438
 30
0.0
 10
268.0989414083
 20
224.9804146543
 30
0.0
 10
268.1193754537
 20
225.01242859
 30
0.0
 10
268.130961915
 20
225.0272701235
 30
0.0
  0
SPLINE
  5
4CE
100
AcDbEntity
  8
03___PRT_ALL_CURVES
100
AcDbSpline
 62
40
  6
CONTINUOUS
 70
0
 71
3
 72
13
 73
9
 74
0
 42
0.0000001
 43
0.0000001
 44
0.0000000001
 40
0.0
 40
0.0
 40
0.0
 40
0.0
 40
0.1666666667
 40
0.3333333333
 40
0.5
 40
0.6666666667
 40
0.8333333333
 40
1.0
 40
1.0
 40
1.0
 40
1.0
 10
268.2462194537
 20
225.3363926539
 30
0.0
 10
268.2309960848
 20
225.3323135645
 30
0.0
 10
268.2014526595
 20
225.3218545516
 30
0.0
 10
268.1601903641
 20
225.2994848477
 30
0.0
 10
268.1213825187
 20
225.2701014883
 30
0.0
 10
268.0857279355
 20
225.2342636429
 30
0.0
 10
268.0536172032
 20
225.1931111639
 30
0.0
 10
268.034131914
 20
225.1621300537
 30
0.0
 10
268.0247935465
 20
225.1457101872
 30
0.0
  0
SPLINE
  5
4CF
100
AcDbEntity
  8
03___PRT_ALL_CURVES
100
AcDbSpline
 62
40
  6
CONTINUOUS
 70
0
 71
3
 72
10
 73
6
 74
0
 42
0.0000001
 43
0.0000001
 44
0.0000000001
 40
0.0
 40
0.0
 40
0.0
 40
0.0
 40
0.3333333333
 40
0.6666666667
 40
1.0
 40
1.0
 40
1.0
 40
1.0
 10
268.5863563623
 20
225.245334785
 30
0.0
 10
268.550073001
 20
225.2745265808
 30
0.0
 10
268.4770390615
 20
225.3209692746
 30
0.0
 10
268.3622046675
 20
225.3532701613
 30
0.0
 10
268.2850669131
 20
225.3468017993
 30
0.0
 10
268.2462194537
 20
225.3363926539
 30
0.0
  0
SPLINE
  5
4D0
100
AcDbEntity
  8
03___PRT_ALL_CURVES
100
AcDbSpline
 62
40
  6
CONTINUOUS
 70
0
 71
3
 72
10
 73
6
 74
0
 42
0.0000001
 43
0.0000001
 44
0.0000000001
 40
0.0
 40
0.0
 40
0.0
 40
0.0
 40
0.3333333333
 40
0.6666666667
 40
1.0
 40
1.0
 40
1.0
 40
1.0
 10
268.8343323178
 20
224.8216831132
 30
0.0
 10
268.8180500651
 20
224.8824493076
 30
0.0
 10
268.7790203685
 20
224.995202308
 30
0.0
 10
268.6949823312
 20
225.1411654917
 30
0.0
 10
268.6250651827
 20
225.214191585
 30
0.0
 10
268.5863563623
 20
225.245334785
 30
0.0
  0
SPLINE
  5
4D1
100
AcDbEntity
  8
03___PRT_ALL_CURVES
100
AcDbSpline
 62
40
  6
CONTINUOUS
 70
0
 71
3
 72
10
 73
6
 74
0
 42
0.0000001
 43
0.0000001
 44
0.0000000001
 40
0.0
 40
0.0
 40
0.0
 40
0.0
 40
0.3333333333
 40
0.6666666667
 40
1.0
 40
1.0
 40
1.0
 40
1.0
 10
268.8388463999
 20
224.3019651623
 30
0.0
 10
268.8542104061
 20
224.3537146794
 30
0.0
 10
268.8749374943
 20
224.4610638225
 30
0.0
 10
268.8739059176
 20
224.6364868887
 30
0.0
 10
268.8511755473
 20
224.7588233251
 30
0.0
 10
268.8343323178
 20
224.8216831132
 30
0.0
  0
SPLINE
  5
4D2
100
AcDbEntity
  8
03___PRT_ALL_CURVES
100
AcDbSpline
 62
40
  6
CONTINUOUS
 70
0
 71
3
 72
13
 73
9
 74
0
 42
0.0000001
 43
0.0000001
 44
0.0000000001
 40
0.0
 40
0.0
 40
0.0
 40
0.0
 40
0.1666666667
 40
0.3333333333
 40
0.5
 40
0.6666666667
 40
0.8333333333
 40
1.0
 40
1.0
 40
1.0
 40
1.0
 10
268.5582850069
 20
224.010452904
 30
0.0
 10
268.5812071577
 20
224.0165948758
 30
0.0
 10
268.6246359458
 20
224.0320873803
 30
0.0
 10
268.6828316456
 20
224.0652375652
 30
0.0
 10
268.7342505083
 20
224.1090529344
 30
0.0
 10
268.777775064
 20
224.1632394232
 30
0.0
 10
268.8129298666
 20
224.2268719805
 30
0.0
 10
268.831089215
 20
224.2758371742
 30
0.0
 10
268.8388463999
 20
224.3019651623
 30
0.0
  0
SPLINE
  5
4D3
100
AcDbEntity
  8
03___PRT_ALL_CURVES
100
AcDbSpline
 62
40
  6
CONTINUOUS
 70
0
 71
3
 72
10
 73
6
 74
0
 42
0.0000001
 43
0.0000001
 44
0.0000000001
 40
0.0
 40
0.0
 40
0.0
 40
0.0
 40
0.3333333333
 40
0.6666666667
 40
1.0
 40
1.0
 40
1.0
 40
1.0
 10
268.2244429882
 20
224.0735374873
 30
0.0
 10
268.2599435977
 20
224.0490148342
 30
0.0
 10
268.3320419961
 20
224.0117088893
 30
0.0
 10
268.4435565135
 20
223.9908430503
 30
0.0
 10
268.5196980745
 20
224.0001135666
 30
0.0
 10
268.5582850069
 20
224.010452904
 30
0.0
  0
SPLINE
  5
4D4
100
AcDbEntity
  8
03___PRT_ALL_CURVES
100
AcDbSpline
 62
40
  6
CONTINUOUS
 70
0
 71
3
 72
10
 73
6
 74
0
 42
0.0000001
 43
0.0000001
 44
0.0000000001
 40
0.0
 40
0.0
 40
0.0
 40
0.0
 40
0.3333333333
 40
0.6666666667
 40
1.0
 40
1.0
 40
1.0
 40
1.0
 10
267.9815084216
 20
224.4335703904
 30
0.0
 10
267.9994394708
 20
224.3808959176
 30
0.0
 10
268.0402502289
 20
224.2835421439
 30
0.0
 10
268.1222914701
 20
224.1590789954
 30
0.0
 10
268.1882293381
 20
224.0985526854
 30
0.0
 10
268.2244429882
 20
224.0735374873
 30
0.0
  0
SPLINE
  5
4D5
100
AcDbEntity
  8
03___PRT_ALL_CURVES
100
AcDbSpline
 62
40
  6
CONTINUOUS
 70
0
 71
3
 72
10
 73
6
 74
0
 42
0.0000001
 43
0.0000001
 44
0.0000000001
 40
0.0
 40
0.0
 40
0.0
 40
0.0
 40
0.3333333333
 40
0.6666666667
 40
1.0
 40
1.0
 40
1.0
 40
1.0
 10
267.0126182984
 20
225.0782175792
 30
0.0
 10
267.027854293
 20
225.1005306507
 30
0.0
 10
267.0565726551
 20
225.1451593458
 30
0.0
 10
267.0939663694
 20
225.2128494224
 30
0.0
 10
267.1141975058
 20
225.2582528034
 30
0.0
 10
267.1229212799
 20
225.2811603209
 30
0.0
  0
SPLINE
  5
4D6
100
AcDbEntity
  8
03___PRT_ALL_CURVES
100
AcDbSpline
 62
40
  6
CONTINUOUS
 70
0
 71
3
 72
10
 73
6
 74
0
 42
0.0000001
 43
0.0000001
 44
0.0000000001
 40
0.0
 40
0.0
 40
0.0
 40
0.0
 40
0.3333333333
 40
0.6666666667
 40
1.0
 40
1.0
 40
1.0
 40
1.0
 10
266.8691120195
 20
224.9066654115
 30
0.0
 10
266.8865622119
 20
224.9225077757
 30
0.0
 10
266.9201021128
 20
224.9567518303
 30
0.0
 10
266.9676726868
 20
225.0146356
 30
0.0
 10
266.9977927599
 20
225.0565056197
 30
0.0
 10
267.0126182984
 20
225.0782175792
 30
0.0
  0
SPLINE
  5
4D7
100
AcDbEntity
  8
03___PRT_ALL_CURVES
100
AcDbSpline
 62
40
  6
CONTINUOUS
 70
0
 71
3
 72
10
 73
6
 74
0
 42
0.0000001
 43
0.0000001
 44
0.0000000001
 40
0.0
 40
0.0
 40
0.0
 40
0.0
 40
0.3333333333
 40
0.6666666667
 40
1.0
 40
1.0
 40
1.0
 40
1.0
 10
266.9884767378
 20
225.425598435
 30
0.0
 10
266.9729582677
 20
225.3890047594
 30
0.0
 10
266.9387055668
 20
225.3188420666
 30
0.0
 10
266.8786539694
 20
225.2229907762
 30
0.0
 10
266.8323371272
 20
225.1640787391
 30
0.0
 10
266.8076733931
 20
225.1359574867
 30
0.0
  0
SPLINE
  5
4D8
100
AcDbEntity
  8
03___PRT_ALL_CURVES
100
AcDbSpline
 62
40
  6
CONTINUOUS
 70
0
 71
3
 72
10
 73
6
 74
0
 42
0.0000001
 43
0.0000001
 44
0.0000000001
 40
0.0
 40
0.0
 40
0.0
 40
0.0
 40
0.3333333333
 40
0.6666666667
 40
1.0
 40
1.0
 40
1.0
 40
1.0
 10
267.0664106499
 20
225.7250426733
 30
0.0
 10
267.0641240713
 20
225.692751236
 30
0.0
 10
267.0549065583
 20
225.6275415556
 30
0.0
 10
267.0282057236
 20
225.5270546066
 30
0.0
 10
267.0029048118
 20
225.4596208777
 30
0.0
 10
266.9884767378
 20
225.425598435
 30
0.0
  0
SPLINE
  5
4D9
100
AcDbEntity
  8
03___PRT_ALL_CURVES
100
AcDbSpline
 62
40
  6
CONTINUOUS
 70
0
 71
3
 72
13
 73
9
 74
0
 42
0.0000001
 43
0.0000001
 44
0.0000000001
 40
0.0
 40
0.0
 40
0.0
 40
0.0
 40
0.1666666667
 40
0.3333333333
 40
0.5
 40
0.6666666667
 40
0.8333333333
 40
1.0
 40
1.0
 40
1.0
 40
1.0
 10
273.6720425077
 20
224.9478897825
 30
0.0
 10
273.6568210264
 20
224.9478897825
 30
0.0
 10
273.6274555929
 20
224.9516831409
 30
0.0
 10
273.5878789845
 20
224.9676299316
 30
0.0
 10
273.5515865539
 20
224.9933483635
 30
0.0
 10
273.5194060482
 20
225.027419941
 30
0.0
 10
273.4917939242
 20
225.0671625872
 30
0.0
 10
273.4756956477
 20
225.0969182853
 30
0.0
 10
273.4679497182
 20
225.1129648377
 30
0.0
  0
SPLINE
  5
4DA
100
AcDbEntity
  8
03___PRT_ALL_CURVES
100
AcDbSpline
 62
40
  6
CONTINUOUS
 70
0
 71
3
 72
13
 73
9
 74
0
 42
0.0000001
 43
0.0000001
 44
0.0000000001
 40
0.0
 40
0.0
 40
0.0
 40
0.0
 40
0.1666666667
 40
0.3333333333
 40
0.5
 40
0.6666666667
 40
0.8333333333
 40
1.0
 40
1.0
 40
1.0
 40
1.0
 10
273.8684618154
 20
225.1154051658
 30
0.0
 10
273.8609219154
 20
225.0994188255
 30
0.0
 10
273.845339715
 20
225.0697502802
 30
0.0
 10
273.8186493825
 20
225.029640718
 30
0.0
 10
273.7873570231
 20
224.9946566219
 30
0.0
 10
273.7521568063
 20
224.9681388228
 30
0.0
 10
273.714342687
 20
224.9518081333
 30
0.0
 10
273.6864551892
 20
224.9478897825
 30
0.0
 10
273.6720425077
 20
224.9478897825
 30
0.0
  0
SPLINE
  5
4DB
100
AcDbEntity
  8
03___PRT_ALL_CURVES
100
AcDbSpline
 62
40
  6
CONTINUOUS
 70
0
 71
3
 72
15
 73
11
 74
0
 42
0.0000001
 43
0.0000001
 44
0.0000000001
 40
0.0
 40
0.0
 40
0.0
 40
0.0
 40
0.25
 40
0.5
 40
0.625
 40
0.75
 40
0.8125
 40
0.875
 40
0.9375
 40
1.0
 40
1.0
 40
1.0
 40
1.0
 10
273.9480315783
 20
225.7664436921
 30
0.0
 10
273.9480315783
 20
225.7029242084
 30
0.0
 10
273.9459830319
 20
225.5804427561
 30
0.0
 10
273.9370344254
 20
225.4376903567
 30
0.0
 10
273.9246876188
 20
225.331572178
 30
0.0
 10
273.9141848041
 20
225.2679429644
 30
0.0
 10
273.9031932447
 20
225.2179117386
 30
0.0
 10
273.8935861218
 20
225.1818657317
 30
0.0
 10
273.882146181
 20
225.1471173848
 30
0.0
 10
273.8735178956
 20
225.1261252309
 30
0.0
 10
273.8684618154
 20
225.1154051658
 30
0.0
  0
SPLINE
  5
4DC
100
AcDbEntity
  8
03___PRT_ALL_CURVES
100
AcDbSpline
 62
40
  6
CONTINUOUS
 70
0
 71
3
 72
15
 73
11
 74
0
 42
0.0000001
 43
0.0000001
 44
0.0000000001
 40
0.0
 40
0.0
 40
0.0
 40
0.0
 40
0.0625
 40
0.125
 40
0.1875
 40
0.25
 40
0.375
 40
0.5
 40
0.75
 40
1.0
 40
1.0
 40
1.0
 40
1.0
 10
273.8682675028
 20
226.4200908404
 30
0.0
 10
273.8733831995
 20
226.4095585244
 30
0.0
 10
273.8820517201
 20
226.3889345794
 30
0.0
 10
273.89354978
 20
226.3545201525
 30
0.0
 10
273.9031790605
 20
226.3186942536
 30
0.0
 10
273.9141860658
 20
226.268810819
 30
0.0
 10
273.9246951563
 20
226.2051174194
 30
0.0
 10
273.9370336919
 20
226.0985588618
 30
0.0
 10
273.9459542222
 20
225.9553083964
 30
0.0
 10
273.9480315783
 20
225.8310659972
 30
0.0
 10
273.9480315783
 20
225.7664436921
 30
0.0
  0
SPLINE
  5
4DD
100
AcDbEntity
  8
03___PRT_ALL_CURVES
100
AcDbSpline
 62
40
  6
CONTINUOUS
 70
0
 71
3
 72
13
 73
9
 74
0
 42
0.0000001
 43
0.0000001
 44
0.0000000001
 40
0.0
 40
0.0
 40
0.0
 40
0.0
 40
0.1666666667
 40
0.3333333333
 40
0.5
 40
0.6666666667
 40
0.8333333333
 40
1.0
 40
1.0
 40
1.0
 40
1.0
 10
273.6616059371
 20
226.5863618478
 30
0.0
 10
273.6771208094
 20
226.5863618478
 30
0.0
 10
273.7070529881
 20
226.5825312726
 30
0.0
 10
273.7471879793
 20
226.5664156969
 30
0.0
 10
273.7838138077
 20
226.5405155373
 30
0.0
 10
273.8162490462
 20
226.5062439994
 30
0.0
 10
273.8441269258
 20
226.4662293459
 30
0.0
 10
273.8604204351
 20
226.4362465668
 30
0.0
 10
273.8682675028
 20
226.4200908404
 30
0.0
  0
SPLINE
  5
4DE
100
AcDbEntity
  8
03___PRT_ALL_CURVES
100
AcDbSpline
 62
40
  6
CONTINUOUS
 70
0
 71
3
 72
13
 73
9
 74
0
 42
0.0000001
 43
0.0000001
 44
0.0000000001
 40
0.0
 40
0.0
 40
0.0
 40
0.0
 40
0.1666666667
 40
0.3333333333
 40
0.5
 40
0.6666666667
 40
0.8333333333
 40
1.0
 40
1.0
 40
1.0
 40
1.0
 10
273.466790081
 20
226.4171939916
 30
0.0
 10
273.4742642219
 20
226.4332169857
 30
0.0
 10
273.489675005
 20
226.4629812447
 30
0.0
 10
273.5160410174
 20
226.5033809599
 30
0.0
 10
273.5470038725
 20
226.5388029027
 30
0.0
 10
273.5818955864
 20
226.5657392386
 30
0.0
 10
273.6194316856
 20
226.5823626172
 30
0.0
 10
273.6472418494
 20
226.5863618478
 30
0.0
 10
273.6616059371
 20
226.5863618478
 30
0.0
  0
SPLINE
  5
4DF
100
AcDbEntity
  8
03___PRT_ALL_CURVES
100
AcDbSpline
 62
40
  6
CONTINUOUS
 70
0
 71
3
 72
15
 73
11
 74
0
 42
0.0000001
 43
0.0000001
 44
0.0000000001
 40
0.0
 40
0.0
 40
0.0
 40
0.0
 40
0.25
 40
0.5
 40
0.625
 40
0.75
 40
0.8125
 40
0.875
 40
0.9375
 40
1.0
 40
1.0
 40
1.0
 40
1.0
 10
273.3890957065
 20
225.7664436921
 30
0.0
 10
273.3890957065
 20
225.8299519182
 30
0.0
 10
273.3910534217
 20
225.9523927745
 30
0.0
 10
273.3996768945
 20
226.0950767498
 30
0.0
 10
273.4116443673
 20
226.2010801562
 30
0.0
 10
273.4218640708
 20
226.2646564456
 30
0.0
 10
273.4326094461
 20
226.3146850916
 30
0.0
 10
273.4420267888
 20
226.350730864
 30
0.0
 10
273.4532787097
 20
226.3854866898
 30
0.0
 10
273.4617878862
 20
226.4064703326
 30
0.0
 10
273.466790081
 20
226.4171939916
 30
0.0
  0
SPLINE
  5
4E0
100
AcDbEntity
  8
03___PRT_ALL_CURVES
100
AcDbSpline
 62
40
  6
CONTINUOUS
 70
0
 71
3
 72
15
 73
11
 74
0
 42
0.0000001
 43
0.0000001
 44
0.0000000001
 40
0.0
 40
0.0
 40
0.0
 40
0.0
 40
0.0625
 40
0.125
 40
0.1875
 40
0.25
 40
0.375
 40
0.5
 40
0.75
 40
1.0
 40
1.0
 40
1.0
 40
1.0
 10
273.4679497182
 20
225.1129648377
 30
0.0
 10
273.4628568076
 20
225.1235153669
 30
0.0
 10
273.4542028791
 20
225.1442150425
 30
0.0
 10
273.4427664575
 20
225.1786545203
 30
0.0
 10
273.4332024425
 20
225.2144940422
 30
0.0
 10
273.422296365
 20
225.2643654559
 30
0.0
 10
273.4119113992
 20
225.3280818892
 30
0.0
 10
273.3997775478
 20
225.4346845793
 30
0.0
 10
273.3910929025
 20
225.5778328353
 30
0.0
 10
273.3890957065
 20
225.7019231052
 30
0.0
 10
273.3890957065
 20
225.7664436921
 30
0.0
  0
SPLINE
  5
4E1
100
AcDbEntity
  8
03___PRT_ALL_CURVES
100
AcDbSpline
 62
40
  6
CONTINUOUS
 70
0
 71
3
 72
13
 73
9
 74
0
 42
0.0000001
 43
0.0000001
 44
0.0000000001
 40
0.0
 40
0.0
 40
0.0
 40
0.0
 40
0.1666666667
 40
0.3333333333
 40
0.5
 40
0.6666666667
 40
0.8333333333
 40
1.0
 40
1.0
 40
1.0
 40
1.0
 10
273.6697232642
 20
226.7882718667
 30
0.0
 10
273.6435381084
 20
226.7882718667
 30
0.0
 10
273.5933959189
 20
226.782955507
 30
0.0
 10
273.5259167959
 20
226.759749102
 30
0.0
 10
273.4650091992
 20
226.7214121713
 30
0.0
 10
273.4117335508
 20
226.6690826321
 30
0.0
 10
273.3665730104
 20
226.6054038622
 30
0.0
 10
273.3409582398
 20
226.5558065925
 30
0.0
 10
273.329033442
 20
226.5289173439
 30
0.0
  0
SPLINE
  5
4E2
100
AcDbEntity
  8
03___PRT_ALL_CURVES
100
AcDbSpline
 62
40
  6
CONTINUOUS
 70
0
 71
3
 72
13
 73
9
 74
0
 42
0.0000001
 43
0.0000001
 44
0.0000000001
 40
0.0
 40
0.0
 40
0.0
 40
0.0
 40
0.1666666667
 40
0.3333333333
 40
0.5
 40
0.6666666667
 40
0.8333333333
 40
1.0
 40
1.0
 40
1.0
 40
1.0
 10
273.9838928489
 20
226.5781102598
 30
0.0
 10
273.9715953946
 20
226.6005052948
 30
0.0
 10
273.9455333206
 20
226.6417322351
 30
0.0
 10
273.9012932446
 20
226.6937203929
 30
0.0
 10
273.8512187101
 20
226.7355495161
 30
0.0
 10
273.7957781311
 20
226.7658722644
 30
0.0
 10
273.7357378709
 20
226.7841307072
 30
0.0
 10
273.6922697794
 20
226.7882718667
 30
0.0
 10
273.6697232642
 20
226.7882718667
 30
0.0
  0
SPLINE
  5
4E3
100
AcDbEntity
  8
03___PRT_ALL_CURVES
100
AcDbSpline
 62
40
  6
CONTINUOUS
 70
0
 71
3
 72
10
 73
6
 74
0
 42
0.0000001
 43
0.0000001
 44
0.0000000001
 40
0.0
 40
0.0
 40
0.0
 40
0.0
 40
0.3333333333
 40
0.6666666667
 40
1.0
 40
1.0
 40
1.0
 40
1.0
 10
274.1231338837
 20
225.7664436921
 30
0.0
 10
274.1231338837
 20
225.8722598523
 30
0.0
 10
274.1157876515
 20
226.073736208
 30
0.0
 10
274.0759292027
 20
226.3489611103
 30
0.0
 10
274.0226207067
 20
226.5075825137
 30
0.0
 10
273.9838928489
 20
226.5781102598
 30
0.0
  0
SPLINE
  5
4E4
100
AcDbEntity
  8
03___PRT_ALL_CURVES
100
AcDbSpline
 62
40
  6
CONTINUOUS
 70
0
 71
3
 72
10
 73
6
 74
0
 42
0.0000001
 43
0.0000001
 44
0.0000000001
 40
0.0
 40
0.0
 40
0.0
 40
0.0
 40
0.3333333333
 40
0.6666666667
 40
1.0
 40
1.0
 40
1.0
 40
1.0
 10
274.008331706
 20
225.0051885632
 30
0.0
 10
274.0393338878
 20
225.0753717623
 30
0.0
 10
274.0834090467
 20
225.2277626802
 30
0.0
 10
274.1169046274
 20
225.4849067983
 30
0.0
 10
274.1231338837
 20
225.6700169843
 30
0.0
 10
274.1231338837
 20
225.7664436921
 30
0.0
  0
SPLINE
  5
4E5
100
AcDbEntity
  8
03___PRT_ALL_CURVES
100
AcDbSpline
 62
40
  6
CONTINUOUS
 70
0
 71
3
 72
13
 73
9
 74
0
 42
0.0000001
 43
0.0000001
 44
0.0000000001
 40
0.0
 40
0.0
 40
0.0
 40
0.0
 40
0.1666666667
 40
0.3333333333
 40
0.5
 40
0.6666666667
 40
0.8333333333
 40
1.0
 40
1.0
 40
1.0
 40
1.0
 10
273.6674040206
 20
224.7459798306
 30
0.0
 10
273.6936261552
 20
224.7459798306
 30
0.0
 10
273.7438362426
 20
224.7512290551
 30
0.0
 10
273.8114066188
 20
224.7742555427
 30
0.0
 10
273.8724486064
 20
224.8124977832
 30
0.0
 10
273.925776622
 20
224.8648528964
 30
0.0
 10
273.9708762917
 20
224.9285849965
 30
0.0
 10
273.9964354202
 20
224.9782575749
 30
0.0
 10
274.008331706
 20
225.0051885632
 30
0.0
  0
SPLINE
  5
4E6
100
AcDbEntity
  8
03___PRT_ALL_CURVES
100
AcDbSpline
 62
40
  6
CONTINUOUS
 70
0
 71
3
 72
12
 73
8
 74
0
 42
0.0000001
 43
0.0000001
 44
0.0000000001
 40
0.0
 40
0.0
 40
0.0
 40
0.0
 40
0.1666666667
 40
0.3333333333
 40
0.5
 40
0.6666666667
 40
1.0
 40
1.0
 40
1.0
 40
1.0
 10
273.3403917417
 20
224.9751749096
 30
0.0
 10
273.3534490705
 20
224.9516064845
 30
0.0
 10
273.3807206625
 20
224.9080427018
 30
0.0
 10
273.4265712392
 20
224.8519370361
 30
0.0
 10
273.4783370956
 20
224.8058540905
 30
0.0
 10
273.5546771509
 20
224.760451713
 30
0.0
 10
273.6201037828
 20
224.7459798306
 30
0.0
 10
273.6674040206
 20
224.7459798306
 30
0.0
  0
SPLINE
  5
4E7
100
AcDbEntity
  8
03___PRT_ALL_CURVES
100
AcDbSpline
 62
40
  6
CONTINUOUS
 70
0
 71
3
 72
11
 73
7
 74
0
 42
0.0000001
 43
0.0000001
 44
0.0000000001
 40
0.0
 40
0.0
 40
0.0
 40
0.0
 40
0.25
 40
0.5
 40
0.75
 40
1.0
 40
1.0
 40
1.0
 40
1.0
 10
273.2139933758
 20
225.7664436921
 30
0.0
 10
273.2139933758
 20
225.6886160653
 30
0.0
 10
273.2175599984
 20
225.5385239893
 30
0.0
 10
273.2358909764
 20
225.3297121016
 30
0.0
 10
273.2716984295
 20
225.1382934121
 30
0.0
 10
273.3123336624
 20
225.0258196277
 30
0.0
 10
273.3403917417
 20
224.9751749096
 30
0.0
  0
SPLINE
  5
4E8
100
AcDbEntity
  8
03___PRT_ALL_CURVES
100
AcDbSpline
 62
40
  6
CONTINUOUS
 70
0
 71
3
 72
10
 73
6
 74
0
 42
0.0000001
 43
0.0000001
 44
0.0000000001
 40
0.0
 40
0.0
 40
0.0
 40
0.0
 40
0.3333333333
 40
0.6666666667
 40
1.0
 40
1.0
 40
1.0
 40
1.0
 10
273.329033442
 20
226.5289173439
 30
0.0
 10
273.297891585
 20
226.4586955129
 30
0.0
 10
273.2536837964
 20
226.3061248684
 30
0.0
 10
273.2201970348
 20
226.0485520782
 30
0.0
 10
273.2139933758
 20
225.8630758348
 30
0.0
 10
273.2139933758
 20
225.7664436921
 30
0.0
  0
SPLINE
  5
4E9
100
AcDbEntity
  8
7_ALL_FEATURES
100
AcDbSpline
 62
3
  6
CONTINUOUS
 70
0
 71
3
 72
11
 73
7
 74
0
 42
0.0000001
 43
0.0000001
 44
0.0000000001
 40
0.0
 40
0.0
 40
0.0
 40
0.0
 40
0.2804036224
 40
0.5381887091
 40
0.7753594197
 40
1.0
 40
1.0
 40
1.0
 40
1.0
 10
297.6768495368
 20
183.5276256189
 30
0.0
 10
297.6429935559
 20
183.4544817796
 30
0.0
 10
297.5638669988
 20
183.319877447
 30
0.0
 10
297.4070464112
 20
183.1580588364
 30
0.0
 10
297.2243836089
 20
183.0543278959
 30
0.0
 10
297.090641697
 20
183.0300862417
 30
0.0
 10
297.0260709348
 20
183.0300862417
 30
0.0
  0
SPLINE
  5
4EA
100
AcDbEntity
  8
7_ALL_FEATURES
100
AcDbSpline
 62
3
  6
CONTINUOUS
 70
0
 71
3
 72
12
 73
8
 74
0
 42
0.0000001
 43
0.0000001
 44
0.0000000001
 40
0.0
 40
0.0
 40
0.0
 40
0.0
 40
0.2828944285
 40
0.5419458986
 40
0.777811368
 40
0.8899203884
 40
1.0
 40
1.0
 40
1.0
 40
1.0
 10
249.621123812
 20
183.6221627671
 30
0.0
 10
249.6525515458
 20
183.5367837034
 30
0.0
 10
249.7300112571
 20
183.3786517904
 30
0.0
 10
249.8935485246
 20
183.1855753643
 30
0.0
 10
250.0620148558
 20
183.0790490204
 30
0.0
 10
250.2040087592
 20
183.0370824535
 30
0.0
 10
250.2756544304
 20
183.0300862417
 30
0.0
 10
250.3110563247
 20
183.0300862417
 30
0.0
  0
SPLINE
  5
4EB
100
AcDbEntity
  8
7_ALL_FEATURES
100
AcDbSpline
 62
3
  6
CONTINUOUS
 70
0
 71
3
 72
11
 73
7
 74
0
 42
0.0000001
 43
0.0000001
 44
0.0000000001
 40
0.0
 40
0.0
 40
0.0
 40
0.0
 40
0.2408198638
 40
0.4941501693
 40
0.7505632867
 40
1.0
 40
1.0
 40
1.0
 40
1.0
 10
246.6380455677
 20
197.3290591806
 30
0.0
 10
246.4495605686
 20
196.9797047981
 30
0.0
 10
246.1524503542
 20
196.2123404924
 30
0.0
 10
245.9556962771
 20
194.982847727
 30
0.0
 10
246.0039371368
 20
193.7245917589
 30
0.0
 10
246.203273849
 20
192.9073639084
 30
0.0
 10
246.3453041136
 20
192.5215132745
 30
0.0
  0
SPLINE
  5
4EC
100
AcDbEntity
  8
7_ALL_FEATURES
100
AcDbSpline
 62
3
  6
CONTINUOUS
 70
0
 71
3
 72
12
 73
8
 74
0
 42
0.0000001
 43
0.0000001
 44
0.0000000001
 40
0.0
 40
0.0
 40
0.0
 40
0.0
 40
0.2828944285
 40
0.5419458986
 40
0.777811368
 40
0.8899203884
 40
1.0
 40
1.0
 40
1.0
 40
1.0
 10
257.3992984051
 20
183.6221627671
 30
0.0
 10
257.4307261389
 20
183.5367837034
 30
0.0
 10
257.5081858501
 20
183.3786517904
 30
0.0
 10
257.6717231177
 20
183.1855753643
 30
0.0
 10
257.8401894489
 20
183.0790490204
 30
0.0
 10
257.9821833522
 20
183.0370824535
 30
0.0
 10
258.0538290235
 20
183.0300862417
 30
0.0
 10
258.0892309177
 20
183.0300862417
 30
0.0
  0
SPLINE
  5
4ED
100
AcDbEntity
  8
7_ALL_FEATURES
100
AcDbSpline
 62
3
  6
CONTINUOUS
 70
0
 71
3
 72
11
 73
7
 74
0
 42
0.0000001
 43
0.0000001
 44
0.0000000001
 40
0.0
 40
0.0
 40
0.0
 40
0.0
 40
0.2408198638
 40
0.4941501693
 40
0.7505632867
 40
1.0
 40
1.0
 40
1.0
 40
1.0
 10
254.4162201607
 20
197.3290591806
 30
0.0
 10
254.2277351617
 20
196.9797047981
 30
0.0
 10
253.9306249472
 20
196.2123404924
 30
0.0
 10
253.7338708702
 20
194.982847727
 30
0.0
 10
253.7821117299
 20
193.7245917589
 30
0.0
 10
253.981448442
 20
192.9073639084
 30
0.0
 10
254.1234787066
 20
192.5215132745
 30
0.0
  0
ELLIPSE
  5
4EE
100
AcDbEntity
  8
7_ALL_FEATURES
100
AcDbEllipse
 62
7
  6
CONTINUOUS
 10
138.2969649653
 20
194.5993820341
 30
0.0
 11
2.0630841583
 21
3.9855725407
 31
0.0
 40
0.1645246646
 41
-0.8508900122
 42
-0.700438936
  0
ELLIPSE
  5
4EF
100
AcDbEntity
  8
03___PRT_ALL_CURVES
100
AcDbEllipse
 62
40
  6
CONTINUOUS
 10
121.1503948962
 20
227.8746201659
 30
0.0
 11
29.0
 21
0.0
 31
0.0
 40
0.4780022942
 41
-2.8960443174
 42
-2.8907821778
  0
ELLIPSE
  5
4F0
100
AcDbEntity
  8
03___PRT_ALL_CURVES
100
AcDbEllipse
 62
40
  6
CONTINUOUS
 10
121.1503948962
 20
207.4973098631
 30
0.0
 11
-0.0
 21
69.9647343485
 31
0.0
 40
0.4144945346
 41
1.3110992735
 42
1.3252479906
  0
ELLIPSE
  5
4F1
100
AcDbEntity
  8
03___PRT_ALL_CURVES
100
AcDbEllipse
 62
40
  6
CONTINUOUS
 10
121.1503948962
 20
227.4587745927
 30
0.0
 11
29.0
 21
0.0
 31
0.0
 40
0.2679491924
 41
-2.8818956003
 42
-2.8579584453
  0
ELLIPSE
  5
4F2
100
AcDbEntity
  8
03___PRT_ALL_CURVES
100
AcDbEllipse
 62
40
  6
CONTINUOUS
 10
121.1503948962
 20
194.9965815696
 30
0.0
 11
-0.0
 21
108.2294734195
 31
0.0
 40
0.2679491924
 41
1.2871621185
 42
1.289342807
  0
ELLIPSE
  5
4F3
100
AcDbEntity
  8
03___PRT_ALL_CURVES
100
AcDbEllipse
 62
40
  6
CONTINUOUS
 10
121.1503948962
 20
227.2158447991
 30
0.0
 11
29.0
 21
0.0
 31
0.0
 40
0.2679491924
 41
-2.8793858044
 42
-2.8601391338
  0
ELLIPSE
  5
4F4
100
AcDbEntity
  8
03___PRT_ALL_CURVES
100
AcDbEllipse
 62
40
  6
CONTINUOUS
 10
121.1503948962
 20
207.460017713
 30
0.0
 11
-0.0
 21
68.4442369185
 31
0.0
 40
0.4237025834
 41
1.3085894776
 42
1.3161608921
  0
ELLIPSE
  5
4F5
100
AcDbEntity
  8
03___PRT_ALL_CURVES
100
AcDbEllipse
 62
40
  6
CONTINUOUS
 10
121.1503948962
 20
225.0861741373
 30
0.0
 11
29.0
 21
0.0
 31
0.0
 40
0.1418897926
 41
-2.9009552404
 42
-2.8945852439
  0
ELLIPSE
  5
4F6
100
AcDbEntity
  8
03___PRT_ALL_CURVES
100
AcDbEllipse
 62
40
  6
CONTINUOUS
 10
121.1503948962
 20
200.6687934233
 30
0.0
 11
-0.0
 21
108.2294734195
 31
0.0
 40
0.2679491924
 41
1.3414968408
 42
1.3558143064
  0
ELLIPSE
  5
4F7
100
AcDbEntity
  8
03___PRT_ALL_CURVES
100
AcDbEllipse
 62
40
  6
CONTINUOUS
 10
121.1503948962
 20
201.9905173879
 30
0.0
 11
-0.0
 21
108.2294734195
 31
0.0
 40
0.2679491924
 41
1.3537177635
 42
1.3558867358
  0
ELLIPSE
  5
4F8
100
AcDbEntity
  8
03___PRT_ALL_CURVES
100
AcDbEllipse
 62
40
  6
CONTINUOUS
 10
121.1503948962
 20
227.4940842325
 30
0.0
 11
29.0
 21
-0.0
 31
0.0
 40
0.2679491924
 41
-2.9061628363
 42
-2.9023479542
  0
ELLIPSE
  5
4F9
100
AcDbEntity
  8
03___PRT_ALL_CURVES
100
AcDbEllipse
 62
40
  6
CONTINUOUS
 10
121.1503948962
 20
200.005691077
 30
0.0
 11
-0.0
 21
108.2294734195
 31
0.0
 40
0.2679491924
 41
1.3315516274
 42
1.3499594401
  0
ELLIPSE
  5
4FA
100
AcDbEntity
  8
03___PRT_ALL_CURVES
100
AcDbEllipse
 62
40
  6
CONTINUOUS
 10
121.1503948962
 20
225.415057489
 30
0.0
 11
29.0
 21
0.0
 31
0.0
 40
0.2679491924
 41
-2.9266106332
 42
-2.9207557669
  0
ELLIPSE
  5
4FB
100
AcDbEntity
  8
03___PRT_ALL_CURVES
100
AcDbEllipse
 62
40
  6
CONTINUOUS
 10
121.1503948962
 20
226.3175697398
 30
0.0
 11
29.0
 21
0.0
 31
0.0
 40
0.2679491924
 41
-2.9723594243
 42
-2.9595318195
  0
ELLIPSE
  5
4FC
100
AcDbEntity
  8
03___PRT_ALL_CURVES
100
AcDbEllipse
 62
40
  6
CONTINUOUS
 10
121.1503948962
 20
206.7800862417
 30
0.0
 11
-0.0
 21
108.2294734195
 31
0.0
 40
0.2679491924
 41
1.3994875632
 42
1.4015630975
  0
ELLIPSE
  5
4FD
100
AcDbEntity
  8
03___PRT_ALL_CURVES
100
AcDbEllipse
 62
40
  6
CONTINUOUS
 10
121.1503948962
 20
226.554849986
 30
0.0
 11
29.0
 21
-0.0
 31
0.0
 40
0.2679491924
 41
-2.97028389
 42
-2.9574515252
  0
ELLIPSE
  5
4FE
100
AcDbEntity
  8
03___PRT_ALL_CURVES
100
AcDbEllipse
 62
40
  6
CONTINUOUS
 10
121.1503948962
 20
205.3149890098
 30
0.0
 11
-0.0
 21
108.2294734195
 31
0.0
 40
0.2679491924
 41
1.3817112498
 42
1.3866551984
  0
ELLIPSE
  5
4FF
100
AcDbEntity
  8
03___PRT_ALL_CURVES
100
AcDbEllipse
 62
40
  6
CONTINUOUS
 10
121.1503948962
 20
227.1183905092
 30
0.0
 11
29.0
 21
0.0
 31
0.0
 40
0.2679491924
 41
-2.9525075766
 42
-2.9469991141
  0
ELLIPSE
  5
500
100
AcDbEntity
  8
03___PRT_ALL_CURVES
100
AcDbEllipse
 62
40
  6
CONTINUOUS
 10
121.1503948962
 20
204.6877301393
 30
0.0
 11
-0.0
 21
108.2294734195
 31
0.0
 40
0.2679491924
 41
1.3762027873
 42
1.3811519558
  0
ELLIPSE
  5
501
100
AcDbEntity
  8
03___PRT_ALL_CURVES
100
AcDbEllipse
 62
40
  6
CONTINUOUS
 10
121.1503948962
 20
226.554849986
 30
0.0
 11
29.0
 21
0.0
 31
0.0
 40
0.2679491924
 41
-2.9519482826
 42
-2.9390712863
  0
ELLIPSE
  5
502
100
AcDbEntity
  8
03___PRT_ALL_CURVES
100
AcDbEllipse
 62
40
  6
CONTINUOUS
 10
121.1503948962
 20
203.2226326627
 30
0.0
 11
-0.0
 21
108.2294734195
 31
0.0
 40
0.2679491924
 41
1.3682749595
 42
1.3703627103
  0
ELLIPSE
  5
503
100
AcDbEntity
  8
03___PRT_ALL_CURVES
100
AcDbEllipse
 62
40
  6
CONTINUOUS
 10
121.1503948962
 20
226.3175697398
 30
0.0
 11
29.0
 21
0.0
 31
0.0
 40
0.2679491924
 41
-2.9540307302
 42
-2.9411590371
  0
ELLIPSE
  5
504
100
AcDbEntity
  8
03___PRT_ALL_CURVES
100
AcDbEllipse
 62
40
  6
CONTINUOUS
 10
121.1503948962
 20
204.6877301393
 30
0.0
 11
-0.0
 21
108.2294734195
 31
0.0
 40
0.2679491924
 41
1.3832344034
 42
1.3882140814
  0
ELLIPSE
  5
505
100
AcDbEntity
  8
03___PRT_ALL_CURVES
100
AcDbEllipse
 62
40
  6
CONTINUOUS
 10
121.1503948962
 20
225.7497920869
 30
0.0
 11
29.0
 21
0.0
 31
0.0
 40
0.2679491924
 41
-2.9645064518
 42
-2.9590104082
  0
ELLIPSE
  5
506
100
AcDbEntity
  8
03___PRT_ALL_CURVES
100
AcDbEllipse
 62
40
  6
CONTINUOUS
 10
121.1503948962
 20
205.3149890098
 30
0.0
 11
-0.0
 21
108.2294734195
 31
0.0
 40
0.2679491924
 41
1.3887354927
 42
1.393710125
  0
ELLIPSE
  5
507
100
AcDbEntity
  8
03___PRT_ALL_CURVES
100
AcDbEllipse
 62
40
  6
CONTINUOUS
 10
121.1503948962
 20
204.4817440065
 30
0.0
 11
-0.0
 21
442.4530008219
 31
0.0
 40
0.0655436847
 41
1.5290778097
 42
1.5314471859
  0
ELLIPSE
  5
508
100
AcDbEntity
  8
03___PRT_ALL_CURVES
100
AcDbEllipse
 62
40
  6
CONTINUOUS
 10
121.1503948962
 20
209.0784439746
 30
0.0
 11
-0.0
 21
442.4559971076
 31
0.0
 40
0.0655432409
 41
1.539429664
 42
1.5417981568
  0
ELLIPSE
  5
509
100
AcDbEntity
  8
03___PRT_ALL_CURVES
100
AcDbEllipse
 62
40
  6
CONTINUOUS
 10
121.1503948962
 20
206.0095758828
 30
0.0
 11
-0.0
 21
145.7926768964
 31
0.0
 40
0.1989125971
 41
1.4564868038
 42
1.4635921201
  0
ELLIPSE
  5
50A
100
AcDbEntity
  8
03___PRT_ALL_CURVES
100
AcDbEllipse
 62
40
  6
CONTINUOUS
 10
121.1503948962
 20
207.5505983125
 30
0.0
 11
-0.0
 21
145.7930136473
 31
0.0
 40
0.1989121377
 41
1.4667156629
 42
1.4738132635
  0
ELLIPSE
  5
50B
100
AcDbEntity
  8
03___PRT_ALL_CURVES
100
AcDbEllipse
 62
40
  6
CONTINUOUS
 10
121.1503948962
 20
207.3608954269
 30
0.0
 11
-0.0
 21
108.2294734195
 31
0.0
 40
0.2679491924
 41
1.4203946208
 42
1.4402190171
  0
ELLIPSE
  5
50C
100
AcDbEntity
  8
03___PRT_ALL_CURVES
100
AcDbEllipse
 62
40
  6
CONTINUOUS
 10
121.1503948962
 20
206.1992770564
 30
0.0
 11
-0.0
 21
108.2294734195
 31
0.0
 40
0.2679491924
 41
1.410258372
 42
1.4301122046
  0
ELLIPSE
  5
50D
100
AcDbEntity
  8
03___PRT_ALL_CURVES
100
AcDbEllipse
 62
40
  6
CONTINUOUS
 10
121.1503948962
 20
207.931766806
 30
0.0
 11
-0.0
 21
220.276869269
 31
0.0
 40
0.1316524976
 41
1.497781515
 42
1.507703589
  0
ELLIPSE
  5
50E
100
AcDbEntity
  8
03___PRT_ALL_CURVES
100
AcDbEllipse
 62
40
  6
CONTINUOUS
 10
121.1503948962
 20
205.6284056773
 30
0.0
 11
-0.0
 21
220.276869269
 31
0.0
 40
0.1316524976
 41
1.4874714731
 42
1.4974010495
  0
ELLIPSE
  5
50F
100
AcDbEntity
  8
7_ALL_FEATURES
100
AcDbEllipse
 62
3
  6
CONTINUOUS
 10
145.2272668903
 20
194.5993820341
 30
0.0
 11
5.6033164748
 21
-2.9004900388
 31
0.0
 40
0.6140144074
 41
1.3522094343
 42
1.4858370994
  0
ELLIPSE
  5
510
100
AcDbEntity
  8
7_ALL_FEATURES
100
AcDbEllipse
 62
3
  6
CONTINUOUS
 10
138.2969649653
 20
194.5993820341
 30
0.0
 11
2.3209696781
 21
4.4837691083
 31
0.0
 40
0.1645246646
 41
-0.8340666012
 42
-0.700438936
  0
ELLIPSE
  5
511
100
AcDbEntity
  8
7_ALL_FEATURES
100
AcDbEllipse
 62
7
  6
CONTINUOUS
 10
256.5219935606
 20
194.5993820341
 30
0.0
 11
-2.0630841583
 21
3.9855725407
 31
0.0
 40
0.1645246646
 41
0.700438936
 42
0.8508900122
  0
ELLIPSE
  5
512
100
AcDbEntity
  8
7_ALL_FEATURES
100
AcDbEllipse
 62
3
  6
CONTINUOUS
 10
249.5916916357
 20
194.5993820341
 30
0.0
 11
5.6033164748
 21
2.9004900388
 31
0.0
 40
0.6140144074
 41
1.6557555542
 42
1.7893832193
  0
ELLIPSE
  5
513
100
AcDbEntity
  8
7_ALL_FEATURES
100
AcDbEllipse
 62
3
  6
CONTINUOUS
 10
256.5219935606
 20
194.5993820341
 30
0.0
 11
-2.3209696781
 21
4.4837691083
 31
0.0
 40
0.1645246646
 41
0.700438936
 42
0.8340666012
  0
ENDSEC
  0
SECTION
  2
OBJECTS
  0
DICTIONARY
  5
514
100
AcDbDictionary
  3
ACAD_GROUP
350
515
  3
ACAD_MLINESTYLE
350
516
  0
DICTIONARY
  5
515
102
{ACAD_REACTORS
330
514
102
}
100
AcDbDictionary
  0
DICTIONARY
  5
516
102
{ACAD_REACTORS
330
514
102
}
100
AcDbDictionary
  3
STANDARD
350
517
  0
MLINESTYLE
  5
517
102
{ACAD_REACTORS
330
516
102
}
100
AcDbMlineStyle
  2
STANDARD
 70
0
  3

 62
256
 51
90.0
 52
90.0
 71
2
 49
0.5
 62
256
  6
BYLAYER
 49
-0.5
 62
256
  6
BYLAYER
  0
ENDSEC
  0
EOF
