  0
SECTION
  2
HEADER
  9
$ACADVER
  1
AC1027
  9
$ACADMAINTVER
 70
     8
  9
$DWGCODEPAGE
  3
ANSI_1252
  9
$REQUIREDVERSIONS
160
                 0
  9
$INSBASE
 10
0.0
 20
0.0
 30
0.0
  9
$EXTMIN
 10
0.0
 20
0.0
 30
0.0
  9
$EXTMAX
 10
420.0
 20
297.0
 30
0.0
  9
$LIMMIN
 10
0.0
 20
0.0
  9
$LIMMAX
 10
420.0
 20
297.0
  9
$ORTHOMODE
 70
     0
  9
$REGENMODE
 70
     1
  9
$FILLMODE
 70
     1
  9
$QTEXTMODE
 70
     0
  9
$MIRRTEXT
 70
     1
  9
$LTSCALE
 40
23.1
  9
$ATTMODE
 70
     1
  9
$TEXTSIZE
 40
0.2
  9
$TRACEWID
 40
0.05
  9
$TEXTSTYLE
  7
STANDARD
  9
$CLAYER
  8
0
  9
$CELTYPE
  6
BYLAYER
  9
$CECOLOR
 62
   256
  9
$CELTSCALE
 40
1.0
  9
$DISPSILH
 70
     0
  9
$DIMSCALE
 40
1.0
  9
$DIMASZ
 40
2.5
  9
$DIMEXO
 40
0.75
  9
$DIMDLI
 40
15.96
  9
$DIMRND
 40
0.0
  9
$DIMDLE
 40
0.0
  9
$DIMEXE
 40
0.75
  9
$DIMTP
 40
0.01
  9
$DIMTM
 40
0.01
  9
$DIMTXT
 40
3.0
  9
$DIMCEN
 40
3.78
  9
$DIMTSZ
 40
0.0
  9
$DIMTOL
 70
     1
  9
$DIMLIM
 70
     0
  9
$DIMTIH
 70
     1
  9
$DIMTOH
 70
     1
  9
$DIMSE1
 70
     0
  9
$DIMSE2
 70
     0
  9
$DIMTAD
 70
     0
  9
$DIMZIN
 70
     0
  9
$DIMBLK
  1
CLOSED
  9
$DIMASO
 70
     1
  9
$DIMSHO
 70
     1
  9
$DIMPOST
  1

  9
$DIMAPOST
  1

  9
$DIMALT
 70
     0
  9
$DIMALTD
 70
     2
  9
$DIMALTF
 40
25.4
  9
$DIMLFAC
 40
1.0
  9
$DIMTOFL
 70
     0
  9
$DIMTVP
 40
0.0
  9
$DIMTIX
 70
     0
  9
$DIMSOXD
 70
     0
  9
$DIMSAH
 70
     0
  9
$DIMBLK1
  1

  9
$DIMBLK2
  1

  9
$DIMSTYLE
  2
STANDARD
  9
$DIMCLRD
 70
     0
  9
$DIMCLRE
 70
     0
  9
$DIMCLRT
 70
     0
  9
$DIMTFAC
 40
1.0
  9
$DIMGAP
 40
0.625
  9
$DIMJUST
 70
     0
  9
$DIMSD1
 70
     0
  9
$DIMSD2
 70
     0
  9
$DIMTOLJ
 70
     1
  9
$DIMTZIN
 70
     0
  9
$DIMALTZ
 70
     0
  9
$DIMALTTZ
 70
     0
  9
$DIMUPT
 70
     0
  9
$DIMDEC
 70
     4
  9
$DIMTDEC
 70
     4
  9
$DIMALTU
 70
     2
  9
$DIMALTTD
 70
     2
  9
$DIMTXSTY
  7
STANDARD
  9
$DIMAUNIT
 70
     0
  9
$DIMADEC
 70
     0
  9
$DIMALTRND
 40
0.0
  9
$DIMAZIN
 70
     0
  9
$DIMDSEP
 70
    44
  9
$DIMATFIT
 70
     3
  9
$DIMFRAC
 70
     0
  9
$DIMLDRBLK
  1

  9
$DIMLUNIT
 70
     2
  9
$DIMLWD
 70
    -2
  9
$DIMLWE
 70
    -2
  9
$DIMTMOVE
 70
     0
  9
$DIMFXL
 40
1.0
  9
$DIMFXLON
 70
     0
  9
$DIMJOGANG
 40
0.785398
  9
$DIMTFILL
 70
     0
  9
$DIMTFILLCLR
 70
     0
  9
$DIMARCSYM
 70
     0
  9
$DIMLTYPE
  6

  9
$DIMLTEX1
  6

  9
$DIMLTEX2
  6

  9
$DIMTXTDIRECTION
 70
     0
  9
$LUNITS
 70
     2
  9
$LUPREC
 70
     4
  9
$SKETCHINC
 40
0.1
  9
$FILLETRAD
 40
0.5
  9
$AUNITS
 70
     0
  9
$AUPREC
 70
     0
  9
$MENU
  1
.
  9
$ELEVATION
 40
0.0
  9
$PELEVATION
 40
0.0
  9
$THICKNESS
 40
0.0
  9
$LIMCHECK
 70
     0
  9
$CHAMFERA
 40
0.0
  9
$CHAMFERB
 40
0.0
  9
$CHAMFERC
 40
0.0
  9
$CHAMFERD
 40
0.0
  9
$SKPOLY
 70
     0
  9
$TDCREATE
 40
2447893.083333333
  9
$TDUCREATE
 40
0.0
  9
$TDUPDATE
 40
2460486.413403218
  9
$TDUUPDATE
 40
2460486.330069884
  9
$TDINDWG
 40
0.0
  9
$TDUSRTIMER
 40
0.0
  9
$USRTIMER
 70
     1
  9
$ANGBASE
 50
0.0
  9
$ANGDIR
 70
     0
  9
$PDMODE
 70
     3
  9
$PDSIZE
 40
0.3125
  9
$PLINEWID
 40
0.0
  9
$SPLFRAME
 70
     0
  9
$SPLINETYPE
 70
     6
  9
$SPLINESEGS
 70
     8
  9
$HANDSEED
  5
501
  9
$SURFTAB1
 70
     6
  9
$SURFTAB2
 70
     6
  9
$SURFTYPE
 70
     6
  9
$SURFU
 70
     6
  9
$SURFV
 70
     6
  9
$UCSBASE
  2

  9
$UCSNAME
  2

  9
$UCSORG
 10
0.0
 20
0.0
 30
0.0
  9
$UCSXDIR
 10
1.0
 20
0.0
 30
0.0
  9
$UCSYDIR
 10
0.0
 20
1.0
 30
0.0
  9
$UCSORTHOREF
  2

  9
$UCSORTHOVIEW
 70
     0
  9
$UCSORGTOP
 10
0.0
 20
0.0
 30
0.0
  9
$UCSORGBOTTOM
 10
0.0
 20
0.0
 30
0.0
  9
$UCSORGLEFT
 10
0.0
 20
0.0
 30
0.0
  9
$UCSORGRIGHT
 10
0.0
 20
0.0
 30
0.0
  9
$UCSORGFRONT
 10
0.0
 20
0.0
 30
0.0
  9
$UCSORGBACK
 10
0.0
 20
0.0
 30
0.0
  9
$PUCSBASE
  2

  9
$PUCSNAME
  2

  9
$PUCSORG
 10
0.0
 20
0.0
 30
0.0
  9
$PUCSXDIR
 10
1.0
 20
0.0
 30
0.0
  9
$PUCSYDIR
 10
0.0
 20
1.0
 30
0.0
  9
$PUCSORTHOREF
  2

  9
$PUCSORTHOVIEW
 70
     0
  9
$PUCSORGTOP
 10
0.0
 20
0.0
 30
0.0
  9
$PUCSORGBOTTOM
 10
0.0
 20
0.0
 30
0.0
  9
$PUCSORGLEFT
 10
0.0
 20
0.0
 30
0.0
  9
$PUCSORGRIGHT
 10
0.0
 20
0.0
 30
0.0
  9
$PUCSORGFRONT
 10
0.0
 20
0.0
 30
0.0
  9
$PUCSORGBACK
 10
0.0
 20
0.0
 30
0.0
  9
$USERI1
 70
     0
  9
$USERI2
 70
     0
  9
$USERI3
 70
     0
  9
$USERI4
 70
     0
  9
$USERI5
 70
     0
  9
$USERR1
 40
0.0
  9
$USERR2
 40
0.0
  9
$USERR3
 40
0.0
  9
$USERR4
 40
0.0
  9
$USERR5
 40
0.0
  9
$WORLDVIEW
 70
     1
  9
$SHADEDGE
 70
     3
  9
$SHADEDIF
 70
    70
  9
$TILEMODE
 70
     0
  9
$MAXACTVP
 70
    64
  9
$PINSBASE
 10
0.0
 20
0.0
 30
0.0
  9
$PLIMCHECK
 70
     0
  9
$PEXTMIN
 10
1.000000E+20
 20
1.000000E+20
 30
1.000000E+20
  9
$PEXTMAX
 10
-1.000000E+20
 20
-1.000000E+20
 30
-1.000000E+20
  9
$PLIMMIN
 10
0.0
 20
0.0
  9
$PLIMMAX
 10
12.0
 20
9.0
  9
$UNITMODE
 70
     0
  9
$VISRETAIN
 70
     1
  9
$PLINEGEN
 70
     0
  9
$PSLTSCALE
 70
     0
  9
$TREEDEPTH
 70
  3020
  9
$CMLSTYLE
  2

  9
$CMLJUST
 70
     0
  9
$CMLSCALE
 40
1.0
  9
$PROXYGRAPHICS
 70
     1
  9
$MEASUREMENT
 70
     1
  9
$CELWEIGHT
370
    -1
  9
$ENDCAPS
280
     0
  9
$JOINSTYLE
280
     0
  9
$LWDISPLAY
290
     0
  9
$INSUNITS
 70
     4
  9
$HYPERLINKBASE
  1

  9
$STYLESHEET
  1

  9
$XEDIT
290
     1
  9
$CEPSNTYPE
380
     0
  9
$PSTYLEMODE
290
     1
  9
$FINGERPRINTGUID
  2
{7757BC3D-E863-4C45-A2BC-F8A4AB7DB9A0}
  9
$VERSIONGUID
  2
{FAEB1C32-E019-11D5-929B-00C0DF256EC4}
  9
$EXTNAMES
290
     1
  9
$PSVPSCALE
 40
0.0
  9
$OLESTARTUP
290
     0
  9
$SORTENTS
280
   127
  9
$INDEXCTL
280
     0
  9
$HIDETEXT
280
     1
  9
$XCLIPFRAME
280
     2
  9
$HALOGAP
280
     0
  9
$OBSCOLOR
 70
   257
  9
$OBSLTYPE
280
     0
  9
$INTERSECTIONDISPLAY
280
     0
  9
$INTERSECTIONCOLOR
 70
   257
  9
$DIMASSOC
280
     2
  9
$PROJECTNAME
  1

  9
$CAMERADISPLAY
290
     0
  9
$LENSLENGTH
 40
50.0
  9
$CAMERAHEIGHT
 40
0.0
  9
$STEPSPERSEC
 40
2.0
  9
$STEPSIZE
 40
6.0
  9
$3DDWFPREC
 40
2.0
  9
$PSOLWIDTH
 40
0.25
  9
$PSOLHEIGHT
 40
4.0
  9
$LOFTANG1
 40
1.570796
  9
$LOFTANG2
 40
1.570796
  9
$LOFTMAG1
 40
0.0
  9
$LOFTMAG2
 40
0.0
  9
$LOFTPARAM
 70
     7
  9
$LOFTNORMALS
280
     1
  9
$LATITUDE
 40
37.795
  9
$LONGITUDE
 40
-122.394
  9
$NORTHDIRECTION
 40
0.0
  9
$TIMEZONE
 70
 -8000
  9
$LIGHTGLYPHDISPLAY
280
     1
  9
$TILEMODELIGHTSYNCH
280
     1
  9
$SOLIDHIST
280
     1
  9
$SHOWHIST
280
     1
  9
$DWFFRAME
280
     2
  9
$DGNFRAME
280
     2
  9
$REALWORLDSCALE
290
     1
  9
$INTERFERECOLOR
 62
   256
  9
$CSHADOW
280
     0
  9
$SHADOWPLANELOCATION
 40
0.0
  0
ENDSEC
  0
SECTION
  2
CLASSES
  0
CLASS
  1
ACDBDICTIONARYWDFLT
  2
AcDbDictionaryWithDefault
  3
ObjectDBX Classes
 90
        0
 91
        6
280
     0
281
     0
  0
CLASS
  1
ACDBPLACEHOLDER
  2
AcDbPlaceHolder
  3
ObjectDBX Classes
 90
        0
 91
        1
280
     0
281
     0
  0
CLASS
  1
LAYOUT
  2
AcDbLayout
  3
ObjectDBX Classes
 90
        0
 91
        1
280
     0
281
     0
  0
CLASS
  1
TABLESTYLE
  2
AcDbTableStyle
  3
ObjectDBX Classes
 90
     4095
 91
        5
280
     0
281
     0
  0
CLASS
  1
ACAD_TABLE
  2
AcDbTable
  3
ObjectDBX Classes
 90
     1025
 91
        5
280
     0
281
     1
  0
CLASS
  1
SCALE
  2
AcDbScale
  3
ObjectDBX Classes
 90
     1153
 91
        5
280
     0
281
     0
  0
CLASS
  1
VISUALSTYLE
  2
AcDbVisualStyle
  3
ObjectDBX Classes
 90
     4095
 91
        5
280
     0
281
     0
  0
CLASS
  1
TABLEGEOMETRY
  2
AcDbTableGeometry
  3
ObjectDBX Classes
 90
     1152
 91
        4
280
     0
281
     0
  0
CLASS
  1
MATERIAL
  2
AcDbMaterial
  3
ObjectDBX Classes
 90
     1153
 91
        5
280
     0
281
     0
  0
CLASS
  1
SUN
  2
AcDbSun
  3
SCENEOE
 90
     1153
 91
        5
280
     0
281
     0
  0
CLASS
  1
CSACDOCUMENTOPTIONS
  2
CDocDataContainer
  3
"DERU003_CSAPP"
 90
     4095
 91
        4
280
     0
281
     0
  0
CLASS
  1
TABLECONTENT
  2
AcDbTableContent
  3
ObjectDBX Classes
 90
     1152
 91
        4
280
     0
281
     0
  0
CLASS
  1
DICTIONARYVAR
  2
AcDbDictionaryVar
  3
ObjectDBX Classes
 90
        0
 91
        4
280
     0
281
     0
  0
CLASS
  1
CELLSTYLEMAP
  2
AcDbCellStyleMap
  3
ObjectDBX Classes
 90
     1152
 91
        4
280
     0
281
     0
  0
ENDSEC
  0
SECTION
  2
TABLES
  0
TABLE
  2
VPORT
  5
8
330
0
100
AcDbSymbolTable
 70
     1
  0
VPORT
  5
1F4
330
8
100
AcDbSymbolTableRecord
100
AcDbViewportTableRecord
  2
*ACTIVE
 70
     0
 10
0.0
 20
0.0
 11
1.0
 21
1.0
 12
210.0
 22
148.5
 13
0.0
 23
0.0
 14
1.0
 24
1.0
 15
0.0
 25
0.0
 16
0.0
 26
0.0
 36
1.0
 17
0.0
 27
0.0
 37
0.0
 40
297.0
 41
1.414141
 42
50.0
 43
0.0
 44
0.0
 50
0.0
 51
0.0
 71
     0
 72
   100
 73
     1
 74
     1
 75
     0
 76
     0
 77
     0
 78
     0
281
     0
 65
     1
110
0.0
120
0.0
130
0.0
111
1.0
121
0.0
131
0.0
112
0.0
122
1.0
132
0.0
 79
     0
146
0.0
348
4CC
 60
     3
 61
     5
292
     1
282
     1
141
0.0
142
0.0
 63
   256
  0
ENDTAB
  0
TABLE
  2
LTYPE
  5
5
330
0
100
AcDbSymbolTable
 70
     6
  0
LTYPE
  5
14
330
5
100
AcDbSymbolTableRecord
100
AcDbLinetypeTableRecord
  2
BYBLOCK
 70
     0
  3

 72
    65
 73
     0
 40
0.0
  0
LTYPE
  5
15
330
5
100
AcDbSymbolTableRecord
100
AcDbLinetypeTableRecord
  2
BYLAYER
 70
     0
  3

 72
    65
 73
     0
 40
0.0
  0
LTYPE
  5
16
330
5
100
AcDbSymbolTableRecord
100
AcDbLinetypeTableRecord
  2
CONTINUOUS
 70
     0
  3
Solid line
 72
    65
 73
     0
 40
0.0
  0
LTYPE
  5
1F5
330
5
100
AcDbSymbolTableRecord
100
AcDbLinetypeTableRecord
  2
CENTER
 70
     0
  3
____ _ ____ _ ____ _ ____ _ ____ _ ____ _ ____
 72
    65
 73
     4
 40
0.6
 49
0.375
 74
     0
 49
-0.075
 74
     0
 49
0.075
 74
     0
 49
-0.075
 74
     0
  0
LTYPE
  5
1F6
330
5
100
AcDbSymbolTableRecord
100
AcDbLinetypeTableRecord
  2
HIDDEN
 70
     0
  3
- - - - - - - - - - - - - - - - - - - -
 72
    65
 73
     2
 40
0.2
 49
0.1
 74
     0
 49
-0.1
 74
     0
  0
LTYPE
  5
1F7
330
5
100
AcDbSymbolTableRecord
100
AcDbLinetypeTableRecord
  2
PHANTOM
 70
     0
  3
_____ _ _ _____ _ _ _____ _ _ _____
 72
    65
 73
     6
 40
0.8
 49
0.45
 74
     0
 49
-0.05
 74
     0
 49
0.1
 74
     0
 49
-0.05
 74
     0
 49
0.1
 74
     0
 49
-0.05
 74
     0
  0
LTYPE
  5
1F8
330
5
100
AcDbSymbolTableRecord
100
AcDbLinetypeTableRecord
  2
DOT
 70
     0
  3
. . . . . . . . . . . . . . . . . . . .
 72
    65
 73
     2
 40
0.2
 49
0.1
 74
     0
 49
-0.1
 74
     0
  0
LTYPE
  5
1F9
330
5
100
AcDbSymbolTableRecord
100
AcDbLinetypeTableRecord
  2
DASHED
 70
     0
  3
- - - - - - - - - - - - - - - - - - - -
 72
    65
 73
     2
 40
0.2
 49
0.1
 74
     0
 49
-0.1
 74
     0
  0
ENDTAB
  0
TABLE
  2
LAYER
  5
2
330
0
100
AcDbSymbolTable
 70
    45
  0
LAYER
  5
10
330
2
100
AcDbSymbolTableRecord
100
AcDbLayerTableRecord
  2
0
 70
     0
 62
     7
  6
CONTINUOUS
370
    -3
390
F
347
4E6
348
0
  0
LAYER
  5
1FA
330
2
100
AcDbSymbolTableRecord
100
AcDbLayerTableRecord
  2
DEFAULT_1
 70
     0
 62
     7
  6
CENTER
370
    -3
390
F
347
4E6
348
0
  0
LAYER
  5
1FB
330
2
100
AcDbSymbolTableRecord
100
AcDbLayerTableRecord
  2
DEFAULT_2
 70
     0
 62
     8
  6
HIDDEN
370
    -3
390
F
347
4E6
348
0
  0
LAYER
  5
1FC
330
2
100
AcDbSymbolTableRecord
100
AcDbLayerTableRecord
  2
DEFAULT_3
 70
     0
 62
     7
  6
PHANTOM
370
    -3
390
F
347
4E6
348
0
  0
LAYER
  5
1FD
330
2
100
AcDbSymbolTableRecord
100
AcDbLayerTableRecord
  2
01_ALL_DTM_PLN
 70
     0
 62
     7
  6
CONTINUOUS
370
    -3
390
F
347
4E6
348
0
  0
LAYER
  5
1FE
330
2
100
AcDbSymbolTableRecord
100
AcDbLayerTableRecord
  2
01__ASM_ALL_DTM_PLN
 70
     0
 62
     7
  6
CONTINUOUS
370
    -3
390
F
347
4E6
348
0
  0
LAYER
  5
1FF
330
2
100
AcDbSymbolTableRecord
100
AcDbLayerTableRecord
  2
01__ASM_DEF_DTM_PLN
 70
     0
 62
     7
  6
CONTINUOUS
370
    -3
390
F
347
4E6
348
0
  0
LAYER
  5
200
330
2
100
AcDbSymbolTableRecord
100
AcDbLayerTableRecord
  2
01___PRT_ALL_DTM_PLN
 70
     0
 62
     7
  6
CONTINUOUS
370
    -3
390
F
347
4E6
348
0
  0
LAYER
  5
201
330
2
100
AcDbSymbolTableRecord
100
AcDbLayerTableRecord
  2
01___PRT_DEF_DTM_PLN
 70
     0
 62
     7
  6
CONTINUOUS
370
    -3
390
F
347
4E6
348
0
  0
LAYER
  5
202
330
2
100
AcDbSymbolTableRecord
100
AcDbLayerTableRecord
  2
02_ALL_AXES
 70
     0
 62
     7
  6
CONTINUOUS
370
    -3
390
F
347
4E6
348
0
  0
LAYER
  5
203
330
2
100
AcDbSymbolTableRecord
100
AcDbLayerTableRecord
  2
02__ASM_ALL_AXES
 70
     0
 62
     7
  6
CONTINUOUS
370
    -3
390
F
347
4E6
348
0
  0
LAYER
  5
204
330
2
100
AcDbSymbolTableRecord
100
AcDbLayerTableRecord
  2
02___PRT_ALL_AXES
 70
     0
 62
     7
  6
CONTINUOUS
370
    -3
390
F
347
4E6
348
0
  0
LAYER
  5
205
330
2
100
AcDbSymbolTableRecord
100
AcDbLayerTableRecord
  2
03_ALL_CURVES
 70
     0
 62
     7
  6
CONTINUOUS
370
    -3
390
F
347
4E6
348
0
  0
LAYER
  5
206
330
2
100
AcDbSymbolTableRecord
100
AcDbLayerTableRecord
  2
03__ASM_ALL_CURVES
 70
     0
 62
     7
  6
CONTINUOUS
370
    -3
390
F
347
4E6
348
0
  0
LAYER
  5
207
330
2
100
AcDbSymbolTableRecord
100
AcDbLayerTableRecord
  2
03___PRT_ALL_CURVES
 70
     0
 62
     7
  6
CONTINUOUS
370
    -3
390
F
347
4E6
348
0
  0
LAYER
  5
208
330
2
100
AcDbSymbolTableRecord
100
AcDbLayerTableRecord
  2
04_ALL_DTM_PNT
 70
     0
 62
     7
  6
CONTINUOUS
370
    -3
390
F
347
4E6
348
0
  0
LAYER
  5
209
330
2
100
AcDbSymbolTableRecord
100
AcDbLayerTableRecord
  2
04__ASM_ALL_DTM_PNT
 70
     0
 62
     7
  6
CONTINUOUS
370
    -3
390
F
347
4E6
348
0
  0
LAYER
  5
20A
330
2
100
AcDbSymbolTableRecord
100
AcDbLayerTableRecord
  2
04___PRT_ALL_DTM_PNT
 70
     0
 62
     7
  6
CONTINUOUS
370
    -3
390
F
347
4E6
348
0
  0
LAYER
  5
20B
330
2
100
AcDbSymbolTableRecord
100
AcDbLayerTableRecord
  2
05_ALL_DTM_CSYS
 70
     0
 62
     7
  6
CONTINUOUS
370
    -3
390
F
347
4E6
348
0
  0
LAYER
  5
20C
330
2
100
AcDbSymbolTableRecord
100
AcDbLayerTableRecord
  2
05__ASM_ALL_DTM_CSYS
 70
     0
 62
     7
  6
CONTINUOUS
370
    -3
390
F
347
4E6
348
0
  0
LAYER
  5
20D
330
2
100
AcDbSymbolTableRecord
100
AcDbLayerTableRecord
  2
05__ASM_DEF_DTM_CSYS
 70
     0
 62
     7
  6
CONTINUOUS
370
    -3
390
F
347
4E6
348
0
  0
LAYER
  5
20E
330
2
100
AcDbSymbolTableRecord
100
AcDbLayerTableRecord
  2
05___PRT_ALL_DTM_CSYS
 70
     0
 62
     7
  6
CONTINUOUS
370
    -3
390
F
347
4E6
348
0
  0
LAYER
  5
20F
330
2
100
AcDbSymbolTableRecord
100
AcDbLayerTableRecord
  2
05___PRT_DEF_DTM_CSYS
 70
     0
 62
     7
  6
CONTINUOUS
370
    -3
390
F
347
4E6
348
0
  0
LAYER
  5
210
330
2
100
AcDbSymbolTableRecord
100
AcDbLayerTableRecord
  2
06_ALL_SURFS
 70
     0
 62
     7
  6
CONTINUOUS
370
    -3
390
F
347
4E6
348
0
  0
LAYER
  5
211
330
2
100
AcDbSymbolTableRecord
100
AcDbLayerTableRecord
  2
06__ASM_ALL_SURFS
 70
     0
 62
     7
  6
CONTINUOUS
370
    -3
390
F
347
4E6
348
0
  0
LAYER
  5
212
330
2
100
AcDbSymbolTableRecord
100
AcDbLayerTableRecord
  2
06___PRT_ALL_SURFS
 70
     0
 62
     7
  6
CONTINUOUS
370
    -3
390
F
347
4E6
348
0
  0
LAYER
  5
213
330
2
100
AcDbSymbolTableRecord
100
AcDbLayerTableRecord
  2
07__ASM_ALL_SKELETONS
 70
     0
 62
     7
  6
CONTINUOUS
370
    -3
390
F
347
4E6
348
0
  0
LAYER
  5
214
330
2
100
AcDbSymbolTableRecord
100
AcDbLayerTableRecord
  2
1_ALL_PLANES
 70
     0
 62
     7
  6
CONTINUOUS
370
    -3
390
F
347
4E6
348
0
  0
LAYER
  5
215
330
2
100
AcDbSymbolTableRecord
100
AcDbLayerTableRecord
  2
1__APPOGGIO
 70
     0
 62
     7
  6
CONTINUOUS
370
    -3
390
F
347
4E6
348
0
  0
LAYER
  5
216
330
2
100
AcDbSymbolTableRecord
100
AcDbLayerTableRecord
  2
2_ALL_CSYS
 70
     0
 62
     7
  6
CONTINUOUS
370
    -3
390
F
347
4E6
348
0
  0
LAYER
  5
217
330
2
100
AcDbSymbolTableRecord
100
AcDbLayerTableRecord
  2
3_ALL_AXES
 70
     0
 62
     7
  6
CONTINUOUS
370
    -3
390
F
347
4E6
348
0
  0
LAYER
  5
218
330
2
100
AcDbSymbolTableRecord
100
AcDbLayerTableRecord
  2
4_ALL_POINTS
 70
     0
 62
     7
  6
CONTINUOUS
370
    -3
390
F
347
4E6
348
0
  0
LAYER
  5
219
330
2
100
AcDbSymbolTableRecord
100
AcDbLayerTableRecord
  2
5_ALL_CURVES
 70
     0
 62
     7
  6
CONTINUOUS
370
    -3
390
F
347
4E6
348
0
  0
LAYER
  5
21A
330
2
100
AcDbSymbolTableRecord
100
AcDbLayerTableRecord
  2
5__APPOGGIO
 70
     0
 62
     7
  6
CONTINUOUS
370
    -3
390
F
347
4E6
348
0
  0
LAYER
  5
21B
330
2
100
AcDbSymbolTableRecord
100
AcDbLayerTableRecord
  2
5__COSTRUZIONE
 70
     0
 62
     7
  6
CONTINUOUS
370
    -3
390
F
347
4E6
348
0
  0
LAYER
  5
21C
330
2
100
AcDbSymbolTableRecord
100
AcDbLayerTableRecord
  2
5__CUSPIDI
 70
     0
 62
     7
  6
CONTINUOUS
370
    -3
390
F
347
4E6
348
0
  0
LAYER
  5
21D
330
2
100
AcDbSymbolTableRecord
100
AcDbLayerTableRecord
  2
5__CUSPIDI_COSTR
 70
     0
 62
     7
  6
CONTINUOUS
370
    -3
390
F
347
4E6
348
0
  0
LAYER
  5
21E
330
2
100
AcDbSymbolTableRecord
100
AcDbLayerTableRecord
  2
5__SEZIONI
 70
     0
 62
     7
  6
CONTINUOUS
370
    -3
390
F
347
4E6
348
0
  0
LAYER
  5
21F
330
2
100
AcDbSymbolTableRecord
100
AcDbLayerTableRecord
  2
6_ALL_SURFS
 70
     0
 62
     7
  6
CONTINUOUS
370
    -3
390
F
347
4E6
348
0
  0
LAYER
  5
220
330
2
100
AcDbSymbolTableRecord
100
AcDbLayerTableRecord
  2
6__APPOGGIO
 70
     0
 62
     7
  6
CONTINUOUS
370
    -3
390
F
347
4E6
348
0
  0
LAYER
  5
221
330
2
100
AcDbSymbolTableRecord
100
AcDbLayerTableRecord
  2
7_ALL_FEATURES
 70
     0
 62
     7
  6
CONTINUOUS
370
    -3
390
F
347
4E6
348
0
  0
LAYER
  5
222
330
2
100
AcDbSymbolTableRecord
100
AcDbLayerTableRecord
  2
8_ALL_NOTES_BALLOONS_SYMBOLS_GT
 70
     0
 62
     7
  6
CONTINUOUS
370
    -3
390
F
347
4E6
348
0
  0
LAYER
  5
223
330
2
100
AcDbSymbolTableRecord
100
AcDbLayerTableRecord
  2
9_SOLID
 70
     0
 62
     7
  6
CONTINUOUS
370
    -3
390
F
347
4E6
348
0
  0
LAYER
  5
224
330
2
100
AcDbSymbolTableRecord
100
AcDbLayerTableRecord
  2
INTFCLR_3
 70
     0
 62
     7
  6
CONTINUOUS
370
    -3
390
F
347
4E6
348
0
  0
LAYER
  5
225
330
2
100
AcDbSymbolTableRecord
100
AcDbLayerTableRecord
  2
XXX_SOLIDO
 70
     0
 62
     7
  6
CONTINUOUS
370
    -3
390
F
347
4E6
348
0
  0
ENDTAB
  0
TABLE
  2
STYLE
  5
3
330
0
100
AcDbSymbolTable
 70
     5
  0
STYLE
  5
11
330
3
100
AcDbSymbolTableRecord
100
AcDbTextStyleTableRecord
  2
STANDARD
 70
     0
 40
0.0
 41
0.85
 50
0.0
 71
     0
 42
0.2
  3
txt
  4

  0
STYLE
  5
226
330
3
100
AcDbSymbolTableRecord
100
AcDbTextStyleTableRecord
  2
TEXTSTYLE_1
 70
     0
 40
0.0
 41
0.8
 50
0.0
 71
     0
 42
0.2
  3
gdt
  4

  0
STYLE
  5
227
330
3
100
AcDbSymbolTableRecord
100
AcDbTextStyleTableRecord
  2
TEXTSTYLE_2
 70
     0
 40
0.0
 41
0.9
 50
0.0
 71
     0
 42
0.2
  3
txt
  4

  0
STYLE
  5
228
330
3
100
AcDbSymbolTableRecord
100
AcDbTextStyleTableRecord
  2
TEXTSTYLE_3
 70
     0
 40
0.0
 41
0.9
 50
0.0
 71
     0
 42
0.2
  3
txt
  4

  0
STYLE
  5
229
330
3
100
AcDbSymbolTableRecord
100
AcDbTextStyleTableRecord
  2
TEXTSTYLE_4
 70
     0
 40
0.0
 41
1.0
 50
0.0
 71
     0
 42
0.2
  3
arial.ttf
  4

  0
ENDTAB
  0
TABLE
  2
VIEW
  5
6
330
0
100
AcDbSymbolTable
 70
     0
  0
ENDTAB
  0
TABLE
  2
UCS
  5
7
330
0
100
AcDbSymbolTable
 70
     0
  0
ENDTAB
  0
TABLE
  2
APPID
  5
9
330
0
100
AcDbSymbolTable
 70
     6
  0
APPID
  5
22A
330
9
100
AcDbSymbolTableRecord
100
AcDbRegAppTableRecord
  2
ACAD
 70
     0
  0
APPID
  5
4E7
330
9
100
AcDbSymbolTableRecord
100
AcDbRegAppTableRecord
  2
MCS_DIM1
 70
     0
  0
APPID
  5
4E8
330
9
100
AcDbSymbolTableRecord
100
AcDbRegAppTableRecord
  2
McsXdata5
 70
     0
  0
APPID
  5
4EB
330
9
100
AcDbSymbolTableRecord
100
AcDbRegAppTableRecord
  2
MCS_DOCUMENT_ID
 70
     0
  0
APPID
  5
4F1
330
9
100
AcDbSymbolTableRecord
100
AcDbRegAppTableRecord
  2
MCS_PARAMS_DATA
 70
     0
  0
APPID
  5
4F3
330
9
100
AcDbSymbolTableRecord
100
AcDbRegAppTableRecord
  2
MC_VERSION_DATA
 70
     0
  0
ENDTAB
  0
TABLE
  2
DIMSTYLE
  5
A
330
0
100
AcDbSymbolTable
 70
     2
100
AcDbDimStyleTable
  0
DIMSTYLE
105
235
330
A
100
AcDbSymbolTableRecord
100
AcDbDimStyleTableRecord
  2
STANDARD
 70
     0
 41
2.5
 42
0.75
 44
0.75
 47
0.01
 48
0.01
 71
     1
 73
     0
 74
     0
 77
     1
 78
     8
 79
     2
140
3.0
147
0.625
171
     1
178
     0
179
     2
271
     2
272
     2
278
    44
284
     8
340
11
341
22D
342
22D
343
22D
344
22D
  0
DIMSTYLE
105
236
330
A
100
AcDbSymbolTableRecord
100
AcDbDimStyleTableRecord
  2
DIMSTYLE_1
 70
     0
 41
2.5
 42
0.75
 44
0.75
 47
0.3
 48
0.3
 73
     0
 74
     0
 77
     1
 78
     8
 79
     2
140
6.0
147
1.5
171
     1
178
     0
179
     2
271
     2
272
     2
278
    44
284
     8
340
11
341
22D
342
22D
343
22D
344
22D
  0
ENDTAB
  0
TABLE
  2
BLOCK_RECORD
  5
1
330
0
100
AcDbSymbolTable
 70
     8
  0
BLOCK_RECORD
  5
22B
330
1
100
AcDbSymbolTableRecord
100
AcDbBlockTableRecord
  2
*Model_Space
340
4A1
 70
     0
280
     1
281
     0
  0
BLOCK_RECORD
  5
22C
330
1
100
AcDbSymbolTableRecord
100
AcDbBlockTableRecord
  2
*Paper_Space
340
4A2
 70
     0
280
     1
281
     0
  0
BLOCK_RECORD
  5
22D
330
1
100
AcDbSymbolTableRecord
100
AcDbBlockTableRecord
  2
_CLOSED
340
0
102
{BLKREFS
331
27F
331
280
331
288
331
289
331
291
331
292
331
29A
331
29B
331
2A3
331
2A4
102
}
 70
     0
280
     1
281
     0
  0
BLOCK_RECORD
  5
22E
330
1
100
AcDbSymbolTableRecord
100
AcDbBlockTableRecord
  2
*D1
340
0
 70
     0
280
     1
281
     0
  0
BLOCK_RECORD
  5
22F
330
1
100
AcDbSymbolTableRecord
100
AcDbBlockTableRecord
  2
*D2
340
0
 70
     0
280
     1
281
     0
  0
BLOCK_RECORD
  5
230
330
1
100
AcDbSymbolTableRecord
100
AcDbBlockTableRecord
  2
*D3
340
0
 70
     0
280
     1
281
     0
  0
BLOCK_RECORD
  5
231
330
1
100
AcDbSymbolTableRecord
100
AcDbBlockTableRecord
  2
*D4
340
0
 70
     0
280
     1
281
     0
  0
BLOCK_RECORD
  5
232
330
1
100
AcDbSymbolTableRecord
100
AcDbBlockTableRecord
  2
*D5
340
0
 70
     0
280
     1
281
     0
  0
BLOCK_RECORD
  5
233
330
1
100
AcDbSymbolTableRecord
100
AcDbBlockTableRecord
  2
LOGO2_BL0
340
0
102
{BLKREFS
331
49E
102
}
 70
     0
280
     1
281
     0
  0
BLOCK_RECORD
  5
234
330
1
100
AcDbSymbolTableRecord
100
AcDbBlockTableRecord
  2
*T7
340
0
102
{BLKREFS
331
49F
102
}
 70
     0
280
     1
281
     0
  0
ENDTAB
  0
ENDSEC
  0
SECTION
  2
BLOCKS
  0
BLOCK
  5
20
330
22B
100
AcDbEntity
  8
0
100
AcDbBlockBegin
  2
*Model_Space
 70
     0
 10
0.0
 20
0.0
 30
0.0
  3
*Model_Space
  1
*Model_Space
  0
ENDBLK
  5
21
330
22B
100
AcDbEntity
  8
0
100
AcDbBlockEnd
  0
BLOCK
  5
1C
330
22C
100
AcDbEntity
 67
     1
  8
0
100
AcDbBlockBegin
  2
*Paper_Space
 70
     0
 10
0.0
 20
0.0
 30
0.0
  3
*Paper_Space
  1
*Paper_Space
  0
ENDBLK
  5
1D
330
22C
100
AcDbEntity
 67
     1
  8
0
100
AcDbBlockEnd
  0
BLOCK
  5
273
330
22D
100
AcDbEntity
  8
0
100
AcDbBlockBegin
  2
_CLOSED
 70
     0
 10
0.0
 20
0.0
 30
0.0
  3
_CLOSED
  1
_CLOSED
  0
LINE
  5
274
330
22D
100
AcDbEntity
  8
0
  6
ByBlock
 62
     0
100
AcDbLine
 10
0.0
 20
0.0
 30
0.0
 11
-1.0
 21
0.2
 31
0.0
  0
LINE
  5
275
330
22D
100
AcDbEntity
  8
0
  6
ByBlock
 62
     0
100
AcDbLine
 10
-1.0
 20
0.2
 30
0.0
 11
-1.0
 21
-0.2
 31
0.0
  0
LINE
  5
276
330
22D
100
AcDbEntity
  8
0
  6
ByBlock
 62
     0
100
AcDbLine
 10
-1.0
 20
-0.2
 30
0.0
 11
0.0
 21
0.0
 31
0.0
  0
LINE
  5
277
330
22D
100
AcDbEntity
  8
0
  6
ByBlock
 62
     0
100
AcDbLine
 10
-1.0
 20
0.0
 30
0.0
 11
0.0
 21
0.0
 31
0.0
  0
ENDBLK
  5
278
330
22D
100
AcDbEntity
  8
0
  6
ByBlock
 62
     0
100
AcDbBlockEnd
  0
BLOCK
  5
279
330
22E
100
AcDbEntity
  8
0
100
AcDbBlockBegin
  2
*D1
 70
     1
 10
0.0
 20
0.0
 30
0.0
  3
*D1
  1
*D1
  0
MTEXT
  5
27A
330
22E
100
AcDbEntity
  8
0
  6
Continuous
 62
     2
100
AcDbMText
 10
164.302686
 20
88.245593
 30
0.0
 40
6.0
 41
19.285714
 46
0.0
 71
     2
 72
     1
  1
100
 11
0.0
 21
1.0
 31
0.0
 73
     1
 44
0.9
  0
LINE
  5
27B
330
22E
100
AcDbEntity
  8
0
  6
Continuous
 62
     2
100
AcDbLine
 10
158.723367
 20
138.245593
 30
0.0
 11
172.552686
 21
138.245593
 31
0.0
  0
LINE
  5
27C
330
22E
100
AcDbEntity
  8
0
  6
Continuous
 62
     2
100
AcDbLine
 10
158.197393
 20
38.245593
 30
0.0
 11
172.552686
 21
38.245593
 31
0.0
  0
LINE
  5
27D
330
22E
100
AcDbEntity
  8
0
  6
Continuous
 62
     2
100
AcDbLine
 10
171.802686
 20
138.245593
 30
0.0
 11
171.802686
 21
88.245593
 31
0.0
  0
LINE
  5
27E
330
22E
100
AcDbEntity
  8
0
  6
Continuous
 62
     2
100
AcDbLine
 10
171.802686
 20
38.245593
 30
0.0
 11
171.802686
 21
88.245593
 31
0.0
  0
INSERT
  5
27F
330
22E
100
AcDbEntity
  8
0
  6
Continuous
 62
     2
100
AcDbBlockReference
  2
_CLOSED
 10
171.802686
 20
138.245593
 30
0.0
 41
2.5
 42
2.5
 43
2.5
 50
90.0
  0
INSERT
  5
280
330
22E
100
AcDbEntity
  8
0
  6
Continuous
 62
     2
100
AcDbBlockReference
  2
_CLOSED
 10
171.802686
 20
38.245593
 30
0.0
 41
2.5
 42
2.5
 43
2.5
 50
270.0
  0
ENDBLK
  5
281
330
22E
100
AcDbEntity
  8
0
  6
ByBlock
 62
     0
100
AcDbBlockEnd
  0
BLOCK
  5
282
330
22F
100
AcDbEntity
  8
0
100
AcDbBlockBegin
  2
*D2
 70
     1
 10
0.0
 20
0.0
 30
0.0
  3
*D2
  1
*D2
  0
MTEXT
  5
283
330
22F
100
AcDbEntity
  8
0
  6
Continuous
 62
     2
100
AcDbMText
 10
105.543383
 20
29.486289
 30
0.0
 40
6.0
 41
19.285714
 46
0.0
 71
     2
 72
     1
  1
100
 73
     1
 44
0.9
  0
LINE
  5
284
330
22F
100
AcDbEntity
  8
0
  6
Continuous
 62
     2
100
AcDbLine
 10
55.543383
 20
35.984437
 30
0.0
 11
55.543383
 21
21.236289
 31
0.0
  0
LINE
  5
285
330
22F
100
AcDbEntity
  8
0
  6
Continuous
 62
     2
100
AcDbLine
 10
155.543383
 20
35.473536
 30
0.0
 11
155.543383
 21
21.236289
 31
0.0
  0
LINE
  5
286
330
22F
100
AcDbEntity
  8
0
  6
Continuous
 62
     2
100
AcDbLine
 10
55.543383
 20
21.986289
 30
0.0
 11
105.543383
 21
21.986289
 31
0.0
  0
LINE
  5
287
330
22F
100
AcDbEntity
  8
0
  6
Continuous
 62
     2
100
AcDbLine
 10
155.543383
 20
21.986289
 30
0.0
 11
105.543383
 21
21.986289
 31
0.0
  0
INSERT
  5
288
330
22F
100
AcDbEntity
  8
0
  6
Continuous
 62
     2
100
AcDbBlockReference
  2
_CLOSED
 10
55.543383
 20
21.986289
 30
0.0
 41
2.5
 42
2.5
 43
2.5
 50
180.0
  0
INSERT
  5
289
330
22F
100
AcDbEntity
  8
0
  6
Continuous
 62
     2
100
AcDbBlockReference
  2
_CLOSED
 10
155.543383
 20
21.986289
 30
0.0
 41
2.5
 42
2.5
 43
2.5
  0
ENDBLK
  5
28A
330
22F
100
AcDbEntity
  8
0
  6
ByBlock
 62
     0
100
AcDbBlockEnd
  0
BLOCK
  5
28B
330
230
100
AcDbEntity
  8
0
100
AcDbBlockBegin
  2
*D3
 70
     1
 10
0.0
 20
0.0
 30
0.0
  3
*D3
  1
*D3
  0
MTEXT
  5
28C
330
230
100
AcDbEntity
  8
0
  6
Continuous
 62
     2
100
AcDbMText
 10
164.302686
 20
221.134833
 30
0.0
 40
6.0
 41
19.285714
 46
0.0
 71
     2
 72
     1
  1
120
 11
0.0
 21
1.0
 31
0.0
 73
     1
 44
0.9
  0
LINE
  5
28D
330
230
100
AcDbEntity
  8
0
  6
Continuous
 62
     2
100
AcDbLine
 10
158.88823
 20
281.134833
 30
0.0
 11
172.552686
 21
281.134833
 31
0.0
  0
LINE
  5
28E
330
230
100
AcDbEntity
  8
0
  6
Continuous
 62
     2
100
AcDbLine
 10
158.560958
 20
161.134833
 30
0.0
 11
172.552686
 21
161.134833
 31
0.0
  0
LINE
  5
28F
330
230
100
AcDbEntity
  8
0
  6
Continuous
 62
     2
100
AcDbLine
 10
171.802686
 20
281.134833
 30
0.0
 11
171.802686
 21
221.134833
 31
0.0
  0
LINE
  5
290
330
230
100
AcDbEntity
  8
0
  6
Continuous
 62
     2
100
AcDbLine
 10
171.802686
 20
161.134833
 30
0.0
 11
171.802686
 21
221.134833
 31
0.0
  0
INSERT
  5
291
330
230
100
AcDbEntity
  8
0
  6
Continuous
 62
     2
100
AcDbBlockReference
  2
_CLOSED
 10
171.802686
 20
281.134833
 30
0.0
 41
2.5
 42
2.5
 43
2.5
 50
90.0
  0
INSERT
  5
292
330
230
100
AcDbEntity
  8
0
  6
Continuous
 62
     2
100
AcDbBlockReference
  2
_CLOSED
 10
171.802686
 20
161.134833
 30
0.0
 41
2.5
 42
2.5
 43
2.5
 50
270.0
  0
ENDBLK
  5
293
330
230
100
AcDbEntity
  8
0
  6
ByBlock
 62
     0
100
AcDbBlockEnd
  0
BLOCK
  5
294
330
231
100
AcDbEntity
  8
0
100
AcDbBlockBegin
  2
*D4
 70
     1
 10
0.0
 20
0.0
 30
0.0
  3
*D4
  1
*D4
  0
MTEXT
  5
295
330
231
100
AcDbEntity
  8
0
  6
Continuous
 62
     2
100
AcDbMText
 10
258.652962
 20
153.064825
 30
0.0
 40
6.0
 41
12.857143
 46
0.0
 71
     2
 72
     1
  1
55
 73
     1
 44
0.9
  0
LINE
  5
296
330
231
100
AcDbEntity
  8
0
  6
Continuous
 62
     2
100
AcDbLine
 10
231.152962
 20
113.995593
 30
0.0
 11
231.152962
 21
146.314825
 31
0.0
  0
LINE
  5
297
330
231
100
AcDbEntity
  8
0
  6
Continuous
 62
     2
100
AcDbLine
 10
286.152962
 20
113.995593
 30
0.0
 11
286.152962
 21
146.314825
 31
0.0
  0
LINE
  5
298
330
231
100
AcDbEntity
  8
0
  6
Continuous
 62
     2
100
AcDbLine
 10
231.152962
 20
145.564825
 30
0.0
 11
258.652962
 21
145.564825
 31
0.0
  0
LINE
  5
299
330
231
100
AcDbEntity
  8
0
  6
Continuous
 62
     2
100
AcDbLine
 10
286.152962
 20
145.564825
 30
0.0
 11
258.652962
 21
145.564825
 31
0.0
  0
INSERT
  5
29A
330
231
100
AcDbEntity
  8
0
  6
Continuous
 62
     2
100
AcDbBlockReference
  2
_CLOSED
 10
231.152962
 20
145.564825
 30
0.0
 41
2.5
 42
2.5
 43
2.5
 50
180.0
  0
INSERT
  5
29B
330
231
100
AcDbEntity
  8
0
  6
Continuous
 62
     2
100
AcDbBlockReference
  2
_CLOSED
 10
286.152962
 20
145.564825
 30
0.0
 41
2.5
 42
2.5
 43
2.5
  0
ENDBLK
  5
29C
330
231
100
AcDbEntity
  8
0
  6
ByBlock
 62
     0
100
AcDbBlockEnd
  0
BLOCK
  5
29D
330
232
100
AcDbEntity
  8
0
100
AcDbBlockBegin
  2
*D5
 70
     1
 10
0.0
 20
0.0
 30
0.0
  3
*D5
  1
*D5
  0
MTEXT
  5
29E
330
232
100
AcDbEntity
  8
0
  6
Continuous
 62
     2
100
AcDbMText
 10
308.905719
 20
88.245593
 30
0.0
 40
6.0
 41
13.5
 46
0.0
 71
     2
 72
     1
  1
45
 11
0.0
 21
1.0
 31
0.0
 73
     1
 44
0.9
  0
LINE
  5
29F
330
232
100
AcDbEntity
  8
0
  6
Continuous
 62
     2
100
AcDbLine
 10
291.902962
 20
110.745593
 30
0.0
 11
317.155719
 21
110.745593
 31
0.0
  0
LINE
  5
2A0
330
232
100
AcDbEntity
  8
0
  6
Continuous
 62
     2
100
AcDbLine
 10
289.402962
 20
65.745593
 30
0.0
 11
317.155719
 21
65.745593
 31
0.0
  0
LINE
  5
2A1
330
232
100
AcDbEntity
  8
0
  6
Continuous
 62
     2
100
AcDbLine
 10
316.405719
 20
110.745593
 30
0.0
 11
316.405719
 21
88.245593
 31
0.0
  0
LINE
  5
2A2
330
232
100
AcDbEntity
  8
0
  6
Continuous
 62
     2
100
AcDbLine
 10
316.405719
 20
65.745593
 30
0.0
 11
316.405719
 21
88.245593
 31
0.0
  0
INSERT
  5
2A3
330
232
100
AcDbEntity
  8
0
  6
Continuous
 62
     2
100
AcDbBlockReference
  2
_CLOSED
 10
316.405719
 20
110.745593
 30
0.0
 41
2.5
 42
2.5
 43
2.5
 50
90.0
  0
INSERT
  5
2A4
330
232
100
AcDbEntity
  8
0
  6
Continuous
 62
     2
100
AcDbBlockReference
  2
_CLOSED
 10
316.405719
 20
65.745593
 30
0.0
 41
2.5
 42
2.5
 43
2.5
 50
270.0
  0
ENDBLK
  5
2A5
330
232
100
AcDbEntity
  8
0
  6
ByBlock
 62
     0
100
AcDbBlockEnd
  0
BLOCK
  5
237
330
233
100
AcDbEntity
  8
0
100
AcDbBlockBegin
  2
LOGO2_BL0
 70
     0
 10
332.325028
 20
37.020882
 30
0.0
  3
LOGO2_BL0
  1
LOGO2_BL0
  0
LINE
  5
238
330
233
100
AcDbEntity
  8
0
  6
Continuous
 62
     7
100
AcDbLine
 10
324.067954
 20
40.216373
 30
0.0
 11
322.763613
 21
40.216373
 31
0.0
  0
LINE
  5
239
330
233
100
AcDbEntity
  8
0
  6
Continuous
 62
     7
100
AcDbLine
 10
322.763613
 20
40.216373
 30
0.0
 11
322.763613
 21
29.757307
 31
0.0
  0
LINE
  5
23A
330
233
100
AcDbEntity
  8
0
  6
Continuous
 62
     7
100
AcDbLine
 10
322.763613
 20
29.757307
 30
0.0
 11
327.244668
 21
29.757307
 31
0.0
  0
LINE
  5
23B
330
233
100
AcDbEntity
  8
0
  6
Continuous
 62
     7
100
AcDbLine
 10
327.244668
 20
29.757307
 30
0.0
 11
327.244668
 21
30.950161
 31
0.0
  0
LINE
  5
23C
330
233
100
AcDbEntity
  8
0
  6
Continuous
 62
     7
100
AcDbLine
 10
327.244668
 20
30.950161
 30
0.0
 11
324.067954
 21
30.950161
 31
0.0
  0
LINE
  5
23D
330
233
100
AcDbEntity
  8
0
  6
Continuous
 62
     7
100
AcDbLine
 10
324.067954
 20
30.950161
 30
0.0
 11
324.067954
 21
40.216373
 31
0.0
  0
LINE
  5
23E
330
233
100
AcDbEntity
  8
0
  6
Continuous
 62
     7
100
AcDbLine
 10
339.00428
 20
40.216373
 30
0.0
 11
337.700462
 21
40.216373
 31
0.0
  0
LINE
  5
23F
330
233
100
AcDbEntity
  8
0
  6
Continuous
 62
     7
100
AcDbLine
 10
337.700462
 20
40.216373
 30
0.0
 11
337.700462
 21
29.757307
 31
0.0
  0
LINE
  5
240
330
233
100
AcDbEntity
  8
0
  6
Continuous
 62
     7
100
AcDbLine
 10
337.700462
 20
29.757307
 30
0.0
 11
342.181648
 21
29.757307
 31
0.0
  0
LINE
  5
241
330
233
100
AcDbEntity
  8
0
  6
Continuous
 62
     7
100
AcDbLine
 10
342.181648
 20
29.757307
 30
0.0
 11
342.181648
 21
30.950161
 31
0.0
  0
LINE
  5
242
330
233
100
AcDbEntity
  8
0
  6
Continuous
 62
     7
100
AcDbLine
 10
342.181648
 20
30.950161
 30
0.0
 11
339.00428
 21
30.950161
 31
0.0
  0
LINE
  5
243
330
233
100
AcDbEntity
  8
0
  6
Continuous
 62
     7
100
AcDbLine
 10
339.00428
 20
30.950161
 30
0.0
 11
339.00428
 21
40.216373
 31
0.0
  0
LWPOLYLINE
  5
244
330
233
100
AcDbEntity
  8
0
  6
Continuous
 62
     7
100
AcDbPolyline
 90
        2
 70
     0
 43
0.2
 10
321.118008
 20
26.413756
 10
321.118008
 20
24.556693
  0
LWPOLYLINE
  5
245
330
233
100
AcDbEntity
  8
0
  6
Continuous
 62
     7
100
AcDbPolyline
 90
        2
 70
     0
 43
0.2
 10
321.118008
 20
24.556693
 10
321.913724
 20
24.556693
  0
LWPOLYLINE
  5
246
330
233
100
AcDbEntity
  8
0
  6
Continuous
 62
     7
100
AcDbPolyline
 90
        2
 70
     0
 43
0.2
 10
321.913724
 20
24.556693
 10
321.913724
 20
24.768674
  0
LWPOLYLINE
  5
247
330
233
100
AcDbEntity
  8
0
  6
Continuous
 62
     7
100
AcDbPolyline
 90
        2
 70
     0
 43
0.2
 10
321.913724
 20
24.768674
 10
321.349617
 20
24.768674
  0
LWPOLYLINE
  5
248
330
233
100
AcDbEntity
  8
0
  6
Continuous
 62
     7
100
AcDbPolyline
 90
        2
 70
     0
 43
0.2
 10
321.349617
 20
24.768674
 10
321.349617
 20
26.413756
  0
LWPOLYLINE
  5
249
330
233
100
AcDbEntity
  8
0
  6
Continuous
 62
     7
100
AcDbPolyline
 90
        2
 70
     0
 43
0.2
 10
321.349617
 20
26.413756
 10
321.118008
 20
26.413756
  0
SPLINE
  5
24A
330
233
100
AcDbEntity
  8
0
  6
Continuous
 62
     7
100
AcDbSpline
 70
     3
 71
     3
 72
    35
 73
    31
 74
     0
 42
0.000000001
 43
0.0000001
 40
0.0
 40
0.0
 40
0.0
 40
0.0
 40
1.0
 40
1.0
 40
1.0
 40
2.0
 40
2.0
 40
2.0
 40
3.0
 40
3.0
 40
3.0
 40
4.0
 40
4.0
 40
4.0
 40
5.0
 40
5.0
 40
5.0
 40
6.0
 40
6.0
 40
6.0
 40
7.0
 40
7.0
 40
7.0
 40
8.0
 40
8.0
 40
8.0
 40
9.0
 40
9.0
 40
9.0
 40
10.0
 40
10.0
 40
10.0
 40
10.0
 10
323.3120168942
 20
25.709244218
 30
0.0
 10
323.3120168942
 20
25.709244218
 30
0.0
 10
323.3120168942
 20
25.0471289388
 30
0.0
 10
323.3120168942
 20
25.0471289388
 30
0.0
 10
323.3120168942
 20
24.7320353435
 30
0.0
 10
323.459880583
 20
24.5174367155
 30
0.0
 10
323.7999670673
 20
24.5174367155
 30
0.0
 10
324.1395301403
 20
24.5174367155
 30
0.0
 10
324.2876555348
 20
24.7320353435
 30
0.0
 10
324.2876555348
 20
25.0471289388
 30
0.0
 10
324.2876555348
 20
25.0471289388
 30
0.0
 10
324.2876555348
 20
25.709244218
 30
0.0
 10
324.2876555348
 20
25.709244218
 30
0.0
 10
324.2876555348
 20
25.709244218
 30
0.0
 10
324.0655982959
 20
25.709244218
 30
0.0
 10
324.0655982959
 20
25.709244218
 30
0.0
 10
324.0655982959
 20
25.709244218
 30
0.0
 10
324.0655982959
 20
25.0722526806
 30
0.0
 10
324.0655982959
 20
25.0722526806
 30
0.0
 10
324.0655982959
 20
24.8864416734
 30
0.0
 10
324.0188838384
 20
24.7236607629
 30
0.0
 10
323.7999670673
 20
24.7236607629
 30
0.0
 10
323.5805268848
 20
24.7236607629
 30
0.0
 10
323.5338124274
 20
24.8864416734
 30
0.0
 10
323.5338124274
 20
25.0722526806
 30
0.0
 10
323.5338124274
 20
25.0722526806
 30
0.0
 10
323.5338124274
 20
25.709244218
 30
0.0
 10
323.5338124274
 20
25.709244218
 30
0.0
 10
323.5338124274
 20
25.709244218
 30
0.0
 10
323.3120168942
 20
25.709244218
 30
0.0
 10
323.3120168942
 20
25.709244218
 30
0.0
  0
SPLINE
  5
24B
330
233
100
AcDbEntity
  8
0
  6
Continuous
 62
     7
100
AcDbSpline
 70
     3
 71
     3
 72
    35
 73
    31
 74
     0
 42
0.000000001
 43
0.0000001
 40
0.0
 40
0.0
 40
0.0
 40
0.0
 40
1.0
 40
1.0
 40
1.0
 40
2.0
 40
2.0
 40
2.0
 40
3.0
 40
3.0
 40
3.0
 40
4.0
 40
4.0
 40
4.0
 40
5.0
 40
5.0
 40
5.0
 40
6.0
 40
6.0
 40
6.0
 40
7.0
 40
7.0
 40
7.0
 40
8.0
 40
8.0
 40
8.0
 40
9.0
 40
9.0
 40
9.0
 40
10.0
 40
10.0
 40
10.0
 40
10.0
 10
326.710788092
 20
25.6678947262
 30
0.0
 10
326.6223315843
 20
25.7191890324
 30
0.0
 10
326.5088821877
 20
25.7443127743
 30
0.0
 10
326.4052467527
 20
25.7443127743
 30
0.0
 10
326.0503738995
 20
25.7443127743
 30
0.0
 10
325.7749287092
 20
25.4805134852
 30
0.0
 10
325.7749287092
 20
25.1230235756
 30
0.0
 10
325.7749287092
 20
24.7780955368
 30
0.0
 10
326.0533835144
 20
24.5179601268
 30
0.0
 10
326.3929465874
 20
24.5179601268
 30
0.0
 10
326.5088821877
 20
24.5179601268
 30
0.0
 10
326.6096388606
 20
24.5399434009
 30
0.0
 10
326.710788092
 20
24.5938547635
 30
0.0
 10
326.710788092
 20
24.5938547635
 30
0.0
 10
326.710788092
 20
24.876496859
 30
0.0
 10
326.710788092
 20
24.876496859
 30
0.0
 10
326.6269114331
 20
24.7833296497
 30
0.0
 10
326.5234068509
 20
24.7241841742
 30
0.0
 10
326.3953019382
 20
24.7241841742
 30
0.0
 10
326.1615987982
 20
24.7241841742
 30
0.0
 10
325.996331684
 20
24.8963864879
 30
0.0
 10
325.996331684
 20
25.13296839
 30
0.0
 10
325.996331684
 20
25.3449499616
 30
0.0
 10
326.1640850018
 20
25.5370419043
 30
0.0
 10
326.3809081278
 20
25.5370419043
 30
0.0
 10
326.5137237421
 20
25.5370419043
 30
0.0
 10
326.6223315843
 20
25.4831305416
 30
0.0
 10
326.710788092
 20
25.3821121631
 30
0.0
 10
326.710788092
 20
25.3821121631
 30
0.0
 10
326.710788092
 20
25.6678947262
 30
0.0
 10
326.710788092
 20
25.6678947262
 30
0.0
  0
SPLINE
  5
24C
330
233
100
AcDbEntity
  8
0
  6
Continuous
 62
     7
100
AcDbSpline
 70
     3
 71
     3
 72
    32
 73
    28
 74
     0
 42
0.000000001
 43
0.0000001
 40
0.0
 40
0.0
 40
0.0
 40
0.0
 40
1.0
 40
1.0
 40
1.0
 40
2.0
 40
2.0
 40
2.0
 40
3.0
 40
3.0
 40
3.0
 40
4.0
 40
4.0
 40
4.0
 40
5.0
 40
5.0
 40
5.0
 40
6.0
 40
6.0
 40
6.0
 40
7.0
 40
7.0
 40
7.0
 40
8.0
 40
8.0
 40
8.0
 40
9.0
 40
9.0
 40
9.0
 40
9.0
 10
329.2426593442
 20
25.0963295999
 30
0.0
 10
329.2426593442
 20
25.0963295999
 30
0.0
 10
329.2426593442
 20
25.1303513336
 30
0.0
 10
329.2426593442
 20
25.1303513336
 30
0.0
 10
329.2426593442
 20
25.4726623159
 30
0.0
 10
329.0698027664
 20
25.7443127743
 30
0.0
 10
328.7031531592
 20
25.7443127743
 30
0.0
 10
328.3315311448
 20
25.7443127743
 30
0.0
 10
328.141794553
 20
25.4778964287
 30
0.0
 10
328.141794553
 20
25.1230235756
 30
0.0
 10
328.141794553
 20
24.7833296497
 30
0.0
 10
328.3558697697
 20
24.5174367155
 30
0.0
 10
328.7079947136
 20
24.5174367155
 30
0.0
 10
328.9320147449
 20
24.5174367155
 30
0.0
 10
329.1341823548
 20
24.6331106101
 30
0.0
 10
329.2426593442
 20
24.8325303108
 30
0.0
 10
329.2426593442
 20
24.8325303108
 30
0.0
 10
329.0550163975
 20
24.9393062135
 30
0.0
 10
329.0550163975
 20
24.9393062135
 30
0.0
 10
328.9715322971
 20
24.8006022222
 30
0.0
 10
328.8803278802
 20
24.714762771
 30
0.0
 10
328.7107426229
 20
24.714762771
 30
0.0
 10
328.4987610513
 20
24.714762771
 30
0.0
 10
328.3658145842
 20
24.8995269556
 30
0.0
 10
328.3634592334
 20
25.0963295999
 30
0.0
 10
328.3634592334
 20
25.0963295999
 30
0.0
 10
329.2426593442
 20
25.0963295999
 30
0.0
 10
329.2426593442
 20
25.0963295999
 30
0.0
  0
SPLINE
  5
24D
330
233
100
AcDbEntity
  8
0
  6
Continuous
 62
     7
100
AcDbSpline
 70
     3
 71
     3
 72
    14
 73
    10
 74
     0
 42
0.000000001
 43
0.0000001
 40
0.0
 40
0.0
 40
0.0
 40
0.0
 40
1.0
 40
1.0
 40
1.0
 40
2.0
 40
2.0
 40
2.0
 40
3.0
 40
3.0
 40
3.0
 40
3.0
 10
328.375497693
 20
25.263821212
 30
0.0
 10
328.4031076385
 20
25.4286957677
 30
0.0
 10
328.5309508455
 20
25.5516974203
 30
0.0
 10
328.7031531592
 20
25.5516974203
 30
0.0
 10
328.8803278802
 20
25.5516974203
 30
0.0
 10
328.9937772768
 20
25.4360235257
 30
0.0
 10
329.0209946638
 20
25.263821212
 30
0.0
 10
329.0209946638
 20
25.263821212
 30
0.0
 10
328.375497693
 20
25.263821212
 30
0.0
 10
328.375497693
 20
25.263821212
 30
0.0
  0
SPLINE
  5
24E
330
233
100
AcDbEntity
  8
0
  6
Continuous
 62
     7
100
AcDbSpline
 70
     3
 71
     3
 72
    20
 73
    16
 74
     0
 42
0.000000001
 43
0.0000001
 40
0.0
 40
0.0
 40
0.0
 40
0.0
 40
1.0
 40
1.0
 40
1.0
 40
2.0
 40
2.0
 40
2.0
 40
3.0
 40
3.0
 40
3.0
 40
4.0
 40
4.0
 40
4.0
 40
5.0
 40
5.0
 40
5.0
 40
5.0
 10
331.2666907944
 20
25.4731857271
 30
0.0
 10
331.2666907944
 20
25.4731857271
 30
0.0
 10
331.677830361
 20
24.9707108908
 30
0.0
 10
331.677830361
 20
24.9707108908
 30
0.0
 10
331.5617639079
 20
24.8550369962
 30
0.0
 10
331.4239758864
 20
24.7247075855
 30
0.0
 10
331.2520352783
 20
24.7247075855
 30
0.0
 10
331.0745988517
 20
24.7247075855
 30
0.0
 10
330.9071072396
 20
24.8890587299
 30
0.0
 10
330.9071072396
 20
25.0659717452
 30
0.0
 10
330.9071072396
 20
25.2439315831
 30
0.0
 10
331.1168643132
 20
25.3700737034
 30
0.0
 10
331.2444458147
 20
25.4580067998
 30
0.0
 10
331.2444458147
 20
25.4580067998
 30
0.0
 10
331.2666907944
 20
25.4731857271
 30
0.0
 10
331.2666907944
 20
25.4731857271
 30
0.0
  0
SPLINE
  5
24F
330
233
100
AcDbEntity
  8
0
  6
Continuous
 62
     7
100
AcDbSpline
 70
     3
 71
     3
 72
    23
 73
    19
 74
     0
 42
0.000000001
 43
0.0000001
 40
0.0
 40
0.0
 40
0.0
 40
0.0
 40
1.0
 40
1.0
 40
1.0
 40
2.0
 40
2.0
 40
2.0
 40
3.0
 40
3.0
 40
3.0
 40
4.0
 40
4.0
 40
4.0
 40
5.0
 40
5.0
 40
5.0
 40
6.0
 40
6.0
 40
6.0
 40
6.0
 10
331.3160223083
 20
25.7642024032
 30
0.0
 10
331.3160223083
 20
25.7642024032
 30
0.0
 10
331.2543906291
 20
25.8427140964
 30
0.0
 10
331.2543906291
 20
25.8427140964
 30
0.0
 10
331.2004792665
 20
25.9112809751
 30
0.0
 10
331.1436891417
 20
25.9803712651
 30
0.0
 10
331.1436891417
 20
26.0740618856
 30
0.0
 10
331.1436891417
 20
26.192876248
 30
0.0
 10
331.2396042602
 20
26.2703411186
 30
0.0
 10
331.3505674533
 20
26.2703411186
 30
0.0
 10
331.4738308116
 20
26.2703411186
 30
0.0
 10
331.5671288736
 20
26.1991571834
 30
0.0
 10
331.5671288736
 20
26.0688277727
 30
0.0
 10
331.5671288736
 20
25.9337876605
 30
0.0
 10
331.4390239609
 20
25.8573696124
 30
0.0
 10
331.3454641932
 20
25.7835686208
 30
0.0
 10
331.3454641932
 20
25.7835686208
 30
0.0
 10
331.3160223083
 20
25.7642024032
 30
0.0
 10
331.3160223083
 20
25.7642024032
 30
0.0
  0
SPLINE
  5
250
330
233
100
AcDbEntity
  8
0
  6
Continuous
 62
     7
100
AcDbSpline
 70
     3
 71
     3
 72
    50
 73
    46
 74
     0
 42
0.000000001
 43
0.0000001
 40
0.0
 40
0.0
 40
0.0
 40
0.0
 40
1.0
 40
1.0
 40
1.0
 40
2.0
 40
2.0
 40
2.0
 40
3.0
 40
3.0
 40
3.0
 40
4.0
 40
4.0
 40
4.0
 40
5.0
 40
5.0
 40
5.0
 40
6.0
 40
6.0
 40
6.0
 40
7.0
 40
7.0
 40
7.0
 40
8.0
 40
8.0
 40
8.0
 40
9.0
 40
9.0
 40
9.0
 40
10.0
 40
10.0
 40
10.0
 40
11.0
 40
11.0
 40
11.0
 40
12.0
 40
12.0
 40
12.0
 40
13.0
 40
13.0
 40
13.0
 40
14.0
 40
14.0
 40
14.0
 40
15.0
 40
15.0
 40
15.0
 40
15.0
 10
332.018178551
 20
24.5572159734
 30
0.0
 10
332.018178551
 20
24.5572159734
 30
0.0
 10
332.3035685557
 20
24.5572159734
 30
0.0
 10
332.3035685557
 20
24.5572159734
 30
0.0
 10
332.3035685557
 20
24.5572159734
 30
0.0
 10
331.9712023879
 20
24.9680938343
 30
0.0
 10
331.9712023879
 20
24.9680938343
 30
0.0
 10
331.9712023879
 20
24.9680938343
 30
0.0
 10
332.1977086227
 20
25.2339867686
 30
0.0
 10
332.1977086227
 20
25.2339867686
 30
0.0
 10
332.1977086227
 20
25.2339867686
 30
0.0
 10
332.0494523754
 20
25.3868228646
 30
0.0
 10
332.0494523754
 20
25.3868228646
 30
0.0
 10
332.0494523754
 20
25.3868228646
 30
0.0
 10
331.8335452192
 20
25.1355854465
 30
0.0
 10
331.8335452192
 20
25.1355854465
 30
0.0
 10
331.8335452192
 20
25.1355854465
 30
0.0
 10
331.4464825718
 20
25.6035151378
 30
0.0
 10
331.4464825718
 20
25.6035151378
 30
0.0
 10
331.6019357243
 20
25.7176187986
 30
0.0
 10
331.7842137053
 20
25.8573696124
 30
0.0
 10
331.7842137053
 20
26.0667341276
 30
0.0
 10
331.7842137053
 20
26.3106437877
 30
0.0
 10
331.5821769482
 20
26.4540584806
 30
0.0
 10
331.3556707133
 20
26.4540584806
 30
0.0
 10
331.1114993475
 20
26.4540584806
 30
0.0
 10
330.9271277214
 20
26.3033160297
 30
0.0
 10
330.9271277214
 20
26.0468444986
 30
0.0
 10
330.9271277214
 20
25.889297701
 30
0.0
 10
331.0257907492
 20
25.7516405323
 30
0.0
 10
331.1311272708
 20
25.6406773393
 30
0.0
 10
331.1311272708
 20
25.6406773393
 30
0.0
 10
331.015584229
 20
25.5569315332
 30
0.0
 10
331.015584229
 20
25.5569315332
 30
0.0
 10
330.8378860968
 20
25.4286957677
 30
0.0
 10
330.6905458193
 20
25.3009834134
 30
0.0
 10
330.6905458193
 20
25.0638781
 30
0.0
 10
330.6905458193
 20
24.7435503919
 30
0.0
 10
330.9491109955
 20
24.5174367155
 30
0.0
 10
331.2594938892
 20
24.5174367155
 30
0.0
 10
331.4784106603
 20
24.5174367155
 30
0.0
 10
331.675605863
 20
24.6425320133
 30
0.0
 10
331.8158800882
 20
24.8084533915
 30
0.0
 10
331.8158800882
 20
24.8084533915
 30
0.0
 10
332.018178551
 20
24.5572159734
 30
0.0
 10
332.018178551
 20
24.5572159734
 30
0.0
  0
LWPOLYLINE
  5
251
330
233
100
AcDbEntity
  8
0
  6
Continuous
 62
     7
100
AcDbPolyline
 90
        2
 70
     0
 43
0.2
 10
333.953623
 20
26.413756
 10
333.722275
 20
26.413756
  0
LWPOLYLINE
  5
252
330
233
100
AcDbEntity
  8
0
  6
Continuous
 62
     7
100
AcDbPolyline
 90
        2
 70
     0
 43
0.2
 10
333.722275
 20
26.413756
 10
333.722275
 20
24.556693
  0
LWPOLYLINE
  5
253
330
233
100
AcDbEntity
  8
0
  6
Continuous
 62
     7
100
AcDbPolyline
 90
        2
 70
     0
 43
0.2
 10
333.722275
 20
24.556693
 10
334.517598
 20
24.556693
  0
LWPOLYLINE
  5
254
330
233
100
AcDbEntity
  8
0
  6
Continuous
 62
     7
100
AcDbPolyline
 90
        2
 70
     0
 43
0.2
 10
334.517598
 20
24.556693
 10
334.517598
 20
24.768674
  0
LWPOLYLINE
  5
255
330
233
100
AcDbEntity
  8
0
  6
Continuous
 62
     7
100
AcDbPolyline
 90
        2
 70
     0
 43
0.2
 10
334.517598
 20
24.768674
 10
333.953623
 20
24.768674
  0
LWPOLYLINE
  5
256
330
233
100
AcDbEntity
  8
0
  6
Continuous
 62
     7
100
AcDbPolyline
 90
        2
 70
     0
 43
0.2
 10
333.953623
 20
24.768674
 10
333.953623
 20
26.413756
  0
LWPOLYLINE
  5
257
330
233
100
AcDbEntity
  8
0
  6
Continuous
 62
     7
100
AcDbPolyline
 90
        2
 70
     0
 43
0.2
 10
336.196702
 20
25.709244
 10
335.97556
 20
25.709244
  0
LWPOLYLINE
  5
258
330
233
100
AcDbEntity
  8
0
  6
Continuous
 62
     7
100
AcDbPolyline
 90
        2
 70
     0
 43
0.2
 10
335.97556
 20
25.709244
 10
335.97556
 20
24.557216
  0
LWPOLYLINE
  5
259
330
233
100
AcDbEntity
  8
0
  6
Continuous
 62
     7
100
AcDbPolyline
 90
        2
 70
     0
 43
0.2
 10
335.97556
 20
24.557216
 10
336.196702
 20
24.557216
  0
LWPOLYLINE
  5
25A
330
233
100
AcDbEntity
  8
0
  6
Continuous
 62
     7
100
AcDbPolyline
 90
        2
 70
     0
 43
0.2
 10
336.196702
 20
24.557216
 10
336.196702
 20
25.709244
  0
LWPOLYLINE
  5
25B
330
233
100
AcDbEntity
  8
0
  6
Continuous
 62
     7
100
AcDbPolyline
 90
        2
 70
     1
 43
0.2
 10
335.933678
 20
26.239198
 42
1.0
 10
336.238845
 20
26.239198
 42
1.0
  0
SPLINE
  5
25C
330
233
100
AcDbEntity
  8
0
  6
Continuous
 62
     7
100
AcDbSpline
 70
     3
 71
     3
 72
    17
 73
    13
 74
     0
 42
0.000000001
 43
0.0000001
 40
0.0
 40
0.0
 40
0.0
 40
0.0
 40
1.0
 40
1.0
 40
1.0
 40
2.0
 40
2.0
 40
2.0
 40
3.0
 40
3.0
 40
3.0
 40
4.0
 40
4.0
 40
4.0
 40
4.0
 10
338.3269856565
 20
24.714762771
 30
0.0
 10
338.0930208108
 20
24.714762771
 30
0.0
 10
337.9626914001
 20
24.9167995281
 30
0.0
 10
337.9626914001
 20
25.13296839
 30
0.0
 10
337.9626914001
 20
25.3475670181
 30
0.0
 10
338.0985166293
 20
25.5464633074
 30
0.0
 10
338.3269856565
 20
25.5464633074
 30
0.0
 10
338.5664463207
 20
25.5464633074
 30
0.0
 10
338.7020098442
 20
25.3575118325
 30
0.0
 10
338.7020098442
 20
25.13296839
 30
0.0
 10
338.7020098442
 20
24.9068547137
 30
0.0
 10
338.5688016715
 20
24.714762771
 30
0.0
 10
338.3269856565
 20
24.714762771
 30
0.0
  0
SPLINE
  5
25D
330
233
100
AcDbEntity
  8
0
  6
Continuous
 62
     7
100
AcDbSpline
 70
     3
 71
     3
 72
    50
 73
    46
 74
     0
 42
0.000000001
 43
0.0000001
 40
0.0
 40
0.0
 40
0.0
 40
0.0
 40
1.0
 40
1.0
 40
1.0
 40
2.0
 40
2.0
 40
2.0
 40
3.0
 40
3.0
 40
3.0
 40
4.0
 40
4.0
 40
4.0
 40
5.0
 40
5.0
 40
5.0
 40
6.0
 40
6.0
 40
6.0
 40
7.0
 40
7.0
 40
7.0
 40
8.0
 40
8.0
 40
8.0
 40
9.0
 40
9.0
 40
9.0
 40
10.0
 40
10.0
 40
10.0
 40
11.0
 40
11.0
 40
11.0
 40
12.0
 40
12.0
 40
12.0
 40
13.0
 40
13.0
 40
13.0
 40
14.0
 40
14.0
 40
14.0
 40
15.0
 40
15.0
 40
15.0
 40
15.0
 10
338.9111126537
 20
25.7097676293
 30
0.0
 10
338.9111126537
 20
25.7097676293
 30
0.0
 10
338.6894479733
 20
25.7097676293
 30
0.0
 10
338.6894479733
 20
25.7097676293
 30
0.0
 10
338.6894479733
 20
25.7097676293
 30
0.0
 10
338.6894479733
 20
25.5124415737
 30
0.0
 10
338.6894479733
 20
25.5124415737
 30
0.0
 10
338.6894479733
 20
25.5124415737
 30
0.0
 10
338.6847372717
 20
25.5124415737
 30
0.0
 10
338.6847372717
 20
25.5124415737
 30
0.0
 10
338.593402002
 20
25.6553328553
 30
0.0
 10
338.4554831276
 20
25.743789363
 30
0.0
 10
338.2827574027
 20
25.743789363
 30
0.0
 10
337.9503912349
 20
25.743789363
 30
0.0
 10
337.7412884253
 20
25.4559131546
 30
0.0
 10
337.7412884253
 20
25.1402961481
 30
0.0
 10
337.7412884253
 20
24.8105470367
 30
0.0
 10
337.9383527752
 20
24.5174367155
 30
0.0
 10
338.2932256284
 20
24.5174367155
 30
0.0
 10
338.4554831276
 20
24.5174367155
 30
0.0
 10
338.5954956472
 20
24.6058932231
 30
0.0
 10
338.6847372717
 20
24.7367460451
 30
0.0
 10
338.6847372717
 20
24.7367460451
 30
0.0
 10
338.6894479733
 20
24.7367460451
 30
0.0
 10
338.6894479733
 20
24.7367460451
 30
0.0
 10
338.6894479733
 20
24.7367460451
 30
0.0
 10
338.6894479733
 20
24.5174367155
 30
0.0
 10
338.6894479733
 20
24.5174367155
 30
0.0
 10
338.6894479733
 20
24.2808548134
 30
0.0
 10
338.6329195542
 20
24.0939969836
 30
0.0
 10
338.359698862
 20
24.0939969836
 30
0.0
 10
338.1574003992
 20
24.0939969836
 30
0.0
 10
338.0147708233
 20
24.2122879347
 30
0.0
 10
338.0147708233
 20
24.4185119821
 30
0.0
 10
338.0147708233
 20
24.4185119821
 30
0.0
 10
337.7931061428
 20
24.4185119821
 30
0.0
 10
337.7931061428
 20
24.4185119821
 30
0.0
 10
337.7980785501
 20
24.0939969836
 30
0.0
 10
338.0291646337
 20
23.8971943394
 30
0.0
 10
338.3494923419
 20
23.8971943394
 30
0.0
 10
338.7975324043
 20
23.8971943394
 30
0.0
 10
338.9111126537
 20
24.1824534913
 30
0.0
 10
338.9111126537
 20
24.5791992475
 30
0.0
 10
338.9111126537
 20
24.5791992475
 30
0.0
 10
338.9111126537
 20
25.7097676293
 30
0.0
 10
338.9111126537
 20
25.7097676293
 30
0.0
  0
SPLINE
  5
25E
330
233
100
AcDbEntity
  8
0
  6
Continuous
 62
     7
100
AcDbSpline
 70
     3
 71
     3
 72
    44
 73
    40
 74
     0
 42
0.000000001
 43
0.0000001
 40
0.0
 40
0.0
 40
0.0
 40
0.0
 40
1.0
 40
1.0
 40
1.0
 40
2.0
 40
2.0
 40
2.0
 40
3.0
 40
3.0
 40
3.0
 40
4.0
 40
4.0
 40
4.0
 40
5.0
 40
5.0
 40
5.0
 40
6.0
 40
6.0
 40
6.0
 40
7.0
 40
7.0
 40
7.0
 40
8.0
 40
8.0
 40
8.0
 40
9.0
 40
9.0
 40
9.0
 40
10.0
 40
10.0
 40
10.0
 40
11.0
 40
11.0
 40
11.0
 40
12.0
 40
12.0
 40
12.0
 40
13.0
 40
13.0
 40
13.0
 40
13.0
 10
340.4800379891
 20
26.694827673
 30
0.0
 10
340.4800379891
 20
26.694827673
 30
0.0
 10
340.4800379891
 20
24.5566925621
 30
0.0
 10
340.4800379891
 20
24.5566925621
 30
0.0
 10
340.4800379891
 20
24.5566925621
 30
0.0
 10
340.7014409639
 20
24.5566925621
 30
0.0
 10
340.7014409639
 20
24.5566925621
 30
0.0
 10
340.7014409639
 20
24.5566925621
 30
0.0
 10
340.7014409639
 20
25.0863847854
 30
0.0
 10
340.7014409639
 20
25.0863847854
 30
0.0
 10
340.7014409639
 20
25.2962727118
 30
0.0
 10
340.7014409639
 20
25.5469867187
 30
0.0
 10
340.9867001158
 20
25.5469867187
 30
0.0
 10
341.2135989091
 20
25.5469867187
 30
0.0
 10
341.2405545904
 20
25.4140402516
 30
0.0
 10
341.2405545904
 20
25.2177610187
 30
0.0
 10
341.2405545904
 20
25.2177610187
 30
0.0
 10
341.2405545904
 20
24.5566925621
 30
0.0
 10
341.2405545904
 20
24.5566925621
 30
0.0
 10
341.2405545904
 20
24.5566925621
 30
0.0
 10
341.4624809765
 20
24.5566925621
 30
0.0
 10
341.4624809765
 20
24.5566925621
 30
0.0
 10
341.4624809765
 20
24.5566925621
 30
0.0
 10
341.4624809765
 20
25.2439315831
 30
0.0
 10
341.4624809765
 20
25.2439315831
 30
0.0
 10
341.4624809765
 20
25.5244800334
 30
0.0
 10
341.3784734648
 20
25.7443127743
 30
0.0
 10
341.053435055
 20
25.7443127743
 30
0.0
 10
340.9136842411
 20
25.7443127743
 30
0.0
 10
340.7755036611
 20
25.6778395407
 30
0.0
 10
340.7061516655
 20
25.554837888
 30
0.0
 10
340.7061516655
 20
25.554837888
 30
0.0
 10
340.7014409639
 20
25.554837888
 30
0.0
 10
340.7014409639
 20
25.554837888
 30
0.0
 10
340.7014409639
 20
25.554837888
 30
0.0
 10
340.7014409639
 20
26.694827673
 30
0.0
 10
340.7014409639
 20
26.694827673
 30
0.0
 10
340.7014409639
 20
26.694827673
 30
0.0
 10
340.4800379891
 20
26.694827673
 30
0.0
 10
340.4800379891
 20
26.694827673
 30
0.0
  0
LWPOLYLINE
  5
25F
330
233
100
AcDbEntity
  8
0
  6
Continuous
 62
     7
100
AcDbPolyline
 90
        2
 70
     0
 43
0.2
 10
343.302272
 20
25.502497
 10
343.518702
 20
25.502497
  0
LWPOLYLINE
  5
260
330
233
100
AcDbEntity
  8
0
  6
Continuous
 62
     7
100
AcDbPolyline
 90
        2
 70
     0
 43
0.2
 10
343.518702
 20
25.502497
 10
343.518702
 20
25.709244
  0
LWPOLYLINE
  5
261
330
233
100
AcDbEntity
  8
0
  6
Continuous
 62
     7
100
AcDbPolyline
 90
        2
 70
     0
 43
0.2
 10
343.518702
 20
25.709244
 10
343.302272
 20
25.709244
  0
LWPOLYLINE
  5
262
330
233
100
AcDbEntity
  8
0
  6
Continuous
 62
     7
100
AcDbPolyline
 90
        2
 70
     0
 43
0.2
 10
343.302272
 20
25.709244
 10
343.302272
 20
26.149957
  0
LWPOLYLINE
  5
263
330
233
100
AcDbEntity
  8
0
  6
Continuous
 62
     7
100
AcDbPolyline
 90
        2
 70
     0
 43
0.2
 10
343.302272
 20
26.149957
 10
343.080607
 20
26.149957
  0
LWPOLYLINE
  5
264
330
233
100
AcDbEntity
  8
0
  6
Continuous
 62
     7
100
AcDbPolyline
 90
        2
 70
     0
 43
0.2
 10
343.080607
 20
26.149957
 10
343.080607
 20
25.709244
  0
LWPOLYLINE
  5
265
330
233
100
AcDbEntity
  8
0
  6
Continuous
 62
     7
100
AcDbPolyline
 90
        2
 70
     0
 43
0.2
 10
343.080607
 20
25.709244
 10
342.959961
 20
25.709244
  0
LWPOLYLINE
  5
266
330
233
100
AcDbEntity
  8
0
  6
Continuous
 62
     7
100
AcDbPolyline
 90
        2
 70
     0
 43
0.2
 10
342.959961
 20
25.709244
 10
342.959961
 20
25.502497
  0
LWPOLYLINE
  5
267
330
233
100
AcDbEntity
  8
0
  6
Continuous
 62
     7
100
AcDbPolyline
 90
        2
 70
     0
 43
0.2
 10
342.959961
 20
25.502497
 10
343.080607
 20
25.502497
  0
LWPOLYLINE
  5
268
330
233
100
AcDbEntity
  8
0
  6
Continuous
 62
     7
100
AcDbPolyline
 90
        2
 70
     0
 43
0.2
 10
343.080607
 20
25.502497
 10
343.080607
 20
24.556693
  0
LWPOLYLINE
  5
269
330
233
100
AcDbEntity
  8
0
  6
Continuous
 62
     7
100
AcDbPolyline
 90
        2
 70
     0
 43
0.2
 10
343.080607
 20
24.556693
 10
343.302272
 20
24.556693
  0
LWPOLYLINE
  5
26A
330
233
100
AcDbEntity
  8
0
  6
Continuous
 62
     7
100
AcDbPolyline
 90
        2
 70
     0
 43
0.2
 10
343.302272
 20
24.556693
 10
343.302272
 20
25.502497
  0
SPLINE
  5
26B
330
233
100
AcDbEntity
  8
0
  6
Continuous
 62
     7
100
AcDbSpline
 70
     3
 71
     3
 72
    20
 73
    16
 74
     0
 42
0.000000001
 43
0.0000001
 40
0.0
 40
0.0
 40
0.0
 40
0.0
 40
1.0
 40
1.0
 40
1.0
 40
2.0
 40
2.0
 40
2.0
 40
3.0
 40
3.0
 40
3.0
 40
4.0
 40
4.0
 40
4.0
 40
5.0
 40
5.0
 40
5.0
 40
5.0
 10
331.0842819606
 20
34.9176190055
 30
0.0
 10
331.0842819606
 20
34.9176190055
 30
0.0
 10
333.400638615
 20
32.0880575832
 30
0.0
 10
333.400638615
 20
32.0880575832
 30
0.0
 10
332.7489915616
 20
31.4358871186
 30
0.0
 10
331.9721183576
 20
30.6999708478
 30
0.0
 10
331.000928713
 20
30.6999708478
 30
0.0
 10
330.0023908285
 20
30.6999708478
 30
0.0
 10
329.059072835
 20
31.6295492951
 30
0.0
 10
329.059072835
 20
32.6287414436
 30
0.0
 10
329.059072835
 20
33.6279335922
 30
0.0
 10
330.2379259081
 20
34.3345388308
 30
0.0
 10
330.9594483684
 20
34.8343966107
 30
0.0
 10
330.9594483684
 20
34.8343966107
 30
0.0
 10
331.0842819606
 20
34.9176190055
 30
0.0
 10
331.0842819606
 20
34.9176190055
 30
0.0
  0
SPLINE
  5
26C
330
233
100
AcDbEntity
  8
0
  6
Continuous
 62
     7
100
AcDbSpline
 70
     3
 71
     3
 72
    23
 73
    19
 74
     0
 42
0.000000001
 43
0.0000001
 40
0.0
 40
0.0
 40
0.0
 40
0.0
 40
1.0
 40
1.0
 40
1.0
 40
2.0
 40
2.0
 40
2.0
 40
3.0
 40
3.0
 40
3.0
 40
4.0
 40
4.0
 40
4.0
 40
5.0
 40
5.0
 40
5.0
 40
6.0
 40
6.0
 40
6.0
 40
6.0
 10
331.3616899431
 20
36.5553729252
 30
0.0
 10
331.3616899431
 20
36.5553729252
 30
0.0
 10
331.0151916706
 20
36.998702286
 30
0.0
 10
331.0151916706
 20
36.998702286
 30
0.0
 10
330.7093886256
 20
37.386811756
 30
0.0
 10
330.3905002985
 20
37.7753137844
 30
0.0
 10
330.3905002985
 20
38.3022580985
 30
0.0
 10
330.3905002985
 20
38.9684298151
 30
0.0
 10
330.931838423
 20
39.4121517344
 30
0.0
 10
331.5557446781
 20
39.4121517344
 30
0.0
 10
332.2495263402
 20
39.4121517344
 30
0.0
 10
332.7767323599
 20
39.0099101597
 30
0.0
 10
332.7767323599
 20
38.2749098587
 30
0.0
 10
332.7767323599
 20
37.5116453482
 30
0.0
 10
332.0554716052
 20
37.0815321223
 30
0.0
 10
331.5283964383
 20
36.665812707
 30
0.0
 10
331.5283964383
 20
36.665812707
 30
0.0
 10
331.3616899431
 20
36.5553729252
 30
0.0
 10
331.3616899431
 20
36.5553729252
 30
0.0
  0
SPLINE
  5
26D
330
233
100
AcDbEntity
  8
0
  6
Continuous
 62
     7
100
AcDbSpline
 70
     3
 71
     3
 72
    50
 73
    46
 74
     0
 42
0.000000001
 43
0.0000001
 40
0.0
 40
0.0
 40
0.0
 40
0.0
 40
1.0
 40
1.0
 40
1.0
 40
2.0
 40
2.0
 40
2.0
 40
3.0
 40
3.0
 40
3.0
 40
4.0
 40
4.0
 40
4.0
 40
5.0
 40
5.0
 40
5.0
 40
6.0
 40
6.0
 40
6.0
 40
7.0
 40
7.0
 40
7.0
 40
8.0
 40
8.0
 40
8.0
 40
9.0
 40
9.0
 40
9.0
 40
10.0
 40
10.0
 40
10.0
 40
11.0
 40
11.0
 40
11.0
 40
12.0
 40
12.0
 40
12.0
 40
13.0
 40
13.0
 40
13.0
 40
14.0
 40
14.0
 40
14.0
 40
15.0
 40
15.0
 40
15.0
 40
15.0
 10
335.3152771061
 20
29.7567837071
 30
0.0
 10
335.3152771061
 20
29.7567837071
 30
0.0
 10
336.9245051106
 20
29.7567837071
 30
0.0
 10
336.9245051106
 20
29.7567837071
 30
0.0
 10
336.9245051106
 20
29.7567837071
 30
0.0
 10
335.051477817
 20
32.0739254785
 30
0.0
 10
335.051477817
 20
32.0739254785
 30
0.0
 10
335.051477817
 20
32.0739254785
 30
0.0
 10
336.3278162425
 20
33.5714051731
 30
0.0
 10
336.3278162425
 20
33.5714051731
 30
0.0
 10
336.3278162425
 20
33.5714051731
 30
0.0
 10
335.4955922947
 20
34.4324167416
 30
0.0
 10
335.4955922947
 20
34.4324167416
 30
0.0
 10
335.4955922947
 20
34.4324167416
 30
0.0
 10
334.2749971714
 20
33.0171126192
 30
0.0
 10
334.2749971714
 20
33.0171126192
 30
0.0
 10
334.2749971714
 20
33.0171126192
 30
0.0
 10
332.0970828026
 20
35.6524884536
 30
0.0
 10
332.0970828026
 20
35.6524884536
 30
0.0
 10
332.9706562421
 20
36.2905268136
 30
0.0
 10
333.9973274832
 20
37.0815321223
 30
0.0
 10
333.9973274832
 20
38.2603851955
 30
0.0
 10
333.9973274832
 20
39.6340781205
 30
0.0
 10
332.8594313434
 20
40.4385612699
 30
0.0
 10
331.5841397405
 20
40.4385612699
 30
0.0
 10
330.2107085211
 20
40.4385612699
 30
0.0
 10
329.1697743224
 20
39.5923360703
 30
0.0
 10
329.1697743224
 20
38.1496837081
 30
0.0
 10
329.1697743224
 20
37.2621090167
 30
0.0
 10
329.7251136988
 20
36.4852358126
 30
0.0
 10
330.3212791557
 20
35.8608061462
 30
0.0
 10
330.3212791557
 20
35.8608061462
 30
0.0
 10
329.6693703966
 20
35.3892125758
 30
0.0
 10
329.6693703966
 20
35.3892125758
 30
0.0
 10
328.6708325122
 20
34.6679518212
 30
0.0
 10
327.8379543004
 20
33.9466910665
 30
0.0
 10
327.8379543004
 20
32.6151327501
 30
0.0
 10
327.8379543004
 20
30.8114574521
 30
0.0
 10
329.295000473
 20
29.534857321
 30
0.0
 10
331.0425399104
 20
29.534857321
 30
0.0
 10
332.2773979913
 20
29.534857321
 30
0.0
 10
333.3867682159
 20
30.2430327935
 30
0.0
 10
334.1776426719
 20
31.1715644182
 30
0.0
 10
334.1776426719
 20
31.1715644182
 30
0.0
 10
335.3152771061
 20
29.7567837071
 30
0.0
 10
335.3152771061
 20
29.7567837071
 30
0.0
  0
LINE
  5
26E
330
233
100
AcDbEntity
  8
0
  6
Continuous
 62
     7
100
AcDbLine
 10
321.118138
 20
27.730659
 30
0.0
 11
343.532049
 21
27.730659
 31
0.0
  0
LINE
  5
26F
330
233
100
AcDbEntity
  8
0
  6
Continuous
 62
     7
100
AcDbLine
 10
343.532049
 20
27.730659
 30
0.0
 11
343.532049
 21
50.144569
 31
0.0
  0
LINE
  5
270
330
233
100
AcDbEntity
  8
0
  6
Continuous
 62
     7
100
AcDbLine
 10
343.532049
 20
50.144569
 30
0.0
 11
321.118138
 21
50.144569
 31
0.0
  0
LINE
  5
271
330
233
100
AcDbEntity
  8
0
  6
Continuous
 62
     7
100
AcDbLine
 10
321.118138
 20
50.144569
 30
0.0
 11
321.118138
 21
27.730659
 31
0.0
  0
ENDBLK
  5
272
330
233
100
AcDbEntity
  8
0
  6
ByBlock
 62
     0
100
AcDbBlockEnd
  0
BLOCK
  5
2A6
330
234
100
AcDbEntity
  8
0
100
AcDbBlockBegin
  2
*T7
 70
     1
 10
0.0
 20
0.0
 30
0.0
  3
*T7
  1
*T7
  0
LINE
  5
2A7
330
234
100
AcDbEntity
  8
0
  6
Continuous
 62
     2
100
AcDbLine
 10
0.0
 20
0.0
 30
0.0
 11
90.0
 21
0.0
 31
0.0
  0
LINE
  5
2A8
330
234
100
AcDbEntity
  8
0
  6
Continuous
 62
     2
100
AcDbLine
 10
0.0
 20
0.0
 30
0.0
 11
0.0
 21
-40.0
 31
0.0
  0
LINE
  5
2A9
330
234
100
AcDbEntity
  8
0
  6
Continuous
 62
     2
100
AcDbLine
 10
30.0
 20
-6.0
 30
0.0
 11
90.0
 21
-6.0
 31
0.0
  0
LINE
  5
2AA
330
234
100
AcDbEntity
  8
0
  6
Continuous
 62
     2
100
AcDbLine
 10
30.0
 20
-12.0
 30
0.0
 11
90.0
 21
-12.0
 31
0.0
  0
LINE
  5
2AB
330
234
100
AcDbEntity
  8
0
  6
Continuous
 62
     2
100
AcDbLine
 10
30.0
 20
-22.0
 30
0.0
 11
90.0
 21
-22.0
 31
0.0
  0
LINE
  5
2AC
330
234
100
AcDbEntity
  8
0
  6
Continuous
 62
     2
100
AcDbLine
 10
0.0
 20
-27.0
 30
0.0
 11
90.0
 21
-27.0
 31
0.0
  0
LINE
  5
2AD
330
234
100
AcDbEntity
  8
0
  6
Continuous
 62
     2
100
AcDbLine
 10
0.0
 20
-40.0
 30
0.0
 11
90.0
 21
-40.0
 31
0.0
  0
LINE
  5
2AE
330
234
100
AcDbEntity
  8
0
  6
Continuous
 62
     2
100
AcDbLine
 10
30.0
 20
0.0
 30
0.0
 11
30.0
 21
-27.0
 31
0.0
  0
LINE
  5
2AF
330
234
100
AcDbEntity
  8
0
  6
Continuous
 62
     2
100
AcDbLine
 10
70.0
 20
0.0
 30
0.0
 11
70.0
 21
-12.0
 31
0.0
  0
LINE
  5
2B0
330
234
100
AcDbEntity
  8
0
  6
Continuous
 62
     2
100
AcDbLine
 10
90.0
 20
0.0
 30
0.0
 11
90.0
 21
-40.0
 31
0.0
  0
MTEXT
  5
2B1
330
234
100
AcDbEntity
  8
9_SOLID
  6
Continuous
 62
     2
100
AcDbMText
 10
31.4875
 20
-1.5
 30
0.0
 40
3.0
 41
44.72119
 46
0.0
 71
     1
 72
     1
  1
3D1_C_061
  7
TEXTSTYLE_4
 73
     1
 44
0.9
  0
MTEXT
  5
2B2
330
234
100
AcDbEntity
  8
9_SOLID
  6
Continuous
 62
     2
100
AcDbMText
 10
71.4875
 20
-1.25
 30
0.0
 40
3.5
 41
30.966543
 46
0.0
 71
     1
 72
     1
  1
Rev:00
  7
TEXTSTYLE_4
 73
     1
 44
0.9
  0
MTEXT
  5
2B3
330
234
100
AcDbEntity
  8
9_SOLID
  6
Continuous
 62
     2
100
AcDbMText
 10
31.4875
 20
-7.75
 30
0.0
 40
3.5
 41
40.724907
 46
0.0
 71
     1
 72
     1
  1
Scale:1:1
  7
TEXTSTYLE_4
 73
     1
 44
0.9
  0
MTEXT
  5
2B4
330
234
100
AcDbEntity
  8
9_SOLID
  6
Continuous
 62
     2
100
AcDbMText
 10
71.4875
 20
-7.25
 30
0.0
 40
3.5
 41
11.944238
 46
0.0
 71
     1
 72
     1
  1
A3
  7
TEXTSTYLE_4
 73
     1
 44
0.9
  0
MTEXT
  5
2B5
330
234
100
AcDbEntity
  8
9_SOLID
  6
Continuous
 62
     2
100
AcDbMText
 10
31.4875
 20
-15.25
 30
0.0
 40
3.5
 41
51.003717
 46
0.0
 71
     1
 72
     1
  1
KOCCA 1.4
  7
TEXTSTYLE_4
 73
     1
 44
0.9
  0
MTEXT
  5
2B6
330
234
100
AcDbEntity
  8
9_SOLID
  6
Continuous
 62
     2
100
AcDbMText
 10
31.4875
 20
-23.25
 30
0.0
 40
2.5
 41
47.695167
 46
0.0
 71
     1
 72
     1
  1
DATE:27.03.14
  7
TEXTSTYLE_4
 73
     1
 44
0.9
  0
MTEXT
  5
2B7
330
234
100
AcDbEntity
  8
9_SOLID
  6
Continuous
 62
     2
100
AcDbMText
 10
1.4875
 20
-27.3125
 30
0.0
 40
2.25
 41
148.98513
 46
0.0
 71
     1
 72
     1
  1
Any integral or partial reproductions are prohibited \Pwithout prior authorisation of L & L Luce & Light s.r.l., \Pin accordance with the law in force. \PAll rights reserved.
  7
TEXTSTYLE_4
 73
     1
 44
0.9
  0
ENDBLK
  5
2B8
330
234
100
AcDbEntity
  8
0
  6
ByBlock
 62
     0
100
AcDbBlockEnd
  0
ENDSEC
  0
SECTION
  2
ENTITIES
  0
LINE
  5
2B9
330
22C
100
AcDbEntity
 67
     1
  8
0
  6
Continuous
 62
     7
100
AcDbLine
 10
0.0
 20
0.0
 30
0.0
 11
420.0
 21
0.0
 31
0.0
  0
LINE
  5
2BA
330
22C
100
AcDbEntity
 67
     1
  8
0
  6
Continuous
 62
     7
100
AcDbLine
 10
420.0
 20
0.0
 30
0.0
 11
420.0
 21
297.0
 31
0.0
  0
LINE
  5
2BB
330
22C
100
AcDbEntity
 67
     1
  8
0
  6
Continuous
 62
     7
100
AcDbLine
 10
0.0
 20
297.0
 30
0.0
 11
420.0
 21
297.0
 31
0.0
  0
LINE
  5
2BC
330
22C
100
AcDbEntity
 67
     1
  8
0
  6
Continuous
 62
     7
100
AcDbLine
 10
0.0
 20
0.0
 30
0.0
 11
0.0
 21
297.0
 31
0.0
  0
LWPOLYLINE
  5
2BD
330
22C
100
AcDbEntity
 67
     1
  8
0
  6
Continuous
 62
     7
100
AcDbPolyline
 90
        2
 70
     0
 43
0.5
 10
410.0
 20
10.031844
 10
410.0
 20
287.0
  0
LWPOLYLINE
  5
2BE
330
22C
100
AcDbEntity
 67
     1
  8
0
  6
Continuous
 62
     7
100
AcDbPolyline
 90
        2
 70
     0
 43
0.5
 10
10.053631
 20
10.031844
 10
10.053631
 20
287.0
  0
LWPOLYLINE
  5
2BF
330
22C
100
AcDbEntity
 67
     1
  8
0
  6
Continuous
 62
     7
100
AcDbPolyline
 90
        2
 70
     0
 43
0.5
 10
10.053631
 20
10.031844
 10
410.0
 20
10.031844
  0
LWPOLYLINE
  5
2C0
330
22C
100
AcDbEntity
 67
     1
  8
0
  6
Continuous
 62
     7
100
AcDbPolyline
 90
        2
 70
     0
 43
0.1
 10
210.0
 20
10.0
 10
210.0
 20
0.0
  0
LWPOLYLINE
  5
2C1
330
22C
100
AcDbEntity
 67
     1
  8
0
  6
Continuous
 62
     7
100
AcDbPolyline
 90
        2
 70
     0
 43
0.1
 10
210.0
 20
287.0
 10
210.0
 20
297.0
  0
LWPOLYLINE
  5
2C2
330
22C
100
AcDbEntity
 67
     1
  8
0
  6
Continuous
 62
     7
100
AcDbPolyline
 90
        2
 70
     0
 43
0.1
 10
410.0
 20
148.5
 10
420.0
 20
148.5
  0
LWPOLYLINE
  5
2C3
330
22C
100
AcDbEntity
 67
     1
  8
0
  6
Continuous
 62
     7
100
AcDbPolyline
 90
        2
 70
     0
 43
0.1
 10
10.0
 20
148.5
 10
0.0
 20
148.5
  0
LWPOLYLINE
  5
2C4
330
22C
100
AcDbEntity
 67
     1
  8
0
  6
Continuous
 62
     7
100
AcDbPolyline
 90
        2
 70
     0
 43
0.5
 10
10.053631
 20
287.0
 10
410.0
 20
287.0
  0
LWPOLYLINE
  5
2C5
330
22C
100
AcDbEntity
 67
     1
  8
0
  6
Continuous
 62
     7
100
AcDbPolyline
 90
        2
 70
     0
 43
0.1
 10
0.0
 20
290.0
 10
420.0
 20
290.0
  0
LWPOLYLINE
  5
2C6
330
22C
100
AcDbEntity
 67
     1
  8
0
  6
Continuous
 62
     7
100
AcDbPolyline
 90
        2
 70
     0
 43
0.1
 10
7.053631
 20
0.0
 10
7.053631
 20
297.0
  0
LWPOLYLINE
  5
2C7
330
22C
100
AcDbEntity
 67
     1
  8
0
  6
Continuous
 62
     7
100
AcDbPolyline
 90
        2
 70
     0
 43
0.1
 10
413.0
 20
0.0
 10
413.0
 20
297.0
  0
LWPOLYLINE
  5
2C8
330
22C
100
AcDbEntity
 67
     1
  8
0
  6
Continuous
 62
     7
100
AcDbPolyline
 90
        2
 70
     0
 43
0.1
 10
0.0
 20
7.031844
 10
420.0
 20
7.031844
  0
LWPOLYLINE
  5
2C9
330
22C
100
AcDbEntity
 67
     1
  8
0
  6
Continuous
 62
     7
100
AcDbPolyline
 90
        2
 70
     0
 43
0.1
 10
10.0
 20
202.968156
 10
0.0
 20
202.968156
  0
LINE
  5
2CA
330
22C
100
AcDbEntity
 67
     1
  8
0
  6
Continuous
 62
     7
100
AcDbLine
 10
0.0
 20
99.968156
 30
0.0
 11
7.0
 21
99.968156
 31
0.0
  0
LINE
  5
2CB
330
22C
100
AcDbEntity
 67
     1
  8
0
  6
Continuous
 62
     7
100
AcDbLine
 10
0.0
 20
199.968156
 30
0.0
 11
7.0
 21
199.968156
 31
0.0
  0
LWPOLYLINE
  5
2CC
330
22C
100
AcDbEntity
 67
     1
  8
0
  6
Continuous
 62
     7
100
AcDbPolyline
 90
        2
 70
     0
 43
0.1
 10
410.0
 20
210.0
 10
420.0
 20
210.0
  0
LINE
  5
2CD
330
22C
100
AcDbEntity
 67
     1
  8
0
  6
Continuous
 62
     7
100
AcDbLine
 10
413.0
 20
107.0
 30
0.0
 11
420.0
 21
107.0
 31
0.0
  0
LWPOLYLINE
  5
2CE
330
22C
100
AcDbEntity
 67
     1
  8
0
  6
Continuous
 62
     7
100
AcDbPolyline
 90
        2
 70
     0
 43
0.1
 10
123.0
 20
10.0
 10
123.0
 20
0.0
  0
LINE
  5
2CF
330
22C
100
AcDbEntity
 67
     1
  8
0
  6
Continuous
 62
     7
100
AcDbLine
 10
210.0
 20
0.0
 30
0.0
 11
210.0
 21
10.0
 31
0.0
  0
LINE
  5
2D0
330
22C
100
AcDbEntity
 67
     1
  8
0
  6
Continuous
 62
     7
100
AcDbLine
 10
313.0
 20
7.0
 30
0.0
 11
313.0
 21
0.0
 31
0.0
  0
LINE
  5
2D1
330
22C
100
AcDbEntity
 67
     1
  8
0
  6
Continuous
 62
     7
100
AcDbLine
 10
113.0
 20
7.0
 30
0.0
 11
113.0
 21
0.0
 31
0.0
  0
LWPOLYLINE
  5
2D2
330
22C
100
AcDbEntity
 67
     1
  8
0
  6
Continuous
 62
     7
100
AcDbPolyline
 90
        2
 70
     0
 43
0.1
 10
123.0
 20
287.0
 10
123.0
 20
297.0
  0
LINE
  5
2D3
330
22C
100
AcDbEntity
 67
     1
  8
0
  6
Continuous
 62
     7
100
AcDbLine
 10
210.0
 20
287.0
 30
0.0
 11
210.0
 21
297.0
 31
0.0
  0
LINE
  5
2D4
330
22C
100
AcDbEntity
 67
     1
  8
0
  6
Continuous
 62
     7
100
AcDbLine
 10
313.0
 20
297.0
 30
0.0
 11
313.0
 21
290.0
 31
0.0
  0
LINE
  5
2D5
330
22C
100
AcDbEntity
 67
     1
  8
0
  6
Continuous
 62
     7
100
AcDbLine
 10
113.0
 20
297.0
 30
0.0
 11
113.0
 21
290.0
 31
0.0
  0
MTEXT
  5
2D6
330
22C
100
AcDbEntity
 67
     1
  8
0
  6
Continuous
 62
     2
100
AcDbMText
 10
1.646722
 20
53.595027
 30
0.0
 40
4.0
 41
3.428571
 46
0.0
 71
     1
 72
     1
  1
1
  7
TEXTSTYLE_2
 73
     1
 44
0.9
  0
MTEXT
  5
2D7
330
22C
100
AcDbEntity
 67
     1
  8
0
  6
Continuous
 62
     2
100
AcDbMText
 10
1.646722
 20
153.595027
 30
0.0
 40
4.0
 41
4.714286
 46
0.0
 71
     1
 72
     1
  1
2
  7
TEXTSTYLE_2
 73
     1
 44
0.9
  0
MTEXT
  5
2D8
330
22C
100
AcDbEntity
 67
     1
  8
0
  6
Continuous
 62
     2
100
AcDbMText
 10
1.646722
 20
253.595027
 30
0.0
 40
4.0
 41
4.285714
 46
0.0
 71
     1
 72
     1
  1
3
  7
TEXTSTYLE_2
 73
     1
 44
0.9
  0
MTEXT
  5
2D9
330
22C
100
AcDbEntity
 67
     1
  8
0
  6
Continuous
 62
     2
100
AcDbMText
 10
414.646722
 20
60.626871
 30
0.0
 40
4.0
 41
3.428571
 46
0.0
 71
     1
 72
     1
  1
1
  7
TEXTSTYLE_2
 73
     1
 44
0.9
  0
MTEXT
  5
2DA
330
22C
100
AcDbEntity
 67
     1
  8
0
  6
Continuous
 62
     2
100
AcDbMText
 10
414.646722
 20
160.626871
 30
0.0
 40
4.0
 41
4.714286
 46
0.0
 71
     1
 72
     1
  1
2
  7
TEXTSTYLE_2
 73
     1
 44
0.9
  0
MTEXT
  5
2DB
330
22C
100
AcDbEntity
 67
     1
  8
0
  6
Continuous
 62
     2
100
AcDbMText
 10
414.646722
 20
260.626871
 30
0.0
 40
4.0
 41
4.285714
 46
0.0
 71
     1
 72
     1
  1
3
  7
TEXTSTYLE_2
 73
     1
 44
0.9
  0
MTEXT
  5
2DC
330
22C
100
AcDbEntity
 67
     1
  8
0
  6
Continuous
 62
     2
100
AcDbMText
 10
362.154891
 20
5.35876
 30
0.0
 40
4.0
 41
3.6
 46
0.0
 71
     1
 72
     1
  1
A
  7
TEXTSTYLE_3
 73
     1
 44
0.9
  0
MTEXT
  5
2DD
330
22C
100
AcDbEntity
 67
     1
  8
0
  6
Continuous
 62
     2
100
AcDbMText
 10
262.154891
 20
5.35876
 30
0.0
 40
4.0
 41
3.6
 46
0.0
 71
     1
 72
     1
  1
B
  7
TEXTSTYLE_3
 73
     1
 44
0.9
  0
MTEXT
  5
2DE
330
22C
100
AcDbEntity
 67
     1
  8
0
  6
Continuous
 62
     2
100
AcDbMText
 10
162.154891
 20
5.35876
 30
0.0
 40
4.0
 41
3.6
 46
0.0
 71
     1
 72
     1
  1
C
  7
TEXTSTYLE_3
 73
     1
 44
0.9
  0
MTEXT
  5
2DF
330
22C
100
AcDbEntity
 67
     1
  8
0
  6
Continuous
 62
     2
100
AcDbMText
 10
55.797869
 20
5.535344
 30
0.0
 40
4.0
 41
3.6
 46
0.0
 71
     1
 72
     1
  1
D
  7
TEXTSTYLE_3
 73
     1
 44
0.9
  0
MTEXT
  5
2E0
330
22C
100
AcDbEntity
 67
     1
  8
0
  6
Continuous
 62
     2
100
AcDbMText
 10
362.154891
 20
295.35876
 30
0.0
 40
4.0
 41
3.6
 46
0.0
 71
     1
 72
     1
  1
A
  7
TEXTSTYLE_3
 73
     1
 44
0.9
  0
MTEXT
  5
2E1
330
22C
100
AcDbEntity
 67
     1
  8
0
  6
Continuous
 62
     2
100
AcDbMText
 10
262.154891
 20
295.35876
 30
0.0
 40
4.0
 41
3.6
 46
0.0
 71
     1
 72
     1
  1
B
  7
TEXTSTYLE_3
 73
     1
 44
0.9
  0
MTEXT
  5
2E2
330
22C
100
AcDbEntity
 67
     1
  8
0
  6
Continuous
 62
     2
100
AcDbMText
 10
162.154891
 20
295.35876
 30
0.0
 40
4.0
 41
3.6
 46
0.0
 71
     1
 72
     1
  1
C
  7
TEXTSTYLE_3
 73
     1
 44
0.9
  0
MTEXT
  5
2E3
330
22C
100
AcDbEntity
 67
     1
  8
0
  6
Continuous
 62
     2
100
AcDbMText
 10
53.987883
 20
295.57949
 30
0.0
 40
4.0
 41
3.6
 46
0.0
 71
     1
 72
     1
  1
D
  7
TEXTSTYLE_3
 73
     1
 44
0.9
  0
VIEWPORT
  5
2E4
330
22C
100
AcDbEntity
 67
     1
  8
0
100
AcDbViewport
 10
0.0
 20
0.0
 30
0.0
 40
588.18318
 41
297.0
 68
     1
 69
     1
 12
210.0
 22
148.5
 13
0.0
 23
0.0
 14
10.0
 24
10.0
 15
10.0
 25
10.0
 16
0.0
 26
0.0
 36
1.0
 17
0.0
 27
0.0
 37
0.0
 42
50.0
 43
0.0
 44
0.0
 45
297.0
 50
0.0
 51
0.0
 72
   100
 90
    32880
  1

281
     0
 71
     1
 74
     0
110
0.0
120
0.0
130
0.0
111
1.0
121
0.0
131
0.0
112
0.0
122
1.0
132
0.0
 79
     0
146
0.0
170
     0
 61
     5
292
     1
282
     1
141
0.0
142
0.0
 63
   256
361
4EC
  0
LINE
  5
2E5
330
22C
100
AcDbEntity
 67
     1
  8
7_ALL_FEATURES
  6
HIDDEN
 62
     8
100
AcDbLine
 10
134.791183
 20
260.444761
 30
0.0
 11
135.523003
 21
260.444761
 31
0.0
  0
LINE
  5
2E6
330
22C
100
AcDbEntity
 67
     1
  8
7_ALL_FEATURES
  6
HIDDEN
 62
     8
100
AcDbLine
 10
135.523003
 20
260.444761
 30
0.0
 11
135.523003
 21
260.169963
 31
0.0
  0
LINE
  5
2E7
330
22C
100
AcDbEntity
 67
     1
  8
7_ALL_FEATURES
  6
HIDDEN
 62
     8
100
AcDbLine
 10
135.523003
 20
260.169963
 30
0.0
 11
134.490701
 21
260.169963
 31
0.0
  0
LINE
  5
2E8
330
22C
100
AcDbEntity
 67
     1
  8
7_ALL_FEATURES
  6
HIDDEN
 62
     8
100
AcDbLine
 10
134.490701
 20
260.169963
 30
0.0
 11
134.490701
 21
262.579422
 31
0.0
  0
LINE
  5
2E9
330
22C
100
AcDbEntity
 67
     1
  8
7_ALL_FEATURES
  6
HIDDEN
 62
     8
100
AcDbLine
 10
134.490701
 20
262.579422
 30
0.0
 11
134.791183
 21
262.579422
 31
0.0
  0
LINE
  5
2EA
330
22C
100
AcDbEntity
 67
     1
  8
7_ALL_FEATURES
  6
HIDDEN
 62
     8
100
AcDbLine
 10
134.791183
 20
262.579422
 30
0.0
 11
134.791183
 21
260.444761
 31
0.0
  0
LINE
  5
2EB
330
22C
100
AcDbEntity
 67
     1
  8
7_ALL_FEATURES
  6
HIDDEN
 62
     8
100
AcDbLine
 10
136.39162
 20
261.838166
 30
0.0
 11
136.471443
 21
261.736036
 31
0.0
  0
LINE
  5
2EC
330
22C
100
AcDbEntity
 67
     1
  8
7_ALL_FEATURES
  6
HIDDEN
 62
     8
100
AcDbLine
 10
136.471443
 20
261.736036
 30
0.0
 11
136.509847
 21
261.761478
 31
0.0
  0
SPLINE
  5
2ED
330
22C
100
AcDbEntity
 67
     1
  8
7_ALL_FEATURES
  6
HIDDEN
 62
     8
100
AcDbSpline
 70
     0
 71
     3
 72
    11
 73
     7
 74
     0
 42
0.000000001
 43
0.0000001
 40
0.0
 40
0.0
 40
0.0
 40
0.0
 40
0.2488928963
 40
0.503618197
 40
0.7495274719
 40
1.0
 40
1.0
 40
1.0
 40
1.0
 10
136.5098473438
 20
261.7614777855
 30
0.0
 10
136.5415395638
 20
261.7864743553
 30
0.0
 10
136.6075566313
 20
261.8345781779
 30
0.0
 10
136.7010234344
 20
261.9125859916
 30
0.0
 10
136.7775778632
 20
262.0098499905
 30
0.0
 10
136.7974268791
 20
262.0915461613
 30
0.0
 10
136.7974268791
 20
262.1321659979
 30
0.0
  0
SPLINE
  5
2EE
330
22C
100
AcDbEntity
 67
     1
  8
7_ALL_FEATURES
  6
HIDDEN
 62
     8
100
AcDbSpline
 70
     0
 71
     3
 72
    10
 73
     6
 74
     0
 42
0.000000001
 43
0.0000001
 40
0.0
 40
0.0
 40
0.0
 40
0.0
 40
0.2677432381
 40
0.5047124626
 40
1.0
 40
1.0
 40
1.0
 40
1.0
 10
136.7974268791
 20
262.1321659979
 30
0.0
 10
136.7974268791
 20
262.1702999269
 30
0.0
 10
136.7854657425
 20
262.2436622216
 30
0.0
 10
136.6999238745
 20
262.36366301
 30
0.0
 10
136.5866900006
 20
262.3941527633
 30
0.0
 10
136.5161475663
 20
262.3941527633
 30
0.0
  0
SPLINE
  5
2EF
330
22C
100
AcDbEntity
 67
     1
  8
7_ALL_FEATURES
  6
HIDDEN
 62
     8
100
AcDbSpline
 70
     0
 71
     3
 72
    21
 73
    17
 74
     0
 42
0.000000001
 43
0.0000001
 40
0.0
 40
0.0
 40
0.0
 40
0.0
 40
0.1385587501
 40
0.2716037165
 40
0.3378237324
 40
0.4049060553
 40
0.4742968392
 40
0.5104789143
 40
0.54797154
 40
0.5777690112
 40
0.6067971626
 40
0.6633032496
 40
0.7188537262
 40
0.774324849
 40
0.886467178
 40
1.0
 40
1.0
 40
1.0
 40
1.0
 10
136.5161475663
 20
262.3941527633
 30
0.0
 10
136.4814105274
 20
262.3941527633
 30
0.0
 10
136.4126563926
 20
262.3822832722
 30
0.0
 10
136.3381681397
 20
262.3376048097
 30
0.0
 10
136.2932220983
 20
262.2876645303
 30
0.0
 10
136.2675219637
 20
262.2433870083
 30
0.0
 10
136.2541476802
 20
262.2018462018
 30
0.0
 10
136.2486297496
 20
262.166352333
 30
0.0
 10
136.2473477037
 20
262.1403941457
 30
0.0
 10
136.2482636816
 20
262.1162425088
 30
0.0
 10
136.2515081932
 20
262.0874878519
 30
0.0
 10
136.2593274976
 20
262.0528606395
 30
0.0
 10
136.273954636
 20
262.0133831373
 30
0.0
 10
136.2991181726
 20
261.9633096099
 30
0.0
 10
136.3387682061
 20
261.9047692438
 30
0.0
 10
136.3740045529
 20
261.8605225352
 30
0.0
 10
136.3916202015
 20
261.8381656616
 30
0.0
  0
LINE
  5
2F0
330
22C
100
AcDbEntity
 67
     1
  8
7_ALL_FEATURES
  6
HIDDEN
 62
     8
100
AcDbLine
 10
136.407537
 20
261.358746
 30
0.0
 11
136.378779
 21
261.339574
 31
0.0
  0
SPLINE
  5
2F1
330
22C
100
AcDbEntity
 67
     1
  8
7_ALL_FEATURES
  6
HIDDEN
 62
     8
100
AcDbSpline
 70
     0
 71
     3
 72
    11
 73
     7
 74
     0
 42
0.000000001
 43
0.0000001
 40
0.0
 40
0.0
 40
0.0
 40
0.0
 40
0.3736376495
 40
0.5714235753
 40
0.7604690273
 40
1.0
 40
1.0
 40
1.0
 40
1.0
 10
136.3787785996
 20
261.3395738886
 30
0.0
 10
136.3076091119
 20
261.2902689479
 30
0.0
 10
136.1964241668
 20
261.2178825459
 30
0.0
 10
136.06403967
 20
261.1006473043
 30
0.0
 10
135.9726438678
 20
260.9868985694
 30
0.0
 10
135.9409884956
 20
260.8869608895
 30
0.0
 10
135.9409884956
 20
260.8314564202
 30
0.0
  0
SPLINE
  5
2F2
330
22C
100
AcDbEntity
 67
     1
  8
7_ALL_FEATURES
  6
HIDDEN
 62
     8
100
AcDbSpline
 70
     0
 71
     3
 72
     9
 73
     5
 74
     0
 42
0.000000001
 43
0.0000001
 40
0.0
 40
0.0
 40
0.0
 40
0.0
 40
0.4994860816
 40
1.0
 40
1.0
 40
1.0
 40
1.0
 10
135.9409884956
 20
260.8314564202
 30
0.0
 10
135.9409884956
 20
260.7188881664
 30
0.0
 10
136.0488800986
 20
260.4925955882
 30
0.0
 10
136.275534544
 20
260.3871249369
 30
0.0
 10
136.3883344395
 20
260.3871249369
 30
0.0
  0
SPLINE
  5
2F3
330
22C
100
AcDbEntity
 67
     1
  8
7_ALL_FEATURES
  6
HIDDEN
 62
     8
100
AcDbSpline
 70
     0
 71
     3
 72
    10
 73
     6
 74
     0
 42
0.000000001
 43
0.0000001
 40
0.0
 40
0.0
 40
0.0
 40
0.0
 40
0.2479121934
 40
0.4962955565
 40
1.0
 40
1.0
 40
1.0
 40
1.0
 10
136.3883344395
 20
260.3871249369
 30
0.0
 10
136.4424139861
 20
260.3871249369
 30
0.0
 10
136.5513482567
 20
260.4081692499
 30
0.0
 10
136.7445575661
 20
260.5136602837
 30
0.0
 10
136.8634920413
 20
260.6291722135
 30
0.0
 10
136.9411563576
 20
260.7068989108
 30
0.0
  0
LINE
  5
2F4
330
22C
100
AcDbEntity
 67
     1
  8
7_ALL_FEATURES
  6
HIDDEN
 62
     8
100
AcDbLine
 10
136.941156
 20
260.706899
 30
0.0
 11
136.407537
 21
261.358746
 31
0.0
  0
LINE
  5
2F5
330
22C
100
AcDbEntity
 67
     1
  8
7_ALL_FEATURES
  6
HIDDEN
 62
     8
100
AcDbLine
 10
137.142583
 20
260.920926
 30
0.0
 11
137.423771
 21
261.24697
 31
0.0
  0
LINE
  5
2F6
330
22C
100
AcDbEntity
 67
     1
  8
7_ALL_FEATURES
  6
HIDDEN
 62
     8
100
AcDbLine
 10
137.423771
 20
261.24697
 30
0.0
 11
137.615491
 21
261.048618
 31
0.0
  0
LINE
  5
2F7
330
22C
100
AcDbEntity
 67
     1
  8
7_ALL_FEATURES
  6
HIDDEN
 62
     8
100
AcDbLine
 10
137.615491
 20
261.048618
 30
0.0
 11
137.321461
 21
260.703643
 31
0.0
  0
LINE
  5
2F8
330
22C
100
AcDbEntity
 67
     1
  8
7_ALL_FEATURES
  6
HIDDEN
 62
     8
100
AcDbLine
 10
137.321461
 20
260.703643
 30
0.0
 11
137.752951
 21
260.169843
 31
0.0
  0
LINE
  5
2F9
330
22C
100
AcDbEntity
 67
     1
  8
7_ALL_FEATURES
  6
HIDDEN
 62
     8
100
AcDbLine
 10
137.752951
 20
260.169843
 30
0.0
 11
137.382232
 21
260.169843
 31
0.0
  0
LINE
  5
2FA
330
22C
100
AcDbEntity
 67
     1
  8
7_ALL_FEATURES
  6
HIDDEN
 62
     8
100
AcDbLine
 10
137.382232
 20
260.169843
 30
0.0
 11
137.120155
 21
260.495766
 31
0.0
  0
SPLINE
  5
2FB
330
22C
100
AcDbEntity
 67
     1
  8
7_ALL_FEATURES
  6
HIDDEN
 62
     8
100
AcDbSpline
 70
     0
 71
     3
 72
    28
 73
    24
 74
     0
 42
0.000000001
 43
0.0000001
 40
0.0
 40
0.0
 40
0.0
 40
0.0
 40
0.0760284172
 40
0.1517054191
 40
0.2265410138
 40
0.2640379459
 40
0.3019922458
 40
0.3552080395
 40
0.4067590479
 40
0.4571407166
 40
0.5068209117
 40
0.5563345336
 40
0.6063774127
 40
0.6578810319
 40
0.6845814527
 40
0.712118286
 40
0.732245749
 40
0.7513887002
 40
0.7874791981
 40
0.8219163452
 40
0.855930253
 40
0.9257103576
 40
1.0
 40
1.0
 40
1.0
 40
1.0
 10
137.1201550243
 20
260.4957660947
 30
0.0
 10
137.0744783946
 20
260.4421391316
 30
0.0
 10
136.9746945338
 20
260.3420803049
 30
0.0
 10
136.8018080075
 20
260.2209762503
 30
0.0
 10
136.6396846808
 20
260.1525899586
 30
0.0
 10
136.5030793713
 20
260.1236751144
 30
0.0
 10
136.3837875969
 20
260.1153673089
 30
0.0
 10
136.2513154247
 20
260.127511314
 30
0.0
 10
136.1121531221
 20
260.1666141417
 30
0.0
 10
135.9856236362
 20
260.2295561456
 30
0.0
 10
135.8748422449
 20
260.3142589542
 30
0.0
 10
135.7829824269
 20
260.4188543887
 30
0.0
 10
135.7133457158
 20
260.5413899644
 30
0.0
 10
135.6770921608
 20
260.6555401626
 30
0.0
 10
135.6621880109
 20
260.7525131167
 30
0.0
 10
135.6587275841
 20
260.8214564932
 30
0.0
 10
135.6610622616
 20
260.883375197
 30
0.0
 10
135.6694912878
 20
260.9527567114
 30
0.0
 10
135.6900228232
 20
261.0337391464
 30
0.0
 10
135.7301015223
 20
261.1224233695
 30
0.0
 10
135.8010873639
 20
261.2295963114
 30
0.0
 10
135.918869305
 20
261.3470727433
 30
0.0
 10
136.0257848576
 20
261.427083123
 30
0.0
 10
136.0815829351
 20
261.4673870154
 30
0.0
  0
LINE
  5
2FC
330
22C
100
AcDbEntity
 67
     1
  8
7_ALL_FEATURES
  6
HIDDEN
 62
     8
100
AcDbLine
 10
136.081583
 20
261.467387
 30
0.0
 11
136.231763
 21
261.576028
 31
0.0
  0
SPLINE
  5
2FD
330
22C
100
AcDbEntity
 67
     1
  8
7_ALL_FEATURES
  6
HIDDEN
 62
     8
100
AcDbSpline
 70
     0
 71
     3
 72
     9
 73
     5
 74
     0
 42
0.000000001
 43
0.0000001
 40
0.0
 40
0.0
 40
0.0
 40
0.0
 40
0.5046401266
 40
1.0
 40
1.0
 40
1.0
 40
1.0
 10
136.2317633591
 20
261.5760281732
 30
0.0
 10
136.1619662083
 20
261.6491344076
 30
0.0
 10
136.0328329114
 20
261.8039661829
 30
0.0
 10
135.9664908318
 20
262.0041013245
 30
0.0
 10
135.9664908318
 20
262.1033176105
 30
0.0
  0
SPLINE
  5
2FE
330
22C
100
AcDbEntity
 67
     1
  8
7_ALL_FEATURES
  6
HIDDEN
 62
     8
100
AcDbSpline
 70
     0
 71
     3
 72
    17
 73
    13
 74
     0
 42
0.000000001
 43
0.0000001
 40
0.0
 40
0.0
 40
0.0
 40
0.0
 40
0.1339928955
 40
0.2539391643
 40
0.3748156858
 40
0.4392397342
 40
0.5072968424
 40
0.5715000227
 40
0.6339713651
 40
0.7538672661
 40
0.8718322551
 40
1.0
 40
1.0
 40
1.0
 40
1.0
 10
135.9664908318
 20
262.1033176105
 30
0.0
 10
135.9664908318
 20
262.1788513553
 30
0.0
 10
135.9906314301
 20
262.3247666875
 30
0.0
 10
136.1160493202
 20
262.5034340525
 30
0.0
 10
136.2703188228
 20
262.5906955717
 30
0.0
 10
136.4094594426
 20
262.6249523246
 30
0.0
 10
136.520519602
 20
262.6334671444
 30
0.0
 10
136.630439204
 20
262.6250659289
 30
0.0
 10
136.7659020893
 20
262.5919568442
 30
0.0
 10
136.9188480711
 20
262.5100455172
 30
0.0
 10
137.0506921074
 20
262.3427844928
 30
0.0
 10
137.0786157581
 20
262.2010699693
 30
0.0
 10
137.0786157581
 20
262.1288199467
 30
0.0
  0
SPLINE
  5
2FF
330
22C
100
AcDbEntity
 67
     1
  8
7_ALL_FEATURES
  6
HIDDEN
 62
     8
100
AcDbSpline
 70
     0
 71
     3
 72
    11
 73
     7
 74
     0
 42
0.000000001
 43
0.0000001
 40
0.0
 40
0.0
 40
0.0
 40
0.0
 40
0.2490047129
 40
0.4952799166
 40
0.7493595777
 40
1.0
 40
1.0
 40
1.0
 40
1.0
 10
137.0786157581
 20
262.1288199467
 30
0.0
 10
137.0786157581
 20
262.0648178782
 30
0.0
 10
137.0499663773
 20
261.936077017
 30
0.0
 10
136.9390240352
 20
261.7752930402
 30
0.0
 10
136.7970066544
 20
261.6435308355
 30
0.0
 10
136.6928796585
 20
261.5660350165
 30
0.0
 10
136.6408557988
 20
261.5280379614
 30
0.0
  0
LINE
  5
300
330
22C
100
AcDbEntity
 67
     1
  8
7_ALL_FEATURES
  6
HIDDEN
 62
     8
100
AcDbLine
 10
136.640856
 20
261.528038
 30
0.0
 11
137.142583
 21
260.920926
 31
0.0
  0
LINE
  5
301
330
22C
100
AcDbEntity
 67
     1
  8
7_ALL_FEATURES
  6
HIDDEN
 62
     8
100
AcDbLine
 10
138.232069
 20
260.444761
 30
0.0
 11
138.96404
 21
260.444761
 31
0.0
  0
LINE
  5
302
330
22C
100
AcDbEntity
 67
     1
  8
7_ALL_FEATURES
  6
HIDDEN
 62
     8
100
AcDbLine
 10
138.96404
 20
260.444761
 30
0.0
 11
138.96404
 21
260.169963
 31
0.0
  0
LINE
  5
303
330
22C
100
AcDbEntity
 67
     1
  8
7_ALL_FEATURES
  6
HIDDEN
 62
     8
100
AcDbLine
 10
138.96404
 20
260.169963
 30
0.0
 11
137.931708
 21
260.169963
 31
0.0
  0
LINE
  5
304
330
22C
100
AcDbEntity
 67
     1
  8
7_ALL_FEATURES
  6
HIDDEN
 62
     8
100
AcDbLine
 10
137.931708
 20
260.169963
 30
0.0
 11
137.931708
 21
262.579422
 31
0.0
  0
LINE
  5
305
330
22C
100
AcDbEntity
 67
     1
  8
7_ALL_FEATURES
  6
HIDDEN
 62
     8
100
AcDbLine
 10
137.931708
 20
262.579422
 30
0.0
 11
138.232069
 21
262.579422
 31
0.0
  0
LINE
  5
306
330
22C
100
AcDbEntity
 67
     1
  8
7_ALL_FEATURES
  6
HIDDEN
 62
     8
100
AcDbLine
 10
138.232069
 20
262.579422
 30
0.0
 11
138.232069
 21
260.444761
 31
0.0
  0
LINE
  5
307
330
22C
100
AcDbEntity
 67
     1
  8
7_ALL_FEATURES
  6
HIDDEN
 62
     8
100
AcDbLine
 10
139.200736
 20
264.792247
 30
0.0
 11
134.18597
 21
264.792247
 31
0.0
  0
LINE
  5
308
330
22C
100
AcDbEntity
 67
     1
  8
7_ALL_FEATURES
  6
HIDDEN
 62
     8
100
AcDbLine
 10
134.18597
 20
264.792247
 30
0.0
 11
134.18597
 21
259.77736
 31
0.0
  0
LINE
  5
309
330
22C
100
AcDbEntity
 67
     1
  8
7_ALL_FEATURES
  6
HIDDEN
 62
     8
100
AcDbLine
 10
134.18597
 20
259.77736
 30
0.0
 11
139.200736
 21
259.77736
 31
0.0
  0
LINE
  5
30A
330
22C
100
AcDbEntity
 67
     1
  8
7_ALL_FEATURES
  6
HIDDEN
 62
     8
100
AcDbLine
 10
139.200736
 20
259.77736
 30
0.0
 11
139.200736
 21
264.792247
 31
0.0
  0
LINE
  5
30B
330
22C
100
AcDbEntity
 67
     1
  8
7_ALL_FEATURES
  6
HIDDEN
 62
     8
100
AcDbLine
 10
139.275133
 20
259.703084
 30
0.0
 11
134.111633
 21
259.703084
 31
0.0
  0
LINE
  5
30C
330
22C
100
AcDbEntity
 67
     1
  8
7_ALL_FEATURES
  6
HIDDEN
 62
     8
100
AcDbLine
 10
134.111633
 20
259.703084
 30
0.0
 11
134.111633
 21
264.866583
 31
0.0
  0
LINE
  5
30D
330
22C
100
AcDbEntity
 67
     1
  8
7_ALL_FEATURES
  6
HIDDEN
 62
     8
100
AcDbLine
 10
134.111633
 20
264.866583
 30
0.0
 11
139.275133
 21
264.866583
 31
0.0
  0
LINE
  5
30E
330
22C
100
AcDbEntity
 67
     1
  8
7_ALL_FEATURES
  6
HIDDEN
 62
     8
100
AcDbLine
 10
139.275133
 20
264.866583
 30
0.0
 11
139.275133
 21
259.703084
 31
0.0
  0
LINE
  5
30F
330
22C
100
AcDbEntity
 67
     1
  8
7_ALL_FEATURES
  6
HIDDEN
 62
     8
100
AcDbLine
 10
141.193383
 20
195.484833
 30
0.0
 11
141.193383
 21
266.784833
 31
0.0
  0
LINE
  5
310
330
22C
100
AcDbEntity
 67
     1
  8
7_ALL_FEATURES
  6
HIDDEN
 62
     8
100
AcDbLine
 10
141.193383
 20
266.784833
 30
0.0
 11
69.893383
 21
266.784833
 31
0.0
  0
LINE
  5
311
330
22C
100
AcDbEntity
 67
     1
  8
7_ALL_FEATURES
  6
HIDDEN
 62
     8
100
AcDbLine
 10
69.893383
 20
266.784833
 30
0.0
 11
69.893383
 21
195.484833
 31
0.0
  0
LINE
  5
312
330
22C
100
AcDbEntity
 67
     1
  8
7_ALL_FEATURES
  6
HIDDEN
 62
     8
100
AcDbLine
 10
69.893383
 20
195.484833
 30
0.0
 11
141.193383
 21
195.484833
 31
0.0
  0
LINE
  5
313
330
22C
100
AcDbEntity
 67
     1
  8
7_ALL_FEATURES
  6
HIDDEN
 62
     8
100
AcDbLine
 10
61.423383
 20
275.314833
 30
0.0
 11
149.663383
 21
275.314833
 31
0.0
  0
LINE
  5
314
330
22C
100
AcDbEntity
 67
     1
  8
7_ALL_FEATURES
  6
HIDDEN
 62
     8
100
AcDbLine
 10
61.363383
 20
187.014833
 30
0.0
 11
61.363383
 21
275.254833
 31
0.0
  0
LINE
  5
315
330
22C
100
AcDbEntity
 67
     1
  8
7_ALL_FEATURES
  6
HIDDEN
 62
     8
100
AcDbLine
 10
149.663383
 20
186.954833
 30
0.0
 11
61.423383
 21
186.954833
 31
0.0
  0
LINE
  5
316
330
22C
100
AcDbEntity
 67
     1
  8
7_ALL_FEATURES
  6
HIDDEN
 62
     8
100
AcDbLine
 10
149.723383
 20
275.254833
 30
0.0
 11
149.723383
 21
187.014833
 31
0.0
  0
ARC
  5
317
330
22C
100
AcDbEntity
 67
     1
  8
7_ALL_FEATURES
  6
Continuous
 62
     7
100
AcDbCircle
 10
65.043383
 20
168.384833
 30
0.0
 40
2.5
100
AcDbArc
 50
0.0
 51
180.0
  0
LINE
  5
318
330
22C
100
AcDbEntity
 67
     1
  8
7_ALL_FEATURES
  6
Continuous
 62
     7
100
AcDbLine
 10
65.765071
 20
169.634833
 30
0.0
 11
66.486758
 21
168.384833
 31
0.0
  0
ARC
  5
319
330
22C
100
AcDbEntity
 67
     1
  8
7_ALL_FEATURES
  6
Continuous
 62
     7
100
AcDbCircle
 10
65.043383
 20
168.384833
 30
0.0
 40
2.5
100
AcDbArc
 50
180.0
 51
360.0
  0
LINE
  5
31A
330
22C
100
AcDbEntity
 67
     1
  8
7_ALL_FEATURES
  6
Continuous
 62
     7
100
AcDbLine
 10
66.486758
 20
168.384833
 30
0.0
 11
65.765071
 21
167.134833
 31
0.0
  0
LINE
  5
31B
330
22C
100
AcDbEntity
 67
     1
  8
7_ALL_FEATURES
  6
Continuous
 62
     7
100
AcDbLine
 10
64.321695
 20
167.134833
 30
0.0
 11
65.043383
 21
167.134833
 31
0.0
  0
LINE
  5
31C
330
22C
100
AcDbEntity
 67
     1
  8
7_ALL_FEATURES
  6
Continuous
 62
     7
100
AcDbLine
 10
65.043383
 20
167.134833
 30
0.0
 11
65.765071
 21
167.134833
 31
0.0
  0
LINE
  5
31D
330
22C
100
AcDbEntity
 67
     1
  8
7_ALL_FEATURES
  6
Continuous
 62
     7
100
AcDbLine
 10
64.321695
 20
167.134833
 30
0.0
 11
63.600007
 21
168.384833
 31
0.0
  0
LINE
  5
31E
330
22C
100
AcDbEntity
 67
     1
  8
7_ALL_FEATURES
  6
Continuous
 62
     7
100
AcDbLine
 10
63.600007
 20
168.384833
 30
0.0
 11
64.321695
 21
169.634833
 31
0.0
  0
LINE
  5
31F
330
22C
100
AcDbEntity
 67
     1
  8
7_ALL_FEATURES
  6
Continuous
 62
     7
100
AcDbLine
 10
65.043383
 20
169.634833
 30
0.0
 11
64.321695
 21
169.634833
 31
0.0
  0
LINE
  5
320
330
22C
100
AcDbEntity
 67
     1
  8
7_ALL_FEATURES
  6
Continuous
 62
     7
100
AcDbLine
 10
65.765071
 20
169.634833
 30
0.0
 11
65.043383
 21
169.634833
 31
0.0
  0
ARC
  5
321
330
22C
100
AcDbEntity
 67
     1
  8
7_ALL_FEATURES
  6
Continuous
 62
     7
100
AcDbCircle
 10
65.043383
 20
168.384833
 30
0.0
 40
2.1999999424
100
AcDbArc
 50
180.0
 51
360.0
  0
ARC
  5
322
330
22C
100
AcDbEntity
 67
     1
  8
7_ALL_FEATURES
  6
Continuous
 62
     7
100
AcDbCircle
 10
65.043383
 20
168.384833
 30
0.0
 40
2.1999999424
100
AcDbArc
 50
0.0
 51
180.0
  0
ARC
  5
323
330
22C
100
AcDbEntity
 67
     1
  8
7_ALL_FEATURES
  6
Continuous
 62
     7
100
AcDbCircle
 10
65.043383
 20
168.384833
 30
0.0
 40
1.55
100
AcDbArc
 50
270.0
 51
90.0
  0
ARC
  5
324
330
22C
100
AcDbEntity
 67
     1
  8
7_ALL_FEATURES
  6
Continuous
 62
     7
100
AcDbCircle
 10
65.043383
 20
168.384833
 30
0.0
 40
1.55
100
AcDbArc
 50
90.0
 51
270.0
  0
LINE
  5
325
330
22C
100
AcDbEntity
 67
     1
  8
7_ALL_FEATURES
  6
Continuous
 62
     7
100
AcDbLine
 10
61.393383
 20
186.984833
 30
0.0
 11
60.893383
 21
187.484833
 31
0.0
  0
LINE
  5
326
330
22C
100
AcDbEntity
 67
     1
  8
7_ALL_FEATURES
  6
Continuous
 62
     7
100
AcDbLine
 10
61.893383
 20
275.784833
 30
0.0
 11
61.393383
 21
275.284833
 31
0.0
  0
LINE
  5
327
330
22C
100
AcDbEntity
 67
     1
  8
7_ALL_FEATURES
  6
Continuous
 62
     7
100
AcDbLine
 10
149.193383
 20
275.784833
 30
0.0
 11
149.693383
 21
275.284833
 31
0.0
  0
LINE
  5
328
330
22C
100
AcDbEntity
 67
     1
  8
7_ALL_FEATURES
  6
Continuous
 62
     7
100
AcDbLine
 10
60.893383
 20
274.784833
 30
0.0
 11
61.393383
 21
275.284833
 31
0.0
  0
LINE
  5
329
330
22C
100
AcDbEntity
 67
     1
  8
7_ALL_FEATURES
  6
Continuous
 62
     7
100
AcDbLine
 10
150.193383
 20
187.484833
 30
0.0
 11
149.693383
 21
186.984833
 31
0.0
  0
LINE
  5
32A
330
22C
100
AcDbEntity
 67
     1
  8
7_ALL_FEATURES
  6
Continuous
 62
     7
100
AcDbLine
 10
149.693383
 20
275.284833
 30
0.0
 11
150.193383
 21
274.784833
 31
0.0
  0
LINE
  5
32B
330
22C
100
AcDbEntity
 67
     1
  8
7_ALL_FEATURES
  6
Continuous
 62
     7
100
AcDbLine
 10
149.693383
 20
186.984833
 30
0.0
 11
149.193383
 21
186.484833
 31
0.0
  0
LINE
  5
32C
330
22C
100
AcDbEntity
 67
     1
  8
7_ALL_FEATURES
  6
Continuous
 62
     7
100
AcDbLine
 10
61.893383
 20
186.484833
 30
0.0
 11
61.393383
 21
186.984833
 31
0.0
  0
LINE
  5
32D
330
22C
100
AcDbEntity
 67
     1
  8
7_ALL_FEATURES
  6
Continuous
 62
     7
100
AcDbLine
 10
149.193383
 20
275.784833
 30
0.0
 11
61.893383
 21
275.784833
 31
0.0
  0
LINE
  5
32E
330
22C
100
AcDbEntity
 67
     1
  8
7_ALL_FEATURES
  6
Continuous
 62
     7
100
AcDbLine
 10
150.193383
 20
187.484833
 30
0.0
 11
150.193383
 21
274.784833
 31
0.0
  0
LINE
  5
32F
330
22C
100
AcDbEntity
 67
     1
  8
7_ALL_FEATURES
  6
Continuous
 62
     7
100
AcDbLine
 10
61.893383
 20
186.484833
 30
0.0
 11
149.193383
 21
186.484833
 31
0.0
  0
LINE
  5
330
330
22C
100
AcDbEntity
 67
     1
  8
7_ALL_FEATURES
  6
Continuous
 62
     7
100
AcDbLine
 10
60.893383
 20
274.784833
 30
0.0
 11
60.893383
 21
187.484833
 31
0.0
  0
LINE
  5
331
330
22C
100
AcDbEntity
 67
     1
  8
7_ALL_FEATURES
  6
Continuous
 62
     7
100
AcDbLine
 10
149.693383
 20
186.984833
 30
0.0
 11
149.693383
 21
275.284833
 31
0.0
  0
LINE
  5
332
330
22C
100
AcDbEntity
 67
     1
  8
7_ALL_FEATURES
  6
Continuous
 62
     7
100
AcDbLine
 10
149.693383
 20
275.284833
 30
0.0
 11
61.393383
 21
275.284833
 31
0.0
  0
LINE
  5
333
330
22C
100
AcDbEntity
 67
     1
  8
7_ALL_FEATURES
  6
Continuous
 62
     7
100
AcDbLine
 10
61.393383
 20
275.284833
 30
0.0
 11
61.393383
 21
186.984833
 31
0.0
  0
LINE
  5
334
330
22C
100
AcDbEntity
 67
     1
  8
7_ALL_FEATURES
  6
Continuous
 62
     7
100
AcDbLine
 10
61.393383
 20
186.984833
 30
0.0
 11
149.693383
 21
186.984833
 31
0.0
  0
LINE
  5
335
330
22C
100
AcDbEntity
 67
     1
  8
7_ALL_FEATURES
  6
Continuous
 62
     7
100
AcDbLine
 10
55.543383
 20
161.134833
 30
0.0
 11
155.543383
 21
161.134833
 31
0.0
  0
LINE
  5
336
330
22C
100
AcDbEntity
 67
     1
  8
7_ALL_FEATURES
  6
Continuous
 62
     7
100
AcDbLine
 10
55.543383
 20
281.134833
 30
0.0
 11
155.543383
 21
281.134833
 31
0.0
  0
LINE
  5
337
330
22C
100
AcDbEntity
 67
     1
  8
7_ALL_FEATURES
  6
Continuous
 62
     7
100
AcDbLine
 10
155.543383
 20
161.134833
 30
0.0
 11
155.543383
 21
281.134833
 31
0.0
  0
LINE
  5
338
330
22C
100
AcDbEntity
 67
     1
  8
7_ALL_FEATURES
  6
Continuous
 62
     7
100
AcDbLine
 10
55.543383
 20
161.134833
 30
0.0
 11
55.543383
 21
281.134833
 31
0.0
  0
ARC
  5
339
330
22C
100
AcDbEntity
 67
     1
  8
06___PRT_ALL_SURFS
  6
Continuous
 62
     7
100
AcDbCircle
 10
152.800908
 20
160.334833
 30
0.0
 40
0.4
100
AcDbArc
 50
270.0
 51
357.0
  0
LINE
  5
33A
330
22C
100
AcDbEntity
 67
     1
  8
06___PRT_ALL_SURFS
  6
Continuous
 62
     7
100
AcDbLine
 10
151.243383
 20
159.934833
 30
0.0
 11
151.724684
 21
159.934833
 31
0.0
  0
LINE
  5
33B
330
22C
100
AcDbEntity
 67
     1
  8
06___PRT_ALL_SURFS
  6
Continuous
 62
     7
100
AcDbLine
 10
151.724684
 20
159.934833
 30
0.0
 11
152.158873
 21
159.934833
 31
0.0
  0
LINE
  5
33C
330
22C
100
AcDbEntity
 67
     1
  8
06___PRT_ALL_SURFS
  6
Continuous
 62
     7
100
AcDbLine
 10
152.158873
 20
159.934833
 30
0.0
 11
152.800908
 21
159.934833
 31
0.0
  0
LINE
  5
33D
330
22C
100
AcDbEntity
 67
     1
  8
06___PRT_ALL_SURFS
  6
Continuous
 62
     7
100
AcDbLine
 10
151.243383
 20
159.934833
 30
0.0
 11
145.843383
 21
159.934833
 31
0.0
  0
ARC
  5
33E
330
22C
100
AcDbEntity
 67
     1
  8
06___PRT_ALL_SURFS
  6
Continuous
 62
     7
100
AcDbCircle
 10
145.685858
 20
160.334833
 30
0.0
 40
0.4
100
AcDbArc
 50
248.25
 51
270.0
  0
ARC
  5
33F
330
22C
100
AcDbEntity
 67
     1
  8
06___PRT_ALL_SURFS
  6
Continuous
 62
     7
100
AcDbCircle
 10
145.685858
 20
160.334833
 30
0.0
 40
0.4
100
AcDbArc
 50
183.0
 51
248.25
  0
LINE
  5
340
330
22C
100
AcDbEntity
 67
     1
  8
06___PRT_ALL_SURFS
  6
Continuous
 62
     7
100
AcDbLine
 10
145.843383
 20
159.934833
 30
0.0
 11
145.685859
 21
159.934833
 31
0.0
  0
LINE
  5
341
330
22C
100
AcDbEntity
 67
     1
  8
06___PRT_ALL_SURFS
  6
Continuous
 62
     7
100
AcDbLine
 10
145.689807
 20
159.934833
 30
0.0
 11
145.843383
 21
159.934833
 31
0.0
  0
LINE
  5
342
330
22C
100
AcDbEntity
 67
     1
  8
06___PRT_ALL_SURFS
  6
Continuous
 62
     7
100
AcDbLine
 10
145.843383
 20
159.934833
 30
0.0
 11
145.689807
 21
159.934833
 31
0.0
  0
LINE
  5
343
330
22C
100
AcDbEntity
 67
     1
  8
06___PRT_ALL_SURFS
  6
Continuous
 62
     7
100
AcDbLine
 10
145.286406
 20
160.313899
 30
0.0
 11
145.243383
 21
161.134833
 31
0.0
  0
LINE
  5
344
330
22C
100
AcDbEntity
 67
     1
  8
06___PRT_ALL_SURFS
  6
Continuous
 62
     7
100
AcDbLine
 10
65.400907
 20
159.934833
 30
0.0
 11
65.243383
 21
159.934833
 31
0.0
  0
ARC
  5
345
330
22C
100
AcDbEntity
 67
     1
  8
06___PRT_ALL_SURFS
  6
Continuous
 62
     7
100
AcDbCircle
 10
65.400908
 20
160.334833
 30
0.0
 40
0.4
100
AcDbArc
 50
270.0
 51
291.75
  0
ARC
  5
346
330
22C
100
AcDbEntity
 67
     1
  8
06___PRT_ALL_SURFS
  6
Continuous
 62
     7
100
AcDbCircle
 10
65.400908
 20
160.334833
 30
0.0
 40
0.4
100
AcDbArc
 50
291.75
 51
313.5
  0
ARC
  5
347
330
22C
100
AcDbEntity
 67
     1
  8
06___PRT_ALL_SURFS
  6
Continuous
 62
     7
100
AcDbCircle
 10
65.400908
 20
160.334833
 30
0.0
 40
0.4
100
AcDbArc
 50
313.5
 51
357.0
  0
LINE
  5
348
330
22C
100
AcDbEntity
 67
     1
  8
06___PRT_ALL_SURFS
  6
Continuous
 62
     7
100
AcDbLine
 10
65.396958
 20
159.934833
 30
0.0
 11
65.400908
 21
159.934833
 31
0.0
  0
LINE
  5
349
330
22C
100
AcDbEntity
 67
     1
  8
06___PRT_ALL_SURFS
  6
Continuous
 62
     7
100
AcDbLine
 10
65.400908
 20
159.934833
 30
0.0
 11
65.243383
 21
159.934833
 31
0.0
  0
LINE
  5
34A
330
22C
100
AcDbEntity
 67
     1
  8
06___PRT_ALL_SURFS
  6
Continuous
 62
     7
100
AcDbLine
 10
65.243383
 20
159.934833
 30
0.0
 11
65.396958
 21
159.934833
 31
0.0
  0
LINE
  5
34B
330
22C
100
AcDbEntity
 67
     1
  8
06___PRT_ALL_SURFS
  6
Continuous
 62
     7
100
AcDbLine
 10
65.243383
 20
159.934833
 30
0.0
 11
59.843383
 21
159.934833
 31
0.0
  0
ARC
  5
34C
330
22C
100
AcDbEntity
 67
     1
  8
06___PRT_ALL_SURFS
  6
Continuous
 62
     7
100
AcDbCircle
 10
58.285858
 20
160.334833
 30
0.0
 40
0.4
100
AcDbArc
 50
183.0
 51
270.0
  0
LINE
  5
34D
330
22C
100
AcDbEntity
 67
     1
  8
06___PRT_ALL_SURFS
  6
Continuous
 62
     7
100
AcDbLine
 10
58.285858
 20
159.934833
 30
0.0
 11
58.927893
 21
159.934833
 31
0.0
  0
LINE
  5
34E
330
22C
100
AcDbEntity
 67
     1
  8
06___PRT_ALL_SURFS
  6
Continuous
 62
     7
100
AcDbLine
 10
58.927893
 20
159.934833
 30
0.0
 11
59.362081
 21
159.934833
 31
0.0
  0
LINE
  5
34F
330
22C
100
AcDbEntity
 67
     1
  8
06___PRT_ALL_SURFS
  6
Continuous
 62
     7
100
AcDbLine
 10
59.362081
 20
159.934833
 30
0.0
 11
59.843383
 21
159.934833
 31
0.0
  0
LINE
  5
350
330
22C
100
AcDbEntity
 67
     1
  8
06___PRT_ALL_SURFS
  6
Continuous
 62
     7
100
AcDbLine
 10
57.886406
 20
160.313899
 30
0.0
 11
57.843383
 21
161.134833
 31
0.0
  0
LINE
  5
351
330
22C
100
AcDbEntity
 67
     1
  8
06___PRT_ALL_SURFS
  6
Continuous
 62
     7
100
AcDbLine
 10
65.800359
 20
160.313899
 30
0.0
 11
65.843383
 21
161.134833
 31
0.0
  0
LINE
  5
352
330
22C
100
AcDbEntity
 67
     1
  8
7_ALL_FEATURES
  6
Continuous
 62
     7
100
AcDbLine
 10
153.200359
 20
160.313899
 30
0.0
 11
153.243383
 21
161.134833
 31
0.0
  0
LINE
  5
353
330
22C
100
AcDbEntity
 67
     1
  8
06___PRT_ALL_SURFS
  6
Continuous
 62
     7
100
AcDbLine
 10
152.800908
 20
159.934833
 30
0.0
 11
152.157938
 21
159.934833
 31
0.0
  0
LINE
  5
354
330
22C
100
AcDbEntity
 67
     1
  8
06___PRT_ALL_SURFS
  6
Continuous
 62
     7
100
AcDbLine
 10
152.157938
 20
159.934833
 30
0.0
 11
151.719413
 21
159.934833
 31
0.0
  0
LINE
  5
355
330
22C
100
AcDbEntity
 67
     1
  8
06___PRT_ALL_SURFS
  6
Continuous
 62
     7
100
AcDbLine
 10
151.719413
 20
159.934833
 30
0.0
 11
151.243383
 21
159.934833
 31
0.0
  0
LINE
  5
356
330
22C
100
AcDbEntity
 67
     1
  8
06___PRT_ALL_SURFS
  6
Continuous
 62
     7
100
AcDbLine
 10
151.243383
 20
159.934833
 30
0.0
 11
145.843383
 21
159.934833
 31
0.0
  0
LINE
  5
357
330
22C
100
AcDbEntity
 67
     1
  8
7_ALL_FEATURES
  6
Continuous
 62
     7
100
AcDbLine
 10
57.886406
 20
160.313899
 30
0.0
 11
57.843383
 21
161.134833
 31
0.0
  0
LINE
  5
358
330
22C
100
AcDbEntity
 67
     1
  8
06___PRT_ALL_SURFS
  6
Continuous
 62
     7
100
AcDbLine
 10
65.243383
 20
159.934833
 30
0.0
 11
59.843383
 21
159.934833
 31
0.0
  0
LINE
  5
359
330
22C
100
AcDbEntity
 67
     1
  8
06___PRT_ALL_SURFS
  6
Continuous
 62
     7
100
AcDbLine
 10
59.843383
 20
159.934833
 30
0.0
 11
59.367349
 21
159.934833
 31
0.0
  0
LINE
  5
35A
330
22C
100
AcDbEntity
 67
     1
  8
06___PRT_ALL_SURFS
  6
Continuous
 62
     7
100
AcDbLine
 10
59.367349
 20
159.934833
 30
0.0
 11
58.928859
 21
159.934833
 31
0.0
  0
LINE
  5
35B
330
22C
100
AcDbEntity
 67
     1
  8
06___PRT_ALL_SURFS
  6
Continuous
 62
     7
100
AcDbLine
 10
58.928859
 20
159.934833
 30
0.0
 11
58.285858
 21
159.934833
 31
0.0
  0
SPLINE
  5
35C
330
22C
100
AcDbEntity
 67
     1
  8
7_ALL_FEATURES
  6
Continuous
 62
     9
100
AcDbSpline
 70
     0
 71
     3
 72
    11
 73
     7
 74
     0
 42
0.000000001
 43
0.0000001
 40
0.0
 40
0.0
 40
0.0
 40
0.0
 40
0.2498362902
 40
0.4998073102
 40
0.7499002402
 40
1.0
 40
1.0
 40
1.0
 40
1.0
 10
149.8192431066
 20
276.1596658359
 30
0.0
 10
149.91654114
 20
276.1594874893
 30
0.0
 10
150.1132342877
 20
276.1202760854
 30
0.0
 10
150.3619383596
 20
275.953654767
 30
0.0
 10
150.5287520838
 20
275.7049440718
 30
0.0
 10
150.5680368255
 20
275.5080943259
 30
0.0
 10
150.5682152577
 20
275.4106936848
 30
0.0
  0
SPLINE
  5
35D
330
22C
100
AcDbEntity
 67
     1
  8
7_ALL_FEATURES
  6
Continuous
 62
     9
100
AcDbSpline
 70
     0
 71
     3
 72
    11
 73
     7
 74
     0
 42
0.000000001
 43
0.0000001
 40
0.0
 40
0.0
 40
0.0
 40
0.0
 40
0.2499413643
 40
0.5000015297
 40
0.7500622384
 40
1.0
 40
1.0
 40
1.0
 40
1.0
 10
149.9772745695
 20
276.3176972988
 30
0.0
 10
150.0747672542
 20
276.3179569809
 30
0.0
 10
150.2720703227
 20
276.2796614589
 30
0.0
 10
150.5217115836
 20
276.1131578034
 30
0.0
 10
150.6882046256
 20
275.8635183202
 30
0.0
 10
150.7265183649
 20
275.6662163945
 30
0.0
 10
150.7262467206
 20
275.5687251477
 30
0.0
  0
SPLINE
  5
35E
330
22C
100
AcDbEntity
 67
     1
  8
7_ALL_FEATURES
  6
Continuous
 62
     9
100
AcDbSpline
 70
     0
 71
     3
 72
    11
 73
     7
 74
     0
 42
0.000000001
 43
0.0000001
 40
0.0
 40
0.0
 40
0.0
 40
0.0
 40
0.2498362902
 40
0.4998073102
 40
0.7499002402
 40
1.0
 40
1.0
 40
1.0
 40
1.0
 10
60.5185502896
 20
275.4106936848
 30
0.0
 10
60.5187286361
 20
275.5079917182
 30
0.0
 10
60.5579400401
 20
275.7046848659
 30
0.0
 10
60.7245613585
 20
275.9533889378
 30
0.0
 10
60.9732720537
 20
276.120202662
 30
0.0
 10
61.1701217996
 20
276.1594874037
 30
0.0
 10
61.2675224407
 20
276.1596658359
 30
0.0
  0
SPLINE
  5
35F
330
22C
100
AcDbEntity
 67
     1
  8
7_ALL_FEATURES
  6
Continuous
 62
     9
100
AcDbSpline
 70
     0
 71
     3
 72
    11
 73
     7
 74
     0
 42
0.000000001
 43
0.0000001
 40
0.0
 40
0.0
 40
0.0
 40
0.0
 40
0.2499413643
 40
0.5000015297
 40
0.7500622384
 40
1.0
 40
1.0
 40
1.0
 40
1.0
 10
60.3605188267
 20
275.5687251477
 30
0.0
 10
60.3602591446
 20
275.6662178324
 30
0.0
 10
60.3985546666
 20
275.8635209009
 30
0.0
 10
60.5650583221
 20
276.1131621618
 30
0.0
 10
60.8146978053
 20
276.2796552038
 30
0.0
 10
61.011999731
 20
276.3179689431
 30
0.0
 10
61.1094909777
 20
276.3176972988
 30
0.0
  0
SPLINE
  5
360
330
22C
100
AcDbEntity
 67
     1
  8
7_ALL_FEATURES
  6
Continuous
 62
     9
100
AcDbSpline
 70
     0
 71
     3
 72
    11
 73
     7
 74
     0
 42
0.000000001
 43
0.0000001
 40
0.0
 40
0.0
 40
0.0
 40
0.0
 40
0.2498362902
 40
0.4998073102
 40
0.7499002402
 40
1.0
 40
1.0
 40
1.0
 40
1.0
 10
150.5682152577
 20
186.8589730189
 30
0.0
 10
150.5680369112
 20
186.7616749855
 30
0.0
 10
150.5288255072
 20
186.5649818378
 30
0.0
 10
150.3622041888
 20
186.3162777659
 30
0.0
 10
150.1134934936
 20
186.1494640417
 30
0.0
 10
149.9166437477
 20
186.1101793
 30
0.0
 10
149.8192431066
 20
186.1100008678
 30
0.0
  0
SPLINE
  5
361
330
22C
100
AcDbEntity
 67
     1
  8
7_ALL_FEATURES
  6
Continuous
 62
     9
100
AcDbSpline
 70
     0
 71
     3
 72
    11
 73
     7
 74
     0
 42
0.000000001
 43
0.0000001
 40
0.0
 40
0.0
 40
0.0
 40
0.0
 40
0.2499413643
 40
0.5000015297
 40
0.7500622384
 40
1.0
 40
1.0
 40
1.0
 40
1.0
 10
150.7262467206
 20
186.7009415559
 30
0.0
 10
150.7265064027
 20
186.6034488713
 30
0.0
 10
150.6882108807
 20
186.4061458028
 30
0.0
 10
150.5217072252
 20
186.1565045419
 30
0.0
 10
150.272067742
 20
185.9900114999
 30
0.0
 10
150.0747658163
 20
185.9516977605
 30
0.0
 10
149.9772745695
 20
185.9519694049
 30
0.0
  0
SPLINE
  5
362
330
22C
100
AcDbEntity
 67
     1
  8
7_ALL_FEATURES
  6
Continuous
 62
     9
100
AcDbSpline
 70
     0
 71
     3
 72
    11
 73
     7
 74
     0
 42
0.000000001
 43
0.0000001
 40
0.0
 40
0.0
 40
0.0
 40
0.0
 40
0.2498362902
 40
0.4998073102
 40
0.7499002402
 40
1.0
 40
1.0
 40
1.0
 40
1.0
 10
61.2675224407
 20
186.1100008678
 30
0.0
 10
61.1702244073
 20
186.1101792143
 30
0.0
 10
60.9735312596
 20
186.1493906183
 30
0.0
 10
60.7248271877
 20
186.3160119367
 30
0.0
 10
60.5580134635
 20
186.5647226319
 30
0.0
 10
60.5187287218
 20
186.7615723778
 30
0.0
 10
60.5185502896
 20
186.8589730189
 30
0.0
  0
SPLINE
  5
363
330
22C
100
AcDbEntity
 67
     1
  8
7_ALL_FEATURES
  6
Continuous
 62
     9
100
AcDbSpline
 70
     0
 71
     3
 72
    11
 73
     7
 74
     0
 42
0.000000001
 43
0.0000001
 40
0.0
 40
0.0
 40
0.0
 40
0.0
 40
0.2499413643
 40
0.5000015297
 40
0.7500622384
 40
1.0
 40
1.0
 40
1.0
 40
1.0
 10
61.1094909777
 20
185.9519694049
 30
0.0
 10
61.0119982931
 20
185.9517097228
 30
0.0
 10
60.8146952246
 20
185.9900052448
 30
0.0
 10
60.5650539637
 20
186.1565089003
 30
0.0
 10
60.3985609217
 20
186.4061483835
 30
0.0
 10
60.3602471823
 20
186.6034503092
 30
0.0
 10
60.3605188267
 20
186.7009415559
 30
0.0
  0
LINE
  5
364
330
22C
100
AcDbEntity
 67
     1
  8
7_ALL_FEATURES
  6
Continuous
 62
     9
100
AcDbLine
 10
59.611547
 20
186.700942
 30
0.0
 11
60.360519
 21
186.700942
 31
0.0
  0
LINE
  5
365
330
22C
100
AcDbEntity
 67
     1
  8
7_ALL_FEATURES
  6
Continuous
 62
     9
100
AcDbLine
 10
61.109491
 20
185.202997
 30
0.0
 11
61.109491
 21
185.951969
 31
0.0
  0
LINE
  5
366
330
22C
100
AcDbEntity
 67
     1
  8
7_ALL_FEATURES
  6
Continuous
 62
     9
100
AcDbLine
 10
149.977275
 20
185.202997
 30
0.0
 11
149.977275
 21
185.951969
 31
0.0
  0
LINE
  5
367
330
22C
100
AcDbEntity
 67
     1
  8
7_ALL_FEATURES
  6
Continuous
 62
     9
100
AcDbLine
 10
151.475219
 20
186.700942
 30
0.0
 11
150.726247
 21
186.700942
 31
0.0
  0
LINE
  5
368
330
22C
100
AcDbEntity
 67
     1
  8
7_ALL_FEATURES
  6
Continuous
 62
     9
100
AcDbLine
 10
151.475219
 20
275.568725
 30
0.0
 11
150.726247
 21
275.568725
 31
0.0
  0
LINE
  5
369
330
22C
100
AcDbEntity
 67
     1
  8
7_ALL_FEATURES
  6
Continuous
 62
     9
100
AcDbLine
 10
149.977275
 20
277.066669
 30
0.0
 11
149.977275
 21
276.317697
 31
0.0
  0
LINE
  5
36A
330
22C
100
AcDbEntity
 67
     1
  8
7_ALL_FEATURES
  6
Continuous
 62
     9
100
AcDbLine
 10
61.109491
 20
277.066669
 30
0.0
 11
61.109491
 21
276.317697
 31
0.0
  0
LINE
  5
36B
330
22C
100
AcDbEntity
 67
     1
  8
7_ALL_FEATURES
  6
Continuous
 62
     9
100
AcDbLine
 10
59.611547
 20
275.568725
 30
0.0
 11
60.360519
 21
275.568725
 31
0.0
  0
LINE
  5
36C
330
22C
100
AcDbEntity
 67
     1
  8
7_ALL_FEATURES
  6
Continuous
 62
     9
100
AcDbLine
 10
61.267522
 20
275.660351
 30
0.0
 11
61.267522
 21
276.159666
 31
0.0
  0
LINE
  5
36D
330
22C
100
AcDbEntity
 67
     1
  8
7_ALL_FEATURES
  6
Continuous
 62
     9
100
AcDbLine
 10
61.017865
 20
275.410694
 30
0.0
 11
60.51855
 21
275.410694
 31
0.0
  0
LINE
  5
36E
330
22C
100
AcDbEntity
 67
     1
  8
7_ALL_FEATURES
  6
Continuous
 62
     9
100
AcDbLine
 10
61.017865
 20
186.858973
 30
0.0
 11
60.51855
 21
186.858973
 31
0.0
  0
LINE
  5
36F
330
22C
100
AcDbEntity
 67
     1
  8
7_ALL_FEATURES
  6
Continuous
 62
     9
100
AcDbLine
 10
61.267522
 20
186.609316
 30
0.0
 11
61.267522
 21
186.110001
 31
0.0
  0
LINE
  5
370
330
22C
100
AcDbEntity
 67
     1
  8
7_ALL_FEATURES
  6
Continuous
 62
     9
100
AcDbLine
 10
149.819243
 20
186.609316
 30
0.0
 11
149.819243
 21
186.110001
 31
0.0
  0
LINE
  5
371
330
22C
100
AcDbEntity
 67
     1
  8
7_ALL_FEATURES
  6
Continuous
 62
     9
100
AcDbLine
 10
150.0689
 20
186.858973
 30
0.0
 11
150.568215
 21
186.858973
 31
0.0
  0
LINE
  5
372
330
22C
100
AcDbEntity
 67
     1
  8
7_ALL_FEATURES
  6
Continuous
 62
     9
100
AcDbLine
 10
150.0689
 20
275.410694
 30
0.0
 11
150.568215
 21
275.410694
 31
0.0
  0
LINE
  5
373
330
22C
100
AcDbEntity
 67
     1
  8
7_ALL_FEATURES
  6
Continuous
 62
     9
100
AcDbLine
 10
149.819243
 20
275.660351
 30
0.0
 11
149.819243
 21
276.159666
 31
0.0
  0
LINE
  5
374
330
22C
100
AcDbEntity
 67
     1
  8
06___PRT_ALL_SURFS
  6
Continuous
 62
     9
100
AcDbLine
 10
153.200359
 20
160.313899
 30
0.0
 11
152.393664
 21
160.313899
 31
0.0
  0
LINE
  5
375
330
22C
100
AcDbEntity
 67
     1
  8
06___PRT_ALL_SURFS
  6
Continuous
 62
     9
100
AcDbLine
 10
152.393664
 20
160.313899
 30
0.0
 11
151.848121
 21
160.313899
 31
0.0
  0
LINE
  5
376
330
22C
100
AcDbEntity
 67
     1
  8
06___PRT_ALL_SURFS
  6
Continuous
 62
     9
100
AcDbLine
 10
151.848121
 20
160.313899
 30
0.0
 11
151.243383
 21
160.313899
 31
0.0
  0
LINE
  5
377
330
22C
100
AcDbEntity
 67
     1
  8
06___PRT_ALL_SURFS
  6
Continuous
 62
     9
100
AcDbLine
 10
145.843383
 20
159.934833
 30
0.0
 11
145.843383
 21
160.044684
 31
0.0
  0
LINE
  5
378
330
22C
100
AcDbEntity
 67
     1
  8
06___PRT_ALL_SURFS
  6
Continuous
 62
     9
100
AcDbLine
 10
145.843383
 20
160.044684
 30
0.0
 11
145.843383
 21
160.167369
 31
0.0
  0
LINE
  5
379
330
22C
100
AcDbEntity
 67
     1
  8
06___PRT_ALL_SURFS
  6
Continuous
 62
     9
100
AcDbLine
 10
145.843383
 20
160.167369
 30
0.0
 11
145.843383
 21
160.313899
 31
0.0
  0
LINE
  5
37A
330
22C
100
AcDbEntity
 67
     1
  8
06___PRT_ALL_SURFS
  6
Continuous
 62
     9
100
AcDbLine
 10
151.243383
 20
159.934833
 30
0.0
 11
151.243383
 21
160.313899
 31
0.0
  0
LINE
  5
37B
330
22C
100
AcDbEntity
 67
     1
  8
7_ALL_FEATURES
  6
Continuous
 62
     9
100
AcDbLine
 10
59.611547
 20
186.700942
 30
0.0
 11
59.611547
 21
275.568725
 31
0.0
  0
LINE
  5
37C
330
22C
100
AcDbEntity
 67
     1
  8
06___PRT_ALL_SURFS
  6
Continuous
 62
     9
100
AcDbLine
 10
145.843383
 20
160.313899
 30
0.0
 11
145.286406
 21
160.313899
 31
0.0
  0
LINE
  5
37D
330
22C
100
AcDbEntity
 67
     1
  8
7_ALL_FEATURES
  6
Continuous
 62
     9
100
AcDbLine
 10
145.843383
 20
160.313899
 30
0.0
 11
145.843383
 21
161.134833
 31
0.0
  0
LINE
  5
37E
330
22C
100
AcDbEntity
 67
     1
  8
06___PRT_ALL_SURFS
  6
Continuous
 62
     9
100
AcDbLine
 10
151.243383
 20
160.313899
 30
0.0
 11
145.843383
 21
160.313899
 31
0.0
  0
LINE
  5
37F
330
22C
100
AcDbEntity
 67
     1
  8
7_ALL_FEATURES
  6
Continuous
 62
     9
100
AcDbLine
 10
151.243383
 20
160.313899
 30
0.0
 11
151.243383
 21
161.134833
 31
0.0
  0
LINE
  5
380
330
22C
100
AcDbEntity
 67
     1
  8
06___PRT_ALL_SURFS
  6
Continuous
 62
     9
100
AcDbLine
 10
59.843383
 20
160.313899
 30
0.0
 11
59.238644
 21
160.313899
 31
0.0
  0
LINE
  5
381
330
22C
100
AcDbEntity
 67
     1
  8
06___PRT_ALL_SURFS
  6
Continuous
 62
     9
100
AcDbLine
 10
59.238644
 20
160.313899
 30
0.0
 11
58.693101
 21
160.313899
 31
0.0
  0
LINE
  5
382
330
22C
100
AcDbEntity
 67
     1
  8
06___PRT_ALL_SURFS
  6
Continuous
 62
     9
100
AcDbLine
 10
58.693101
 20
160.313899
 30
0.0
 11
57.886406
 21
160.313899
 31
0.0
  0
LINE
  5
383
330
22C
100
AcDbEntity
 67
     1
  8
7_ALL_FEATURES
  6
Continuous
 62
     9
100
AcDbLine
 10
59.843383
 20
160.313899
 30
0.0
 11
59.843383
 21
161.134833
 31
0.0
  0
LINE
  5
384
330
22C
100
AcDbEntity
 67
     1
  8
06___PRT_ALL_SURFS
  6
Continuous
 62
     9
100
AcDbLine
 10
65.243383
 20
160.313899
 30
0.0
 11
59.843383
 21
160.313899
 31
0.0
  0
LINE
  5
385
330
22C
100
AcDbEntity
 67
     1
  8
7_ALL_FEATURES
  6
Continuous
 62
     9
100
AcDbLine
 10
65.243383
 20
160.313899
 30
0.0
 11
65.243383
 21
161.134833
 31
0.0
  0
SPLINE
  5
386
330
22C
100
AcDbEntity
 67
     1
  8
7_ALL_FEATURES
  6
Continuous
 62
     9
100
AcDbSpline
 70
     0
 71
     3
 72
    11
 73
     7
 74
     0
 42
0.000000001
 43
0.0000001
 40
0.0
 40
0.0
 40
0.0
 40
0.0
 40
0.2500209498
 40
0.4999951766
 40
0.7499715065
 40
1.0
 40
1.0
 40
1.0
 40
1.0
 10
61.1094909776
 20
185.2029972538
 30
0.0
 10
60.9146319946
 20
185.2030141813
 30
0.0
 10
60.5206602249
 20
185.2807546103
 30
0.0
 10
60.0226590028
 20
185.6140993587
 30
0.0
 10
59.6893298278
 20
186.11209692
 30
0.0
 10
59.6115281808
 20
186.5060766932
 30
0.0
 10
59.6115466756
 20
186.7009415554
 30
0.0
  0
LINE
  5
387
330
22C
100
AcDbEntity
 67
     1
  8
7_ALL_FEATURES
  6
Continuous
 62
     9
100
AcDbLine
 10
149.977275
 20
185.202997
 30
0.0
 11
61.109491
 21
185.202997
 31
0.0
  0
SPLINE
  5
388
330
22C
100
AcDbEntity
 67
     1
  8
7_ALL_FEATURES
  6
Continuous
 62
     9
100
AcDbSpline
 70
     0
 71
     3
 72
    11
 73
     7
 74
     0
 42
0.000000001
 43
0.0000001
 40
0.0
 40
0.0
 40
0.0
 40
0.0
 40
0.2500209498
 40
0.4999951766
 40
0.7499715065
 40
1.0
 40
1.0
 40
1.0
 40
1.0
 10
151.4752188717
 20
186.7009415558
 30
0.0
 10
151.4752019442
 20
186.5060825728
 30
0.0
 10
151.3974615151
 20
186.1121108031
 30
0.0
 10
151.0641167667
 20
185.614109581
 30
0.0
 10
150.5661192054
 20
185.280780406
 30
0.0
 10
150.1721394323
 20
185.202978759
 30
0.0
 10
149.9772745701
 20
185.2029972538
 30
0.0
  0
LINE
  5
389
330
22C
100
AcDbEntity
 67
     1
  8
7_ALL_FEATURES
  6
Continuous
 62
     9
100
AcDbLine
 10
151.475219
 20
275.568725
 30
0.0
 11
151.475219
 21
186.700942
 31
0.0
  0
SPLINE
  5
38A
330
22C
100
AcDbEntity
 67
     1
  8
7_ALL_FEATURES
  6
Continuous
 62
     9
100
AcDbSpline
 70
     0
 71
     3
 72
    11
 73
     7
 74
     0
 42
0.000000001
 43
0.0000001
 40
0.0
 40
0.0
 40
0.0
 40
0.0
 40
0.2500209498
 40
0.4999951766
 40
0.7499715065
 40
1.0
 40
1.0
 40
1.0
 40
1.0
 10
149.9772745696
 20
277.0666694499
 30
0.0
 10
150.1721335527
 20
277.0666525224
 30
0.0
 10
150.5661053224
 20
276.9889120933
 30
0.0
 10
151.0641065445
 20
276.6555673449
 30
0.0
 10
151.3974357195
 20
276.1575697836
 30
0.0
 10
151.4752373665
 20
275.7635900105
 30
0.0
 10
151.4752188717
 20
275.5687251483
 30
0.0
  0
LINE
  5
38B
330
22C
100
AcDbEntity
 67
     1
  8
7_ALL_FEATURES
  6
Continuous
 62
     9
100
AcDbLine
 10
61.109491
 20
277.066669
 30
0.0
 11
149.977275
 21
277.066669
 31
0.0
  0
LINE
  5
38C
330
22C
100
AcDbEntity
 67
     1
  8
06___PRT_ALL_SURFS
  6
Continuous
 62
     9
100
AcDbLine
 10
65.243383
 20
159.934833
 30
0.0
 11
65.243383
 21
160.044684
 31
0.0
  0
LINE
  5
38D
330
22C
100
AcDbEntity
 67
     1
  8
06___PRT_ALL_SURFS
  6
Continuous
 62
     9
100
AcDbLine
 10
65.243383
 20
160.044684
 30
0.0
 11
65.243383
 21
160.167369
 31
0.0
  0
LINE
  5
38E
330
22C
100
AcDbEntity
 67
     1
  8
06___PRT_ALL_SURFS
  6
Continuous
 62
     9
100
AcDbLine
 10
65.243383
 20
160.167369
 30
0.0
 11
65.243383
 21
160.313899
 31
0.0
  0
SPLINE
  5
38F
330
22C
100
AcDbEntity
 67
     1
  8
7_ALL_FEATURES
  6
Continuous
 62
     9
100
AcDbSpline
 70
     0
 71
     3
 72
    11
 73
     7
 74
     0
 42
0.000000001
 43
0.0000001
 40
0.0
 40
0.0
 40
0.0
 40
0.0
 40
0.2500209498
 40
0.4999951766
 40
0.7499715065
 40
1.0
 40
1.0
 40
1.0
 40
1.0
 10
59.6115466756
 20
275.5687251478
 30
0.0
 10
59.6115636031
 20
275.7635841309
 30
0.0
 10
59.6893040322
 20
276.1575559006
 30
0.0
 10
60.0226487806
 20
276.6555571227
 30
0.0
 10
60.5206463418
 20
276.9888862977
 30
0.0
 10
60.914626115
 20
277.0666879447
 30
0.0
 10
61.1094909772
 20
277.0666694499
 30
0.0
  0
LINE
  5
390
330
22C
100
AcDbEntity
 67
     1
  8
06___PRT_ALL_SURFS
  6
Continuous
 62
     9
100
AcDbLine
 10
59.843383
 20
159.934833
 30
0.0
 11
59.843383
 21
160.313899
 31
0.0
  0
ARC
  5
391
330
22C
100
AcDbEntity
 67
     1
  8
7_ALL_FEATURES
  6
Continuous
 62
     7
100
AcDbCircle
 10
65.043383
 20
168.384833
 30
0.0
 40
3.0
100
AcDbArc
 50
0.0
 51
180.0
  0
ARC
  5
392
330
22C
100
AcDbEntity
 67
     1
  8
7_ALL_FEATURES
  6
Continuous
 62
     7
100
AcDbCircle
 10
65.043383
 20
168.384833
 30
0.0
 40
3.0
100
AcDbArc
 50
180.0
 51
360.0
  0
LINE
  5
393
330
22C
100
AcDbEntity
 67
     1
  8
06___PRT_ALL_SURFS
  6
Continuous
 62
     9
100
AcDbLine
 10
65.800359
 20
160.313899
 30
0.0
 11
65.243383
 21
160.313899
 31
0.0
  0
ARC
  5
394
330
22C
100
AcDbEntity
 67
     1
  8
7_ALL_FEATURES
  6
Continuous
 62
     9
100
AcDbCircle
 10
149.819384
 20
275.410835
 30
0.0
 40
0.2495163928
100
AcDbArc
 50
359.967615
 51
90.032385
  0
LINE
  5
395
330
22C
100
AcDbEntity
 67
     1
  8
7_ALL_FEATURES
  6
Continuous
 62
     9
100
AcDbLine
 10
150.0689
 20
275.410694
 30
0.0
 11
150.0689
 21
274.909316
 31
0.0
  0
LINE
  5
396
330
22C
100
AcDbEntity
 67
     1
  8
7_ALL_FEATURES
  6
Continuous
 62
     9
100
AcDbLine
 10
150.0689
 20
187.360351
 30
0.0
 11
150.0689
 21
186.858973
 31
0.0
  0
ARC
  5
397
330
22C
100
AcDbEntity
 67
     1
  8
7_ALL_FEATURES
  6
Continuous
 62
     9
100
AcDbCircle
 10
149.819384
 20
186.858832
 30
0.0
 40
0.2495163928
100
AcDbArc
 50
269.967615
 51
0.032385
  0
LINE
  5
398
330
22C
100
AcDbEntity
 67
     1
  8
7_ALL_FEATURES
  6
Continuous
 62
     9
100
AcDbLine
 10
149.819243
 20
186.609316
 30
0.0
 11
149.317865
 21
186.609316
 31
0.0
  0
LINE
  5
399
330
22C
100
AcDbEntity
 67
     1
  8
7_ALL_FEATURES
  6
Continuous
 62
     9
100
AcDbLine
 10
61.7689
 20
186.609316
 30
0.0
 11
61.267522
 21
186.609316
 31
0.0
  0
ARC
  5
39A
330
22C
100
AcDbEntity
 67
     1
  8
7_ALL_FEATURES
  6
Continuous
 62
     9
100
AcDbCircle
 10
61.267381
 20
186.858832
 30
0.0
 40
0.2495163928
100
AcDbArc
 50
179.967615
 51
270.032385
  0
LINE
  5
39B
330
22C
100
AcDbEntity
 67
     1
  8
7_ALL_FEATURES
  6
Continuous
 62
     9
100
AcDbLine
 10
61.017865
 20
186.858973
 30
0.0
 11
61.017865
 21
187.360351
 31
0.0
  0
LINE
  5
39C
330
22C
100
AcDbEntity
 67
     1
  8
7_ALL_FEATURES
  6
Continuous
 62
     9
100
AcDbLine
 10
61.017865
 20
274.909316
 30
0.0
 11
61.017865
 21
275.410694
 31
0.0
  0
ARC
  5
39D
330
22C
100
AcDbEntity
 67
     1
  8
7_ALL_FEATURES
  6
Continuous
 62
     9
100
AcDbCircle
 10
61.267381
 20
275.410835
 30
0.0
 40
0.2495163928
100
AcDbArc
 50
89.967615
 51
180.032385
  0
LINE
  5
39E
330
22C
100
AcDbEntity
 67
     1
  8
7_ALL_FEATURES
  6
Continuous
 62
     9
100
AcDbLine
 10
61.267522
 20
275.660351
 30
0.0
 11
61.7689
 21
275.660351
 31
0.0
  0
LINE
  5
39F
330
22C
100
AcDbEntity
 67
     1
  8
7_ALL_FEATURES
  6
Continuous
 62
     9
100
AcDbLine
 10
149.317865
 20
275.660351
 30
0.0
 11
149.819243
 21
275.660351
 31
0.0
  0
LINE
  5
3A0
330
22C
100
AcDbEntity
 67
     1
  8
7_ALL_FEATURES
  6
Continuous
 62
     9
100
AcDbLine
 10
60.51855
 20
186.858973
 30
0.0
 11
60.51855
 21
275.410694
 31
0.0
  0
LINE
  5
3A1
330
22C
100
AcDbEntity
 67
     1
  8
7_ALL_FEATURES
  6
Continuous
 62
     9
100
AcDbLine
 10
60.360519
 20
186.700942
 30
0.0
 11
60.51855
 21
186.858973
 31
0.0
  0
LINE
  5
3A2
330
22C
100
AcDbEntity
 67
     1
  8
7_ALL_FEATURES
  6
Continuous
 62
     9
100
AcDbLine
 10
60.360519
 20
186.700942
 30
0.0
 11
60.360519
 21
275.568725
 31
0.0
  0
LINE
  5
3A3
330
22C
100
AcDbEntity
 67
     1
  8
7_ALL_FEATURES
  6
Continuous
 62
     9
100
AcDbLine
 10
60.360519
 20
275.568725
 30
0.0
 11
60.51855
 21
275.410694
 31
0.0
  0
LINE
  5
3A4
330
22C
100
AcDbEntity
 67
     1
  8
7_ALL_FEATURES
  6
Continuous
 62
     9
100
AcDbLine
 10
149.819243
 20
186.110001
 30
0.0
 11
61.267522
 21
186.110001
 31
0.0
  0
LINE
  5
3A5
330
22C
100
AcDbEntity
 67
     1
  8
7_ALL_FEATURES
  6
Continuous
 62
     9
100
AcDbLine
 10
149.977275
 20
185.951969
 30
0.0
 11
149.819243
 21
186.110001
 31
0.0
  0
LINE
  5
3A6
330
22C
100
AcDbEntity
 67
     1
  8
7_ALL_FEATURES
  6
Continuous
 62
     9
100
AcDbLine
 10
149.977275
 20
185.951969
 30
0.0
 11
61.109491
 21
185.951969
 31
0.0
  0
LINE
  5
3A7
330
22C
100
AcDbEntity
 67
     1
  8
7_ALL_FEATURES
  6
Continuous
 62
     9
100
AcDbLine
 10
61.109491
 20
185.951969
 30
0.0
 11
61.267522
 21
186.110001
 31
0.0
  0
LINE
  5
3A8
330
22C
100
AcDbEntity
 67
     1
  8
7_ALL_FEATURES
  6
Continuous
 62
     9
100
AcDbLine
 10
150.568215
 20
275.410694
 30
0.0
 11
150.568215
 21
186.858973
 31
0.0
  0
LINE
  5
3A9
330
22C
100
AcDbEntity
 67
     1
  8
7_ALL_FEATURES
  6
Continuous
 62
     9
100
AcDbLine
 10
150.726247
 20
275.568725
 30
0.0
 11
150.568215
 21
275.410694
 31
0.0
  0
ARC
  5
3AA
330
22C
100
AcDbEntity
 67
     1
  8
7_ALL_FEATURES
  6
Continuous
 62
     7
100
AcDbCircle
 10
65.043383
 20
168.384833
 30
0.0
 40
2.9125113365
100
AcDbArc
 50
180.0
 51
360.0
  0
ARC
  5
3AB
330
22C
100
AcDbEntity
 67
     1
  8
7_ALL_FEATURES
  6
Continuous
 62
     7
100
AcDbCircle
 10
65.043383
 20
168.384833
 30
0.0
 40
2.9125113365
100
AcDbArc
 50
0.0
 51
180.0
  0
LINE
  5
3AC
330
22C
100
AcDbEntity
 67
     1
  8
7_ALL_FEATURES
  6
Continuous
 62
     9
100
AcDbLine
 10
150.726247
 20
275.568725
 30
0.0
 11
150.726247
 21
186.700942
 31
0.0
  0
LINE
  5
3AD
330
22C
100
AcDbEntity
 67
     1
  8
7_ALL_FEATURES
  6
Continuous
 62
     9
100
AcDbLine
 10
150.726247
 20
186.700942
 30
0.0
 11
150.568215
 21
186.858973
 31
0.0
  0
LINE
  5
3AE
330
22C
100
AcDbEntity
 67
     1
  8
7_ALL_FEATURES
  6
Continuous
 62
     9
100
AcDbLine
 10
61.267522
 20
276.159666
 30
0.0
 11
149.819243
 21
276.159666
 31
0.0
  0
LINE
  5
3AF
330
22C
100
AcDbEntity
 67
     1
  8
7_ALL_FEATURES
  6
Continuous
 62
     9
100
AcDbLine
 10
61.109491
 20
276.317697
 30
0.0
 11
61.267522
 21
276.159666
 31
0.0
  0
LINE
  5
3B0
330
22C
100
AcDbEntity
 67
     1
  8
7_ALL_FEATURES
  6
Continuous
 62
     9
100
AcDbLine
 10
61.109491
 20
276.317697
 30
0.0
 11
149.977275
 21
276.317697
 31
0.0
  0
LINE
  5
3B1
330
22C
100
AcDbEntity
 67
     1
  8
7_ALL_FEATURES
  6
Continuous
 62
     9
100
AcDbLine
 10
149.977275
 20
276.317697
 30
0.0
 11
149.819243
 21
276.159666
 31
0.0
  0
LINE
  5
3B2
330
22C
100
AcDbEntity
 67
     1
  8
7_ALL_FEATURES
  6
Continuous
 62
     7
100
AcDbLine
 10
155.543383
 20
38.245593
 30
0.0
 11
155.543383
 21
138.245593
 31
0.0
  0
LINE
  5
3B3
330
22C
100
AcDbEntity
 67
     1
  8
7_ALL_FEATURES
  6
Continuous
 62
     7
100
AcDbLine
 10
55.543383
 20
38.245593
 30
0.0
 11
155.543383
 21
38.245593
 31
0.0
  0
LINE
  5
3B4
330
22C
100
AcDbEntity
 67
     1
  8
7_ALL_FEATURES
  6
Continuous
 62
     7
100
AcDbLine
 10
55.543383
 20
138.245593
 30
0.0
 11
55.543383
 21
38.245593
 31
0.0
  0
LINE
  5
3B5
330
22C
100
AcDbEntity
 67
     1
  8
7_ALL_FEATURES
  6
Continuous
 62
     7
100
AcDbLine
 10
155.543383
 20
138.245593
 30
0.0
 11
55.543383
 21
138.245593
 31
0.0
  0
LINE
  5
3B6
330
22C
100
AcDbEntity
 67
     1
  8
7_ALL_FEATURES
  6
HIDDEN
 62
     8
100
AcDbLine
 10
352.224163
 20
260.444761
 30
0.0
 11
352.955983
 21
260.444761
 31
0.0
  0
LINE
  5
3B7
330
22C
100
AcDbEntity
 67
     1
  8
7_ALL_FEATURES
  6
HIDDEN
 62
     8
100
AcDbLine
 10
352.955983
 20
260.444761
 30
0.0
 11
352.955983
 21
260.169963
 31
0.0
  0
LINE
  5
3B8
330
22C
100
AcDbEntity
 67
     1
  8
7_ALL_FEATURES
  6
HIDDEN
 62
     8
100
AcDbLine
 10
352.955983
 20
260.169963
 30
0.0
 11
351.923681
 21
260.169963
 31
0.0
  0
LINE
  5
3B9
330
22C
100
AcDbEntity
 67
     1
  8
7_ALL_FEATURES
  6
HIDDEN
 62
     8
100
AcDbLine
 10
351.923681
 20
260.169963
 30
0.0
 11
351.923681
 21
262.579422
 31
0.0
  0
LINE
  5
3BA
330
22C
100
AcDbEntity
 67
     1
  8
7_ALL_FEATURES
  6
HIDDEN
 62
     8
100
AcDbLine
 10
351.923681
 20
262.579422
 30
0.0
 11
352.224163
 21
262.579422
 31
0.0
  0
LINE
  5
3BB
330
22C
100
AcDbEntity
 67
     1
  8
7_ALL_FEATURES
  6
HIDDEN
 62
     8
100
AcDbLine
 10
352.224163
 20
262.579422
 30
0.0
 11
352.224163
 21
260.444761
 31
0.0
  0
LINE
  5
3BC
330
22C
100
AcDbEntity
 67
     1
  8
7_ALL_FEATURES
  6
HIDDEN
 62
     8
100
AcDbLine
 10
353.8246
 20
261.838166
 30
0.0
 11
353.904423
 21
261.736036
 31
0.0
  0
LINE
  5
3BD
330
22C
100
AcDbEntity
 67
     1
  8
7_ALL_FEATURES
  6
HIDDEN
 62
     8
100
AcDbLine
 10
353.904423
 20
261.736036
 30
0.0
 11
353.942827
 21
261.761478
 31
0.0
  0
SPLINE
  5
3BE
330
22C
100
AcDbEntity
 67
     1
  8
7_ALL_FEATURES
  6
HIDDEN
 62
     8
100
AcDbSpline
 70
     0
 71
     3
 72
    11
 73
     7
 74
     0
 42
0.000000001
 43
0.0000001
 40
0.0
 40
0.0
 40
0.0
 40
0.0
 40
0.2488928963
 40
0.503618197
 40
0.7495274719
 40
1.0
 40
1.0
 40
1.0
 40
1.0
 10
353.9428270824
 20
261.7614777855
 30
0.0
 10
353.9745193025
 20
261.7864743553
 30
0.0
 10
354.04053637
 20
261.8345781779
 30
0.0
 10
354.1340031731
 20
261.9125859916
 30
0.0
 10
354.2105576019
 20
262.0098499905
 30
0.0
 10
354.2304066178
 20
262.0915461613
 30
0.0
 10
354.2304066178
 20
262.1321659979
 30
0.0
  0
SPLINE
  5
3BF
330
22C
100
AcDbEntity
 67
     1
  8
7_ALL_FEATURES
  6
HIDDEN
 62
     8
100
AcDbSpline
 70
     0
 71
     3
 72
    10
 73
     6
 74
     0
 42
0.000000001
 43
0.0000001
 40
0.0
 40
0.0
 40
0.0
 40
0.0
 40
0.2677432381
 40
0.5047124626
 40
1.0
 40
1.0
 40
1.0
 40
1.0
 10
354.2304066178
 20
262.1321659979
 30
0.0
 10
354.2304066178
 20
262.1702999269
 30
0.0
 10
354.2184454812
 20
262.2436622216
 30
0.0
 10
354.1329036131
 20
262.36366301
 30
0.0
 10
354.0196697392
 20
262.3941527633
 30
0.0
 10
353.9491273049
 20
262.3941527633
 30
0.0
  0
SPLINE
  5
3C0
330
22C
100
AcDbEntity
 67
     1
  8
7_ALL_FEATURES
  6
HIDDEN
 62
     8
100
AcDbSpline
 70
     0
 71
     3
 72
    21
 73
    17
 74
     0
 42
0.000000001
 43
0.0000001
 40
0.0
 40
0.0
 40
0.0
 40
0.0
 40
0.1385587501
 40
0.2716037165
 40
0.3378237324
 40
0.4049060553
 40
0.4742968392
 40
0.5104789143
 40
0.54797154
 40
0.5777690112
 40
0.6067971626
 40
0.6633032496
 40
0.7188537262
 40
0.774324849
 40
0.886467178
 40
1.0
 40
1.0
 40
1.0
 40
1.0
 10
353.9491273049
 20
262.3941527633
 30
0.0
 10
353.914390266
 20
262.3941527633
 30
0.0
 10
353.8456361313
 20
262.3822832722
 30
0.0
 10
353.7711478783
 20
262.3376048097
 30
0.0
 10
353.726201837
 20
262.2876645303
 30
0.0
 10
353.7005017024
 20
262.2433870083
 30
0.0
 10
353.6871274188
 20
262.2018462018
 30
0.0
 10
353.6816094882
 20
262.166352333
 30
0.0
 10
353.6803274423
 20
262.1403941457
 30
0.0
 10
353.6812434203
 20
262.1162425088
 30
0.0
 10
353.6844879319
 20
262.0874878519
 30
0.0
 10
353.6923072362
 20
262.0528606395
 30
0.0
 10
353.7069343747
 20
262.0133831373
 30
0.0
 10
353.7320979112
 20
261.9633096099
 30
0.0
 10
353.7717479447
 20
261.9047692438
 30
0.0
 10
353.8069842916
 20
261.8605225352
 30
0.0
 10
353.8245999401
 20
261.8381656616
 30
0.0
  0
LINE
  5
3C1
330
22C
100
AcDbEntity
 67
     1
  8
7_ALL_FEATURES
  6
HIDDEN
 62
     8
100
AcDbLine
 10
353.840516
 20
261.358746
 30
0.0
 11
353.811758
 21
261.339574
 31
0.0
  0
SPLINE
  5
3C2
330
22C
100
AcDbEntity
 67
     1
  8
7_ALL_FEATURES
  6
HIDDEN
 62
     8
100
AcDbSpline
 70
     0
 71
     3
 72
    11
 73
     7
 74
     0
 42
0.000000001
 43
0.0000001
 40
0.0
 40
0.0
 40
0.0
 40
0.0
 40
0.3736376495
 40
0.5714235753
 40
0.7604690273
 40
1.0
 40
1.0
 40
1.0
 40
1.0
 10
353.8117583382
 20
261.3395738886
 30
0.0
 10
353.7405888506
 20
261.2902689479
 30
0.0
 10
353.6294039055
 20
261.2178825459
 30
0.0
 10
353.4970194086
 20
261.1006473043
 30
0.0
 10
353.4056236065
 20
260.9868985694
 30
0.0
 10
353.3739682343
 20
260.8869608895
 30
0.0
 10
353.3739682343
 20
260.8314564202
 30
0.0
  0
SPLINE
  5
3C3
330
22C
100
AcDbEntity
 67
     1
  8
7_ALL_FEATURES
  6
HIDDEN
 62
     8
100
AcDbSpline
 70
     0
 71
     3
 72
     9
 73
     5
 74
     0
 42
0.000000001
 43
0.0000001
 40
0.0
 40
0.0
 40
0.0
 40
0.0
 40
0.4994860816
 40
1.0
 40
1.0
 40
1.0
 40
1.0
 10
353.3739682343
 20
260.8314564202
 30
0.0
 10
353.3739682343
 20
260.7188881664
 30
0.0
 10
353.4818598372
 20
260.4925955882
 30
0.0
 10
353.7085142826
 20
260.3871249369
 30
0.0
 10
353.8213141781
 20
260.3871249369
 30
0.0
  0
SPLINE
  5
3C4
330
22C
100
AcDbEntity
 67
     1
  8
7_ALL_FEATURES
  6
HIDDEN
 62
     8
100
AcDbSpline
 70
     0
 71
     3
 72
    10
 73
     6
 74
     0
 42
0.000000001
 43
0.0000001
 40
0.0
 40
0.0
 40
0.0
 40
0.0
 40
0.2479121934
 40
0.4962955565
 40
1.0
 40
1.0
 40
1.0
 40
1.0
 10
353.8213141781
 20
260.3871249369
 30
0.0
 10
353.8753937248
 20
260.3871249369
 30
0.0
 10
353.9843279954
 20
260.4081692499
 30
0.0
 10
354.1775373048
 20
260.5136602837
 30
0.0
 10
354.2964717799
 20
260.6291722135
 30
0.0
 10
354.3741360962
 20
260.7068989108
 30
0.0
  0
LINE
  5
3C5
330
22C
100
AcDbEntity
 67
     1
  8
7_ALL_FEATURES
  6
HIDDEN
 62
     8
100
AcDbLine
 10
354.374136
 20
260.706899
 30
0.0
 11
353.840516
 21
261.358746
 31
0.0
  0
LINE
  5
3C6
330
22C
100
AcDbEntity
 67
     1
  8
7_ALL_FEATURES
  6
HIDDEN
 62
     8
100
AcDbLine
 10
354.575562
 20
260.920926
 30
0.0
 11
354.856751
 21
261.24697
 31
0.0
  0
LINE
  5
3C7
330
22C
100
AcDbEntity
 67
     1
  8
7_ALL_FEATURES
  6
HIDDEN
 62
     8
100
AcDbLine
 10
354.856751
 20
261.24697
 30
0.0
 11
355.048471
 21
261.048618
 31
0.0
  0
LINE
  5
3C8
330
22C
100
AcDbEntity
 67
     1
  8
7_ALL_FEATURES
  6
HIDDEN
 62
     8
100
AcDbLine
 10
355.048471
 20
261.048618
 30
0.0
 11
354.75444
 21
260.703643
 31
0.0
  0
LINE
  5
3C9
330
22C
100
AcDbEntity
 67
     1
  8
7_ALL_FEATURES
  6
HIDDEN
 62
     8
100
AcDbLine
 10
354.75444
 20
260.703643
 30
0.0
 11
355.18593
 21
260.169843
 31
0.0
  0
LINE
  5
3CA
330
22C
100
AcDbEntity
 67
     1
  8
7_ALL_FEATURES
  6
HIDDEN
 62
     8
100
AcDbLine
 10
355.18593
 20
260.169843
 30
0.0
 11
354.815212
 21
260.169843
 31
0.0
  0
LINE
  5
3CB
330
22C
100
AcDbEntity
 67
     1
  8
7_ALL_FEATURES
  6
HIDDEN
 62
     8
100
AcDbLine
 10
354.815212
 20
260.169843
 30
0.0
 11
354.553135
 21
260.495766
 31
0.0
  0
SPLINE
  5
3CC
330
22C
100
AcDbEntity
 67
     1
  8
7_ALL_FEATURES
  6
HIDDEN
 62
     8
100
AcDbSpline
 70
     0
 71
     3
 72
    28
 73
    24
 74
     0
 42
0.000000001
 43
0.0000001
 40
0.0
 40
0.0
 40
0.0
 40
0.0
 40
0.0760284172
 40
0.1517054191
 40
0.2265410138
 40
0.2640379459
 40
0.3019922458
 40
0.3552080395
 40
0.4067590479
 40
0.4571407166
 40
0.5068209117
 40
0.5563345336
 40
0.6063774127
 40
0.6578810319
 40
0.6845814527
 40
0.712118286
 40
0.732245749
 40
0.7513887002
 40
0.7874791981
 40
0.8219163452
 40
0.855930253
 40
0.9257103576
 40
1.0
 40
1.0
 40
1.0
 40
1.0
 10
354.553134763
 20
260.4957660947
 30
0.0
 10
354.5074581332
 20
260.4421391316
 30
0.0
 10
354.4076742725
 20
260.3420803049
 30
0.0
 10
354.2347877462
 20
260.2209762503
 30
0.0
 10
354.0726644194
 20
260.1525899586
 30
0.0
 10
353.93605911
 20
260.1236751144
 30
0.0
 10
353.8167673356
 20
260.1153673089
 30
0.0
 10
353.6842951634
 20
260.127511314
 30
0.0
 10
353.5451328607
 20
260.1666141417
 30
0.0
 10
353.4186033748
 20
260.2295561456
 30
0.0
 10
353.3078219835
 20
260.3142589542
 30
0.0
 10
353.2159621656
 20
260.4188543887
 30
0.0
 10
353.1463254544
 20
260.5413899644
 30
0.0
 10
353.1100718995
 20
260.6555401626
 30
0.0
 10
353.0951677495
 20
260.7525131167
 30
0.0
 10
353.0917073227
 20
260.8214564932
 30
0.0
 10
353.0940420003
 20
260.883375197
 30
0.0
 10
353.1024710265
 20
260.9527567114
 30
0.0
 10
353.1230025619
 20
261.0337391464
 30
0.0
 10
353.163081261
 20
261.1224233695
 30
0.0
 10
353.2340671025
 20
261.2295963114
 30
0.0
 10
353.3518490436
 20
261.3470727433
 30
0.0
 10
353.4587645963
 20
261.427083123
 30
0.0
 10
353.5145626738
 20
261.4673870154
 30
0.0
  0
LINE
  5
3CD
330
22C
100
AcDbEntity
 67
     1
  8
7_ALL_FEATURES
  6
HIDDEN
 62
     8
100
AcDbLine
 10
353.514563
 20
261.467387
 30
0.0
 11
353.664743
 21
261.576028
 31
0.0
  0
SPLINE
  5
3CE
330
22C
100
AcDbEntity
 67
     1
  8
7_ALL_FEATURES
  6
HIDDEN
 62
     8
100
AcDbSpline
 70
     0
 71
     3
 72
     9
 73
     5
 74
     0
 42
0.000000001
 43
0.0000001
 40
0.0
 40
0.0
 40
0.0
 40
0.0
 40
0.5046401266
 40
1.0
 40
1.0
 40
1.0
 40
1.0
 10
353.6647430978
 20
261.5760281732
 30
0.0
 10
353.5949459469
 20
261.6491344076
 30
0.0
 10
353.46581265
 20
261.8039661829
 30
0.0
 10
353.3994705704
 20
262.0041013245
 30
0.0
 10
353.3994705704
 20
262.1033176105
 30
0.0
  0
SPLINE
  5
3CF
330
22C
100
AcDbEntity
 67
     1
  8
7_ALL_FEATURES
  6
HIDDEN
 62
     8
100
AcDbSpline
 70
     0
 71
     3
 72
    17
 73
    13
 74
     0
 42
0.000000001
 43
0.0000001
 40
0.0
 40
0.0
 40
0.0
 40
0.0
 40
0.1339928955
 40
0.2539391643
 40
0.3748156858
 40
0.4392397342
 40
0.5072968424
 40
0.5715000227
 40
0.6339713651
 40
0.7538672661
 40
0.8718322551
 40
1.0
 40
1.0
 40
1.0
 40
1.0
 10
353.3994705704
 20
262.1033176105
 30
0.0
 10
353.3994705704
 20
262.1788513553
 30
0.0
 10
353.4236111687
 20
262.3247666875
 30
0.0
 10
353.5490290588
 20
262.5034340525
 30
0.0
 10
353.7032985615
 20
262.5906955717
 30
0.0
 10
353.8424391813
 20
262.6249523246
 30
0.0
 10
353.9534993407
 20
262.6334671444
 30
0.0
 10
354.0634189427
 20
262.6250659289
 30
0.0
 10
354.198881828
 20
262.5919568442
 30
0.0
 10
354.3518278098
 20
262.5100455172
 30
0.0
 10
354.483671846
 20
262.3427844928
 30
0.0
 10
354.5115954968
 20
262.2010699693
 30
0.0
 10
354.5115954968
 20
262.1288199467
 30
0.0
  0
SPLINE
  5
3D0
330
22C
100
AcDbEntity
 67
     1
  8
7_ALL_FEATURES
  6
HIDDEN
 62
     8
100
AcDbSpline
 70
     0
 71
     3
 72
    11
 73
     7
 74
     0
 42
0.000000001
 43
0.0000001
 40
0.0
 40
0.0
 40
0.0
 40
0.0
 40
0.2490047129
 40
0.4952799166
 40
0.7493595777
 40
1.0
 40
1.0
 40
1.0
 40
1.0
 10
354.5115954968
 20
262.1288199467
 30
0.0
 10
354.5115954968
 20
262.0648178782
 30
0.0
 10
354.4829461159
 20
261.936077017
 30
0.0
 10
354.3720037739
 20
261.7752930402
 30
0.0
 10
354.229986393
 20
261.6435308355
 30
0.0
 10
354.1258593971
 20
261.5660350165
 30
0.0
 10
354.0738355374
 20
261.5280379614
 30
0.0
  0
LINE
  5
3D1
330
22C
100
AcDbEntity
 67
     1
  8
7_ALL_FEATURES
  6
HIDDEN
 62
     8
100
AcDbLine
 10
354.073836
 20
261.528038
 30
0.0
 11
354.575562
 21
260.920926
 31
0.0
  0
LINE
  5
3D2
330
22C
100
AcDbEntity
 67
     1
  8
7_ALL_FEATURES
  6
HIDDEN
 62
     8
100
AcDbLine
 10
355.665049
 20
260.444761
 30
0.0
 11
356.39702
 21
260.444761
 31
0.0
  0
LINE
  5
3D3
330
22C
100
AcDbEntity
 67
     1
  8
7_ALL_FEATURES
  6
HIDDEN
 62
     8
100
AcDbLine
 10
356.39702
 20
260.444761
 30
0.0
 11
356.39702
 21
260.169963
 31
0.0
  0
LINE
  5
3D4
330
22C
100
AcDbEntity
 67
     1
  8
7_ALL_FEATURES
  6
HIDDEN
 62
     8
100
AcDbLine
 10
356.39702
 20
260.169963
 30
0.0
 11
355.364688
 21
260.169963
 31
0.0
  0
LINE
  5
3D5
330
22C
100
AcDbEntity
 67
     1
  8
7_ALL_FEATURES
  6
HIDDEN
 62
     8
100
AcDbLine
 10
355.364688
 20
260.169963
 30
0.0
 11
355.364688
 21
262.579422
 31
0.0
  0
LINE
  5
3D6
330
22C
100
AcDbEntity
 67
     1
  8
7_ALL_FEATURES
  6
HIDDEN
 62
     8
100
AcDbLine
 10
355.364688
 20
262.579422
 30
0.0
 11
355.665049
 21
262.579422
 31
0.0
  0
LINE
  5
3D7
330
22C
100
AcDbEntity
 67
     1
  8
7_ALL_FEATURES
  6
HIDDEN
 62
     8
100
AcDbLine
 10
355.665049
 20
262.579422
 30
0.0
 11
355.665049
 21
260.444761
 31
0.0
  0
LINE
  5
3D8
330
22C
100
AcDbEntity
 67
     1
  8
7_ALL_FEATURES
  6
HIDDEN
 62
     8
100
AcDbLine
 10
356.633715
 20
264.792247
 30
0.0
 11
351.618949
 21
264.792247
 31
0.0
  0
LINE
  5
3D9
330
22C
100
AcDbEntity
 67
     1
  8
7_ALL_FEATURES
  6
HIDDEN
 62
     8
100
AcDbLine
 10
351.618949
 20
264.792247
 30
0.0
 11
351.618949
 21
259.77736
 31
0.0
  0
LINE
  5
3DA
330
22C
100
AcDbEntity
 67
     1
  8
7_ALL_FEATURES
  6
HIDDEN
 62
     8
100
AcDbLine
 10
351.618949
 20
259.77736
 30
0.0
 11
356.633715
 21
259.77736
 31
0.0
  0
LINE
  5
3DB
330
22C
100
AcDbEntity
 67
     1
  8
7_ALL_FEATURES
  6
HIDDEN
 62
     8
100
AcDbLine
 10
356.633715
 20
259.77736
 30
0.0
 11
356.633715
 21
264.792247
 31
0.0
  0
LINE
  5
3DC
330
22C
100
AcDbEntity
 67
     1
  8
7_ALL_FEATURES
  6
HIDDEN
 62
     8
100
AcDbLine
 10
356.708112
 20
259.703084
 30
0.0
 11
351.544613
 21
259.703084
 31
0.0
  0
LINE
  5
3DD
330
22C
100
AcDbEntity
 67
     1
  8
7_ALL_FEATURES
  6
HIDDEN
 62
     8
100
AcDbLine
 10
351.544613
 20
259.703084
 30
0.0
 11
351.544613
 21
264.866583
 31
0.0
  0
LINE
  5
3DE
330
22C
100
AcDbEntity
 67
     1
  8
7_ALL_FEATURES
  6
HIDDEN
 62
     8
100
AcDbLine
 10
351.544613
 20
264.866583
 30
0.0
 11
356.708112
 21
264.866583
 31
0.0
  0
LINE
  5
3DF
330
22C
100
AcDbEntity
 67
     1
  8
7_ALL_FEATURES
  6
HIDDEN
 62
     8
100
AcDbLine
 10
356.708112
 20
264.866583
 30
0.0
 11
356.708112
 21
259.703084
 31
0.0
  0
LINE
  5
3E0
330
22C
100
AcDbEntity
 67
     1
  8
7_ALL_FEATURES
  6
HIDDEN
 62
     8
100
AcDbLine
 10
358.626363
 20
195.484833
 30
0.0
 11
358.626363
 21
266.784833
 31
0.0
  0
LINE
  5
3E1
330
22C
100
AcDbEntity
 67
     1
  8
7_ALL_FEATURES
  6
HIDDEN
 62
     8
100
AcDbLine
 10
358.626363
 20
266.784833
 30
0.0
 11
287.326363
 21
266.784833
 31
0.0
  0
LINE
  5
3E2
330
22C
100
AcDbEntity
 67
     1
  8
7_ALL_FEATURES
  6
HIDDEN
 62
     8
100
AcDbLine
 10
287.326363
 20
266.784833
 30
0.0
 11
287.326363
 21
195.484833
 31
0.0
  0
LINE
  5
3E3
330
22C
100
AcDbEntity
 67
     1
  8
7_ALL_FEATURES
  6
HIDDEN
 62
     8
100
AcDbLine
 10
287.326363
 20
195.484833
 30
0.0
 11
358.626363
 21
195.484833
 31
0.0
  0
LINE
  5
3E4
330
22C
100
AcDbEntity
 67
     1
  8
7_ALL_FEATURES
  6
HIDDEN
 62
     8
100
AcDbLine
 10
278.856363
 20
275.314833
 30
0.0
 11
367.096363
 21
275.314833
 31
0.0
  0
LINE
  5
3E5
330
22C
100
AcDbEntity
 67
     1
  8
7_ALL_FEATURES
  6
HIDDEN
 62
     8
100
AcDbLine
 10
278.796363
 20
187.014833
 30
0.0
 11
278.796363
 21
275.254833
 31
0.0
  0
LINE
  5
3E6
330
22C
100
AcDbEntity
 67
     1
  8
7_ALL_FEATURES
  6
HIDDEN
 62
     8
100
AcDbLine
 10
367.096363
 20
186.954833
 30
0.0
 11
278.856363
 21
186.954833
 31
0.0
  0
LINE
  5
3E7
330
22C
100
AcDbEntity
 67
     1
  8
7_ALL_FEATURES
  6
HIDDEN
 62
     8
100
AcDbLine
 10
367.156363
 20
275.254833
 30
0.0
 11
367.156363
 21
187.014833
 31
0.0
  0
LINE
  5
3E8
330
22C
100
AcDbEntity
 67
     1
  8
7_ALL_FEATURES
  6
Continuous
 62
     7
100
AcDbLine
 10
278.826363
 20
186.984833
 30
0.0
 11
278.326363
 21
187.484833
 31
0.0
  0
LINE
  5
3E9
330
22C
100
AcDbEntity
 67
     1
  8
7_ALL_FEATURES
  6
Continuous
 62
     7
100
AcDbLine
 10
279.326363
 20
275.784833
 30
0.0
 11
278.826363
 21
275.284833
 31
0.0
  0
LINE
  5
3EA
330
22C
100
AcDbEntity
 67
     1
  8
7_ALL_FEATURES
  6
Continuous
 62
     7
100
AcDbLine
 10
366.626363
 20
275.784833
 30
0.0
 11
367.126363
 21
275.284833
 31
0.0
  0
LINE
  5
3EB
330
22C
100
AcDbEntity
 67
     1
  8
7_ALL_FEATURES
  6
Continuous
 62
     7
100
AcDbLine
 10
278.326363
 20
274.784833
 30
0.0
 11
278.826363
 21
275.284833
 31
0.0
  0
LINE
  5
3EC
330
22C
100
AcDbEntity
 67
     1
  8
7_ALL_FEATURES
  6
Continuous
 62
     7
100
AcDbLine
 10
367.626363
 20
187.484833
 30
0.0
 11
367.126363
 21
186.984833
 31
0.0
  0
LINE
  5
3ED
330
22C
100
AcDbEntity
 67
     1
  8
7_ALL_FEATURES
  6
Continuous
 62
     7
100
AcDbLine
 10
367.126363
 20
275.284833
 30
0.0
 11
367.626363
 21
274.784833
 31
0.0
  0
LINE
  5
3EE
330
22C
100
AcDbEntity
 67
     1
  8
7_ALL_FEATURES
  6
Continuous
 62
     7
100
AcDbLine
 10
367.126363
 20
186.984833
 30
0.0
 11
366.626363
 21
186.484833
 31
0.0
  0
LINE
  5
3EF
330
22C
100
AcDbEntity
 67
     1
  8
7_ALL_FEATURES
  6
Continuous
 62
     7
100
AcDbLine
 10
279.326363
 20
186.484833
 30
0.0
 11
278.826363
 21
186.984833
 31
0.0
  0
LINE
  5
3F0
330
22C
100
AcDbEntity
 67
     1
  8
7_ALL_FEATURES
  6
Continuous
 62
     7
100
AcDbLine
 10
366.626363
 20
275.784833
 30
0.0
 11
279.326363
 21
275.784833
 31
0.0
  0
LINE
  5
3F1
330
22C
100
AcDbEntity
 67
     1
  8
7_ALL_FEATURES
  6
Continuous
 62
     7
100
AcDbLine
 10
367.626363
 20
187.484833
 30
0.0
 11
367.626363
 21
274.784833
 31
0.0
  0
LINE
  5
3F2
330
22C
100
AcDbEntity
 67
     1
  8
7_ALL_FEATURES
  6
Continuous
 62
     7
100
AcDbLine
 10
279.326363
 20
186.484833
 30
0.0
 11
366.626363
 21
186.484833
 31
0.0
  0
LINE
  5
3F3
330
22C
100
AcDbEntity
 67
     1
  8
7_ALL_FEATURES
  6
Continuous
 62
     7
100
AcDbLine
 10
278.326363
 20
274.784833
 30
0.0
 11
278.326363
 21
187.484833
 31
0.0
  0
LINE
  5
3F4
330
22C
100
AcDbEntity
 67
     1
  8
7_ALL_FEATURES
  6
Continuous
 62
     7
100
AcDbLine
 10
367.126363
 20
186.984833
 30
0.0
 11
367.126363
 21
275.284833
 31
0.0
  0
LINE
  5
3F5
330
22C
100
AcDbEntity
 67
     1
  8
7_ALL_FEATURES
  6
Continuous
 62
     7
100
AcDbLine
 10
367.126363
 20
275.284833
 30
0.0
 11
278.826363
 21
275.284833
 31
0.0
  0
LINE
  5
3F6
330
22C
100
AcDbEntity
 67
     1
  8
7_ALL_FEATURES
  6
Continuous
 62
     7
100
AcDbLine
 10
278.826363
 20
275.284833
 30
0.0
 11
278.826363
 21
186.984833
 31
0.0
  0
LINE
  5
3F7
330
22C
100
AcDbEntity
 67
     1
  8
7_ALL_FEATURES
  6
Continuous
 62
     7
100
AcDbLine
 10
278.826363
 20
186.984833
 30
0.0
 11
367.126363
 21
186.984833
 31
0.0
  0
LINE
  5
3F8
330
22C
100
AcDbEntity
 67
     1
  8
7_ALL_FEATURES
  6
Continuous
 62
     7
100
AcDbLine
 10
272.976363
 20
161.134833
 30
0.0
 11
372.976363
 21
161.134833
 31
0.0
  0
LINE
  5
3F9
330
22C
100
AcDbEntity
 67
     1
  8
7_ALL_FEATURES
  6
Continuous
 62
     7
100
AcDbLine
 10
272.976363
 20
281.134833
 30
0.0
 11
372.976363
 21
281.134833
 31
0.0
  0
LINE
  5
3FA
330
22C
100
AcDbEntity
 67
     1
  8
7_ALL_FEATURES
  6
Continuous
 62
     7
100
AcDbLine
 10
272.976363
 20
161.134833
 30
0.0
 11
272.976363
 21
281.134833
 31
0.0
  0
LINE
  5
3FB
330
22C
100
AcDbEntity
 67
     1
  8
7_ALL_FEATURES
  6
Continuous
 62
     7
100
AcDbLine
 10
372.976363
 20
161.134833
 30
0.0
 11
372.976363
 21
281.134833
 31
0.0
  0
ARC
  5
3FC
330
22C
100
AcDbEntity
 67
     1
  8
06___PRT_ALL_SURFS
  6
Continuous
 62
     7
100
AcDbCircle
 10
370.233887
 20
160.334833
 30
0.0
 40
0.4
100
AcDbArc
 50
270.0
 51
357.0
  0
LINE
  5
3FD
330
22C
100
AcDbEntity
 67
     1
  8
06___PRT_ALL_SURFS
  6
Continuous
 62
     7
100
AcDbLine
 10
368.676363
 20
159.934833
 30
0.0
 11
369.157664
 21
159.934833
 31
0.0
  0
LINE
  5
3FE
330
22C
100
AcDbEntity
 67
     1
  8
06___PRT_ALL_SURFS
  6
Continuous
 62
     7
100
AcDbLine
 10
369.157664
 20
159.934833
 30
0.0
 11
369.591853
 21
159.934833
 31
0.0
  0
LINE
  5
3FF
330
22C
100
AcDbEntity
 67
     1
  8
06___PRT_ALL_SURFS
  6
Continuous
 62
     7
100
AcDbLine
 10
369.591853
 20
159.934833
 30
0.0
 11
370.233887
 21
159.934833
 31
0.0
  0
LINE
  5
400
330
22C
100
AcDbEntity
 67
     1
  8
06___PRT_ALL_SURFS
  6
Continuous
 62
     7
100
AcDbLine
 10
368.676363
 20
159.934833
 30
0.0
 11
363.276363
 21
159.934833
 31
0.0
  0
ARC
  5
401
330
22C
100
AcDbEntity
 67
     1
  8
06___PRT_ALL_SURFS
  6
Continuous
 62
     7
100
AcDbCircle
 10
363.118838
 20
160.334833
 30
0.0
 40
0.4
100
AcDbArc
 50
248.25
 51
270.0
  0
ARC
  5
402
330
22C
100
AcDbEntity
 67
     1
  8
06___PRT_ALL_SURFS
  6
Continuous
 62
     7
100
AcDbCircle
 10
363.118838
 20
160.334833
 30
0.0
 40
0.4
100
AcDbArc
 50
183.0
 51
248.25
  0
LINE
  5
403
330
22C
100
AcDbEntity
 67
     1
  8
06___PRT_ALL_SURFS
  6
Continuous
 62
     7
100
AcDbLine
 10
363.276363
 20
159.934833
 30
0.0
 11
363.118838
 21
159.934833
 31
0.0
  0
LINE
  5
404
330
22C
100
AcDbEntity
 67
     1
  8
06___PRT_ALL_SURFS
  6
Continuous
 62
     7
100
AcDbLine
 10
363.122787
 20
159.934833
 30
0.0
 11
363.276363
 21
159.934833
 31
0.0
  0
LINE
  5
405
330
22C
100
AcDbEntity
 67
     1
  8
06___PRT_ALL_SURFS
  6
Continuous
 62
     7
100
AcDbLine
 10
363.276363
 20
159.934833
 30
0.0
 11
363.122787
 21
159.934833
 31
0.0
  0
LINE
  5
406
330
22C
100
AcDbEntity
 67
     1
  8
06___PRT_ALL_SURFS
  6
Continuous
 62
     7
100
AcDbLine
 10
362.719386
 20
160.313899
 30
0.0
 11
362.676363
 21
161.134833
 31
0.0
  0
LINE
  5
407
330
22C
100
AcDbEntity
 67
     1
  8
06___PRT_ALL_SURFS
  6
Continuous
 62
     7
100
AcDbLine
 10
282.833887
 20
159.934833
 30
0.0
 11
282.676363
 21
159.934833
 31
0.0
  0
ARC
  5
408
330
22C
100
AcDbEntity
 67
     1
  8
06___PRT_ALL_SURFS
  6
Continuous
 62
     7
100
AcDbCircle
 10
282.833887
 20
160.334833
 30
0.0
 40
0.4
100
AcDbArc
 50
270.0
 51
291.75
  0
ARC
  5
409
330
22C
100
AcDbEntity
 67
     1
  8
06___PRT_ALL_SURFS
  6
Continuous
 62
     7
100
AcDbCircle
 10
282.833887
 20
160.334833
 30
0.0
 40
0.4
100
AcDbArc
 50
291.75
 51
313.5
  0
ARC
  5
40A
330
22C
100
AcDbEntity
 67
     1
  8
06___PRT_ALL_SURFS
  6
Continuous
 62
     7
100
AcDbCircle
 10
282.833887
 20
160.334833
 30
0.0
 40
0.4
100
AcDbArc
 50
313.5
 51
357.0
  0
LINE
  5
40B
330
22C
100
AcDbEntity
 67
     1
  8
06___PRT_ALL_SURFS
  6
Continuous
 62
     7
100
AcDbLine
 10
282.829938
 20
159.934833
 30
0.0
 11
282.833887
 21
159.934833
 31
0.0
  0
LINE
  5
40C
330
22C
100
AcDbEntity
 67
     1
  8
06___PRT_ALL_SURFS
  6
Continuous
 62
     7
100
AcDbLine
 10
282.833887
 20
159.934833
 30
0.0
 11
282.676363
 21
159.934833
 31
0.0
  0
LINE
  5
40D
330
22C
100
AcDbEntity
 67
     1
  8
06___PRT_ALL_SURFS
  6
Continuous
 62
     7
100
AcDbLine
 10
282.676363
 20
159.934833
 30
0.0
 11
282.829938
 21
159.934833
 31
0.0
  0
LINE
  5
40E
330
22C
100
AcDbEntity
 67
     1
  8
06___PRT_ALL_SURFS
  6
Continuous
 62
     7
100
AcDbLine
 10
282.676363
 20
159.934833
 30
0.0
 11
277.276363
 21
159.934833
 31
0.0
  0
ARC
  5
40F
330
22C
100
AcDbEntity
 67
     1
  8
06___PRT_ALL_SURFS
  6
Continuous
 62
     7
100
AcDbCircle
 10
275.718838
 20
160.334833
 30
0.0
 40
0.4
100
AcDbArc
 50
183.0
 51
270.0
  0
LINE
  5
410
330
22C
100
AcDbEntity
 67
     1
  8
06___PRT_ALL_SURFS
  6
Continuous
 62
     7
100
AcDbLine
 10
275.718838
 20
159.934833
 30
0.0
 11
276.360872
 21
159.934833
 31
0.0
  0
LINE
  5
411
330
22C
100
AcDbEntity
 67
     1
  8
06___PRT_ALL_SURFS
  6
Continuous
 62
     7
100
AcDbLine
 10
276.360872
 20
159.934833
 30
0.0
 11
276.795061
 21
159.934833
 31
0.0
  0
LINE
  5
412
330
22C
100
AcDbEntity
 67
     1
  8
06___PRT_ALL_SURFS
  6
Continuous
 62
     7
100
AcDbLine
 10
276.795061
 20
159.934833
 30
0.0
 11
277.276363
 21
159.934833
 31
0.0
  0
LINE
  5
413
330
22C
100
AcDbEntity
 67
     1
  8
06___PRT_ALL_SURFS
  6
Continuous
 62
     7
100
AcDbLine
 10
275.319386
 20
160.313899
 30
0.0
 11
275.276363
 21
161.134833
 31
0.0
  0
LINE
  5
414
330
22C
100
AcDbEntity
 67
     1
  8
06___PRT_ALL_SURFS
  6
Continuous
 62
     7
100
AcDbLine
 10
283.233339
 20
160.313899
 30
0.0
 11
283.276363
 21
161.134833
 31
0.0
  0
LINE
  5
415
330
22C
100
AcDbEntity
 67
     1
  8
7_ALL_FEATURES
  6
Continuous
 62
     7
100
AcDbLine
 10
370.633339
 20
160.313899
 30
0.0
 11
370.676363
 21
161.134833
 31
0.0
  0
LINE
  5
416
330
22C
100
AcDbEntity
 67
     1
  8
06___PRT_ALL_SURFS
  6
Continuous
 62
     7
100
AcDbLine
 10
370.233887
 20
159.934833
 30
0.0
 11
369.590918
 21
159.934833
 31
0.0
  0
LINE
  5
417
330
22C
100
AcDbEntity
 67
     1
  8
06___PRT_ALL_SURFS
  6
Continuous
 62
     7
100
AcDbLine
 10
369.590918
 20
159.934833
 30
0.0
 11
369.152393
 21
159.934833
 31
0.0
  0
LINE
  5
418
330
22C
100
AcDbEntity
 67
     1
  8
06___PRT_ALL_SURFS
  6
Continuous
 62
     7
100
AcDbLine
 10
369.152393
 20
159.934833
 30
0.0
 11
368.676363
 21
159.934833
 31
0.0
  0
LINE
  5
419
330
22C
100
AcDbEntity
 67
     1
  8
06___PRT_ALL_SURFS
  6
Continuous
 62
     7
100
AcDbLine
 10
368.676363
 20
159.934833
 30
0.0
 11
363.276363
 21
159.934833
 31
0.0
  0
LINE
  5
41A
330
22C
100
AcDbEntity
 67
     1
  8
7_ALL_FEATURES
  6
Continuous
 62
     7
100
AcDbLine
 10
275.319386
 20
160.313899
 30
0.0
 11
275.276363
 21
161.134833
 31
0.0
  0
LINE
  5
41B
330
22C
100
AcDbEntity
 67
     1
  8
06___PRT_ALL_SURFS
  6
Continuous
 62
     7
100
AcDbLine
 10
282.676363
 20
159.934833
 30
0.0
 11
277.276363
 21
159.934833
 31
0.0
  0
LINE
  5
41C
330
22C
100
AcDbEntity
 67
     1
  8
06___PRT_ALL_SURFS
  6
Continuous
 62
     7
100
AcDbLine
 10
277.276363
 20
159.934833
 30
0.0
 11
276.800329
 21
159.934833
 31
0.0
  0
LINE
  5
41D
330
22C
100
AcDbEntity
 67
     1
  8
06___PRT_ALL_SURFS
  6
Continuous
 62
     7
100
AcDbLine
 10
276.800329
 20
159.934833
 30
0.0
 11
276.361839
 21
159.934833
 31
0.0
  0
LINE
  5
41E
330
22C
100
AcDbEntity
 67
     1
  8
06___PRT_ALL_SURFS
  6
Continuous
 62
     7
100
AcDbLine
 10
276.361839
 20
159.934833
 30
0.0
 11
275.718838
 21
159.934833
 31
0.0
  0
LINE
  5
41F
330
22C
100
AcDbEntity
 67
     1
  8
06___PRT_ALL_SURFS
  6
Continuous
 62
     9
100
AcDbLine
 10
282.676363
 20
159.934833
 30
0.0
 11
282.676363
 21
160.044684
 31
0.0
  0
LINE
  5
420
330
22C
100
AcDbEntity
 67
     1
  8
06___PRT_ALL_SURFS
  6
Continuous
 62
     9
100
AcDbLine
 10
282.676363
 20
160.044684
 30
0.0
 11
282.676363
 21
160.167369
 31
0.0
  0
LINE
  5
421
330
22C
100
AcDbEntity
 67
     1
  8
06___PRT_ALL_SURFS
  6
Continuous
 62
     9
100
AcDbLine
 10
282.676363
 20
160.167369
 30
0.0
 11
282.676363
 21
160.313899
 31
0.0
  0
LINE
  5
422
330
22C
100
AcDbEntity
 67
     1
  8
7_ALL_FEATURES
  6
Continuous
 62
     9
100
AcDbLine
 10
368.908199
 20
275.568725
 30
0.0
 11
368.908199
 21
186.700942
 31
0.0
  0
LINE
  5
423
330
22C
100
AcDbEntity
 67
     1
  8
06___PRT_ALL_SURFS
  6
Continuous
 62
     9
100
AcDbLine
 10
277.276363
 20
159.934833
 30
0.0
 11
277.276362
 21
160.313899
 31
0.0
  0
SPLINE
  5
424
330
22C
100
AcDbEntity
 67
     1
  8
7_ALL_FEATURES
  6
Continuous
 62
     9
100
AcDbSpline
 70
     0
 71
     3
 72
    11
 73
     7
 74
     0
 42
0.000000001
 43
0.0000001
 40
0.0
 40
0.0
 40
0.0
 40
0.0
 40
0.2500209498
 40
0.4999951766
 40
0.7499715065
 40
1.0
 40
1.0
 40
1.0
 40
1.0
 10
367.4102543083
 20
277.0666694499
 30
0.0
 10
367.6051132913
 20
277.0666525224
 30
0.0
 10
367.999085061
 20
276.9889120933
 30
0.0
 10
368.4970862831
 20
276.6555673449
 30
0.0
 10
368.8304154582
 20
276.1575697836
 30
0.0
 10
368.9082171051
 20
275.7635900105
 30
0.0
 10
368.9081986103
 20
275.5687251483
 30
0.0
  0
LINE
  5
425
330
22C
100
AcDbEntity
 67
     1
  8
7_ALL_FEATURES
  6
Continuous
 62
     9
100
AcDbLine
 10
278.542471
 20
277.066669
 30
0.0
 11
367.410254
 21
277.066669
 31
0.0
  0
SPLINE
  5
426
330
22C
100
AcDbEntity
 67
     1
  8
7_ALL_FEATURES
  6
Continuous
 62
     9
100
AcDbSpline
 70
     0
 71
     3
 72
    11
 73
     7
 74
     0
 42
0.000000001
 43
0.0000001
 40
0.0
 40
0.0
 40
0.0
 40
0.0
 40
0.2500209498
 40
0.4999951766
 40
0.7499715065
 40
1.0
 40
1.0
 40
1.0
 40
1.0
 10
277.0445264143
 20
275.5687251478
 30
0.0
 10
277.0445433417
 20
275.7635841309
 30
0.0
 10
277.1222837708
 20
276.1575559006
 30
0.0
 10
277.4556285192
 20
276.6555571227
 30
0.0
 10
277.9536260805
 20
276.9888862977
 30
0.0
 10
278.3476058536
 20
277.0666879447
 30
0.0
 10
278.5424707159
 20
277.0666694499
 30
0.0
  0
LINE
  5
427
330
22C
100
AcDbEntity
 67
     1
  8
06___PRT_ALL_SURFS
  6
Continuous
 62
     9
100
AcDbLine
 10
283.233339
 20
160.313899
 30
0.0
 11
282.676363
 21
160.313899
 31
0.0
  0
ARC
  5
428
330
22C
100
AcDbEntity
 67
     1
  8
7_ALL_FEATURES
  6
Continuous
 62
     9
100
AcDbCircle
 10
367.252364
 20
275.410835
 30
0.0
 40
0.2495163928
100
AcDbArc
 50
359.967615
 51
90.032385
  0
LINE
  5
429
330
22C
100
AcDbEntity
 67
     1
  8
7_ALL_FEATURES
  6
Continuous
 62
     9
100
AcDbLine
 10
367.50188
 20
275.410694
 30
0.0
 11
367.50188
 21
274.909316
 31
0.0
  0
LINE
  5
42A
330
22C
100
AcDbEntity
 67
     1
  8
7_ALL_FEATURES
  6
Continuous
 62
     9
100
AcDbLine
 10
367.50188
 20
187.360351
 30
0.0
 11
367.50188
 21
186.858973
 31
0.0
  0
ARC
  5
42B
330
22C
100
AcDbEntity
 67
     1
  8
7_ALL_FEATURES
  6
Continuous
 62
     9
100
AcDbCircle
 10
367.252364
 20
186.858832
 30
0.0
 40
0.2495163928
100
AcDbArc
 50
269.967615
 51
0.032385
  0
LINE
  5
42C
330
22C
100
AcDbEntity
 67
     1
  8
7_ALL_FEATURES
  6
Continuous
 62
     9
100
AcDbLine
 10
367.252223
 20
186.609316
 30
0.0
 11
366.750845
 21
186.609316
 31
0.0
  0
LINE
  5
42D
330
22C
100
AcDbEntity
 67
     1
  8
7_ALL_FEATURES
  6
Continuous
 62
     9
100
AcDbLine
 10
279.20188
 20
186.609316
 30
0.0
 11
278.700502
 21
186.609316
 31
0.0
  0
ARC
  5
42E
330
22C
100
AcDbEntity
 67
     1
  8
7_ALL_FEATURES
  6
Continuous
 62
     9
100
AcDbCircle
 10
278.700361
 20
186.858832
 30
0.0
 40
0.2495163928
100
AcDbArc
 50
179.967615
 51
270.032385
  0
LINE
  5
42F
330
22C
100
AcDbEntity
 67
     1
  8
7_ALL_FEATURES
  6
Continuous
 62
     9
100
AcDbLine
 10
278.450845
 20
186.858973
 30
0.0
 11
278.450845
 21
187.360351
 31
0.0
  0
LINE
  5
430
330
22C
100
AcDbEntity
 67
     1
  8
7_ALL_FEATURES
  6
Continuous
 62
     9
100
AcDbLine
 10
278.450845
 20
274.909316
 30
0.0
 11
278.450845
 21
275.410694
 31
0.0
  0
ARC
  5
431
330
22C
100
AcDbEntity
 67
     1
  8
7_ALL_FEATURES
  6
Continuous
 62
     9
100
AcDbCircle
 10
278.700361
 20
275.410835
 30
0.0
 40
0.2495163928
100
AcDbArc
 50
89.967615
 51
180.032385
  0
LINE
  5
432
330
22C
100
AcDbEntity
 67
     1
  8
7_ALL_FEATURES
  6
Continuous
 62
     9
100
AcDbLine
 10
278.700502
 20
275.660351
 30
0.0
 11
279.20188
 21
275.660351
 31
0.0
  0
LINE
  5
433
330
22C
100
AcDbEntity
 67
     1
  8
7_ALL_FEATURES
  6
Continuous
 62
     9
100
AcDbLine
 10
366.750845
 20
275.660351
 30
0.0
 11
367.252223
 21
275.660351
 31
0.0
  0
LINE
  5
434
330
22C
100
AcDbEntity
 67
     1
  8
7_ALL_FEATURES
  6
Continuous
 62
     9
100
AcDbLine
 10
277.95153
 20
186.858973
 30
0.0
 11
277.95153
 21
275.410694
 31
0.0
  0
LINE
  5
435
330
22C
100
AcDbEntity
 67
     1
  8
7_ALL_FEATURES
  6
Continuous
 62
     9
100
AcDbLine
 10
277.793499
 20
186.700942
 30
0.0
 11
277.95153
 21
186.858973
 31
0.0
  0
LINE
  5
436
330
22C
100
AcDbEntity
 67
     1
  8
7_ALL_FEATURES
  6
Continuous
 62
     9
100
AcDbLine
 10
277.793499
 20
186.700942
 30
0.0
 11
277.793499
 21
275.568725
 31
0.0
  0
LINE
  5
437
330
22C
100
AcDbEntity
 67
     1
  8
7_ALL_FEATURES
  6
Continuous
 62
     9
100
AcDbLine
 10
277.793499
 20
275.568725
 30
0.0
 11
277.95153
 21
275.410694
 31
0.0
  0
LINE
  5
438
330
22C
100
AcDbEntity
 67
     1
  8
7_ALL_FEATURES
  6
Continuous
 62
     9
100
AcDbLine
 10
367.252223
 20
186.110001
 30
0.0
 11
278.700502
 21
186.110001
 31
0.0
  0
LINE
  5
439
330
22C
100
AcDbEntity
 67
     1
  8
7_ALL_FEATURES
  6
Continuous
 62
     9
100
AcDbLine
 10
367.410254
 20
185.951969
 30
0.0
 11
367.252223
 21
186.110001
 31
0.0
  0
LINE
  5
43A
330
22C
100
AcDbEntity
 67
     1
  8
7_ALL_FEATURES
  6
Continuous
 62
     9
100
AcDbLine
 10
367.410254
 20
185.951969
 30
0.0
 11
278.542471
 21
185.951969
 31
0.0
  0
LINE
  5
43B
330
22C
100
AcDbEntity
 67
     1
  8
7_ALL_FEATURES
  6
Continuous
 62
     9
100
AcDbLine
 10
278.542471
 20
185.951969
 30
0.0
 11
278.700502
 21
186.110001
 31
0.0
  0
LINE
  5
43C
330
22C
100
AcDbEntity
 67
     1
  8
7_ALL_FEATURES
  6
Continuous
 62
     9
100
AcDbLine
 10
368.001195
 20
275.410694
 30
0.0
 11
368.001195
 21
186.858973
 31
0.0
  0
LINE
  5
43D
330
22C
100
AcDbEntity
 67
     1
  8
06___PRT_ALL_SURFS
  6
Continuous
 62
     9
100
AcDbLine
 10
370.633339
 20
160.313899
 30
0.0
 11
369.826644
 21
160.313899
 31
0.0
  0
LINE
  5
43E
330
22C
100
AcDbEntity
 67
     1
  8
06___PRT_ALL_SURFS
  6
Continuous
 62
     9
100
AcDbLine
 10
369.826644
 20
160.313899
 30
0.0
 11
369.281101
 21
160.313899
 31
0.0
  0
LINE
  5
43F
330
22C
100
AcDbEntity
 67
     1
  8
06___PRT_ALL_SURFS
  6
Continuous
 62
     9
100
AcDbLine
 10
369.281101
 20
160.313899
 30
0.0
 11
368.676363
 21
160.313899
 31
0.0
  0
LINE
  5
440
330
22C
100
AcDbEntity
 67
     1
  8
7_ALL_FEATURES
  6
Continuous
 62
     9
100
AcDbLine
 10
368.159226
 20
275.568725
 30
0.0
 11
368.001195
 21
275.410694
 31
0.0
  0
LINE
  5
441
330
22C
100
AcDbEntity
 67
     1
  8
7_ALL_FEATURES
  6
Continuous
 62
     9
100
AcDbLine
 10
368.159226
 20
275.568725
 30
0.0
 11
368.159226
 21
186.700942
 31
0.0
  0
LINE
  5
442
330
22C
100
AcDbEntity
 67
     1
  8
7_ALL_FEATURES
  6
Continuous
 62
     9
100
AcDbLine
 10
368.159226
 20
186.700942
 30
0.0
 11
368.001195
 21
186.858973
 31
0.0
  0
LINE
  5
443
330
22C
100
AcDbEntity
 67
     1
  8
7_ALL_FEATURES
  6
Continuous
 62
     9
100
AcDbLine
 10
278.700502
 20
276.159666
 30
0.0
 11
367.252223
 21
276.159666
 31
0.0
  0
LINE
  5
444
330
22C
100
AcDbEntity
 67
     1
  8
7_ALL_FEATURES
  6
Continuous
 62
     9
100
AcDbLine
 10
278.542471
 20
276.317697
 30
0.0
 11
278.700502
 21
276.159666
 31
0.0
  0
LINE
  5
445
330
22C
100
AcDbEntity
 67
     1
  8
7_ALL_FEATURES
  6
Continuous
 62
     9
100
AcDbLine
 10
278.542471
 20
276.317697
 30
0.0
 11
367.410254
 21
276.317697
 31
0.0
  0
LINE
  5
446
330
22C
100
AcDbEntity
 67
     1
  8
7_ALL_FEATURES
  6
Continuous
 62
     9
100
AcDbLine
 10
367.410254
 20
276.317697
 30
0.0
 11
367.252223
 21
276.159666
 31
0.0
  0
LINE
  5
447
330
22C
100
AcDbEntity
 67
     1
  8
06___PRT_ALL_SURFS
  6
Continuous
 62
     9
100
AcDbLine
 10
363.276363
 20
160.313899
 30
0.0
 11
362.719386
 21
160.313899
 31
0.0
  0
LINE
  5
448
330
22C
100
AcDbEntity
 67
     1
  8
7_ALL_FEATURES
  6
Continuous
 62
     9
100
AcDbLine
 10
363.276363
 20
160.313899
 30
0.0
 11
363.276363
 21
161.134833
 31
0.0
  0
LINE
  5
449
330
22C
100
AcDbEntity
 67
     1
  8
06___PRT_ALL_SURFS
  6
Continuous
 62
     9
100
AcDbLine
 10
368.676363
 20
160.313899
 30
0.0
 11
363.276363
 21
160.313899
 31
0.0
  0
LINE
  5
44A
330
22C
100
AcDbEntity
 67
     1
  8
7_ALL_FEATURES
  6
Continuous
 62
     9
100
AcDbLine
 10
368.676363
 20
160.313899
 30
0.0
 11
368.676363
 21
161.134833
 31
0.0
  0
LINE
  5
44B
330
22C
100
AcDbEntity
 67
     1
  8
06___PRT_ALL_SURFS
  6
Continuous
 62
     9
100
AcDbLine
 10
277.276363
 20
160.313899
 30
0.0
 11
276.671624
 21
160.313899
 31
0.0
  0
LINE
  5
44C
330
22C
100
AcDbEntity
 67
     1
  8
06___PRT_ALL_SURFS
  6
Continuous
 62
     9
100
AcDbLine
 10
276.671624
 20
160.313899
 30
0.0
 11
276.126081
 21
160.313899
 31
0.0
  0
LINE
  5
44D
330
22C
100
AcDbEntity
 67
     1
  8
06___PRT_ALL_SURFS
  6
Continuous
 62
     9
100
AcDbLine
 10
276.126081
 20
160.313899
 30
0.0
 11
275.319386
 21
160.313899
 31
0.0
  0
LINE
  5
44E
330
22C
100
AcDbEntity
 67
     1
  8
7_ALL_FEATURES
  6
Continuous
 62
     9
100
AcDbLine
 10
277.276363
 20
160.313899
 30
0.0
 11
277.276363
 21
161.134833
 31
0.0
  0
LINE
  5
44F
330
22C
100
AcDbEntity
 67
     1
  8
06___PRT_ALL_SURFS
  6
Continuous
 62
     9
100
AcDbLine
 10
282.676363
 20
160.313899
 30
0.0
 11
277.276363
 21
160.313899
 31
0.0
  0
LINE
  5
450
330
22C
100
AcDbEntity
 67
     1
  8
7_ALL_FEATURES
  6
Continuous
 62
     9
100
AcDbLine
 10
282.676363
 20
160.313899
 30
0.0
 11
282.676363
 21
161.134833
 31
0.0
  0
SPLINE
  5
451
330
22C
100
AcDbEntity
 67
     1
  8
7_ALL_FEATURES
  6
Continuous
 62
     9
100
AcDbSpline
 70
     0
 71
     3
 72
    11
 73
     7
 74
     0
 42
0.000000001
 43
0.0000001
 40
0.0
 40
0.0
 40
0.0
 40
0.0
 40
0.2498362902
 40
0.4998073102
 40
0.7499002402
 40
1.0
 40
1.0
 40
1.0
 40
1.0
 10
367.2522228452
 20
276.1596658359
 30
0.0
 10
367.3495208786
 20
276.1594874893
 30
0.0
 10
367.5462140264
 20
276.1202760854
 30
0.0
 10
367.7949180982
 20
275.953654767
 30
0.0
 10
367.9617318224
 20
275.7049440718
 30
0.0
 10
368.0010165641
 20
275.5080943259
 30
0.0
 10
368.0011949963
 20
275.4106936848
 30
0.0
  0
SPLINE
  5
452
330
22C
100
AcDbEntity
 67
     1
  8
7_ALL_FEATURES
  6
Continuous
 62
     9
100
AcDbSpline
 70
     0
 71
     3
 72
    11
 73
     7
 74
     0
 42
0.000000001
 43
0.0000001
 40
0.0
 40
0.0
 40
0.0
 40
0.0
 40
0.2499413643
 40
0.5000015297
 40
0.7500622384
 40
1.0
 40
1.0
 40
1.0
 40
1.0
 10
367.4102543082
 20
276.3176972988
 30
0.0
 10
367.5077469928
 20
276.3179569809
 30
0.0
 10
367.7050500614
 20
276.2796614589
 30
0.0
 10
367.9546913222
 20
276.1131578034
 30
0.0
 10
368.1211843642
 20
275.8635183202
 30
0.0
 10
368.1594981036
 20
275.6662163945
 30
0.0
 10
368.1592264593
 20
275.5687251477
 30
0.0
  0
SPLINE
  5
453
330
22C
100
AcDbEntity
 67
     1
  8
7_ALL_FEATURES
  6
Continuous
 62
     9
100
AcDbSpline
 70
     0
 71
     3
 72
    11
 73
     7
 74
     0
 42
0.000000001
 43
0.0000001
 40
0.0
 40
0.0
 40
0.0
 40
0.0
 40
0.2498362902
 40
0.4998073102
 40
0.7499002402
 40
1.0
 40
1.0
 40
1.0
 40
1.0
 10
277.9515300283
 20
275.4106936848
 30
0.0
 10
277.9517083748
 20
275.5079917182
 30
0.0
 10
277.9909197787
 20
275.7046848659
 30
0.0
 10
278.1575410971
 20
275.9533889378
 30
0.0
 10
278.4062517923
 20
276.120202662
 30
0.0
 10
278.6031015383
 20
276.1594874037
 30
0.0
 10
278.7005021793
 20
276.1596658359
 30
0.0
  0
SPLINE
  5
454
330
22C
100
AcDbEntity
 67
     1
  8
7_ALL_FEATURES
  6
Continuous
 62
     9
100
AcDbSpline
 70
     0
 71
     3
 72
    11
 73
     7
 74
     0
 42
0.000000001
 43
0.0000001
 40
0.0
 40
0.0
 40
0.0
 40
0.0
 40
0.2499413643
 40
0.5000015297
 40
0.7500622384
 40
1.0
 40
1.0
 40
1.0
 40
1.0
 10
277.7934985653
 20
275.5687251477
 30
0.0
 10
277.7932388832
 20
275.6662178324
 30
0.0
 10
277.8315344052
 20
275.8635209009
 30
0.0
 10
277.9980380607
 20
276.1131621618
 30
0.0
 10
278.2476775439
 20
276.2796552038
 30
0.0
 10
278.4449794696
 20
276.3179689431
 30
0.0
 10
278.5424707164
 20
276.3176972988
 30
0.0
  0
SPLINE
  5
455
330
22C
100
AcDbEntity
 67
     1
  8
7_ALL_FEATURES
  6
Continuous
 62
     9
100
AcDbSpline
 70
     0
 71
     3
 72
    11
 73
     7
 74
     0
 42
0.000000001
 43
0.0000001
 40
0.0
 40
0.0
 40
0.0
 40
0.0
 40
0.2498362902
 40
0.4998073102
 40
0.7499002402
 40
1.0
 40
1.0
 40
1.0
 40
1.0
 10
368.0011949963
 20
186.8589730189
 30
0.0
 10
368.0010166498
 20
186.7616749855
 30
0.0
 10
367.9618052458
 20
186.5649818378
 30
0.0
 10
367.7951839275
 20
186.3162777659
 30
0.0
 10
367.5464732323
 20
186.1494640417
 30
0.0
 10
367.3496234863
 20
186.1101793
 30
0.0
 10
367.2522228452
 20
186.1100008678
 30
0.0
  0
SPLINE
  5
456
330
22C
100
AcDbEntity
 67
     1
  8
7_ALL_FEATURES
  6
Continuous
 62
     9
100
AcDbSpline
 70
     0
 71
     3
 72
    11
 73
     7
 74
     0
 42
0.000000001
 43
0.0000001
 40
0.0
 40
0.0
 40
0.0
 40
0.0
 40
0.2499413643
 40
0.5000015297
 40
0.7500622384
 40
1.0
 40
1.0
 40
1.0
 40
1.0
 10
368.1592264593
 20
186.7009415559
 30
0.0
 10
368.1594861414
 20
186.6034488713
 30
0.0
 10
368.1211906193
 20
186.4061458028
 30
0.0
 10
367.9546869638
 20
186.1565045419
 30
0.0
 10
367.7050474807
 20
185.9900114999
 30
0.0
 10
367.5077455549
 20
185.9516977605
 30
0.0
 10
367.4102543082
 20
185.9519694049
 30
0.0
  0
SPLINE
  5
457
330
22C
100
AcDbEntity
 67
     1
  8
7_ALL_FEATURES
  6
Continuous
 62
     9
100
AcDbSpline
 70
     0
 71
     3
 72
    11
 73
     7
 74
     0
 42
0.000000001
 43
0.0000001
 40
0.0
 40
0.0
 40
0.0
 40
0.0
 40
0.2498362902
 40
0.4998073102
 40
0.7499002402
 40
1.0
 40
1.0
 40
1.0
 40
1.0
 10
278.7005021793
 20
186.1100008678
 30
0.0
 10
278.6032041459
 20
186.1101792143
 30
0.0
 10
278.4065109982
 20
186.1493906183
 30
0.0
 10
278.1578069264
 20
186.3160119367
 30
0.0
 10
277.9909932022
 20
186.5647226319
 30
0.0
 10
277.9517084605
 20
186.7615723778
 30
0.0
 10
277.9515300283
 20
186.8589730189
 30
0.0
  0
SPLINE
  5
458
330
22C
100
AcDbEntity
 67
     1
  8
7_ALL_FEATURES
  6
Continuous
 62
     9
100
AcDbSpline
 70
     0
 71
     3
 72
    11
 73
     7
 74
     0
 42
0.000000001
 43
0.0000001
 40
0.0
 40
0.0
 40
0.0
 40
0.0
 40
0.2499413643
 40
0.5000015297
 40
0.7500622384
 40
1.0
 40
1.0
 40
1.0
 40
1.0
 10
278.5424707164
 20
185.9519694049
 30
0.0
 10
278.4449780318
 20
185.9517097228
 30
0.0
 10
278.2476749632
 20
185.9900052448
 30
0.0
 10
277.9980337024
 20
186.1565089003
 30
0.0
 10
277.8315406604
 20
186.4061483835
 30
0.0
 10
277.793226921
 20
186.6034503092
 30
0.0
 10
277.7934985653
 20
186.7009415559
 30
0.0
  0
LINE
  5
459
330
22C
100
AcDbEntity
 67
     1
  8
7_ALL_FEATURES
  6
Continuous
 62
     9
100
AcDbLine
 10
277.044526
 20
186.700942
 30
0.0
 11
277.793499
 21
186.700942
 31
0.0
  0
LINE
  5
45A
330
22C
100
AcDbEntity
 67
     1
  8
7_ALL_FEATURES
  6
Continuous
 62
     9
100
AcDbLine
 10
278.542471
 20
185.202997
 30
0.0
 11
278.542471
 21
185.951969
 31
0.0
  0
LINE
  5
45B
330
22C
100
AcDbEntity
 67
     1
  8
7_ALL_FEATURES
  6
Continuous
 62
     9
100
AcDbLine
 10
367.410254
 20
185.202997
 30
0.0
 11
367.410254
 21
185.951969
 31
0.0
  0
LINE
  5
45C
330
22C
100
AcDbEntity
 67
     1
  8
7_ALL_FEATURES
  6
Continuous
 62
     9
100
AcDbLine
 10
368.908199
 20
186.700942
 30
0.0
 11
368.159226
 21
186.700942
 31
0.0
  0
LINE
  5
45D
330
22C
100
AcDbEntity
 67
     1
  8
7_ALL_FEATURES
  6
Continuous
 62
     9
100
AcDbLine
 10
368.908199
 20
275.568725
 30
0.0
 11
368.159226
 21
275.568725
 31
0.0
  0
LINE
  5
45E
330
22C
100
AcDbEntity
 67
     1
  8
7_ALL_FEATURES
  6
Continuous
 62
     9
100
AcDbLine
 10
367.410254
 20
277.066669
 30
0.0
 11
367.410254
 21
276.317697
 31
0.0
  0
LINE
  5
45F
330
22C
100
AcDbEntity
 67
     1
  8
7_ALL_FEATURES
  6
Continuous
 62
     9
100
AcDbLine
 10
278.542471
 20
277.066669
 30
0.0
 11
278.542471
 21
276.317697
 31
0.0
  0
LINE
  5
460
330
22C
100
AcDbEntity
 67
     1
  8
7_ALL_FEATURES
  6
Continuous
 62
     9
100
AcDbLine
 10
277.044526
 20
275.568725
 30
0.0
 11
277.793499
 21
275.568725
 31
0.0
  0
LINE
  5
461
330
22C
100
AcDbEntity
 67
     1
  8
7_ALL_FEATURES
  6
Continuous
 62
     9
100
AcDbLine
 10
278.700502
 20
275.660351
 30
0.0
 11
278.700502
 21
276.159666
 31
0.0
  0
LINE
  5
462
330
22C
100
AcDbEntity
 67
     1
  8
7_ALL_FEATURES
  6
Continuous
 62
     9
100
AcDbLine
 10
278.450845
 20
275.410694
 30
0.0
 11
277.95153
 21
275.410694
 31
0.0
  0
LINE
  5
463
330
22C
100
AcDbEntity
 67
     1
  8
7_ALL_FEATURES
  6
Continuous
 62
     9
100
AcDbLine
 10
278.450845
 20
186.858973
 30
0.0
 11
277.95153
 21
186.858973
 31
0.0
  0
LINE
  5
464
330
22C
100
AcDbEntity
 67
     1
  8
7_ALL_FEATURES
  6
Continuous
 62
     9
100
AcDbLine
 10
278.700502
 20
186.609316
 30
0.0
 11
278.700502
 21
186.110001
 31
0.0
  0
LINE
  5
465
330
22C
100
AcDbEntity
 67
     1
  8
7_ALL_FEATURES
  6
Continuous
 62
     9
100
AcDbLine
 10
367.252223
 20
186.609316
 30
0.0
 11
367.252223
 21
186.110001
 31
0.0
  0
LINE
  5
466
330
22C
100
AcDbEntity
 67
     1
  8
7_ALL_FEATURES
  6
Continuous
 62
     9
100
AcDbLine
 10
367.50188
 20
186.858973
 30
0.0
 11
368.001195
 21
186.858973
 31
0.0
  0
LINE
  5
467
330
22C
100
AcDbEntity
 67
     1
  8
7_ALL_FEATURES
  6
Continuous
 62
     9
100
AcDbLine
 10
367.50188
 20
275.410694
 30
0.0
 11
368.001195
 21
275.410694
 31
0.0
  0
LINE
  5
468
330
22C
100
AcDbEntity
 67
     1
  8
7_ALL_FEATURES
  6
Continuous
 62
     9
100
AcDbLine
 10
367.252223
 20
275.660351
 30
0.0
 11
367.252223
 21
276.159666
 31
0.0
  0
LINE
  5
469
330
22C
100
AcDbEntity
 67
     1
  8
06___PRT_ALL_SURFS
  6
Continuous
 62
     9
100
AcDbLine
 10
363.276363
 20
159.934833
 30
0.0
 11
363.276363
 21
160.044684
 31
0.0
  0
LINE
  5
46A
330
22C
100
AcDbEntity
 67
     1
  8
06___PRT_ALL_SURFS
  6
Continuous
 62
     9
100
AcDbLine
 10
363.276363
 20
160.044684
 30
0.0
 11
363.276363
 21
160.167369
 31
0.0
  0
LINE
  5
46B
330
22C
100
AcDbEntity
 67
     1
  8
06___PRT_ALL_SURFS
  6
Continuous
 62
     9
100
AcDbLine
 10
363.276363
 20
160.167369
 30
0.0
 11
363.276363
 21
160.313899
 31
0.0
  0
LINE
  5
46C
330
22C
100
AcDbEntity
 67
     1
  8
06___PRT_ALL_SURFS
  6
Continuous
 62
     9
100
AcDbLine
 10
368.676363
 20
159.934833
 30
0.0
 11
368.676363
 21
160.313899
 31
0.0
  0
LINE
  5
46D
330
22C
100
AcDbEntity
 67
     1
  8
7_ALL_FEATURES
  6
Continuous
 62
     9
100
AcDbLine
 10
277.044526
 20
186.700942
 30
0.0
 11
277.044526
 21
275.568725
 31
0.0
  0
SPLINE
  5
46E
330
22C
100
AcDbEntity
 67
     1
  8
7_ALL_FEATURES
  6
Continuous
 62
     9
100
AcDbSpline
 70
     0
 71
     3
 72
    11
 73
     7
 74
     0
 42
0.000000001
 43
0.0000001
 40
0.0
 40
0.0
 40
0.0
 40
0.0
 40
0.2500209498
 40
0.4999951766
 40
0.7499715065
 40
1.0
 40
1.0
 40
1.0
 40
1.0
 10
278.5424707163
 20
185.2029972538
 30
0.0
 10
278.3476117333
 20
185.2030141813
 30
0.0
 10
277.9536399636
 20
185.2807546104
 30
0.0
 10
277.4556387415
 20
185.6140993587
 30
0.0
 10
277.1223095664
 20
186.11209692
 30
0.0
 10
277.0445079194
 20
186.5060766932
 30
0.0
 10
277.0445264143
 20
186.7009415554
 30
0.0
  0
LINE
  5
46F
330
22C
100
AcDbEntity
 67
     1
  8
7_ALL_FEATURES
  6
Continuous
 62
     9
100
AcDbLine
 10
367.410254
 20
185.202997
 30
0.0
 11
278.542471
 21
185.202997
 31
0.0
  0
SPLINE
  5
470
330
22C
100
AcDbEntity
 67
     1
  8
7_ALL_FEATURES
  6
Continuous
 62
     9
100
AcDbSpline
 70
     0
 71
     3
 72
    11
 73
     7
 74
     0
 42
0.000000001
 43
0.0000001
 40
0.0
 40
0.0
 40
0.0
 40
0.0
 40
0.2500209498
 40
0.4999951766
 40
0.7499715065
 40
1.0
 40
1.0
 40
1.0
 40
1.0
 10
368.9081986103
 20
186.7009415558
 30
0.0
 10
368.9081816828
 20
186.5060825728
 30
0.0
 10
368.8304412538
 20
186.1121108031
 30
0.0
 10
368.4970965054
 20
185.614109581
 30
0.0
 10
367.9990989441
 20
185.280780406
 30
0.0
 10
367.605119171
 20
185.202978759
 30
0.0
 10
367.4102543087
 20
185.2029972538
 30
0.0
  0
ARC
  5
471
330
22C
100
AcDbEntity
 67
     1
  8
3_ALL_AXES
  6
Continuous
 62
     7
100
AcDbCircle
 10
218.171098
 20
128.727456
 30
0.0
 40
4.7
100
AcDbArc
 50
0.0
 51
180.0
  0
ARC
  5
472
330
22C
100
AcDbEntity
 67
     1
  8
3_ALL_AXES
  6
Continuous
 62
     7
100
AcDbCircle
 10
218.171098
 20
128.727456
 30
0.0
 40
4.7
100
AcDbArc
 50
180.0
 51
360.0
  0
ARC
  5
473
330
22C
100
AcDbEntity
 67
     1
  8
3_ALL_AXES
  6
Continuous
 62
     7
100
AcDbCircle
 10
218.171098
 20
128.727456
 30
0.0
 40
3.256624327
100
AcDbArc
 50
0.0
 51
180.0
  0
ARC
  5
474
330
22C
100
AcDbEntity
 67
     1
  8
3_ALL_AXES
  6
Continuous
 62
     7
100
AcDbCircle
 10
218.171098
 20
128.727456
 30
0.0
 40
3.256624327
100
AcDbArc
 50
180.0
 51
360.0
  0
ARC
  5
475
330
22C
100
AcDbEntity
 67
     1
  8
02___PRT_ALL_AXES
  6
Continuous
 62
     7
100
AcDbCircle
 10
226.833156
 20
120.065398
 30
0.0
 40
2.5
100
AcDbArc
 50
0.0
 51
180.0
  0
ARC
  5
476
330
22C
100
AcDbEntity
 67
     1
  8
02___PRT_ALL_AXES
  6
Continuous
 62
     7
100
AcDbCircle
 10
226.833156
 20
120.065398
 30
0.0
 40
2.5
100
AcDbArc
 50
180.0
 51
360.0
  0
ARC
  5
477
330
22C
100
AcDbEntity
 67
     1
  8
02___PRT_ALL_AXES
  6
Continuous
 62
     7
100
AcDbCircle
 10
290.472767
 20
120.065398
 30
0.0
 40
2.5
100
AcDbArc
 50
0.0
 51
180.0
  0
ARC
  5
478
330
22C
100
AcDbEntity
 67
     1
  8
02___PRT_ALL_AXES
  6
Continuous
 62
     7
100
AcDbCircle
 10
290.472767
 20
120.065398
 30
0.0
 40
2.5
100
AcDbArc
 50
180.0
 51
360.0
  0
ARC
  5
479
330
22C
100
AcDbEntity
 67
     1
  8
02___PRT_ALL_AXES
  6
Continuous
 62
     7
100
AcDbCircle
 10
290.472767
 20
56.425788
 30
0.0
 40
2.5
100
AcDbArc
 50
0.0
 51
180.0
  0
ARC
  5
47A
330
22C
100
AcDbEntity
 67
     1
  8
02___PRT_ALL_AXES
  6
Continuous
 62
     7
100
AcDbCircle
 10
290.472767
 20
56.425788
 30
0.0
 40
2.5
100
AcDbArc
 50
180.0
 51
360.0
  0
ARC
  5
47B
330
22C
100
AcDbEntity
 67
     1
  8
02___PRT_ALL_AXES
  6
Continuous
 62
     7
100
AcDbCircle
 10
226.833156
 20
56.425788
 30
0.0
 40
2.5
100
AcDbArc
 50
0.0
 51
180.0
  0
ARC
  5
47C
330
22C
100
AcDbEntity
 67
     1
  8
02___PRT_ALL_AXES
  6
Continuous
 62
     7
100
AcDbCircle
 10
226.833156
 20
56.425788
 30
0.0
 40
2.5
100
AcDbArc
 50
180.0
 51
360.0
  0
LINE
  5
47D
330
22C
100
AcDbEntity
 67
     1
  8
02___PRT_ALL_AXES
  6
Continuous
 62
     7
100
AcDbLine
 10
288.652962
 20
63.245593
 30
0.0
 11
288.652962
 21
68.245593
 31
0.0
  0
ARC
  5
47E
330
22C
100
AcDbEntity
 67
     1
  8
02___PRT_ALL_AXES
  6
Continuous
 62
     7
100
AcDbCircle
 10
286.152962
 20
63.245593
 30
0.0
 40
2.5
100
AcDbArc
 50
180.0
 51
360.0
  0
LINE
  5
47F
330
22C
100
AcDbEntity
 67
     1
  8
02___PRT_ALL_AXES
  6
Continuous
 62
     7
100
AcDbLine
 10
283.652962
 20
68.245593
 30
0.0
 11
283.652962
 21
63.245593
 31
0.0
  0
ARC
  5
480
330
22C
100
AcDbEntity
 67
     1
  8
02___PRT_ALL_AXES
  6
Continuous
 62
     7
100
AcDbCircle
 10
286.152962
 20
68.245593
 30
0.0
 40
2.5
100
AcDbArc
 50
0.0
 51
180.0
  0
ARC
  5
481
330
22C
100
AcDbEntity
 67
     1
  8
02___PRT_ALL_AXES
  6
Continuous
 62
     7
100
AcDbCircle
 10
283.652962
 20
110.745593
 30
0.0
 40
2.5
100
AcDbArc
 50
90.0
 51
270.0
  0
LINE
  5
482
330
22C
100
AcDbEntity
 67
     1
  8
02___PRT_ALL_AXES
  6
Continuous
 62
     7
100
AcDbLine
 10
288.652962
 20
113.245593
 30
0.0
 11
283.652962
 21
113.245593
 31
0.0
  0
ARC
  5
483
330
22C
100
AcDbEntity
 67
     1
  8
02___PRT_ALL_AXES
  6
Continuous
 62
     7
100
AcDbCircle
 10
288.652962
 20
110.745593
 30
0.0
 40
2.5
100
AcDbArc
 50
270.0
 51
90.0
  0
LINE
  5
484
330
22C
100
AcDbEntity
 67
     1
  8
02___PRT_ALL_AXES
  6
Continuous
 62
     7
100
AcDbLine
 10
283.652962
 20
108.245593
 30
0.0
 11
288.652962
 21
108.245593
 31
0.0
  0
ARC
  5
485
330
22C
100
AcDbEntity
 67
     1
  8
02___PRT_ALL_AXES
  6
Continuous
 62
     7
100
AcDbCircle
 10
231.152962
 20
63.245593
 30
0.0
 40
2.5
100
AcDbArc
 50
180.0
 51
360.0
  0
LINE
  5
486
330
22C
100
AcDbEntity
 67
     1
  8
02___PRT_ALL_AXES
  6
Continuous
 62
     7
100
AcDbLine
 10
228.652962
 20
68.245593
 30
0.0
 11
228.652962
 21
63.245593
 31
0.0
  0
ARC
  5
487
330
22C
100
AcDbEntity
 67
     1
  8
02___PRT_ALL_AXES
  6
Continuous
 62
     7
100
AcDbCircle
 10
231.152962
 20
68.245593
 30
0.0
 40
2.5
100
AcDbArc
 50
0.0
 51
180.0
  0
LINE
  5
488
330
22C
100
AcDbEntity
 67
     1
  8
02___PRT_ALL_AXES
  6
Continuous
 62
     7
100
AcDbLine
 10
233.652962
 20
63.245593
 30
0.0
 11
233.652962
 21
68.245593
 31
0.0
  0
LINE
  5
489
330
22C
100
AcDbEntity
 67
     1
  8
02___PRT_ALL_AXES
  6
Continuous
 62
     7
100
AcDbLine
 10
233.652962
 20
113.245593
 30
0.0
 11
228.652962
 21
113.245593
 31
0.0
  0
ARC
  5
48A
330
22C
100
AcDbEntity
 67
     1
  8
02___PRT_ALL_AXES
  6
Continuous
 62
     7
100
AcDbCircle
 10
233.652962
 20
110.745593
 30
0.0
 40
2.5
100
AcDbArc
 50
270.0
 51
90.0
  0
LINE
  5
48B
330
22C
100
AcDbEntity
 67
     1
  8
02___PRT_ALL_AXES
  6
Continuous
 62
     7
100
AcDbLine
 10
228.652962
 20
108.245593
 30
0.0
 11
233.652962
 21
108.245593
 31
0.0
  0
ARC
  5
48C
330
22C
100
AcDbEntity
 67
     1
  8
02___PRT_ALL_AXES
  6
Continuous
 62
     7
100
AcDbCircle
 10
228.652962
 20
110.745593
 30
0.0
 40
2.5
100
AcDbArc
 50
90.0
 51
270.0
  0
LINE
  5
48D
330
22C
100
AcDbEntity
 67
     1
  8
7_ALL_FEATURES
  6
Continuous
 62
     7
100
AcDbLine
 10
301.652962
 20
133.995593
 30
0.0
 11
215.652962
 21
133.995593
 31
0.0
  0
LINE
  5
48E
330
22C
100
AcDbEntity
 67
     1
  8
7_ALL_FEATURES
  6
Continuous
 62
     7
100
AcDbLine
 10
215.652962
 20
133.995593
 30
0.0
 11
212.902962
 21
131.245593
 31
0.0
  0
LINE
  5
48F
330
22C
100
AcDbEntity
 67
     1
  8
7_ALL_FEATURES
  6
Continuous
 62
     7
100
AcDbLine
 10
212.902962
 20
131.245593
 30
0.0
 11
212.902962
 21
45.245593
 31
0.0
  0
LINE
  5
490
330
22C
100
AcDbEntity
 67
     1
  8
7_ALL_FEATURES
  6
Continuous
 62
     7
100
AcDbLine
 10
212.902962
 20
45.245593
 30
0.0
 11
215.652962
 21
42.495593
 31
0.0
  0
LINE
  5
491
330
22C
100
AcDbEntity
 67
     1
  8
7_ALL_FEATURES
  6
Continuous
 62
     7
100
AcDbLine
 10
215.652962
 20
42.495593
 30
0.0
 11
301.652962
 21
42.495593
 31
0.0
  0
LINE
  5
492
330
22C
100
AcDbEntity
 67
     1
  8
7_ALL_FEATURES
  6
Continuous
 62
     7
100
AcDbLine
 10
301.652962
 20
42.495593
 30
0.0
 11
304.402962
 21
45.245593
 31
0.0
  0
LINE
  5
493
330
22C
100
AcDbEntity
 67
     1
  8
7_ALL_FEATURES
  6
Continuous
 62
     7
100
AcDbLine
 10
304.402962
 20
45.245593
 30
0.0
 11
304.402962
 21
131.245593
 31
0.0
  0
LINE
  5
494
330
22C
100
AcDbEntity
 67
     1
  8
7_ALL_FEATURES
  6
Continuous
 62
     7
100
AcDbLine
 10
304.402962
 20
131.245593
 30
0.0
 11
301.652962
 21
133.995593
 31
0.0
  0
ARC
  5
495
330
22C
100
AcDbEntity
 67
     1
  8
7_ALL_FEATURES
  6
Continuous
 62
     7
100
AcDbCircle
 10
258.652962
 20
88.245593
 30
0.0
 40
25.0
100
AcDbArc
 50
180.0
 51
360.0
  0
ARC
  5
496
330
22C
100
AcDbEntity
 67
     1
  8
7_ALL_FEATURES
  6
Continuous
 62
     7
100
AcDbCircle
 10
258.652962
 20
88.245593
 30
0.0
 40
25.0
100
AcDbArc
 50
0.0
 51
180.0
  0
ARC
  5
497
330
22C
100
AcDbEntity
 67
     1
  8
02___PRT_ALL_AXES
  6
Continuous
 62
     7
100
AcDbCircle
 10
299.134825
 20
47.76373
 30
0.0
 40
2.75
100
AcDbArc
 50
0.0
 51
180.0
  0
ARC
  5
498
330
22C
100
AcDbEntity
 67
     1
  8
02___PRT_ALL_AXES
  6
Continuous
 62
     7
100
AcDbCircle
 10
299.134825
 20
47.76373
 30
0.0
 40
2.75
100
AcDbArc
 50
180.0
 51
360.0
  0
DIMENSION
  5
499
330
22C
100
AcDbEntity
 67
     1
  8
0
  6
Continuous
 62
     2
100
AcDbDimension
280
     0
  2
*D1
 10
171.802686
 20
38.245593
 30
0.0
 11
171.802686
 21
87.388451
 31
0.0
 70
   160
 71
     2
 42
100.0
 73
     0
 74
     0
 75
     0
  3
DIMSTYLE_1
100
AcDbAlignedDimension
 13
157.973367
 23
138.245593
 33
0.0
 14
157.447393
 24
38.245593
 34
0.0
 50
270.0
100
AcDbRotatedDimension
  0
DIMENSION
  5
49A
330
22C
100
AcDbEntity
 67
     1
  8
0
  6
Continuous
 62
     2
100
AcDbDimension
280
     0
  2
*D2
 10
155.543383
 20
21.986289
 30
0.0
 11
104.686237
 21
21.986289
 31
0.0
 70
   160
 71
     2
 42
100.0
 73
     0
 74
     0
 75
     0
  3
DIMSTYLE_1
100
AcDbAlignedDimension
 13
55.543383
 23
36.734437
 33
0.0
 14
155.543383
 24
36.223536
 34
0.0
100
AcDbRotatedDimension
  0
DIMENSION
  5
49B
330
22C
100
AcDbEntity
 67
     1
  8
0
  6
Continuous
 62
     2
100
AcDbDimension
280
     0
  2
*D3
 10
171.802686
 20
161.134833
 30
0.0
 11
171.802686
 21
220.277691
 31
0.0
 70
   160
 71
     2
 42
120.0
 73
     0
 74
     0
 75
     0
  3
DIMSTYLE_1
100
AcDbAlignedDimension
 13
158.13823
 23
281.134833
 33
0.0
 14
157.810958
 24
161.134833
 34
0.0
 50
270.0
100
AcDbRotatedDimension
  0
DIMENSION
  5
49C
330
22C
100
AcDbEntity
 67
     1
  8
0
  6
Continuous
 62
     2
100
AcDbDimension
280
     0
  2
*D4
 10
286.152962
 20
145.564825
 30
0.0
 11
257.795815
 21
145.564825
 31
0.0
 70
   160
 71
     2
 42
55.0
 73
     0
 74
     0
 75
     0
  3
DIMSTYLE_1
100
AcDbAlignedDimension
 13
231.152962
 23
113.245593
 33
0.0
 14
286.152962
 24
113.245593
 34
0.0
100
AcDbRotatedDimension
  0
DIMENSION
  5
49D
330
22C
100
AcDbEntity
 67
     1
  8
0
  6
Continuous
 62
     2
100
AcDbDimension
280
     0
  2
*D5
 10
316.405719
 20
65.745593
 30
0.0
 11
316.405719
 21
87.388443
 31
0.0
 70
   160
 71
     2
 42
45.0
 73
     0
 74
     0
 75
     0
  3
DIMSTYLE_1
100
AcDbAlignedDimension
 13
291.152962
 23
110.745593
 33
0.0
 14
288.652962
 24
65.745593
 34
0.0
 50
270.0
100
AcDbRotatedDimension
  0
INSERT
  5
49E
330
22C
100
AcDbEntity
 67
     1
  8
0
  6
Continuous
 62
     2
100
AcDbBlockReference
  2
LOGO2_BL0
 10
332.325028
 20
37.020882
 30
0.0
  0
ACAD_TABLE
  5
49F
102
{ACAD_XDICTIONARY
360
4F6
102
}
330
22C
100
AcDbEntity
 67
     1
  8
0
  6
Continuous
 62
     2
160
              3300
310
E40C000017000000880000001D000000000000000000F03F00000000000000000000000000000000AD95E4D3FBE773400000000000000000000000000000F03F0000000000000000D3A69041AC42494000000000000000000000000000000000000000000000F03F0000000000000000000000000000000000000000000000
310
000000000000000000000000000000F03F54000000200000000200000000000000000000000000000000000000000000000000000000000000008056400000000000000000000000000000000000000000000000000000000000000000000000000000F03F5400000020000000020000000000000000000000000000000000
310
00000000000000000000000000000000000000000000000044C0000000000000000000000000000000000000000000000000000000000000F03F5400000020000000020000000000000000003E4000000000000018C00000000000000000000000000080564000000000000018C00000000000000000000000000000000000
310
00000000000000000000000000F03F5400000020000000020000000000000000003E4000000000000028C00000000000000000000000000080564000000000000028C0000000000000000000000000000000000000000000000000000000000000F03F5400000020000000020000000000000000003E4000000000000036C0
310
0000000000000000000000000080564000000000000036C0000000000000000000000000000000000000000000000000000000000000F03F54000000200000000200000000000000000000000000000000003BC0000000000000000000000000008056400000000000003BC000000000000000000000000000000000000000
310
0000000000000000000000F03F540000002000000002000000000000000000000000000000000044C00000000000000000000000000080564000000000000044C0000000000000000000000000000000000000000000000000000000000000F03F5400000020000000020000000000000000003E4000000000000000000000
310
0000000000000000000000003E400000000000003BC0000000000000000000000000000000000000000000000000000000000000F03F540000002000000002000000000000000080514000000000000000000000000000000000000000000080514000000000000028C0000000000000000000000000000000000000000000
310
000000000000000000F03F540000002000000002000000000000000080564000000000000000000000000000000000000000000080564000000000000044C0000000000000000000000000000000000000000000000000000000000000F03F0C000000100000002A000000CC00000026000000736891ED7C4F3F404E621058
310
393412C0000000000000000000000000000000000000000000000000000000000000F03F000000000000F03F000000000000000000000000000000003300440031005F0043005F00300036003100000012000000010000000000000000000840000000000000F03F0000000000000000000000000000F03F00000000000000
310
00000000000000000000000000000000000000000000000000000000000000000061007200690061006C002E00740074006600000000000000C800000026000000C2F5285C8FC6514075931804560E13C0000000000000000000000000000000000000000000000000000000000000F03F000000000000F03F000000000000
310
000000000000000000005200650076003A0030003000000000000C000000010000000000000000000C40000000000000F03F0000000000000000000000000000F03F0000000000000000000000000000000000000000000000000000000000000000000000000000000061007200690061006C002E00740074006600000000
310
000000CC00000026000000FA7E6ABC74433F405839B4C8769E26C0000000000000000000000000000000000000000000000000000000000000F03F000000000000F03F000000000000000000000000000000005300630061006C0065003A0031003A003100000012000000010000000000000000000C40000000000000F03F
310
0000000000000000000000000000F03F0000000000000000000000000000000000000000000000000000000000000000000000000000000061007200690061006C002E00740074006600000000000000C0000000260000003333333333DF5140BA490C022B8725C00000000000000000000000000000000000000000000000
310
00000000000000F03F000000000000F03F00000000000000000000000000000000410033000000000004000000010000000000000000000C40000000000000F03F0000000000000000000000000000F03F00000000000000000000000000000000000000000000000000000000000000000000000000000000610072006900
310
61006C002E00740074006600000000000000CC00000026000000C520B07268213F40AC1C5A643BCF32C0000000000000000000000000000000000000000000000000000000000000F03F000000000000F03F000000000000000000000000000000004B004F00430043004100200031002E0034000000120000000100000000
310
00000000000C40000000000000F03F0000000000000000000000000000F03F0000000000000000000000000000000000000000000000000000000000000000000000000000000061007200690061006C002E00740074006600000000000000D40000002600000048E17A14AE373F40C3F5285C8FC239C00000000000000000
310
00000000000000000000000000000000000000000000F03F000000000000F03F0000000000000000000000000000000044004100540045003A00320037002E00300033002E003100340000001A000000010000000000000000000440000000000000F03F0000000000000000000000000000F03F0000000000000000000000
310
000000000000000000000000000000000000000000000000000000000061007200690061006C002E007400740066000000000000002401000026000000CDCCCCCCCCCCF73F0000000000903DC0000000000000000000000000000000000000000000000000000000000000F03F000000000000F03F00000000000000000000
310
00000000000041006E007900200069006E00740065006700720061006C0020006F00720020007000610072007400690061006C00200072006500700072006F00640075006300740069006F006E00730020006100720065002000700072006F0068006900620069007400650064000000000068000000010000000000000000
310
000240000000000000F03F0000000000000000000000000000F03F0000000000000000000000000000000000000000000000000000000000000000000000000000000061007200690061006C002E007400740066000000000000002C01000026000000FED478E926B1F73F37894160E57C40C0000000000000000000000000
310
000000000000000000000000000000000000F03F000000000000F03F0000000000000000000000000000000077006900740068006F007500740020007000720069006F007200200061007500740068006F007200690073006100740069006F006E0020006F00660020004C002000260020004C0020004C0075006300650020
310
00260020004C006900670068007400200073002E0072002E006C002E002C00000072000000010000000000000000000240000000000000F03F0000000000000000000000000000F03F0000000000000000000000000000000000000000000000000000000000000000000000000000000061007200690061006C002E007400
310
740066000000000000000401000026000000C1CAA145B673F43F4F1E166A4D3142C0000000000000000000000000000000000000000000000000000000000000F03F000000000000F03F0000000000000000000000000000000069006E0020006100630063006F007200640061006E00630065002000770069007400680020
310
0074006800650020006C0061007700200069006E00200066006F007200630065002E000000000048000000010000000000000000000240000000000000F03F0000000000000000000000000000F03F000000000000000000000000000000000000000000000000000000000000000000000000000000006100720069006100
310
6C002E00740074006600000000000000E400000026000000CDCCCCCCCCCCF73F302AA913D0E043C0000000000000000000000000000000000000000000000000000000000000F03F000000000000F03F0000000000000000000000000000000041006C006C0020007200690067006800740073002000720065007300650072
310
007600650064002E000000000028000000010000000000000000000240000000000000F03F0000000000000000000000000000F03F0000000000000000000000000000000000000000000000000000000000000000000000000000000061007200690061006C002E00740074006600000000000000080000001F000000
100
AcDbBlockReference
  2
*T7
 10
318.498981
 20
50.520882
 30
0.0
100
AcDbTable
342
4E1
343
234
 11
1.0
 21
0.0
 31
0.0
 90
       22
 91
        5
 92
        5
 93
        0
 94
        0
 95
        0
 96
        0
141
6.0
141
6.0
141
10.0
141
5.0
141
13.0
142
10.0
142
10.0
142
10.0
142
40.0
142
20.0
171
     1
172
     0
173
     0
174
     0
175
     3
176
     4
 91
       32
178
     0
145
0.0
140
3.5
 92
        0
301
CELL_VALUE
 93
        2
 90
        4
  1
 
 94
        0
300

302
 
304
ACVALUE_END
171
     1
172
     0
173
     1
174
     0
175
     1
176
     1
 91
        0
178
     0
145
0.0
 92
        0
301
CELL_VALUE
 93
        3
 90
        0
 91
        0
 94
        0
300

302

304
ACVALUE_END
171
     1
172
     0
173
     1
174
     0
175
     1
176
     1
 91
        0
178
     0
145
0.0
 92
        0
301
CELL_VALUE
 93
        3
 90
        0
 91
        0
 94
        0
300

302

304
ACVALUE_END
171
     1
172
     0
173
     0
174
     0
175
     1
176
     1
 91
       49
178
     0
145
0.0
170
     4
  7
TEXTSTYLE_4
140
3.0
 92
        0
301
CELL_VALUE
 93
        2
 90
        4
  1
3D1_C_061
 94
        0
300

302
3D1_C_061
304
ACVALUE_END
171
     1
172
     0
173
     0
174
     0
175
     1
176
     1
 91
       49
178
     0
145
0.0
170
     4
  7
TEXTSTYLE_4
140
3.5
 92
        0
301
CELL_VALUE
 93
        2
 90
        4
  1
Rev:00
 94
        0
300

302
Rev:00
304
ACVALUE_END
171
     1
172
     0
173
     1
174
     0
175
     1
176
     1
 91
        0
178
     0
145
0.0
 92
        0
301
CELL_VALUE
 93
        3
 90
        0
 91
        0
 94
        0
300

302

304
ACVALUE_END
171
     1
172
     0
173
     1
174
     0
175
     1
176
     1
 91
        0
178
     0
145
0.0
 92
        0
301
CELL_VALUE
 93
        3
 90
        0
 91
        0
 94
        0
300

302

304
ACVALUE_END
171
     1
172
     0
173
     1
174
     0
175
     1
176
     1
 91
        0
178
     0
145
0.0
 92
        0
301
CELL_VALUE
 93
        3
 90
        0
 91
        0
 94
        0
300

302

304
ACVALUE_END
171
     1
172
     0
173
     0
174
     0
175
     1
176
     1
 91
       49
178
     0
145
0.0
170
     1
  7
TEXTSTYLE_4
140
3.5
 92
        0
301
CELL_VALUE
 93
        2
 90
        4
  1
Scale:1:1
 94
        0
300

302
Scale:1:1
304
ACVALUE_END
171
     1
172
     0
173
     0
174
     0
175
     1
176
     1
 91
       49
178
     0
145
0.0
170
     4
  7
TEXTSTYLE_4
140
3.5
 92
        0
301
CELL_VALUE
 93
        2
 90
        4
  1
A3
 94
        0
300

302
A3
304
ACVALUE_END
171
     1
172
     0
173
     1
174
     0
175
     1
176
     1
 91
        0
178
     0
145
0.0
 92
        0
301
CELL_VALUE
 93
        3
 90
        0
 91
        0
 94
        0
300

302

304
ACVALUE_END
171
     1
172
     0
173
     1
174
     0
175
     1
176
     1
 91
        0
178
     0
145
0.0
 92
        0
301
CELL_VALUE
 93
        3
 90
        0
 91
        0
 94
        0
300

302

304
ACVALUE_END
171
     1
172
     0
173
     1
174
     0
175
     1
176
     1
 91
        0
178
     0
145
0.0
 92
        0
301
CELL_VALUE
 93
        3
 90
        0
 91
        0
 94
        0
300

302

304
ACVALUE_END
171
     1
172
     0
173
     0
174
     0
175
     2
176
     1
 91
       49
178
     0
145
0.0
170
     4
  7
TEXTSTYLE_4
140
3.5
 92
        0
301
CELL_VALUE
 93
        2
 90
        4
  1
KOCCA 1.4
 94
        0
300

302
KOCCA 1.4
304
ACVALUE_END
171
     1
172
     0
173
     1
174
     0
175
     1
176
     1
 91
        0
178
     0
145
0.0
 92
        0
301
CELL_VALUE
 93
        3
 90
        0
 91
        0
 94
        0
300

302

304
ACVALUE_END
171
     1
172
     0
173
     1
174
     0
175
     1
176
     1
 91
        0
178
     0
145
0.0
 92
        0
301
CELL_VALUE
 93
        3
 90
        0
 91
        0
 94
        0
300

302

304
ACVALUE_END
171
     1
172
     0
173
     1
174
     0
175
     1
176
     1
 91
        0
178
     0
145
0.0
 92
        0
301
CELL_VALUE
 93
        3
 90
        0
 91
        0
 94
        0
300

302

304
ACVALUE_END
171
     1
172
     0
173
     1
174
     0
175
     1
176
     1
 91
        0
178
     0
145
0.0
 92
        0
301
CELL_VALUE
 93
        3
 90
        0
 91
        0
 94
        0
300

302

304
ACVALUE_END
171
     1
172
     0
173
     0
174
     0
175
     2
176
     1
 91
       49
178
     0
145
0.0
170
     4
  7
TEXTSTYLE_4
140
2.5
 92
        0
301
CELL_VALUE
 93
        2
 90
        4
  1
DATE:27.03.14
 94
        0
300

302
DATE:27.03.14
304
ACVALUE_END
171
     1
172
     0
173
     1
174
     0
175
     1
176
     1
 91
        0
178
     0
145
0.0
 92
        0
301
CELL_VALUE
 93
        3
 90
        0
 91
        0
 94
        0
300

302

304
ACVALUE_END
171
     1
172
     0
173
     0
174
     0
175
     5
176
     1
 91
       49
178
     0
145
0.0
170
     4
  7
TEXTSTYLE_4
140
2.25
 92
        0
301
CELL_VALUE
 93
        2
 90
        4
  1
Any integral or partial reproductions are prohibited \Pwithout prior authorisation of L & L Luce & Light s.r.l., \Pin accordance with the law in force. \PAll rights reserved.
 94
        0
300

302
Any integral or partial reproductions are prohibited \Pwithout prior authorisation of L & L Luce & Light s.r.l., \Pin accordance with the law in force. \PAll rights reserved.
304
ACVALUE_END
171
     1
172
     0
173
     1
174
     0
175
     1
176
     1
 91
        0
178
     0
145
0.0
 92
        0
301
CELL_VALUE
 93
        3
 90
        0
 91
        0
 94
        0
300

302

304
ACVALUE_END
171
     1
172
     0
173
     1
174
     0
175
     1
176
     1
 91
        0
178
     0
145
0.0
 92
        0
301
CELL_VALUE
 93
        3
 90
        0
 91
        0
 94
        0
300

302

304
ACVALUE_END
171
     1
172
     0
173
     1
174
     0
175
     1
176
     1
 91
        0
178
     0
145
0.0
 92
        0
301
CELL_VALUE
 93
        3
 90
        0
 91
        0
 94
        0
300

302

304
ACVALUE_END
171
     1
172
     0
173
     1
174
     0
175
     1
176
     1
 91
        0
178
     0
145
0.0
 92
        0
301
CELL_VALUE
 93
        3
 90
        0
 91
        0
 94
        0
300

302

304
ACVALUE_END
  0
ENDSEC
  0
SECTION
  2
OBJECTS
  0
DICTIONARY
  5
C
330
0
100
AcDbDictionary
281
     1
  3
ACAD_DETAILVIEWSTYLE
350
4FF
  3
ACAD_GROUP
350
D
  3
ACAD_IMAGE_DICT
350
4EF
  3
ACAD_LAYOUT
350
1A
  3
ACAD_MATERIAL
350
4E3
  3
ACAD_MLEADERSTYLE
350
4FE
  3
ACAD_MLINESTYLE
350
17
  3
ACAD_PLOTSETTINGS
350
19
  3
ACAD_PLOTSTYLENAME
350
E
  3
ACAD_SCALELIST
350
4A5
  3
ACAD_SECTIONVIEWSTYLE
350
500
  3
ACAD_TABLESTYLE
350
4E0
  3
ACAD_VISUALSTYLE
350
4C7
  3
ACDB_RECOMPOSE_DATA
350
4FC
  3
AcDbVariableDictionary
350
4F8
  3
HOST_DOC_SETTINGS
350
4ED
  3
MCS_STREAM_DICT
350
4E9
  0
SUN
  5
4EC
330
2E4
100
AcDbSun
 90
        1
290
     0
 63
     7
421
 16777215
 40
1.0
291
     1
 91
  2455826
 92
 54000000
292
     0
 70
     2
 71
   256
280
     1
  0
DICTIONARY
  5
4F6
330
49F
100
AcDbDictionary
280
     1
281
     1
  3
ACAD_XREC_ROUNDTRIP
360
4F7
  0
DICTIONARY
  5
4FF
102
{ACAD_REACTORS
330
C
102
}
330
C
100
AcDbDictionary
281
     1
  0
DICTIONARY
  5
D
102
{ACAD_REACTORS
330
C
102
}
330
C
100
AcDbDictionary
281
     1
  0
DICTIONARY
  5
4EF
102
{ACAD_REACTORS
330
C
102
}
330
C
100
AcDbDictionary
281
     1
  0
DICTIONARY
  5
1A
102
{ACAD_REACTORS
330
C
102
}
330
C
100
AcDbDictionary
281
     1
  3
3D1_C_061_1
350
4A2
  3
Model
350
4A1
  0
DICTIONARY
  5
4E3
102
{ACAD_REACTORS
330
C
102
}
330
C
100
AcDbDictionary
281
     1
  3
ByBlock
350
4E5
  3
ByLayer
350
4E4
  3
Global
350
4E6
  0
DICTIONARY
  5
4FE
102
{ACAD_REACTORS
330
C
102
}
330
C
100
AcDbDictionary
281
     1
  0
DICTIONARY
  5
17
102
{ACAD_REACTORS
330
C
102
}
330
C
100
AcDbDictionary
281
     1
  3
Standard
350
18
  0
DICTIONARY
  5
19
102
{ACAD_REACTORS
330
C
102
}
330
C
100
AcDbDictionary
281
     1
  0
ACDBDICTIONARYWDFLT
  5
E
102
{ACAD_REACTORS
330
C
102
}
330
C
100
AcDbDictionary
281
     1
  3
Normal
350
F
100
AcDbDictionaryWithDefault
340
F
  0
DICTIONARY
  5
4A5
102
{ACAD_REACTORS
330
C
102
}
330
C
100
AcDbDictionary
281
     1
  3
A0
350
4A6
  3
A1
350
4A7
  3
A2
350
4A8
  3
A3
350
4A9
  3
A4
350
4AA
  3
A5
350
4AB
  3
A6
350
4AC
  3
A7
350
4AD
  3
A8
350
4AE
  3
A9
350
4AF
  3
B0
350
4B0
  3
B1
350
4B1
  3
B2
350
4B2
  3
B3
350
4B3
  3
B4
350
4B4
  3
B5
350
4B5
  3
B6
350
4B6
  3
B7
350
4B7
  3
B8
350
4B8
  3
B9
350
4B9
  3
C0
350
4BA
  3
C1
350
4BB
  3
C2
350
4BC
  3
C3
350
4BD
  3
C4
350
4BE
  3
C5
350
4BF
  3
C6
350
4C0
  3
C7
350
4C1
  3
C8
350
4C2
  3
C9
350
4C3
  3
D0
350
4C4
  3
D1
350
4C5
  3
D2
350
4C6
  0
DICTIONARY
  5
500
102
{ACAD_REACTORS
330
C
102
}
330
C
100
AcDbDictionary
281
     1
  0
DICTIONARY
  5
4E0
102
{ACAD_REACTORS
330
C
102
}
330
C
100
AcDbDictionary
281
     1
  3
Standard
350
4E1
  0
DICTIONARY
  5
4C7
102
{ACAD_REACTORS
330
C
102
}
330
C
100
AcDbDictionary
281
     1
  3
2dWireframe
350
4CC
  3
Basic
350
4CF
  3
Brighten
350
4D3
  3
ColorChange
350
4D7
  3
Conceptual
350
4D1
  3
Dim
350
4D2
  3
EdgeColorOff
350
4DA
  3
Facepattern
350
4D6
  3
Flat
350
4C8
  3
FlatWithEdges
350
4C9
  3
Gouraud
350
4CA
  3
GouraudWithEdges
350
4CB
  3
Hidden
350
4CE
  3
JitterOff
350
4D8
  3
Linepattern
350
4D5
  3
OverhangOff
350
4D9
  3
Realistic
350
4D0
  3
Shaded
350
4DF
  3
Shaded with edges
350
4DE
  3
Shades of Gray
350
4DB
  3
Sketchy
350
4DC
  3
Thicken
350
4D4
  3
Wireframe
350
4CD
  3
X-Ray
350
4DD
  0
XRECORD
  5
4FC
102
{ACAD_REACTORS
330
C
102
}
330
C
100
AcDbXrecord
280
     1
 90
        1
330
49F
330
4E1
  0
DICTIONARY
  5
4F8
102
{ACAD_REACTORS
330
C
102
}
330
C
100
AcDbDictionary
281
     1
  3
CANNOSCALE
350
4F9
  3
CTABLESTYLE
350
4FD
  0
DICTIONARY
  5
4ED
102
{ACAD_REACTORS
330
C
102
}
330
C
100
AcDbDictionary
281
     1
  3
NCDocParameters
350
4EE
  0
DICTIONARY
  5
4E9
102
{ACAD_REACTORS
330
C
102
}
330
C
100
AcDbDictionary
281
     1
  3
MC_VERSION_DATA
350
4F2
  3
MCS_DOCUMENT_ID
350
4EA
  3
MCS_PARAMS_DATA
350
4F0
  0
XRECORD
  5
4F7
102
{ACAD_REACTORS
330
4F6
102
}
330
4F6
100
AcDbXrecord
280
     1
102
ACAD_ROUNDTRIP_2008_TABLE_ENTITY
360
4F4
 70
     2
 90
        1
 10
0.0
 20
0.0
 30
0.0
 90
        0
 90
        4
361
4F5
  0
LAYOUT
  5
4A2
102
{ACAD_REACTORS
330
1A
102
}
330
1A
100
AcDbPlotSettings
  1

  2
none_device
  4
ISO_A3_(420.00_x_297.00_MM)
  6

 40
0.0
 41
0.0
 42
0.0
 43
0.0
 44
420.0
 45
297.0
 46
0.0
 47
0.0
 48
0.0
 49
0.0
140
0.0
141
0.0
142
1.0
143
1.0
 70
     0
 72
     1
 73
     0
 74
     0
  7

 75
     0
 76
     0
 77
     2
 78
   300
147
1.0
148
0.0
149
0.0
100
AcDbLayout
  1
3D1_C_061_1
 70
     0
 71
     1
 10
0.0
 20
0.0
 11
420.0
 21
297.0
 12
0.0
 22
0.0
 32
0.0
 14
0.0
 24
0.0
 34
0.0
 15
0.0
 25
0.0
 35
0.0
146
0.0
 13
0.0
 23
0.0
 33
0.0
 16
1.0
 26
0.0
 36
0.0
 17
0.0
 27
1.0
 37
0.0
 76
     0
330
22C
331
2E4
  0
LAYOUT
  5
4A1
102
{ACAD_REACTORS
330
1A
102
}
330
1A
100
AcDbPlotSettings
  1

  2
none_device
  4

  6

 40
0.0
 41
0.0
 42
0.0
 43
0.0
 44
420.0
 45
297.0
 46
0.0
 47
0.0
 48
0.0
 49
0.0
140
0.0
141
0.0
142
1.0
143
1.0
 70
  1024
 72
     1
 73
     0
 74
     0
  7

 75
     0
 76
     0
 77
     2
 78
   300
147
1.0
148
0.0
149
0.0
100
AcDbLayout
  1
Model
 70
     0
 71
     0
 10
0.0
 20
0.0
 11
420.0
 21
297.0
 12
0.0
 22
0.0
 32
0.0
 14
0.0
 24
0.0
 34
0.0
 15
0.0
 25
0.0
 35
0.0
146
0.0
 13
0.0
 23
0.0
 33
0.0
 16
1.0
 26
0.0
 36
0.0
 17
0.0
 27
1.0
 37
0.0
 76
     0
330
22B
331
1F4
  0
MATERIAL
  5
4E5
102
{ACAD_REACTORS
330
4E3
102
}
330
4E3
100
AcDbMaterial
  1
ByBlock
 72
     1
 94
      127
  0
MATERIAL
  5
4E4
102
{ACAD_REACTORS
330
4E3
102
}
330
4E3
100
AcDbMaterial
  1
ByLayer
 72
     1
 94
      127
  0
MATERIAL
  5
4E6
102
{ACAD_REACTORS
330
4E3
102
}
330
4E3
100
AcDbMaterial
  1
Global
 72
     1
 94
      127
  0
MLINESTYLE
  5
18
102
{ACAD_REACTORS
330
17
102
}
330
17
100
AcDbMlineStyle
  2
STANDARD
 70
     0
  3

 62
   256
 51
90.0
 52
90.0
 71
     2
 49
0.5
 62
   256
  6
BYLAYER
 49
-0.5
 62
   256
  6
BYLAYER
  0
ACDBPLACEHOLDER
  5
F
102
{ACAD_REACTORS
330
E
102
}
330
E
  0
SCALE
  5
4A6
102
{ACAD_REACTORS
330
4A5
102
}
330
4A5
100
AcDbScale
 70
     0
300
1:1
140
1.0
141
1.0
290
     1
  0
SCALE
  5
4A7
102
{ACAD_REACTORS
330
4A5
102
}
330
4A5
100
AcDbScale
 70
     0
300
1:2
140
1.0
141
2.0
290
     0
  0
SCALE
  5
4A8
102
{ACAD_REACTORS
330
4A5
102
}
330
4A5
100
AcDbScale
 70
     0
300
1:4
140
1.0
141
4.0
290
     0
  0
SCALE
  5
4A9
102
{ACAD_REACTORS
330
4A5
102
}
330
4A5
100
AcDbScale
 70
     0
300
1:5
140
1.0
141
5.0
290
     0
  0
SCALE
  5
4AA
102
{ACAD_REACTORS
330
4A5
102
}
330
4A5
100
AcDbScale
 70
     0
300
1:8
140
1.0
141
8.0
290
     0
  0
SCALE
  5
4AB
102
{ACAD_REACTORS
330
4A5
102
}
330
4A5
100
AcDbScale
 70
     0
300
1:10
140
1.0
141
10.0
290
     0
  0
SCALE
  5
4AC
102
{ACAD_REACTORS
330
4A5
102
}
330
4A5
100
AcDbScale
 70
     0
300
1:16
140
1.0
141
16.0
290
     0
  0
SCALE
  5
4AD
102
{ACAD_REACTORS
330
4A5
102
}
330
4A5
100
AcDbScale
 70
     0
300
1:20
140
1.0
141
20.0
290
     0
  0
SCALE
  5
4AE
102
{ACAD_REACTORS
330
4A5
102
}
330
4A5
100
AcDbScale
 70
     0
300
1:30
140
1.0
141
30.0
290
     0
  0
SCALE
  5
4AF
102
{ACAD_REACTORS
330
4A5
102
}
330
4A5
100
AcDbScale
 70
     0
300
1:40
140
1.0
141
40.0
290
     0
  0
SCALE
  5
4B0
102
{ACAD_REACTORS
330
4A5
102
}
330
4A5
100
AcDbScale
 70
     0
300
1:50
140
1.0
141
50.0
290
     0
  0
SCALE
  5
4B1
102
{ACAD_REACTORS
330
4A5
102
}
330
4A5
100
AcDbScale
 70
     0
300
1:100
140
1.0
141
100.0
290
     0
  0
SCALE
  5
4B2
102
{ACAD_REACTORS
330
4A5
102
}
330
4A5
100
AcDbScale
 70
     0
300
2:1
140
2.0
141
1.0
290
     0
  0
SCALE
  5
4B3
102
{ACAD_REACTORS
330
4A5
102
}
330
4A5
100
AcDbScale
 70
     0
300
4:1
140
4.0
141
1.0
290
     0
  0
SCALE
  5
4B4
102
{ACAD_REACTORS
330
4A5
102
}
330
4A5
100
AcDbScale
 70
     0
300
8:1
140
8.0
141
1.0
290
     0
  0
SCALE
  5
4B5
102
{ACAD_REACTORS
330
4A5
102
}
330
4A5
100
AcDbScale
 70
     0
300
10:1
140
10.0
141
1.0
290
     0
  0
SCALE
  5
4B6
102
{ACAD_REACTORS
330
4A5
102
}
330
4A5
100
AcDbScale
 70
     0
300
100:1
140
100.0
141
1.0
290
     0
  0
SCALE
  5
4B7
102
{ACAD_REACTORS
330
4A5
102
}
330
4A5
100
AcDbScale
 70
     0
300
1/128" = 1'-0"
140
0.007812
141
12.0
290
     0
  0
SCALE
  5
4B8
102
{ACAD_REACTORS
330
4A5
102
}
330
4A5
100
AcDbScale
 70
     0
300
1/64" = 1'-0"
140
0.015625
141
12.0
290
     0
  0
SCALE
  5
4B9
102
{ACAD_REACTORS
330
4A5
102
}
330
4A5
100
AcDbScale
 70
     0
300
1/32" = 1'-0"
140
0.03125
141
12.0
290
     0
  0
SCALE
  5
4BA
102
{ACAD_REACTORS
330
4A5
102
}
330
4A5
100
AcDbScale
 70
     0
300
1/16" = 1'-0"
140
0.0625
141
12.0
290
     0
  0
SCALE
  5
4BB
102
{ACAD_REACTORS
330
4A5
102
}
330
4A5
100
AcDbScale
 70
     0
300
3/32" = 1'-0"
140
0.09375
141
12.0
290
     0
  0
SCALE
  5
4BC
102
{ACAD_REACTORS
330
4A5
102
}
330
4A5
100
AcDbScale
 70
     0
300
1/8" = 1'-0"
140
0.125
141
12.0
290
     0
  0
SCALE
  5
4BD
102
{ACAD_REACTORS
330
4A5
102
}
330
4A5
100
AcDbScale
 70
     0
300
3/16" = 1'-0"
140
0.1875
141
12.0
290
     0
  0
SCALE
  5
4BE
102
{ACAD_REACTORS
330
4A5
102
}
330
4A5
100
AcDbScale
 70
     0
300
1/4" = 1'-0"
140
0.25
141
12.0
290
     0
  0
SCALE
  5
4BF
102
{ACAD_REACTORS
330
4A5
102
}
330
4A5
100
AcDbScale
 70
     0
300
3/8" = 1'-0"
140
0.375
141
12.0
290
     0
  0
SCALE
  5
4C0
102
{ACAD_REACTORS
330
4A5
102
}
330
4A5
100
AcDbScale
 70
     0
300
1/2" = 1'-0"
140
0.5
141
12.0
290
     0
  0
SCALE
  5
4C1
102
{ACAD_REACTORS
330
4A5
102
}
330
4A5
100
AcDbScale
 70
     0
300
3/4" = 1'-0"
140
0.75
141
12.0
290
     0
  0
SCALE
  5
4C2
102
{ACAD_REACTORS
330
4A5
102
}
330
4A5
100
AcDbScale
 70
     0
300
1" = 1'-0"
140
1.0
141
12.0
290
     0
  0
SCALE
  5
4C3
102
{ACAD_REACTORS
330
4A5
102
}
330
4A5
100
AcDbScale
 70
     0
300
1-1/2" = 1'-0"
140
1.5
141
12.0
290
     0
  0
SCALE
  5
4C4
102
{ACAD_REACTORS
330
4A5
102
}
330
4A5
100
AcDbScale
 70
     0
300
3" = 1'-0"
140
3.0
141
12.0
290
     0
  0
SCALE
  5
4C5
102
{ACAD_REACTORS
330
4A5
102
}
330
4A5
100
AcDbScale
 70
     0
300
6" = 1'-0"
140
6.0
141
12.0
290
     0
  0
SCALE
  5
4C6
102
{ACAD_REACTORS
330
4A5
102
}
330
4A5
100
AcDbScale
 70
     0
300
1'-0" = 1'-0"
140
12.0
141
12.0
290
     0
  0
TABLESTYLE
  5
4E1
102
{ACAD_REACTORS
330
4E0
102
}
102
{ACAD_XDICTIONARY
360
4FA
102
}
330
4E0
100
AcDbTableStyle
  3
Standard
 70
     0
 71
     0
 40
0.06
 41
0.06
280
     0
281
     0
  7
STANDARD
140
4.5
170
     2
 62
     0
 63
   257
283
     0
 90
        4
 91
        0
  1

274
    -2
284
     1
 64
     0
275
    -2
285
     1
 65
     0
276
    -2
286
     1
 66
     0
277
    -2
287
     1
 67
     0
278
    -2
288
     1
 68
     0
279
    -2
289
     1
 69
     0
  7
STANDARD
140
6.0
170
     5
 62
     0
 63
   257
283
     0
 90
        4
 91
        0
  1

274
    -2
284
     1
 64
     0
275
    -2
285
     1
 65
     0
276
    -2
286
     1
 66
     0
277
    -2
287
     1
 67
     0
278
    -2
288
     1
 68
     0
279
    -2
289
     1
 69
     0
  7
STANDARD
140
4.5
170
     5
 62
     0
 63
   257
283
     0
 90
        4
 91
        0
  1

274
    -2
284
     1
 64
     0
275
    -2
285
     1
 65
     0
276
    -2
286
     1
 66
     0
277
    -2
287
     1
 67
     0
278
    -2
288
     1
 68
     0
279
    -2
289
     1
 69
     0
  0
VISUALSTYLE
  5
4CC
102
{ACAD_REACTORS
330
4C7
102
}
330
4C7
100
AcDbVisualStyle
  2
2dWireframe
 70
     4
177
     3
291
     0
 70
    58
 90
        0
176
     1
 90
        2
176
     1
 90
        0
176
     1
 90
        0
176
     1
 40
0.6
176
     1
 40
30.0
176
     1
 62
     7
420
 16777215
176
     1
 90
        1
176
     1
 90
        4
176
     1
 62
     7
176
     1
 62
   257
176
     1
 90
        1
176
     1
 90
        1
176
     1
 40
1.0
176
     1
 90
        0
176
     1
 62
   257
176
     1
 40
1.0
176
     1
 90
        1
176
     1
 90
        6
176
     1
 90
        2
176
     1
 62
     7
176
     1
 90
        5
176
     1
 90
        0
176
     1
 90
        0
176
     1
290
     0
176
     1
 90
        1
176
     1
 40
0.0
176
     1
 90
        0
176
     1
290
     1
176
     1
290
     1
176
     1
290
     0
176
     1
290
     0
176
     1
290
     0
176
     1
290
     0
176
     1
290
     0
176
     1
290
     0
176
     1
290
     0
176
     1
 90
       50
176
     1
 40
0.0
176
     1
 40
1.0
176
     1
 90
        0
176
     1
 62
    18
420
        0
176
     1
 90
       50
176
     1
 90
        3
176
     1
 62
     5
420
      255
176
     1
290
     0
176
     1
 90
       50
176
     1
 90
       50
176
     1
 90
       50
176
     1
290
     0
176
     1
 90
       50
176
     1
 62
   256
176
     0
 40
1.0
176
     0
 90
        2
176
     1
  1
strokes_ogs.tif
176
     1
290
     0
176
     1
 40
1.0
176
     1
 40
1.0
176
     1
  0
VISUALSTYLE
  5
4CF
102
{ACAD_REACTORS
330
4C7
102
}
330
4C7
100
AcDbVisualStyle
  2
Basic
 70
     7
177
     3
291
     1
 70
    58
 90
        1
176
     1
 90
        0
176
     1
 90
        1
176
     1
 90
        0
176
     1
 40
0.6
176
     1
 40
30.0
176
     1
 62
     7
420
 16777215
176
     1
 90
        0
176
     1
 90
        4
176
     1
 62
     7
176
     1
 62
   257
176
     1
 90
        1
176
     1
 90
        1
176
     1
 40
1.0
176
     1
 90
        8
176
     1
 62
     7
176
     1
 40
1.0
176
     1
 90
        1
176
     1
 90
        6
176
     1
 90
        2
176
     1
 62
     7
176
     1
 90
        5
176
     1
 90
        0
176
     1
 90
        0
176
     1
290
     0
176
     1
 90
        1
176
     1
 40
0.0
176
     1
 90
        0
176
     1
290
     0
176
     1
290
     1
176
     1
290
     1
176
     1
290
     0
176
     1
290
     0
176
     1
290
     0
176
     1
290
     0
176
     1
290
     0
176
     1
290
     0
176
     1
 90
       50
176
     1
 40
0.0
176
     1
 40
1.0
176
     1
 90
        0
176
     1
 62
    18
420
        0
176
     1
 90
       50
176
     1
 90
        3
176
     1
 62
     5
420
      255
176
     1
290
     0
176
     1
 90
       50
176
     1
 90
       50
176
     1
 90
       50
176
     1
290
     0
176
     1
 90
       50
176
     1
 62
   256
176
     0
 40
1.0
176
     0
 90
        2
176
     1
  1
strokes_ogs.tif
176
     1
290
     0
176
     1
 40
1.0
176
     1
 40
1.0
176
     1
  0
VISUALSTYLE
  5
4D3
102
{ACAD_REACTORS
330
4C7
102
}
330
4C7
100
AcDbVisualStyle
  2
Brighten
 70
    12
177
     3
291
     1
 70
    58
 90
        2
176
     1
 90
        2
176
     1
 90
        0
176
     1
 90
        0
176
     1
 40
0.6
176
     1
 40
30.0
176
     1
 62
     7
420
 16777215
176
     1
 90
        1
176
     1
 90
        4
176
     1
 62
     7
176
     1
 62
   257
176
     1
 90
        1
176
     1
 90
        1
176
     1
 40
1.0
176
     1
 90
        8
176
     1
 62
     7
176
     1
 40
1.0
176
     1
 90
        1
176
     1
 90
        6
176
     1
 90
        2
176
     1
 62
     7
176
     1
 90
        5
176
     1
 90
        0
176
     1
 90
        0
176
     1
290
     0
176
     1
 90
        1
176
     1
 40
50.0
176
     1
 90
        0
176
     1
290
     0
176
     1
290
     1
176
     1
290
     1
176
     1
290
     0
176
     1
290
     0
176
     1
290
     0
176
     1
290
     0
176
     1
290
     0
176
     1
290
     0
176
     1
 90
       50
176
     1
 40
0.0
176
     1
 40
1.0
176
     1
 90
        0
176
     1
 62
    18
420
        0
176
     1
 90
       50
176
     1
 90
        3
176
     1
 62
     5
420
      255
176
     1
290
     0
176
     1
 90
       50
176
     1
 90
       50
176
     1
 90
       50
176
     1
290
     0
176
     1
 90
       50
176
     1
 62
   256
176
     0
 40
1.0
176
     0
 90
        2
176
     1
  1
strokes_ogs.tif
176
     1
290
     0
176
     1
 40
1.0
176
     1
 40
1.0
176
     1
  0
VISUALSTYLE
  5
4D7
102
{ACAD_REACTORS
330
4C7
102
}
330
4C7
100
AcDbVisualStyle
  2
ColorChange
 70
    16
177
     3
291
     1
 70
    58
 90
        2
176
     1
 90
        2
176
     1
 90
        3
176
     1
 90
        0
176
     1
 40
0.6
176
     1
 40
30.0
176
     1
 62
     8
420
  8421504
176
     1
 90
        1
176
     1
 90
        4
176
     1
 62
     7
176
     1
 62
   257
176
     1
 90
        1
176
     1
 90
        1
176
     1
 40
1.0
176
     1
 90
        8
176
     1
 62
     8
420
  8421504
176
     1
 40
1.0
176
     1
 90
        1
176
     1
 90
        6
176
     1
 90
        2
176
     1
 62
     7
176
     1
 90
        5
176
     1
 90
        0
176
     1
 90
        0
176
     1
290
     0
176
     1
 90
        1
176
     1
 40
0.0
176
     1
 90
        0
176
     1
290
     0
176
     1
290
     1
176
     1
290
     1
176
     1
290
     0
176
     1
290
     0
176
     1
290
     0
176
     1
290
     0
176
     1
290
     0
176
     1
290
     0
176
     1
 90
       50
176
     1
 40
0.0
176
     1
 40
1.0
176
     1
 90
        0
176
     1
 62
    18
420
        0
176
     1
 90
       50
176
     1
 90
        3
176
     1
 62
     5
420
      255
176
     1
290
     0
176
     1
 90
       50
176
     1
 90
       50
176
     1
 90
       50
176
     1
290
     0
176
     1
 90
       50
176
     1
 62
   256
176
     0
 40
1.0
176
     0
 90
        2
176
     1
  1
strokes_ogs.tif
176
     1
290
     0
176
     1
 40
1.0
176
     1
 40
1.0
176
     1
  0
VISUALSTYLE
  5
4D1
102
{ACAD_REACTORS
330
4C7
102
}
330
4C7
100
AcDbVisualStyle
  2
Conceptual
 70
     9
177
     3
291
     0
 70
    58
 90
        3
176
     1
 90
        2
176
     1
 90
        0
176
     1
 90
        0
176
     1
 40
0.6
176
     1
 40
30.0
176
     1
 62
     7
420
 16777215
176
     1
 90
        2
176
     1
 90
        2
176
     1
 62
     7
176
     1
 62
   257
176
     1
 90
        1
176
     1
 90
        1
176
     1
 40
179.0
176
     1
 90
        8
176
     1
 62
     7
176
     1
 40
1.0
176
     1
 90
        1
176
     1
 90
        6
176
     1
 90
        2
176
     1
 62
     7
176
     1
 90
        3
176
     1
 90
        0
176
     1
 90
        0
176
     1
290
     0
176
     1
 90
        1
176
     1
 40
0.0
176
     1
 90
        0
176
     1
290
     0
176
     1
290
     1
176
     1
290
     1
176
     1
290
     0
176
     1
290
     0
176
     1
290
     0
176
     1
290
     0
176
     1
290
     0
176
     1
290
     0
176
     1
 90
       50
176
     1
 40
0.0
176
     1
 40
1.0
176
     1
 90
        0
176
     1
 62
    18
420
        0
176
     1
 90
       50
176
     1
 90
        3
176
     1
 62
     5
420
      255
176
     1
290
     0
176
     1
 90
       50
176
     1
 90
       50
176
     1
 90
       50
176
     1
290
     0
176
     1
 90
       50
176
     1
 62
   256
176
     0
 40
1.0
176
     0
 90
        2
176
     1
  1
strokes_ogs.tif
176
     1
290
     0
176
     1
 40
1.0
176
     1
 40
1.0
176
     1
  0
VISUALSTYLE
  5
4D2
102
{ACAD_REACTORS
330
4C7
102
}
330
4C7
100
AcDbVisualStyle
  2
Dim
 70
    11
177
     3
291
     1
 70
    58
 90
        2
176
     1
 90
        2
176
     1
 90
        0
176
     1
 90
        0
176
     1
 40
0.6
176
     1
 40
30.0
176
     1
 62
     7
420
 16777215
176
     1
 90
        1
176
     1
 90
        4
176
     1
 62
     7
176
     1
 62
   257
176
     1
 90
        1
176
     1
 90
        1
176
     1
 40
1.0
176
     1
 90
        8
176
     1
 62
     7
176
     1
 40
1.0
176
     1
 90
        1
176
     1
 90
        6
176
     1
 90
        2
176
     1
 62
     7
176
     1
 90
        5
176
     1
 90
        0
176
     1
 90
        0
176
     1
290
     0
176
     1
 90
        1
176
     1
 40
-50.0
176
     1
 90
        0
176
     1
290
     0
176
     1
290
     1
176
     1
290
     1
176
     1
290
     0
176
     1
290
     0
176
     1
290
     0
176
     1
290
     0
176
     1
290
     0
176
     1
290
     0
176
     1
 90
       50
176
     1
 40
0.0
176
     1
 40
1.0
176
     1
 90
        0
176
     1
 62
    18
420
        0
176
     1
 90
       50
176
     1
 90
        3
176
     1
 62
     5
420
      255
176
     1
290
     0
176
     1
 90
       50
176
     1
 90
       50
176
     1
 90
       50
176
     1
290
     0
176
     1
 90
       50
176
     1
 62
   256
176
     0
 40
1.0
176
     0
 90
        2
176
     1
  1
strokes_ogs.tif
176
     1
290
     0
176
     1
 40
1.0
176
     1
 40
1.0
176
     1
  0
VISUALSTYLE
  5
4DA
102
{ACAD_REACTORS
330
4C7
102
}
330
4C7
100
AcDbVisualStyle
  2
EdgeColorOff
 70
    22
177
     3
291
     1
 70
    58
 90
        2
176
     0
 90
        2
176
     0
 90
        0
176
     0
 90
        0
176
     0
 40
0.6
176
     0
 40
30.0
176
     0
 62
     7
420
 16777215
176
     0
 90
        1
176
     0
 90
        4
176
     0
 62
     7
176
     0
 62
   257
176
     0
 90
        1
176
     0
 90
        1
176
     0
 40
1.0
176
     0
 90
        8
176
     2
 62
     7
176
     0
 40
1.0
176
     0
 90
        1
176
     0
 90
        6
176
     0
 90
        2
176
     0
 62
     7
176
     0
 90
        5
176
     0
 90
        0
176
     0
 90
        0
176
     0
290
     0
176
     0
 90
        1
176
     0
 40
0.0
176
     0
 90
        0
176
     0
290
     0
176
     0
290
     1
176
     0
290
     1
176
     0
290
     0
176
     0
290
     0
176
     0
290
     0
176
     0
290
     0
176
     0
290
     0
176
     0
290
     0
176
     0
 90
       50
176
     0
 40
0.0
176
     0
 40
1.0
176
     0
 90
        0
176
     0
 62
    18
420
        0
176
     0
 90
       50
176
     0
 90
        3
176
     0
 62
     5
420
      255
176
     0
290
     0
176
     0
 90
       50
176
     0
 90
       50
176
     0
 90
       50
176
     0
290
     0
176
     0
 90
       50
176
     0
 62
   256
176
     0
 40
1.0
176
     0
 90
        2
176
     0
  1
strokes_ogs.tif
176
     0
290
     0
176
     0
 40
1.0
176
     0
 40
1.0
176
     0
  0
VISUALSTYLE
  5
4D6
102
{ACAD_REACTORS
330
4C7
102
}
330
4C7
100
AcDbVisualStyle
  2
Facepattern
 70
    15
177
     3
291
     1
 70
    58
 90
        2
176
     1
 90
        2
176
     1
 90
        0
176
     1
 90
        0
176
     1
 40
0.6
176
     1
 40
30.0
176
     1
 62
     7
420
 16777215
176
     1
 90
        1
176
     1
 90
        4
176
     1
 62
     7
176
     1
 62
   257
176
     1
 90
        1
176
     1
 90
        1
176
     1
 40
1.0
176
     1
 90
        8
176
     1
 62
     7
176
     1
 40
1.0
176
     1
 90
        1
176
     1
 90
        6
176
     1
 90
        2
176
     1
 62
     7
176
     1
 90
        5
176
     1
 90
        0
176
     1
 90
        0
176
     1
290
     0
176
     1
 90
        1
176
     1
 40
0.0
176
     1
 90
        0
176
     1
290
     0
176
     1
290
     1
176
     1
290
     1
176
     1
290
     0
176
     1
290
     0
176
     1
290
     0
176
     1
290
     0
176
     1
290
     0
176
     1
290
     0
176
     1
 90
       50
176
     1
 40
0.0
176
     1
 40
1.0
176
     1
 90
        0
176
     1
 62
    18
420
        0
176
     1
 90
       50
176
     1
 90
        3
176
     1
 62
     5
420
      255
176
     1
290
     0
176
     1
 90
       50
176
     1
 90
       50
176
     1
 90
       50
176
     1
290
     0
176
     1
 90
       50
176
     1
 62
   256
176
     0
 40
1.0
176
     0
 90
        2
176
     1
  1
strokes_ogs.tif
176
     1
290
     0
176
     1
 40
1.0
176
     1
 40
1.0
176
     1
  0
VISUALSTYLE
  5
4C8
102
{ACAD_REACTORS
330
4C7
102
}
330
4C7
100
AcDbVisualStyle
  2
Flat
 70
     0
177
     3
291
     1
 70
    58
 90
        2
176
     1
 90
        1
176
     1
 90
        1
176
     1
 90
        2
176
     1
 40
0.6
176
     1
 40
30.0
176
     1
 62
     7
420
 16777215
176
     1
 90
        0
176
     1
 90
        0
176
     1
 62
     7
176
     1
 62
   257
176
     1
 90
        1
176
     1
 90
        1
176
     1
 40
1.0
176
     1
 90
        8
176
     1
 62
     7
176
     1
 40
1.0
176
     1
 90
        1
176
     1
 90
        6
176
     1
 90
        2
176
     1
 62
     7
176
     1
 90
        5
176
     1
 90
        0
176
     1
 90
        0
176
     1
290
     0
176
     1
 90
       13
176
     1
 40
0.0
176
     1
 90
        0
176
     1
290
     0
176
     1
290
     1
176
     1
290
     1
176
     1
290
     0
176
     1
290
     0
176
     1
290
     0
176
     1
290
     0
176
     1
290
     0
176
     1
290
     0
176
     1
 90
       50
176
     1
 40
0.0
176
     1
 40
1.0
176
     1
 90
        0
176
     1
 62
    18
420
        0
176
     1
 90
       50
176
     1
 90
        3
176
     1
 62
     5
420
      255
176
     1
290
     0
176
     1
 90
       50
176
     1
 90
       50
176
     1
 90
       50
176
     1
290
     0
176
     1
 90
       50
176
     1
 62
   256
176
     0
 40
1.0
176
     0
 90
        2
176
     1
  1
strokes_ogs.tif
176
     1
290
     0
176
     1
 40
1.0
176
     1
 40
1.0
176
     1
  0
VISUALSTYLE
  5
4C9
102
{ACAD_REACTORS
330
4C7
102
}
330
4C7
100
AcDbVisualStyle
  2
FlatWithEdges
 70
     1
177
     3
291
     1
 70
    58
 90
        2
176
     1
 90
        1
176
     1
 90
        1
176
     1
 90
        2
176
     1
 40
0.6
176
     1
 40
30.0
176
     1
 62
     7
420
 16777215
176
     1
 90
        1
176
     1
 90
        0
176
     1
 62
     7
176
     1
 62
   257
176
     1
 90
        1
176
     1
 90
        1
176
     1
 40
1.0
176
     1
 90
        0
176
     1
 62
   257
176
     1
 40
1.0
176
     1
 90
        1
176
     1
 90
        6
176
     1
 90
        2
176
     1
 62
     7
176
     1
 90
        5
176
     1
 90
        0
176
     1
 90
        0
176
     1
290
     0
176
     1
 90
       13
176
     1
 40
0.0
176
     1
 90
        0
176
     1
290
     0
176
     1
290
     1
176
     1
290
     1
176
     1
290
     0
176
     1
290
     0
176
     1
290
     0
176
     1
290
     0
176
     1
290
     0
176
     1
290
     0
176
     1
 90
       50
176
     1
 40
0.0
176
     1
 40
1.0
176
     1
 90
        0
176
     1
 62
    18
420
        0
176
     1
 90
       50
176
     1
 90
        3
176
     1
 62
     5
420
      255
176
     1
290
     0
176
     1
 90
       50
176
     1
 90
       50
176
     1
 90
       50
176
     1
290
     0
176
     1
 90
       50
176
     1
 62
   256
176
     0
 40
1.0
176
     0
 90
        2
176
     1
  1
strokes_ogs.tif
176
     1
290
     0
176
     1
 40
1.0
176
     1
 40
1.0
176
     1
  0
VISUALSTYLE
  5
4CA
102
{ACAD_REACTORS
330
4C7
102
}
330
4C7
100
AcDbVisualStyle
  2
Gouraud
 70
     2
177
     3
291
     1
 70
    58
 90
        2
176
     1
 90
        2
176
     1
 90
        1
176
     1
 90
        2
176
     1
 40
0.6
176
     1
 40
30.0
176
     1
 62
     7
420
 16777215
176
     1
 90
        0
176
     1
 90
        0
176
     1
 62
     7
176
     1
 62
   257
176
     1
 90
        1
176
     1
 90
        1
176
     1
 40
1.0
176
     1
 90
        0
176
     1
 62
     7
176
     1
 40
1.0
176
     1
 90
        1
176
     1
 90
        6
176
     1
 90
        2
176
     1
 62
     7
176
     1
 90
        5
176
     1
 90
        0
176
     1
 90
        0
176
     1
290
     0
176
     1
 90
       13
176
     1
 40
0.0
176
     1
 90
        0
176
     1
290
     0
176
     1
290
     1
176
     1
290
     1
176
     1
290
     0
176
     1
290
     0
176
     1
290
     0
176
     1
290
     0
176
     1
290
     0
176
     1
290
     0
176
     1
 90
       50
176
     1
 40
0.0
176
     1
 40
1.0
176
     1
 90
        0
176
     1
 62
    18
420
        0
176
     1
 90
       50
176
     1
 90
        3
176
     1
 62
     5
420
      255
176
     1
290
     0
176
     1
 90
       50
176
     1
 90
       50
176
     1
 90
       50
176
     1
290
     0
176
     1
 90
       50
176
     1
 62
   256
176
     0
 40
1.0
176
     0
 90
        2
176
     1
  1
strokes_ogs.tif
176
     1
290
     0
176
     1
 40
1.0
176
     1
 40
1.0
176
     1
  0
VISUALSTYLE
  5
4CB
102
{ACAD_REACTORS
330
4C7
102
}
330
4C7
100
AcDbVisualStyle
  2
GouraudWithEdges
 70
     3
177
     3
291
     1
 70
    58
 90
        2
176
     1
 90
        2
176
     1
 90
        1
176
     1
 90
        2
176
     1
 40
0.6
176
     1
 40
30.0
176
     1
 62
     7
420
 16777215
176
     1
 90
        1
176
     1
 90
        0
176
     1
 62
     7
176
     1
 62
   257
176
     1
 90
        1
176
     1
 90
        1
176
     1
 40
1.0
176
     1
 90
        0
176
     1
 62
   257
176
     1
 40
1.0
176
     1
 90
        1
176
     1
 90
        6
176
     1
 90
        2
176
     1
 62
     7
176
     1
 90
        5
176
     1
 90
        0
176
     1
 90
        0
176
     1
290
     0
176
     1
 90
       13
176
     1
 40
0.0
176
     1
 90
        0
176
     1
290
     0
176
     1
290
     1
176
     1
290
     1
176
     1
290
     0
176
     1
290
     0
176
     1
290
     0
176
     1
290
     0
176
     1
290
     0
176
     1
290
     0
176
     1
 90
       50
176
     1
 40
0.0
176
     1
 40
1.0
176
     1
 90
        0
176
     1
 62
    18
420
        0
176
     1
 90
       50
176
     1
 90
        3
176
     1
 62
     5
420
      255
176
     1
290
     0
176
     1
 90
       50
176
     1
 90
       50
176
     1
 90
       50
176
     1
290
     0
176
     1
 90
       50
176
     1
 62
   256
176
     0
 40
1.0
176
     0
 90
        2
176
     1
  1
strokes_ogs.tif
176
     1
290
     0
176
     1
 40
1.0
176
     1
 40
1.0
176
     1
  0
VISUALSTYLE
  5
4CE
102
{ACAD_REACTORS
330
4C7
102
}
330
4C7
100
AcDbVisualStyle
  2
Hidden
 70
     6
177
     3
291
     0
 70
    58
 90
        1
176
     1
 90
        2
176
     1
 90
        2
176
     1
 90
        0
176
     1
 40
0.6
176
     1
 40
30.0
176
     1
 62
     7
420
 16777215
176
     1
 90
        2
176
     1
 90
        2
176
     1
 62
     7
176
     1
 62
   257
176
     1
 90
        2
176
     1
 90
        1
176
     1
 40
40.0
176
     1
 90
        0
176
     1
 62
   257
176
     1
 40
1.0
176
     1
 90
        1
176
     1
 90
        6
176
     1
 90
        2
176
     1
 62
     7
176
     1
 90
        3
176
     1
 90
        0
176
     1
 90
        0
176
     1
290
     0
176
     1
 90
        1
176
     1
 40
0.0
176
     1
 90
        0
176
     1
290
     0
176
     1
290
     1
176
     1
290
     1
176
     1
290
     0
176
     1
290
     0
176
     1
290
     0
176
     1
290
     0
176
     1
290
     0
176
     1
290
     0
176
     1
 90
       50
176
     1
 40
0.0
176
     1
 40
1.0
176
     1
 90
        0
176
     1
 62
    18
420
        0
176
     1
 90
       50
176
     1
 90
        3
176
     1
 62
     5
420
      255
176
     1
290
     0
176
     1
 90
       50
176
     1
 90
       50
176
     1
 90
       50
176
     1
290
     0
176
     1
 90
       50
176
     1
 62
   256
176
     0
 40
1.0
176
     0
 90
        2
176
     1
  1
strokes_ogs.tif
176
     1
290
     0
176
     1
 40
1.0
176
     1
 40
1.0
176
     1
  0
VISUALSTYLE
  5
4D8
102
{ACAD_REACTORS
330
4C7
102
}
330
4C7
100
AcDbVisualStyle
  2
JitterOff
 70
    20
177
     3
291
     1
 70
    58
 90
        2
176
     0
 90
        2
176
     0
 90
        0
176
     0
 90
        0
176
     0
 40
0.6
176
     0
 40
30.0
176
     0
 62
     7
420
 16777215
176
     0
 90
        1
176
     0
 90
        4
176
     0
 62
     7
176
     0
 62
   257
176
     0
 90
        1
176
     0
 90
        1
176
     0
 40
1.0
176
     0
 90
       10
176
     2
 62
     7
176
     0
 40
1.0
176
     0
 90
        1
176
     0
 90
        6
176
     0
 90
        2
176
     0
 62
     7
176
     0
 90
        5
176
     0
 90
        0
176
     0
 90
        0
176
     0
290
     0
176
     0
 90
        1
176
     0
 40
0.0
176
     0
 90
        0
176
     0
290
     0
176
     0
290
     1
176
     0
290
     1
176
     0
290
     0
176
     0
290
     0
176
     0
290
     0
176
     0
290
     0
176
     0
290
     0
176
     0
290
     0
176
     0
 90
       50
176
     0
 40
0.0
176
     0
 40
1.0
176
     0
 90
        0
176
     0
 62
    18
420
        0
176
     0
 90
       50
176
     0
 90
        3
176
     0
 62
     5
420
      255
176
     0
290
     0
176
     0
 90
       50
176
     0
 90
       50
176
     0
 90
       50
176
     0
290
     0
176
     0
 90
       50
176
     0
 62
   256
176
     0
 40
1.0
176
     0
 90
        2
176
     0
  1
strokes_ogs.tif
176
     0
290
     0
176
     0
 40
1.0
176
     0
 40
1.0
176
     0
  0
VISUALSTYLE
  5
4D5
102
{ACAD_REACTORS
330
4C7
102
}
330
4C7
100
AcDbVisualStyle
  2
Linepattern
 70
    14
177
     3
291
     1
 70
    58
 90
        2
176
     1
 90
        2
176
     1
 90
        0
176
     1
 90
        0
176
     1
 40
0.6
176
     1
 40
30.0
176
     1
 62
     7
420
 16777215
176
     1
 90
        1
176
     1
 90
        4
176
     1
 62
     7
176
     1
 62
   257
176
     1
 90
        7
176
     1
 90
        7
176
     1
 40
1.0
176
     1
 90
        8
176
     1
 62
     7
176
     1
 40
1.0
176
     1
 90
        1
176
     1
 90
        6
176
     1
 90
        2
176
     1
 62
     7
176
     1
 90
        5
176
     1
 90
        0
176
     1
 90
        0
176
     1
290
     0
176
     1
 90
        1
176
     1
 40
0.0
176
     1
 90
        0
176
     1
290
     0
176
     1
290
     1
176
     1
290
     1
176
     1
290
     0
176
     1
290
     0
176
     1
290
     0
176
     1
290
     0
176
     1
290
     0
176
     1
290
     0
176
     1
 90
       50
176
     1
 40
0.0
176
     1
 40
1.0
176
     1
 90
        0
176
     1
 62
    18
420
        0
176
     1
 90
       50
176
     1
 90
        3
176
     1
 62
     5
420
      255
176
     1
290
     0
176
     1
 90
       50
176
     1
 90
       50
176
     1
 90
       50
176
     1
290
     0
176
     1
 90
       50
176
     1
 62
   256
176
     0
 40
1.0
176
     0
 90
        2
176
     1
  1
strokes_ogs.tif
176
     1
290
     0
176
     1
 40
1.0
176
     1
 40
1.0
176
     1
  0
VISUALSTYLE
  5
4D9
102
{ACAD_REACTORS
330
4C7
102
}
330
4C7
100
AcDbVisualStyle
  2
OverhangOff
 70
    21
177
     3
291
     1
 70
    58
 90
        2
176
     0
 90
        2
176
     0
 90
        0
176
     0
 90
        0
176
     0
 40
0.6
176
     0
 40
30.0
176
     0
 62
     7
420
 16777215
176
     0
 90
        1
176
     0
 90
        4
176
     0
 62
     7
176
     0
 62
   257
176
     0
 90
        1
176
     0
 90
        1
176
     0
 40
1.0
176
     0
 90
        9
176
     2
 62
     7
176
     0
 40
1.0
176
     0
 90
        1
176
     0
 90
        6
176
     0
 90
        2
176
     0
 62
     7
176
     0
 90
        5
176
     0
 90
        0
176
     0
 90
        0
176
     0
290
     0
176
     0
 90
        1
176
     0
 40
0.0
176
     0
 90
        0
176
     0
290
     0
176
     0
290
     1
176
     0
290
     1
176
     0
290
     0
176
     0
290
     0
176
     0
290
     0
176
     0
290
     0
176
     0
290
     0
176
     0
290
     0
176
     0
 90
       50
176
     0
 40
0.0
176
     0
 40
1.0
176
     0
 90
        0
176
     0
 62
    18
420
        0
176
     0
 90
       50
176
     0
 90
        3
176
     0
 62
     5
420
      255
176
     0
290
     0
176
     0
 90
       50
176
     0
 90
       50
176
     0
 90
       50
176
     0
290
     0
176
     0
 90
       50
176
     0
 62
   256
176
     0
 40
1.0
176
     0
 90
        2
176
     0
  1
strokes_ogs.tif
176
     0
290
     0
176
     0
 40
1.0
176
     0
 40
1.0
176
     0
  0
VISUALSTYLE
  5
4D0
102
{ACAD_REACTORS
330
4C7
102
}
330
4C7
100
AcDbVisualStyle
  2
Realistic
 70
     8
177
     3
291
     0
 70
    58
 90
        2
176
     1
 90
        3
176
     1
 90
        0
176
     1
 90
        2
176
     1
 40
0.6
176
     1
 40
30.0
176
     1
 62
     7
420
 16777215
176
     1
 90
        0
176
     1
 90
        0
176
     1
 62
     7
176
     1
 62
   257
176
     1
 90
        1
176
     1
 90
        1
176
     1
 40
1.0
176
     1
 90
        8
176
     1
 62
   257
176
     1
 40
1.0
176
     1
 90
        1
176
     1
 90
        6
176
     1
 90
        2
176
     1
 62
     7
176
     1
 90
        3
176
     1
 90
        0
176
     1
 90
        0
176
     1
290
     0
176
     1
 90
       13
176
     1
 40
0.0
176
     1
 90
        0
176
     1
290
     0
176
     1
290
     1
176
     1
290
     1
176
     1
290
     0
176
     1
290
     0
176
     1
290
     0
176
     1
290
     0
176
     1
290
     0
176
     1
290
     0
176
     1
 90
       50
176
     1
 40
0.0
176
     1
 40
1.0
176
     1
 90
        0
176
     1
 62
    18
420
        0
176
     1
 90
       50
176
     1
 90
        3
176
     1
 62
     5
420
      255
176
     1
290
     0
176
     1
 90
       50
176
     1
 90
       50
176
     1
 90
       50
176
     1
290
     0
176
     1
 90
       50
176
     1
 62
   256
176
     0
 40
1.0
176
     0
 90
        2
176
     1
  1
strokes_ogs.tif
176
     1
290
     0
176
     1
 40
1.0
176
     1
 40
1.0
176
     1
  0
VISUALSTYLE
  5
4DF
102
{ACAD_REACTORS
330
4C7
102
}
330
4C7
100
AcDbVisualStyle
  2
Shaded
 70
    27
177
     3
291
     0
 70
    58
 90
        2
176
     1
 90
        2
176
     1
 90
        1
176
     1
 90
        2
176
     1
 40
0.6
176
     1
 40
30.0
176
     1
 62
     7
420
 16777215
176
     1
 90
        0
176
     1
 90
        4
176
     1
 62
     7
176
     1
 62
   257
176
     1
 90
        1
176
     1
 90
        1
176
     1
 40
1.0
176
     1
 90
        8
176
     1
 62
   257
176
     1
 40
1.0
176
     1
 90
        1
176
     1
 90
        6
176
     1
 90
        2
176
     1
 62
     8
420
  7895160
176
     1
 90
        3
176
     1
 90
        0
176
     1
 90
        0
176
     1
290
     0
176
     1
 90
        5
176
     1
 40
0.0
176
     1
 90
        0
176
     1
290
     0
176
     1
290
     1
176
     1
290
     1
176
     1
290
     0
176
     1
290
     0
176
     1
290
     0
176
     1
290
     0
176
     1
290
     0
176
     1
290
     0
176
     1
 90
       50
176
     1
 40
0.0
176
     1
 40
1.0
176
     1
 90
        0
176
     1
 62
    18
420
        0
176
     1
 90
       50
176
     1
 90
        3
176
     1
 62
     5
420
      255
176
     1
290
     0
176
     1
 90
       50
176
     1
 90
       50
176
     1
 90
       50
176
     1
290
     0
176
     1
 90
       50
176
     1
 62
   256
176
     0
 40
1.0
176
     0
 90
        2
176
     1
  1
strokes_ogs.tif
176
     1
290
     0
176
     1
 40
1.0
176
     1
 40
1.0
176
     1
  0
VISUALSTYLE
  5
4DE
102
{ACAD_REACTORS
330
4C7
102
}
330
4C7
100
AcDbVisualStyle
  2
Shaded with edges
 70
    26
177
     3
291
     0
 70
    58
 90
        2
176
     1
 90
        2
176
     1
 90
        1
176
     1
 90
        2
176
     1
 40
0.6
176
     1
 40
30.0
176
     1
 62
     7
420
 16777215
176
     1
 90
        1
176
     1
 90
       10
176
     1
 62
     7
176
     1
 62
   257
176
     1
 90
        2
176
     1
 90
        1
176
     1
 40
1.0
176
     1
 90
        8
176
     1
 62
   257
176
     1
 40
1.0
176
     1
 90
        1
176
     1
 90
        6
176
     1
 90
        2
176
     1
 62
     7
176
     1
 90
        3
176
     1
 90
        0
176
     1
 90
        0
176
     1
290
     0
176
     1
 90
        5
176
     1
 40
0.0
176
     1
 90
        0
176
     1
290
     0
176
     1
290
     1
176
     1
290
     1
176
     1
290
     0
176
     1
290
     0
176
     1
290
     0
176
     1
290
     0
176
     1
290
     0
176
     1
290
     0
176
     1
 90
       50
176
     1
 40
0.0
176
     1
 40
1.0
176
     1
 90
        0
176
     1
 62
    18
420
        0
176
     1
 90
       50
176
     1
 90
        3
176
     1
 62
     5
420
      255
176
     1
290
     0
176
     1
 90
       50
176
     1
 90
       50
176
     1
 90
       50
176
     1
290
     0
176
     1
 90
       50
176
     1
 62
   256
176
     0
 40
1.0
176
     0
 90
        2
176
     1
  1
strokes_ogs.tif
176
     1
290
     0
176
     1
 40
1.0
176
     1
 40
1.0
176
     1
  0
VISUALSTYLE
  5
4DB
102
{ACAD_REACTORS
330
4C7
102
}
330
4C7
100
AcDbVisualStyle
  2
Shades of Gray
 70
    23
177
     3
291
     0
 70
    58
 90
        2
176
     1
 90
        2
176
     1
 90
        3
176
     1
 90
        0
176
     1
 40
0.6
176
     1
 40
30.0
176
     1
 62
     7
420
 16777215
176
     1
 90
        2
176
     1
 90
        2
176
     1
 62
     7
176
     1
 62
     7
176
     1
 90
        1
176
     1
 90
        1
176
     1
 40
40.0
176
     1
 90
        8
176
     1
 62
     7
176
     1
 40
1.0
176
     1
 90
        1
176
     1
 90
        6
176
     1
 90
        2
176
     1
 62
     7
176
     1
 90
        3
176
     1
 90
        0
176
     1
 90
        0
176
     1
290
     0
176
     1
 90
        1
176
     1
 40
0.0
176
     1
 90
        0
176
     1
290
     0
176
     1
290
     1
176
     1
290
     1
176
     1
290
     0
176
     1
290
     0
176
     1
290
     0
176
     1
290
     0
176
     1
290
     0
176
     1
290
     0
176
     1
 90
       50
176
     1
 40
0.0
176
     1
 40
1.0
176
     1
 90
        0
176
     1
 62
    18
420
        0
176
     1
 90
       50
176
     1
 90
        3
176
     1
 62
     5
420
      255
176
     1
290
     0
176
     1
 90
       50
176
     1
 90
       50
176
     1
 90
       50
176
     1
290
     0
176
     1
 90
       50
176
     1
 62
   256
176
     0
 40
1.0
176
     0
 90
        2
176
     1
  1
strokes_ogs.tif
176
     1
290
     0
176
     1
 40
1.0
176
     1
 40
1.0
176
     1
  0
VISUALSTYLE
  5
4DC
102
{ACAD_REACTORS
330
4C7
102
}
330
4C7
100
AcDbVisualStyle
  2
Sketchy
 70
    24
177
     3
291
     0
 70
    58
 90
        1
176
     1
 90
        2
176
     1
 90
        2
176
     1
 90
        0
176
     1
 40
0.6
176
     1
 40
30.0
176
     1
 62
     7
420
 16777215
176
     1
 90
        2
176
     1
 90
        2
176
     1
 62
     7
176
     1
 62
     7
176
     1
 90
        1
176
     1
 90
        1
176
     1
 40
40.0
176
     1
 90
       11
176
     1
 62
     7
176
     1
 40
1.0
176
     1
 90
        1
176
     1
 90
        6
176
     1
 90
        2
176
     1
 62
     7
176
     1
 90
        6
176
     1
 90
        0
176
     1
 90
        0
176
     1
290
     0
176
     1
 90
        1
176
     1
 40
0.0
176
     1
 90
        0
176
     1
290
     0
176
     1
290
     1
176
     1
290
     1
176
     1
290
     0
176
     1
290
     0
176
     1
290
     0
176
     1
290
     0
176
     1
290
     0
176
     1
290
     0
176
     1
 90
       50
176
     1
 40
0.0
176
     1
 40
1.0
176
     1
 90
        0
176
     1
 62
    18
420
        0
176
     1
 90
       50
176
     1
 90
        3
176
     1
 62
     5
420
      255
176
     1
290
     0
176
     1
 90
       50
176
     1
 90
       50
176
     1
 90
       50
176
     1
290
     0
176
     1
 90
       50
176
     1
 62
   256
176
     0
 40
1.0
176
     0
 90
        2
176
     1
  1
strokes_ogs.tif
176
     1
290
     0
176
     1
 40
1.0
176
     1
 40
1.0
176
     1
  0
VISUALSTYLE
  5
4D4
102
{ACAD_REACTORS
330
4C7
102
}
330
4C7
100
AcDbVisualStyle
  2
Thicken
 70
    13
177
     3
291
     1
 70
    58
 90
        2
176
     1
 90
        2
176
     1
 90
        0
176
     1
 90
        0
176
     1
 40
0.6
176
     1
 40
30.0
176
     1
 62
     7
420
 16777215
176
     1
 90
        1
176
     1
 90
        4
176
     1
 62
     7
176
     1
 62
   257
176
     1
 90
        1
176
     1
 90
        1
176
     1
 40
1.0
176
     1
 90
       12
176
     1
 62
     7
176
     1
 40
1.0
176
     1
 90
        1
176
     1
 90
        6
176
     1
 90
        2
176
     1
 62
     7
176
     1
 90
        5
176
     1
 90
        0
176
     1
 90
        0
176
     1
290
     0
176
     1
 90
        1
176
     1
 40
0.0
176
     1
 90
        0
176
     1
290
     0
176
     1
290
     1
176
     1
290
     1
176
     1
290
     0
176
     1
290
     0
176
     1
290
     0
176
     1
290
     0
176
     1
290
     0
176
     1
290
     0
176
     1
 90
       50
176
     1
 40
0.0
176
     1
 40
1.0
176
     1
 90
        0
176
     1
 62
    18
420
        0
176
     1
 90
       50
176
     1
 90
        3
176
     1
 62
     5
420
      255
176
     1
290
     0
176
     1
 90
       50
176
     1
 90
       50
176
     1
 90
       50
176
     1
290
     0
176
     1
 90
       50
176
     1
 62
   256
176
     0
 40
1.0
176
     0
 90
        2
176
     1
  1
strokes_ogs.tif
176
     1
290
     0
176
     1
 40
1.0
176
     1
 40
1.0
176
     1
  0
VISUALSTYLE
  5
4CD
102
{ACAD_REACTORS
330
4C7
102
}
330
4C7
100
AcDbVisualStyle
  2
Wireframe
 70
     5
177
     3
291
     0
 70
    58
 90
        0
176
     1
 90
        2
176
     1
 90
        0
176
     1
 90
        0
176
     1
 40
0.6
176
     1
 40
30.0
176
     1
 62
     7
420
 16777215
176
     1
 90
        1
176
     1
 90
        4
176
     1
 62
     7
176
     1
 62
   257
176
     1
 90
        1
176
     1
 90
        1
176
     1
 40
1.0
176
     1
 90
        0
176
     1
 62
   257
176
     1
 40
1.0
176
     1
 90
        1
176
     1
 90
        6
176
     1
 90
        2
176
     1
 62
     7
176
     1
 90
        3
176
     1
 90
        0
176
     1
 90
        0
176
     1
290
     0
176
     1
 90
        1
176
     1
 40
0.0
176
     1
 90
        0
176
     1
290
     0
176
     1
290
     1
176
     1
290
     1
176
     1
290
     0
176
     1
290
     0
176
     1
290
     0
176
     1
290
     0
176
     1
290
     0
176
     1
290
     0
176
     1
 90
       50
176
     1
 40
0.0
176
     1
 40
1.0
176
     1
 90
        0
176
     1
 62
    18
420
        0
176
     1
 90
       50
176
     1
 90
        3
176
     1
 62
     5
420
      255
176
     1
290
     0
176
     1
 90
       50
176
     1
 90
       50
176
     1
 90
       50
176
     1
290
     0
176
     1
 90
       50
176
     1
 62
   256
176
     0
 40
1.0
176
     0
 90
        2
176
     1
  1
strokes_ogs.tif
176
     1
290
     0
176
     1
 40
1.0
176
     1
 40
1.0
176
     1
  0
VISUALSTYLE
  5
4DD
102
{ACAD_REACTORS
330
4C7
102
}
330
4C7
100
AcDbVisualStyle
  2
X-Ray
 70
    25
177
     3
291
     0
 70
    58
 90
        2
176
     1
 90
        2
176
     1
 90
        1
176
     1
 90
        1
176
     1
 40
0.5
176
     1
 40
30.0
176
     1
 62
     7
420
 16777215
176
     1
 90
        1
176
     1
 90
        0
176
     1
 62
     7
176
     1
 62
   257
176
     1
 90
        1
176
     1
 90
        1
176
     1
 40
1.0
176
     1
 90
        8
176
     1
 62
     7
176
     1
 40
1.0
176
     1
 90
        1
176
     1
 90
        6
176
     1
 90
        2
176
     1
 62
     7
176
     1
 90
        3
176
     1
 90
        0
176
     1
 90
        0
176
     1
290
     0
176
     1
 90
       13
176
     1
 40
0.0
176
     1
 90
        0
176
     1
290
     0
176
     1
290
     1
176
     1
290
     1
176
     1
290
     0
176
     1
290
     0
176
     1
290
     0
176
     1
290
     0
176
     1
290
     0
176
     1
290
     0
176
     1
 90
       50
176
     1
 40
0.0
176
     1
 40
1.0
176
     1
 90
        0
176
     1
 62
    18
420
        0
176
     1
 90
       50
176
     1
 90
        3
176
     1
 62
     5
420
      255
176
     1
290
     0
176
     1
 90
       50
176
     1
 90
       50
176
     1
 90
       50
176
     1
290
     0
176
     1
 90
       50
176
     1
 62
   256
176
     0
 40
1.0
176
     0
 90
        2
176
     1
  1
strokes_ogs.tif
176
     1
290
     0
176
     1
 40
1.0
176
     1
 40
1.0
176
     1
  0
DICTIONARYVAR
  5
4F9
102
{ACAD_REACTORS
330
4F8
102
}
330
4F8
100
DictionaryVariables
280
     0
  1
1:1
  0
DICTIONARYVAR
  5
4FD
102
{ACAD_REACTORS
330
4F8
102
}
330
4F8
100
DictionaryVariables
280
     0
  1
Standard
  0
CSACDOCUMENTOPTIONS
  5
4EE
102
{ACAD_REACTORS
330
4ED
102
}
330
4ED
  0
XRECORD
  5
4F2
102
{ACAD_REACTORS
330
4E9
102
}
330
4E9
100
AcDbXrecord
280
     1
300
MC_VERSION_DATA
 90
       95
310
0600000002000000570000001C000000E404000000000000000000007801936764E5D8CF7A8393818115C460606066E0646662626666706006F214793899F8DE3171E725E6E53B3BBA2878E6951050AF75FEFFFFFF520032DE0F3057000000
  0
XRECORD
  5
4EA
102
{ACAD_REACTORS
330
4E9
102
}
330
4E9
100
AcDbXrecord
280
     1
300
MCS_DOCUMENT_ID
 90
       60
310
0600000002000000150000001C000000E404000000000000000000007801E30D397923E0F9BC468F7D07AF4AA8FC743EF51F08007F4F0D3315000000
  0
XRECORD
  5
4F0
102
{ACAD_REACTORS
330
4E9
102
}
330
4E9
100
AcDbXrecord
280
     1
300
MCS_PARAMS_DATA
 90
     3313
310
0600000002000000F64B00001C000000E404000000000000000000007801C55C5B905C45199EE99EBDCCE67E5DA218172C303B91307B4B8C459531245054850D55591F78B236BB49B9BAC9E6B22A082A9655BE5865596569A965F9209288CF16503EC8834088C10B092404211702988430422E9084CDAEFFD7A7FBF4DFA7CF
310
D9D99D9D39930798FF3F7DCEF7DFFAFBBBFBCC6CDBFC46297252EECB48F9CDF5ED5234493921A5206D76815820B252E4F3225F128D7D5F59BF69E3162948D9A2D485B3131313747328BF06593E960915079422437734AA3BDAA5CCD053F5ED4FD2557D257BAB94DF007A03479F859BB2B22193C9108EC1CDCADC0464C27506
310
28605703E48886E0B986E10F03BF91E33707F8E3140E7A9091C8268236920C1C662240B94888A1C8E07600AE99C32D5131CA8B3925D172EFE62D7D6D9DABBA8ADDD6F17CE16D13F0457AE8AC9268DE32DABF73B07FCFA013F9BF8491D7C17E2550D8E8FFCA8DFE4E98B3929B331718B291824FFF72EB941D9E8E2211D5A93C
310
784A44C557923911258BD0C8640531AEEC61A924855B11378280384364A422680C0A928DB9C10CD89D581114199665B722B26E4590C82B0222AB08FAA8A60626C028E0044F81BA246F5360E167F2D27C56A10E05C058C13C59DEC6207679103AFC5DEADF992F2B284F67B31C8EE359B64A9665A62453228F64269D98455E3B
310
A4B35817F7EC92C86FB8EFFE8DBD5BEEDBDCAB0CD3B5FC8E99065A7E55D536E39DE7826237F1C8BBBCB3CFADFC93302087C80397EE69C2FF69CA32234F0763E41851010DA578E8294D435524988818E84710A7B2643B4F7C034F6CE5C9368F203BE8094C6268541D70D35EE4B585DAE170F4942EB8D2D422560A9917F34B62
310
CE86919D9F1F6DDBB36DD770FFC0B6BC682E898607BEB5737424F8D83B323AF07529CFC0B69BB96D9FD3CFF9B410ED79B1A42416161FEA29AEEDEEEC5ADF532C76DEF3C5AEEEB5CAECF97A60330D2C1C3579EAD0DA7621F20269BD6768746FDBF0D0DE51F3B0EE356B3ABBD6F474F7740D76770EACED08FCFC92BEAF13F701
310
B5AF7FEBF0B6B691ED6D7D23C3DBF6F4EF840FDA9AD583C58E81E240FFEAADDD5BD70EAC0E669D2A25F27FB610851F9335859F059541B9E5971EC7A5A7E83F2CE53DB9A4040555A2661A4DDBF2C560B2E54E7D5483931EF871F7C88E5DFDA3435B878687461F6EDB313248FE3596847C70DBDEBC682809D13B22E56A5856E4
310
E9998738519B6E2A89DCE6EDDBDB542AF4E4380F8F61A4965F57116093E5A052A06AF588670205D9A715FB49B140D81A90855F902680EBB8B3A3187EEA96F2B224E392BAF898328CB1AD47DA34C1601A1B421AD816D190715CC3F276A5DE067C546F03AED6DB808FEB6DC0B57A1BB00853B49EB3E0937A47E07ABD0D188301
310
71CB797197D3603B1D06BFCB6DB024827C0C834324E60945463B3712E196397079076E990B47228783C8E09631B8F129C211385B3E540C97413DC70673C524DEAD70BD23917B079179B782793791AE77D944EFDCDC5529988B13E1069D6092C472A7F777A6F648E4C184C88239C8822913E16AE29D48176E29E0727C316496
310
EF2A967C95165E504B0C2B218EEE82DD5C63513CD614C5091F6D6FA7551865CC5C5030A1E0A3E84BEC86CFD04EC5DD01AA74CBDB05AB8C403295A124BB2908C4B032B4682A032283FB103E391B4E03172C7199C4E0F88E871E8855ADA1482D3238FA1846E0B807A77785BFF935FE1D74369F5647D0D171CA5F4F09337C2559
310
105132935A503D6DBC7A94B54D2B6DF1E0339960F436A97441791E5EC104D40283580888C4FDED577B1FD8B4B9AF6FE30605D8AAD7F1F34A62F6DD5BBEC62E92057A31FEA25A9DB3F5FBD3C1729D9CD723B0BF0DE8402BB05A67160DDE4416E59079C0D9EAA575B7321F67115FC018C76AB5B3A33D06B68CBD9BFBDC93C073
310
800CC384FD360C544F539B6F02B1820953BE9D01DE01C0D85A6C50369A5AC4065C7760793B965800321749E4B50891C0C2AB0CAE9808178444974C70F875952A9381563C01BE9D08EAFA481283ABD8C7EF7870DAABE068E68833DFAC8EA0A3E3F87C0B07AA507B2311F0889285BDC333294C4E2DB27C67BA70ABD2857B688A
310
70552AA7873DB8489E55063D5D2DCBE9BB9E49F1E554A5083C922EDCA3E9C27D2F5DB8EF7B705EE9D87E1E920E88313AAE6AECF4FBD668D3D30DB4E51ADA9BEDB0D7AFCEB4DDED85F7C4ECF6551B3BCE2AFF6E835E49458EC94883D6E73C45753FAE614C3C0A0362777435D915EC025C33F7578776011DE6F3D066954C59D6
310
D76F86AC9CD58A53F4122CF0552BAE070AEA3B5AF15752304F1F47569D50AB71F41A31FA5A51C904CD43C6B0F51D2ACEFC112ACC4CC1B0FF086CE7AD5A4D096A005126387AAD451EE384D9C035A925859E39C1AA865EE9A9B8DA21CEE289167F7CF1D4C4BC7A125EC5AED5D8BB0B5A9D9144D134CFA71BF85A8D44BE568348
310
F6AA55A2F3CAEA4F6982FD21118CC249D3CBF852A586F244BA70FBD285DB9F085793EDE56E143F0AD06C6B4CB2242BDD3DD1419166C2865E81F9CE1648F3CBD84597B22E28992A3DDCE24C77F3F311A01C8A722828EC3CF15F7D987933F818F8E59BC138E5CD4CE8AC24C94E68BA32F5C3CBAB808B6B06B9936E642F9F804C
310
903AF2F3709D37832318A078E4B37AEBDCFAA66859945B9EBB25776BAE2DD3995995E9CA1433DDFA4DAC7ECE6FE93696E96BB06712968ED2661884A9EE40230F60D0D73DE8C858453B9E8E4212D5A9B0784A762662599FEDD18C9299F4094C728A91F536658E91CDA6DFC8E89F363B15B4CB31404FD2581CF722BBF229B517
310
430944E56AB2E2A8E3461950730F2B7ECA7BC570E389706E8BA9D241C744225C40C29385944F707279EA277D998065D9EAD604B1263E66D38513E9C2490F4EE7CC6E8AA89C3D9DA588701CA708AB6414C194931EE3FC0D4515D71A4FBFE712F8CB4A26532A6E8DCF01CA61A3745BE3F3C09F6E6B442F0CD7BAD36A8D2F002E
310
AE359E3BE646F6B8926D6BBC0CD9926FBEF08C5220B9BAE91D0E14769FF44B52301E3C00E8FA74C117BD24F396E22C7F1005F2DA2902EB76053DE720B0D3EE397F2F036AE8B24A3DE750225C4DF8F8A544B81AF69C7F2482D6C4C77F067093EF36FE359541FF8E0E8A50399BA22F63681CEF0EBDEBB2C3834A9E09EF1E0654
310
1D79F708F0A7CBBB956F495E015C1CEFEE3EEC46B65FC996771F856C09285F58A7148C77872F6104D6DC9A8897D30896D457015D1FDE3DEA25B91CEFF2EBD6EB0A68F718A0D3A6DDD7CA805699768F27C2D584925E4F84AB9476A39B03E744D09CD6610FF59F44E89A78FA46BA70DDDE0ADC144A4DBCEBF1E0221D416DC23D
310
1D715254A766A8A7AC60C1FF26021ED7783E889CD89C52F24C1ACF0940D5B1F19C047E7A8DE714E0E21ACFD5436EE339AB64DB78E44B91C6730003ECCB897CE1D28548E3798246B0C6731AD0536D3CB3E90740046E0B5FD5161351555C247A084506FA9607AAEBD39C44F1E2B63A5BDCA18E17B755B2E2664A322602C34C3A
310
0393625B51C09BC60D77315EF1E1C8DB80730A9C37D5B8CD0EBF3EA3A6FB4EA2A7C18B1B2746D53A5F7BB70C687C78291FE10E3A386EE3054657F9CB297E9CF703B0E71DFC4DA3397B4068C3CF33A1A81F02C2C920DB8E7ABF712005813923946BAE06DE453454B45CC32AF6311810C751E3F85A979E7874424F9299B34AB2
310
210DC430A45A3473162283FB2F3218C7FE178FBB1CF59692CDAD957C0DECAC3739580882F7E26636C4FC0874E66F42CE013F2EB274A4C323CBB88082C5B980AE4CFD4DC879C0C5B1FFF5E7DDC89E57324556799F2F34BC006EC70CD18A8318C0D9FF0AB6807CDBB19F46B0A4BE07E8B4D9FF8207EA504E3D7E65FA3E4C7226
310
B329B0E8D703AAFEBAA304E869379E693123CD68457958A4FF2F11AE86ECFF4119D078F6E7138AD87FF2370F86D6E1E38789702D76FED2134932CCA824CB8C811832A3160D33426421BD980847AF6F0C11D33DEECB1CFE9B7175D1F926045DE5BD8DBFBDBE94081764D0049324E6DDB40A8607F372225C4D16463974B5B836
310
F393232E193EA2E499B49986C93A780A6DA631A981D7A6CD34012EAECDFCFC5937B23F52B26D33BF83CCDBCC56A5C0ECD07DE7A7A7226D661D8D6033A419D0536D33E07F56B8C4CA7C0D48229F9610695A461A0883CE7B494E8DD95B004DF38E8247AB09FE45AC1A52EDAC32A0861DD8DA85D8A76276989D08579353913989
310
700119397510D9BB4CAB9DF096393711B4263ECE4B176E7EBA700B3C389DB3F0B5335AA6A7234288EA142D784A9083AFB414616018456CF24C3293C4CD2F49D3E5A5F0410CEE7E0F2E6A6FEA11580893E29AEE529C2FC11C4DF48D4AA628982DB44A422820F8563073C8F989CF2240392BED74F7768B819FDEDE6E09E0E29A
310
EE72FA030B3CB273954C91D5916E87CC9BEEFB4FAB1E6B73B10CFB6CBEB73B4423589D2D05F4CC9AAE2E4C768646F0614DBB4BD40606DDEA2539B5A67B13A0D36EBACBCA809A9055A7E9E24B8E0D79912B896C91FE0C1655C17843E129FA335B3277F4E8510807513CB9CC44868E210AF7FE19028691B0917E39482B125CF8
310
D4FF01F0B312DAF64B0000
  0
TABLECONTENT
  5
4F4
330
4F7
100
AcDbLinkedData
  1

300

100
AcDbLinkedTableData
 90
        5
300
COLUMN
  1
LINKEDTABLEDATACOLUMN_BEGIN
300

 91
        0
301
CUSTOMDATA
  1
DATAMAP_BEGIN
 90
        0
309
DATAMAP_END
309
LINKEDTABLEDATACOLUMN_END
  1
FORMATTEDTABLEDATACOLUMN_BEGIN
300
COLUMNTABLEFORMAT
  1
TABLEFORMAT_BEGIN
 90
        3
170
     0
309
TABLEFORMAT_END
309
FORMATTEDTABLEDATACOLUMN_END
  1
TABLECOLUMN_BEGIN
 90
        0
 40
10.0
309
TABLECOLUMN_END
300
COLUMN
  1
LINKEDTABLEDATACOLUMN_BEGIN
300

 91
        0
301
CUSTOMDATA
  1
DATAMAP_BEGIN
 90
        0
309
DATAMAP_END
309
LINKEDTABLEDATACOLUMN_END
  1
FORMATTEDTABLEDATACOLUMN_BEGIN
300
COLUMNTABLEFORMAT
  1
TABLEFORMAT_BEGIN
 90
        3
170
     0
309
TABLEFORMAT_END
309
FORMATTEDTABLEDATACOLUMN_END
  1
TABLECOLUMN_BEGIN
 90
        0
 40
10.0
309
TABLECOLUMN_END
300
COLUMN
  1
LINKEDTABLEDATACOLUMN_BEGIN
300

 91
        0
301
CUSTOMDATA
  1
DATAMAP_BEGIN
 90
        0
309
DATAMAP_END
309
LINKEDTABLEDATACOLUMN_END
  1
FORMATTEDTABLEDATACOLUMN_BEGIN
300
COLUMNTABLEFORMAT
  1
TABLEFORMAT_BEGIN
 90
        3
170
     0
309
TABLEFORMAT_END
309
FORMATTEDTABLEDATACOLUMN_END
  1
TABLECOLUMN_BEGIN
 90
        0
 40
10.0
309
TABLECOLUMN_END
300
COLUMN
  1
LINKEDTABLEDATACOLUMN_BEGIN
300

 91
        0
301
CUSTOMDATA
  1
DATAMAP_BEGIN
 90
        0
309
DATAMAP_END
309
LINKEDTABLEDATACOLUMN_END
  1
FORMATTEDTABLEDATACOLUMN_BEGIN
300
COLUMNTABLEFORMAT
  1
TABLEFORMAT_BEGIN
 90
        3
170
     0
309
TABLEFORMAT_END
309
FORMATTEDTABLEDATACOLUMN_END
  1
TABLECOLUMN_BEGIN
 90
        0
 40
40.0
309
TABLECOLUMN_END
300
COLUMN
  1
LINKEDTABLEDATACOLUMN_BEGIN
300

 91
        0
301
CUSTOMDATA
  1
DATAMAP_BEGIN
 90
        0
309
DATAMAP_END
309
LINKEDTABLEDATACOLUMN_END
  1
FORMATTEDTABLEDATACOLUMN_BEGIN
300
COLUMNTABLEFORMAT
  1
TABLEFORMAT_BEGIN
 90
        3
170
     0
309
TABLEFORMAT_END
309
FORMATTEDTABLEDATACOLUMN_END
  1
TABLECOLUMN_BEGIN
 90
        0
 40
20.0
309
TABLECOLUMN_END
 91
        5
301
ROW
  1
LINKEDTABLEDATAROW_BEGIN
 90
        5
300
CELL
  1
LINKEDTABLEDATACELL_BEGIN
 90
        0
300

 91
        0
301
CUSTOMDATA
  1
DATAMAP_BEGIN
 90
        1
300
ACAD_ROUNDTRIP_2008_CELL_CHECKSUM
301
DATAMAP_VALUE
 93
        2
 90
        2
140
32.0
 94
        0
300

302

304
ACVALUE_END
309
DATAMAP_END
 92
        0
 95
        1
302
CONTENT
  1
CELLCONTENT_BEGIN
 90
        1
300
VALUE
 93
        2
 90
        4
  1
 
 94
        0
300

302
 
304
ACVALUE_END
 91
        0
309
CELLCONTENT_END
  1
FORMATTEDCELLCONTENT_BEGIN
170
     1
300
CONTENTFORMAT
  1
CONTENTFORMAT_BEGIN
 90
      132
 91
        0
 92
      512
 93
        0
300

 40
0.0
140
1.0
 94
        1
 62
     0
340
0
144
3.5
309
CONTENTFORMAT_END
309
FORMATTEDCELLCONTENT_END
309
LINKEDTABLEDATACELL_END
  1
FORMATTEDTABLEDATACELL_BEGIN
300
CELLTABLEFORMAT
  1
TABLEFORMAT_BEGIN
 90
        1
170
     1
 91
        0
 92
        0
 62
   257
 93
        1
300
CONTENTFORMAT
  1
CONTENTFORMAT_BEGIN
 90
        0
 91
        0
 92
      512
 93
        0
300

 40
0.0
140
1.0
 94
        1
 62
     0
340
0
144
0.18
309
CONTENTFORMAT_END
171
     0
 94
        0
309
TABLEFORMAT_END
309
FORMATTEDTABLEDATACELL_END
  1
TABLECELL_BEGIN
 90
        0
 91
        0
309
TABLECELL_END
300
CELL
  1
LINKEDTABLEDATACELL_BEGIN
 90
        0
300

 91
        0
301
CUSTOMDATA
  1
DATAMAP_BEGIN
 90
        0
309
DATAMAP_END
 92
        0
 95
        0
309
LINKEDTABLEDATACELL_END
  1
FORMATTEDTABLEDATACELL_BEGIN
300
CELLTABLEFORMAT
  1
TABLEFORMAT_BEGIN
 90
        1
170
     1
 91
        0
 92
        0
 62
   257
 93
        1
300
CONTENTFORMAT
  1
CONTENTFORMAT_BEGIN
 90
        0
 91
        0
 92
      512
 93
        0
300

 40
0.0
140
1.0
 94
        1
 62
     0
340
0
144
0.18
309
CONTENTFORMAT_END
171
     0
 94
        0
309
TABLEFORMAT_END
309
FORMATTEDTABLEDATACELL_END
  1
TABLECELL_BEGIN
 90
        0
 91
        0
309
TABLECELL_END
300
CELL
  1
LINKEDTABLEDATACELL_BEGIN
 90
        0
300

 91
        0
301
CUSTOMDATA
  1
DATAMAP_BEGIN
 90
        0
309
DATAMAP_END
 92
        0
 95
        0
309
LINKEDTABLEDATACELL_END
  1
FORMATTEDTABLEDATACELL_BEGIN
300
CELLTABLEFORMAT
  1
TABLEFORMAT_BEGIN
 90
        1
170
     1
 91
        0
 92
        0
 62
   257
 93
        1
300
CONTENTFORMAT
  1
CONTENTFORMAT_BEGIN
 90
        0
 91
        0
 92
      512
 93
        0
300

 40
0.0
140
1.0
 94
        1
 62
     0
340
0
144
0.18
309
CONTENTFORMAT_END
171
     0
 94
        0
309
TABLEFORMAT_END
309
FORMATTEDTABLEDATACELL_END
  1
TABLECELL_BEGIN
 90
        0
 91
        0
309
TABLECELL_END
300
CELL
  1
LINKEDTABLEDATACELL_BEGIN
 90
        0
300

 91
        0
301
CUSTOMDATA
  1
DATAMAP_BEGIN
 90
        1
300
ACAD_ROUNDTRIP_2008_CELL_CHECKSUM
301
DATAMAP_VALUE
 93
        2
 90
        2
140
2828.0
 94
        0
300

302

304
ACVALUE_END
309
DATAMAP_END
 92
        0
 95
        1
302
CONTENT
  1
CELLCONTENT_BEGIN
 90
        1
300
VALUE
 93
        2
 90
        4
  1
3D1_C_061
 94
        0
300

302
3D1_C_061
304
ACVALUE_END
 91
        0
309
CELLCONTENT_END
  1
FORMATTEDCELLCONTENT_BEGIN
170
     1
300
CONTENTFORMAT
  1
CONTENTFORMAT_BEGIN
 90
      196
 91
        0
 92
      512
 93
        0
300

 40
0.0
140
1.0
 94
        1
 62
     0
340
229
144
3.0
309
CONTENTFORMAT_END
309
FORMATTEDCELLCONTENT_END
309
LINKEDTABLEDATACELL_END
  1
FORMATTEDTABLEDATACELL_BEGIN
300
CELLTABLEFORMAT
  1
TABLEFORMAT_BEGIN
 90
        1
170
     1
 91
       16
 92
        0
 62
   257
 93
        1
300
CONTENTFORMAT
  1
CONTENTFORMAT_BEGIN
 90
       16
 91
        0
 92
      512
 93
        0
300

 40
0.0
140
1.0
 94
        4
 62
     0
340
0
144
0.18
309
CONTENTFORMAT_END
171
     0
 94
        4
 95
        1
302
GRIDFORMAT
  1
GRIDFORMAT_BEGIN
 90
       26
 91
        1
 62
     0
 92
       -2
340
0
 93
        0
 40
0.045
309
GRIDFORMAT_END
 95
        4
302
GRIDFORMAT
  1
GRIDFORMAT_BEGIN
 90
       26
 91
        1
 62
     0
 92
       -2
340
0
 93
        0
 40
0.045
309
GRIDFORMAT_END
 95
        8
302
GRIDFORMAT
  1
GRIDFORMAT_BEGIN
 90
       26
 91
        1
 62
     0
 92
       -2
340
0
 93
        0
 40
0.045
309
GRIDFORMAT_END
 95
       32
302
GRIDFORMAT
  1
GRIDFORMAT_BEGIN
 90
       26
 91
        1
 62
     0
 92
       -2
340
0
 93
        0
 40
0.045
309
GRIDFORMAT_END
309
TABLEFORMAT_END
309
FORMATTEDTABLEDATACELL_END
  1
TABLECELL_BEGIN
 90
        0
 91
        0
309
TABLECELL_END
300
CELL
  1
LINKEDTABLEDATACELL_BEGIN
 90
        0
300

 91
        0
301
CUSTOMDATA
  1
DATAMAP_BEGIN
 90
        1
300
ACAD_ROUNDTRIP_2008_CELL_CHECKSUM
301
DATAMAP_VALUE
 93
        2
 90
        2
140
1398.0
 94
        0
300

302

304
ACVALUE_END
309
DATAMAP_END
 92
        0
 95
        1
302
CONTENT
  1
CELLCONTENT_BEGIN
 90
        1
300
VALUE
 93
        2
 90
        4
  1
Rev:00
 94
        0
300

302
Rev:00
304
ACVALUE_END
 91
        0
309
CELLCONTENT_END
  1
FORMATTEDCELLCONTENT_BEGIN
170
     1
300
CONTENTFORMAT
  1
CONTENTFORMAT_BEGIN
 90
      196
 91
        0
 92
      512
 93
        0
300

 40
0.0
140
1.0
 94
        1
 62
     0
340
229
144
3.5
309
CONTENTFORMAT_END
309
FORMATTEDCELLCONTENT_END
309
LINKEDTABLEDATACELL_END
  1
FORMATTEDTABLEDATACELL_BEGIN
300
CELLTABLEFORMAT
  1
TABLEFORMAT_BEGIN
 90
        1
170
     1
 91
       16
 92
        0
 62
   257
 93
        1
300
CONTENTFORMAT
  1
CONTENTFORMAT_BEGIN
 90
       16
 91
        0
 92
      512
 93
        0
300

 40
0.0
140
1.0
 94
        4
 62
     0
340
0
144
0.18
309
CONTENTFORMAT_END
171
     0
 94
        4
 95
        1
302
GRIDFORMAT
  1
GRIDFORMAT_BEGIN
 90
       26
 91
        1
 62
     0
 92
       -2
340
0
 93
        0
 40
0.045
309
GRIDFORMAT_END
 95
        4
302
GRIDFORMAT
  1
GRIDFORMAT_BEGIN
 90
       26
 91
        1
 62
     0
 92
       -2
340
0
 93
        0
 40
0.045
309
GRIDFORMAT_END
 95
        8
302
GRIDFORMAT
  1
GRIDFORMAT_BEGIN
 90
       26
 91
        1
 62
     0
 92
       -2
340
0
 93
        0
 40
0.045
309
GRIDFORMAT_END
 95
       32
302
GRIDFORMAT
  1
GRIDFORMAT_BEGIN
 90
       26
 91
        1
 62
     0
 92
       -2
340
0
 93
        0
 40
0.045
309
GRIDFORMAT_END
309
TABLEFORMAT_END
309
FORMATTEDTABLEDATACELL_END
  1
TABLECELL_BEGIN
 90
        0
 91
        0
309
TABLECELL_END
 91
        0
301
CUSTOMDATA
  1
DATAMAP_BEGIN
 90
        0
309
DATAMAP_END
309
LINKEDTABLEDATAROW_END
  1
FORMATTEDTABLEDATAROW_BEGIN
300
ROWTABLEFORMAT
  1
TABLEFORMAT_BEGIN
 90
        2
170
     0
309
TABLEFORMAT_END
309
FORMATTEDTABLEDATAROW_END
  1
TABLEROW_BEGIN
 90
        1
 40
6.0
309
TABLEROW_END
301
ROW
  1
LINKEDTABLEDATAROW_BEGIN
 90
        5
300
CELL
  1
LINKEDTABLEDATACELL_BEGIN
 90
        0
300

 91
        0
301
CUSTOMDATA
  1
DATAMAP_BEGIN
 90
        0
309
DATAMAP_END
 92
        0
 95
        0
309
LINKEDTABLEDATACELL_END
  1
FORMATTEDTABLEDATACELL_BEGIN
300
CELLTABLEFORMAT
  1
TABLEFORMAT_BEGIN
 90
        1
170
     1
 91
        0
 92
        0
 62
   257
 93
        1
300
CONTENTFORMAT
  1
CONTENTFORMAT_BEGIN
 90
        0
 91
        0
 92
      512
 93
        0
300

 40
0.0
140
1.0
 94
        1
 62
     0
340
0
144
0.18
309
CONTENTFORMAT_END
171
     0
 94
        0
309
TABLEFORMAT_END
309
FORMATTEDTABLEDATACELL_END
  1
TABLECELL_BEGIN
 90
        0
 91
        0
309
TABLECELL_END
300
CELL
  1
LINKEDTABLEDATACELL_BEGIN
 90
        0
300

 91
        0
301
CUSTOMDATA
  1
DATAMAP_BEGIN
 90
        0
309
DATAMAP_END
 92
        0
 95
        0
309
LINKEDTABLEDATACELL_END
  1
FORMATTEDTABLEDATACELL_BEGIN
300
CELLTABLEFORMAT
  1
TABLEFORMAT_BEGIN
 90
        1
170
     1
 91
        0
 92
        0
 62
   257
 93
        1
300
CONTENTFORMAT
  1
CONTENTFORMAT_BEGIN
 90
        0
 91
        0
 92
      512
 93
        0
300

 40
0.0
140
1.0
 94
        1
 62
     0
340
0
144
0.18
309
CONTENTFORMAT_END
171
     0
 94
        0
309
TABLEFORMAT_END
309
FORMATTEDTABLEDATACELL_END
  1
TABLECELL_BEGIN
 90
        0
 91
        0
309
TABLECELL_END
300
CELL
  1
LINKEDTABLEDATACELL_BEGIN
 90
        0
300

 91
        0
301
CUSTOMDATA
  1
DATAMAP_BEGIN
 90
        0
309
DATAMAP_END
 92
        0
 95
        0
309
LINKEDTABLEDATACELL_END
  1
FORMATTEDTABLEDATACELL_BEGIN
300
CELLTABLEFORMAT
  1
TABLEFORMAT_BEGIN
 90
        1
170
     1
 91
        0
 92
        0
 62
   257
 93
        1
300
CONTENTFORMAT
  1
CONTENTFORMAT_BEGIN
 90
        0
 91
        0
 92
      512
 93
        0
300

 40
0.0
140
1.0
 94
        1
 62
     0
340
0
144
0.18
309
CONTENTFORMAT_END
171
     0
 94
        0
309
TABLEFORMAT_END
309
FORMATTEDTABLEDATACELL_END
  1
TABLECELL_BEGIN
 90
        0
 91
        0
309
TABLECELL_END
300
CELL
  1
LINKEDTABLEDATACELL_BEGIN
 90
        0
300

 91
        0
301
CUSTOMDATA
  1
DATAMAP_BEGIN
 90
        1
300
ACAD_ROUNDTRIP_2008_CELL_CHECKSUM
301
DATAMAP_VALUE
 93
        2
 90
        2
140
3105.0
 94
        0
300

302

304
ACVALUE_END
309
DATAMAP_END
 92
        0
 95
        1
302
CONTENT
  1
CELLCONTENT_BEGIN
 90
        1
300
VALUE
 93
        2
 90
        4
  1
Scale:1:1
 94
        0
300

302
Scale:1:1
304
ACVALUE_END
 91
        0
309
CELLCONTENT_END
  1
FORMATTEDCELLCONTENT_BEGIN
170
     1
300
CONTENTFORMAT
  1
CONTENTFORMAT_BEGIN
 90
      196
 91
        0
 92
      512
 93
        0
300

 40
0.0
140
1.0
 94
        1
 62
     0
340
229
144
3.5
309
CONTENTFORMAT_END
309
FORMATTEDCELLCONTENT_END
309
LINKEDTABLEDATACELL_END
  1
FORMATTEDTABLEDATACELL_BEGIN
300
CELLTABLEFORMAT
  1
TABLEFORMAT_BEGIN
 90
        1
170
     1
 91
       16
 92
        0
 62
   257
 93
        1
300
CONTENTFORMAT
  1
CONTENTFORMAT_BEGIN
 90
       16
 91
        0
 92
      512
 93
        0
300

 40
0.0
140
1.0
 94
        1
 62
     0
340
0
144
0.18
309
CONTENTFORMAT_END
171
     0
 94
        4
 95
        1
302
GRIDFORMAT
  1
GRIDFORMAT_BEGIN
 90
       26
 91
        1
 62
     0
 92
       -2
340
0
 93
        0
 40
0.045
309
GRIDFORMAT_END
 95
        4
302
GRIDFORMAT
  1
GRIDFORMAT_BEGIN
 90
       26
 91
        1
 62
     0
 92
       -2
340
0
 93
        0
 40
0.045
309
GRIDFORMAT_END
 95
        8
302
GRIDFORMAT
  1
GRIDFORMAT_BEGIN
 90
       26
 91
        1
 62
     0
 92
       -2
340
0
 93
        0
 40
0.045
309
GRIDFORMAT_END
 95
       32
302
GRIDFORMAT
  1
GRIDFORMAT_BEGIN
 90
       26
 91
        1
 62
     0
 92
       -2
340
0
 93
        0
 40
0.045
309
GRIDFORMAT_END
309
TABLEFORMAT_END
309
FORMATTEDTABLEDATACELL_END
  1
TABLECELL_BEGIN
 90
        0
 91
        0
309
TABLECELL_END
300
CELL
  1
LINKEDTABLEDATACELL_BEGIN
 90
        0
300

 91
        0
301
CUSTOMDATA
  1
DATAMAP_BEGIN
 90
        1
300
ACAD_ROUNDTRIP_2008_CELL_CHECKSUM
301
DATAMAP_VALUE
 93
        2
 90
        2
140
167.0
 94
        0
300

302

304
ACVALUE_END
309
DATAMAP_END
 92
        0
 95
        1
302
CONTENT
  1
CELLCONTENT_BEGIN
 90
        1
300
VALUE
 93
        2
 90
        4
  1
A3
 94
        0
300

302
A3
304
ACVALUE_END
 91
        0
309
CELLCONTENT_END
  1
FORMATTEDCELLCONTENT_BEGIN
170
     1
300
CONTENTFORMAT
  1
CONTENTFORMAT_BEGIN
 90
      196
 91
        0
 92
      512
 93
        0
300

 40
0.0
140
1.0
 94
        1
 62
     0
340
229
144
3.5
309
CONTENTFORMAT_END
309
FORMATTEDCELLCONTENT_END
309
LINKEDTABLEDATACELL_END
  1
FORMATTEDTABLEDATACELL_BEGIN
300
CELLTABLEFORMAT
  1
TABLEFORMAT_BEGIN
 90
        1
170
     1
 91
       16
 92
        0
 62
   257
 93
        1
300
CONTENTFORMAT
  1
CONTENTFORMAT_BEGIN
 90
       16
 91
        0
 92
      512
 93
        0
300

 40
0.0
140
1.0
 94
        4
 62
     0
340
0
144
0.18
309
CONTENTFORMAT_END
171
     0
 94
        4
 95
        1
302
GRIDFORMAT
  1
GRIDFORMAT_BEGIN
 90
       26
 91
        1
 62
     0
 92
       -2
340
0
 93
        0
 40
0.045
309
GRIDFORMAT_END
 95
        4
302
GRIDFORMAT
  1
GRIDFORMAT_BEGIN
 90
       26
 91
        1
 62
     0
 92
       -2
340
0
 93
        0
 40
0.045
309
GRIDFORMAT_END
 95
        8
302
GRIDFORMAT
  1
GRIDFORMAT_BEGIN
 90
       26
 91
        1
 62
     0
 92
       -2
340
0
 93
        0
 40
0.045
309
GRIDFORMAT_END
 95
       32
302
GRIDFORMAT
  1
GRIDFORMAT_BEGIN
 90
       26
 91
        1
 62
     0
 92
       -2
340
0
 93
        0
 40
0.045
309
GRIDFORMAT_END
309
TABLEFORMAT_END
309
FORMATTEDTABLEDATACELL_END
  1
TABLECELL_BEGIN
 90
        0
 91
        0
309
TABLECELL_END
 91
        0
301
CUSTOMDATA
  1
DATAMAP_BEGIN
 90
        0
309
DATAMAP_END
309
LINKEDTABLEDATAROW_END
  1
FORMATTEDTABLEDATAROW_BEGIN
300
ROWTABLEFORMAT
  1
TABLEFORMAT_BEGIN
 90
        2
170
     0
309
TABLEFORMAT_END
309
FORMATTEDTABLEDATAROW_END
  1
TABLEROW_BEGIN
 90
        2
 40
6.0
309
TABLEROW_END
301
ROW
  1
LINKEDTABLEDATAROW_BEGIN
 90
        5
300
CELL
  1
LINKEDTABLEDATACELL_BEGIN
 90
        0
300

 91
        0
301
CUSTOMDATA
  1
DATAMAP_BEGIN
 90
        0
309
DATAMAP_END
 92
        0
 95
        0
309
LINKEDTABLEDATACELL_END
  1
FORMATTEDTABLEDATACELL_BEGIN
300
CELLTABLEFORMAT
  1
TABLEFORMAT_BEGIN
 90
        1
170
     1
 91
        0
 92
        0
 62
   257
 93
        1
300
CONTENTFORMAT
  1
CONTENTFORMAT_BEGIN
 90
        0
 91
        0
 92
      512
 93
        0
300

 40
0.0
140
1.0
 94
        1
 62
     0
340
0
144
0.18
309
CONTENTFORMAT_END
171
     0
 94
        0
309
TABLEFORMAT_END
309
FORMATTEDTABLEDATACELL_END
  1
TABLECELL_BEGIN
 90
        0
 91
        0
309
TABLECELL_END
300
CELL
  1
LINKEDTABLEDATACELL_BEGIN
 90
        0
300

 91
        0
301
CUSTOMDATA
  1
DATAMAP_BEGIN
 90
        0
309
DATAMAP_END
 92
        0
 95
        0
309
LINKEDTABLEDATACELL_END
  1
FORMATTEDTABLEDATACELL_BEGIN
300
CELLTABLEFORMAT
  1
TABLEFORMAT_BEGIN
 90
        1
170
     1
 91
        0
 92
        0
 62
   257
 93
        1
300
CONTENTFORMAT
  1
CONTENTFORMAT_BEGIN
 90
        0
 91
        0
 92
      512
 93
        0
300

 40
0.0
140
1.0
 94
        1
 62
     0
340
0
144
0.18
309
CONTENTFORMAT_END
171
     0
 94
        0
309
TABLEFORMAT_END
309
FORMATTEDTABLEDATACELL_END
  1
TABLECELL_BEGIN
 90
        0
 91
        0
309
TABLECELL_END
300
CELL
  1
LINKEDTABLEDATACELL_BEGIN
 90
        0
300

 91
        0
301
CUSTOMDATA
  1
DATAMAP_BEGIN
 90
        0
309
DATAMAP_END
 92
        0
 95
        0
309
LINKEDTABLEDATACELL_END
  1
FORMATTEDTABLEDATACELL_BEGIN
300
CELLTABLEFORMAT
  1
TABLEFORMAT_BEGIN
 90
        1
170
     1
 91
        0
 92
        0
 62
   257
 93
        1
300
CONTENTFORMAT
  1
CONTENTFORMAT_BEGIN
 90
        0
 91
        0
 92
      512
 93
        0
300

 40
0.0
140
1.0
 94
        1
 62
     0
340
0
144
0.18
309
CONTENTFORMAT_END
171
     0
 94
        0
309
TABLEFORMAT_END
309
FORMATTEDTABLEDATACELL_END
  1
TABLECELL_BEGIN
 90
        0
 91
        0
309
TABLECELL_END
300
CELL
  1
LINKEDTABLEDATACELL_BEGIN
 90
        0
300

 91
        0
301
CUSTOMDATA
  1
DATAMAP_BEGIN
 90
        1
300
ACAD_ROUNDTRIP_2008_CELL_CHECKSUM
301
DATAMAP_VALUE
 93
        2
 90
        2
140
2398.0
 94
        0
300

302

304
ACVALUE_END
309
DATAMAP_END
 92
        0
 95
        1
302
CONTENT
  1
CELLCONTENT_BEGIN
 90
        1
300
VALUE
 93
        2
 90
        4
  1
KOCCA 1.4
 94
        0
300

302
KOCCA 1.4
304
ACVALUE_END
 91
        0
309
CELLCONTENT_END
  1
FORMATTEDCELLCONTENT_BEGIN
170
     1
300
CONTENTFORMAT
  1
CONTENTFORMAT_BEGIN
 90
      196
 91
        0
 92
      512
 93
        0
300

 40
0.0
140
1.0
 94
        1
 62
     0
340
229
144
3.5
309
CONTENTFORMAT_END
309
FORMATTEDCELLCONTENT_END
309
LINKEDTABLEDATACELL_END
  1
FORMATTEDTABLEDATACELL_BEGIN
300
CELLTABLEFORMAT
  1
TABLEFORMAT_BEGIN
 90
        1
170
     1
 91
       16
 92
        0
 62
   257
 93
        1
300
CONTENTFORMAT
  1
CONTENTFORMAT_BEGIN
 90
       16
 91
        0
 92
      512
 93
        0
300

 40
0.0
140
1.0
 94
        4
 62
     0
340
0
144
0.18
309
CONTENTFORMAT_END
171
     0
 94
        4
 95
        1
302
GRIDFORMAT
  1
GRIDFORMAT_BEGIN
 90
       26
 91
        1
 62
     0
 92
       -2
340
0
 93
        0
 40
0.045
309
GRIDFORMAT_END
 95
        4
302
GRIDFORMAT
  1
GRIDFORMAT_BEGIN
 90
       26
 91
        1
 62
     0
 92
       -2
340
0
 93
        0
 40
0.045
309
GRIDFORMAT_END
 95
        8
302
GRIDFORMAT
  1
GRIDFORMAT_BEGIN
 90
       26
 91
        1
 62
     0
 92
       -2
340
0
 93
        0
 40
0.045
309
GRIDFORMAT_END
 95
       32
302
GRIDFORMAT
  1
GRIDFORMAT_BEGIN
 90
       26
 91
        1
 62
     0
 92
       -2
340
0
 93
        0
 40
0.045
309
GRIDFORMAT_END
309
TABLEFORMAT_END
309
FORMATTEDTABLEDATACELL_END
  1
TABLECELL_BEGIN
 90
        0
 91
        0
309
TABLECELL_END
300
CELL
  1
LINKEDTABLEDATACELL_BEGIN
 90
        0
300

 91
        0
301
CUSTOMDATA
  1
DATAMAP_BEGIN
 90
        0
309
DATAMAP_END
 92
        0
 95
        0
309
LINKEDTABLEDATACELL_END
  1
FORMATTEDTABLEDATACELL_BEGIN
300
CELLTABLEFORMAT
  1
TABLEFORMAT_BEGIN
 90
        1
170
     1
 91
        0
 92
        0
 62
   257
 93
        1
300
CONTENTFORMAT
  1
CONTENTFORMAT_BEGIN
 90
        0
 91
        0
 92
      512
 93
        0
300

 40
0.0
140
1.0
 94
        1
 62
     0
340
0
144
0.18
309
CONTENTFORMAT_END
171
     0
 94
        0
309
TABLEFORMAT_END
309
FORMATTEDTABLEDATACELL_END
  1
TABLECELL_BEGIN
 90
        0
 91
        0
309
TABLECELL_END
 91
        0
301
CUSTOMDATA
  1
DATAMAP_BEGIN
 90
        0
309
DATAMAP_END
309
LINKEDTABLEDATAROW_END
  1
FORMATTEDTABLEDATAROW_BEGIN
300
ROWTABLEFORMAT
  1
TABLEFORMAT_BEGIN
 90
        2
170
     0
309
TABLEFORMAT_END
309
FORMATTEDTABLEDATAROW_END
  1
TABLEROW_BEGIN
 90
        3
 40
10.0
309
TABLEROW_END
301
ROW
  1
LINKEDTABLEDATAROW_BEGIN
 90
        5
300
CELL
  1
LINKEDTABLEDATACELL_BEGIN
 90
        0
300

 91
        0
301
CUSTOMDATA
  1
DATAMAP_BEGIN
 90
        0
309
DATAMAP_END
 92
        0
 95
        0
309
LINKEDTABLEDATACELL_END
  1
FORMATTEDTABLEDATACELL_BEGIN
300
CELLTABLEFORMAT
  1
TABLEFORMAT_BEGIN
 90
        1
170
     1
 91
        0
 92
        0
 62
   257
 93
        1
300
CONTENTFORMAT
  1
CONTENTFORMAT_BEGIN
 90
        0
 91
        0
 92
      512
 93
        0
300

 40
0.0
140
1.0
 94
        1
 62
     0
340
0
144
0.18
309
CONTENTFORMAT_END
171
     0
 94
        0
309
TABLEFORMAT_END
309
FORMATTEDTABLEDATACELL_END
  1
TABLECELL_BEGIN
 90
        0
 91
        0
309
TABLECELL_END
300
CELL
  1
LINKEDTABLEDATACELL_BEGIN
 90
        0
300

 91
        0
301
CUSTOMDATA
  1
DATAMAP_BEGIN
 90
        0
309
DATAMAP_END
 92
        0
 95
        0
309
LINKEDTABLEDATACELL_END
  1
FORMATTEDTABLEDATACELL_BEGIN
300
CELLTABLEFORMAT
  1
TABLEFORMAT_BEGIN
 90
        1
170
     1
 91
        0
 92
        0
 62
   257
 93
        1
300
CONTENTFORMAT
  1
CONTENTFORMAT_BEGIN
 90
        0
 91
        0
 92
      512
 93
        0
300

 40
0.0
140
1.0
 94
        1
 62
     0
340
0
144
0.18
309
CONTENTFORMAT_END
171
     0
 94
        0
309
TABLEFORMAT_END
309
FORMATTEDTABLEDATACELL_END
  1
TABLECELL_BEGIN
 90
        0
 91
        0
309
TABLECELL_END
300
CELL
  1
LINKEDTABLEDATACELL_BEGIN
 90
        0
300

 91
        0
301
CUSTOMDATA
  1
DATAMAP_BEGIN
 90
        0
309
DATAMAP_END
 92
        0
 95
        0
309
LINKEDTABLEDATACELL_END
  1
FORMATTEDTABLEDATACELL_BEGIN
300
CELLTABLEFORMAT
  1
TABLEFORMAT_BEGIN
 90
        1
170
     1
 91
        0
 92
        0
 62
   257
 93
        1
300
CONTENTFORMAT
  1
CONTENTFORMAT_BEGIN
 90
        0
 91
        0
 92
      512
 93
        0
300

 40
0.0
140
1.0
 94
        1
 62
     0
340
0
144
0.18
309
CONTENTFORMAT_END
171
     0
 94
        0
309
TABLEFORMAT_END
309
FORMATTEDTABLEDATACELL_END
  1
TABLECELL_BEGIN
 90
        0
 91
        0
309
TABLECELL_END
300
CELL
  1
LINKEDTABLEDATACELL_BEGIN
 90
        0
300

 91
        0
301
CUSTOMDATA
  1
DATAMAP_BEGIN
 90
        1
300
ACAD_ROUNDTRIP_2008_CELL_CHECKSUM
301
DATAMAP_VALUE
 93
        2
 90
        2
140
4781.0
 94
        0
300

302

304
ACVALUE_END
309
DATAMAP_END
 92
        0
 95
        1
302
CONTENT
  1
CELLCONTENT_BEGIN
 90
        1
300
VALUE
 93
        2
 90
        4
  1
DATE:27.03.14
 94
        0
300

302
DATE:27.03.14
304
ACVALUE_END
 91
        0
309
CELLCONTENT_END
  1
FORMATTEDCELLCONTENT_BEGIN
170
     1
300
CONTENTFORMAT
  1
CONTENTFORMAT_BEGIN
 90
      196
 91
        0
 92
      512
 93
        0
300

 40
0.0
140
1.0
 94
        1
 62
     0
340
229
144
2.5
309
CONTENTFORMAT_END
309
FORMATTEDCELLCONTENT_END
309
LINKEDTABLEDATACELL_END
  1
FORMATTEDTABLEDATACELL_BEGIN
300
CELLTABLEFORMAT
  1
TABLEFORMAT_BEGIN
 90
        1
170
     1
 91
       16
 92
        0
 62
   257
 93
        1
300
CONTENTFORMAT
  1
CONTENTFORMAT_BEGIN
 90
       16
 91
        0
 92
      512
 93
        0
300

 40
0.0
140
1.0
 94
        4
 62
     0
340
0
144
0.18
309
CONTENTFORMAT_END
171
     0
 94
        4
 95
        1
302
GRIDFORMAT
  1
GRIDFORMAT_BEGIN
 90
       26
 91
        1
 62
     0
 92
       -2
340
0
 93
        0
 40
0.045
309
GRIDFORMAT_END
 95
        4
302
GRIDFORMAT
  1
GRIDFORMAT_BEGIN
 90
       26
 91
        1
 62
     0
 92
       -2
340
0
 93
        0
 40
0.045
309
GRIDFORMAT_END
 95
        8
302
GRIDFORMAT
  1
GRIDFORMAT_BEGIN
 90
       26
 91
        1
 62
     0
 92
       -2
340
0
 93
        0
 40
0.045
309
GRIDFORMAT_END
 95
       32
302
GRIDFORMAT
  1
GRIDFORMAT_BEGIN
 90
       26
 91
        1
 62
     0
 92
       -2
340
0
 93
        0
 40
0.045
309
GRIDFORMAT_END
309
TABLEFORMAT_END
309
FORMATTEDTABLEDATACELL_END
  1
TABLECELL_BEGIN
 90
        0
 91
        0
309
TABLECELL_END
300
CELL
  1
LINKEDTABLEDATACELL_BEGIN
 90
        0
300

 91
        0
301
CUSTOMDATA
  1
DATAMAP_BEGIN
 90
        0
309
DATAMAP_END
 92
        0
 95
        0
309
LINKEDTABLEDATACELL_END
  1
FORMATTEDTABLEDATACELL_BEGIN
300
CELLTABLEFORMAT
  1
TABLEFORMAT_BEGIN
 90
        1
170
     1
 91
        0
 92
        0
 62
   257
 93
        1
300
CONTENTFORMAT
  1
CONTENTFORMAT_BEGIN
 90
        0
 91
        0
 92
      512
 93
        0
300

 40
0.0
140
1.0
 94
        1
 62
     0
340
0
144
0.18
309
CONTENTFORMAT_END
171
     0
 94
        0
309
TABLEFORMAT_END
309
FORMATTEDTABLEDATACELL_END
  1
TABLECELL_BEGIN
 90
        0
 91
        0
309
TABLECELL_END
 91
        0
301
CUSTOMDATA
  1
DATAMAP_BEGIN
 90
        0
309
DATAMAP_END
309
LINKEDTABLEDATAROW_END
  1
FORMATTEDTABLEDATAROW_BEGIN
300
ROWTABLEFORMAT
  1
TABLEFORMAT_BEGIN
 90
        2
170
     0
309
TABLEFORMAT_END
309
FORMATTEDTABLEDATAROW_END
  1
TABLEROW_BEGIN
 90
        3
 40
5.0
309
TABLEROW_END
301
ROW
  1
LINKEDTABLEDATAROW_BEGIN
 90
        5
300
CELL
  1
LINKEDTABLEDATACELL_BEGIN
 90
        0
300

 91
        0
301
CUSTOMDATA
  1
DATAMAP_BEGIN
 90
        1
300
ACAD_ROUNDTRIP_2008_CELL_CHECKSUM
301
DATAMAP_VALUE
 93
        2
 90
        2
140
1361482.0
 94
        0
300

302

304
ACVALUE_END
309
DATAMAP_END
 92
        0
 95
        1
302
CONTENT
  1
CELLCONTENT_BEGIN
 90
        1
300
VALUE
 93
        2
 90
        4
  1
Any integral or partial reproductions are prohibited \Pwithout prior authorisation of L & L Luce & Light s.r.l., \Pin accordance with the law in force. \PAll rights reserved.
 94
        0
300

302
Any integral or partial reproductions are prohibited \Pwithout prior authorisation of L & L Luce & Light s.r.l., \Pin accordance with the law in force. \PAll rights reserved.
304
ACVALUE_END
 91
        0
309
CELLCONTENT_END
  1
FORMATTEDCELLCONTENT_BEGIN
170
     1
300
CONTENTFORMAT
  1
CONTENTFORMAT_BEGIN
 90
      196
 91
        0
 92
      512
 93
        0
300

 40
0.0
140
1.0
 94
        1
 62
     0
340
229
144
2.25
309
CONTENTFORMAT_END
309
FORMATTEDCELLCONTENT_END
309
LINKEDTABLEDATACELL_END
  1
FORMATTEDTABLEDATACELL_BEGIN
300
CELLTABLEFORMAT
  1
TABLEFORMAT_BEGIN
 90
        1
170
     1
 91
       16
 92
        0
 62
   257
 93
        1
300
CONTENTFORMAT
  1
CONTENTFORMAT_BEGIN
 90
       16
 91
        0
 92
      512
 93
        0
300

 40
0.0
140
1.0
 94
        4
 62
     0
340
0
144
0.18
309
CONTENTFORMAT_END
171
     0
 94
        4
 95
        1
302
GRIDFORMAT
  1
GRIDFORMAT_BEGIN
 90
       26
 91
        1
 62
     0
 92
       -2
340
0
 93
        0
 40
0.045
309
GRIDFORMAT_END
 95
        4
302
GRIDFORMAT
  1
GRIDFORMAT_BEGIN
 90
       26
 91
        1
 62
     0
 92
       -2
340
0
 93
        0
 40
0.045
309
GRIDFORMAT_END
 95
        8
302
GRIDFORMAT
  1
GRIDFORMAT_BEGIN
 90
       26
 91
        1
 62
     0
 92
       -2
340
0
 93
        0
 40
0.045
309
GRIDFORMAT_END
 95
       32
302
GRIDFORMAT
  1
GRIDFORMAT_BEGIN
 90
       26
 91
        1
 62
     0
 92
       -2
340
0
 93
        0
 40
0.045
309
GRIDFORMAT_END
309
TABLEFORMAT_END
309
FORMATTEDTABLEDATACELL_END
  1
TABLECELL_BEGIN
 90
        0
 91
        0
309
TABLECELL_END
300
CELL
  1
LINKEDTABLEDATACELL_BEGIN
 90
        0
300

 91
        0
301
CUSTOMDATA
  1
DATAMAP_BEGIN
 90
        0
309
DATAMAP_END
 92
        0
 95
        0
309
LINKEDTABLEDATACELL_END
  1
FORMATTEDTABLEDATACELL_BEGIN
300
CELLTABLEFORMAT
  1
TABLEFORMAT_BEGIN
 90
        1
170
     1
 91
        0
 92
        0
 62
   257
 93
        1
300
CONTENTFORMAT
  1
CONTENTFORMAT_BEGIN
 90
        0
 91
        0
 92
      512
 93
        0
300

 40
0.0
140
1.0
 94
        1
 62
     0
340
0
144
0.18
309
CONTENTFORMAT_END
171
     0
 94
        0
309
TABLEFORMAT_END
309
FORMATTEDTABLEDATACELL_END
  1
TABLECELL_BEGIN
 90
        0
 91
        0
309
TABLECELL_END
300
CELL
  1
LINKEDTABLEDATACELL_BEGIN
 90
        0
300

 91
        0
301
CUSTOMDATA
  1
DATAMAP_BEGIN
 90
        0
309
DATAMAP_END
 92
        0
 95
        0
309
LINKEDTABLEDATACELL_END
  1
FORMATTEDTABLEDATACELL_BEGIN
300
CELLTABLEFORMAT
  1
TABLEFORMAT_BEGIN
 90
        1
170
     1
 91
        0
 92
        0
 62
   257
 93
        1
300
CONTENTFORMAT
  1
CONTENTFORMAT_BEGIN
 90
        0
 91
        0
 92
      512
 93
        0
300

 40
0.0
140
1.0
 94
        1
 62
     0
340
0
144
0.18
309
CONTENTFORMAT_END
171
     0
 94
        0
309
TABLEFORMAT_END
309
FORMATTEDTABLEDATACELL_END
  1
TABLECELL_BEGIN
 90
        0
 91
        0
309
TABLECELL_END
300
CELL
  1
LINKEDTABLEDATACELL_BEGIN
 90
        0
300

 91
        0
301
CUSTOMDATA
  1
DATAMAP_BEGIN
 90
        0
309
DATAMAP_END
 92
        0
 95
        0
309
LINKEDTABLEDATACELL_END
  1
FORMATTEDTABLEDATACELL_BEGIN
300
CELLTABLEFORMAT
  1
TABLEFORMAT_BEGIN
 90
        1
170
     1
 91
        0
 92
        0
 62
   257
 93
        1
300
CONTENTFORMAT
  1
CONTENTFORMAT_BEGIN
 90
        0
 91
        0
 92
      512
 93
        0
300

 40
0.0
140
1.0
 94
        1
 62
     0
340
0
144
0.18
309
CONTENTFORMAT_END
171
     0
 94
        0
309
TABLEFORMAT_END
309
FORMATTEDTABLEDATACELL_END
  1
TABLECELL_BEGIN
 90
        0
 91
        0
309
TABLECELL_END
300
CELL
  1
LINKEDTABLEDATACELL_BEGIN
 90
        0
300

 91
        0
301
CUSTOMDATA
  1
DATAMAP_BEGIN
 90
        0
309
DATAMAP_END
 92
        0
 95
        0
309
LINKEDTABLEDATACELL_END
  1
FORMATTEDTABLEDATACELL_BEGIN
300
CELLTABLEFORMAT
  1
TABLEFORMAT_BEGIN
 90
        1
170
     1
 91
        0
 92
        0
 62
   257
 93
        1
300
CONTENTFORMAT
  1
CONTENTFORMAT_BEGIN
 90
        0
 91
        0
 92
      512
 93
        0
300

 40
0.0
140
1.0
 94
        1
 62
     0
340
0
144
0.18
309
CONTENTFORMAT_END
171
     0
 94
        0
309
TABLEFORMAT_END
309
FORMATTEDTABLEDATACELL_END
  1
TABLECELL_BEGIN
 90
        0
 91
        0
309
TABLECELL_END
 91
        0
301
CUSTOMDATA
  1
DATAMAP_BEGIN
 90
        0
309
DATAMAP_END
309
LINKEDTABLEDATAROW_END
  1
FORMATTEDTABLEDATAROW_BEGIN
300
ROWTABLEFORMAT
  1
TABLEFORMAT_BEGIN
 90
        2
170
     0
309
TABLEFORMAT_END
309
FORMATTEDTABLEDATAROW_END
  1
TABLEROW_BEGIN
 90
        3
 40
13.0
309
TABLEROW_END
100
AcDbFormattedTableData
300
TABLEFORMAT
  1
TABLEFORMAT_BEGIN
 90
        4
170
     1
 91
    15360
 92
        0
 62
   257
 93
        1
300
CONTENTFORMAT
  1
CONTENTFORMAT_BEGIN
 90
        0
 91
        0
 92
      512
 93
        0
300

 40
0.0
140
1.0
 94
        1
 62
     0
340
0
144
0.18
309
CONTENTFORMAT_END
171
     1
301
MARGIN
  1
CELLMARGIN_BEGIN
 40
0.06
 40
0.06
 40
0.06
 40
0.06
 40
0.06
 40
0.06
309
CELLMARGIN_END
 94
        0
309
TABLEFORMAT_END
 90
        4
 91
        0
 92
        0
 93
        3
 94
        2
 91
        2
 92
        3
 93
        2
 94
        4
 91
        3
 92
        3
 93
        3
 94
        4
 91
        4
 92
        0
 93
        4
 94
        4
100
AcDbTableContent
340
4E1
  0
TABLEGEOMETRY
  5
4F5
330
4F7
100
AcDbTableGeometry
 90
        5
 91
        5
 92
       25
 93
        0
 40
0.0
 41
0.0
330
0
 94
        0
 93
        0
 40
0.0
 41
0.0
330
0
 94
        0
 93
        0
 40
0.0
 41
0.0
330
0
 94
        0
 93
        0
 40
0.0
 41
0.0
330
0
 94
        0
 93
        0
 40
0.0
 41
0.0
330
0
 94
        0
 93
        0
 40
0.0
 41
0.0
330
0
 94
        0
 93
        0
 40
0.0
 41
0.0
330
0
 94
        0
 93
        0
 40
0.0
 41
0.0
330
0
 94
        0
 93
        0
 40
0.0
 41
0.0
330
0
 94
        0
 93
        0
 40
0.0
 41
0.0
330
0
 94
        0
 93
        0
 40
0.0
 41
0.0
330
0
 94
        0
 93
        0
 40
0.0
 41
0.0
330
0
 94
        0
 93
        0
 40
0.0
 41
0.0
330
0
 94
        0
 93
        0
 40
0.0
 41
0.0
330
0
 94
        0
 93
        0
 40
0.0
 41
0.0
330
0
 94
        0
 93
        0
 40
0.0
 41
0.0
330
0
 94
        0
 93
        0
 40
0.0
 41
0.0
330
0
 94
        0
 93
        0
 40
0.0
 41
0.0
330
0
 94
        0
 93
        0
 40
0.0
 41
0.0
330
0
 94
        0
 93
        0
 40
0.0
 41
0.0
330
0
 94
        0
 93
        0
 40
0.0
 41
0.0
330
0
 94
        0
 93
        0
 40
0.0
 41
0.0
330
0
 94
        0
 93
        0
 40
0.0
 41
0.0
330
0
 94
        0
 93
        0
 40
0.0
 41
0.0
330
0
 94
        0
 93
        0
 40
0.0
 41
0.0
330
0
 94
        0
  0
DICTIONARY
  5
4FA
330
4E1
100
AcDbDictionary
280
     1
281
     1
  3
ACAD_ROUNDTRIP_2008_TABLESTYLE_CELLSTYLEMAP
360
4FB
  0
CELLSTYLEMAP
  5
4FB
102
{ACAD_REACTORS
330
4FA
102
}
330
4FA
100
AcDbCellStyleMap
 90
        3
300
CELLSTYLE
  1
TABLEFORMAT_BEGIN
 90
        5
170
     1
 91
        0
 92
        0
 62
   257
 93
        1
300
CONTENTFORMAT
  1
CONTENTFORMAT_BEGIN
 90
        0
 91
        0
 92
        4
 93
        0
300

 40
0.0
140
1.0
 94
        5
 62
     0
340
11
144
6.0
309
CONTENTFORMAT_END
171
     1
301
MARGIN
  1
CELLMARGIN_BEGIN
 40
1.5
 40
1.5
 40
1.5
 40
1.5
 40
1.5
 40
1.5
309
CELLMARGIN_END
 94
        6
 95
        1
302
GRIDFORMAT
  1
GRIDFORMAT_BEGIN
 90
        0
 91
        1
 62
     0
 92
       -2
340
14
 93
        0
 40
0.045
309
GRIDFORMAT_END
 95
        2
302
GRIDFORMAT
  1
GRIDFORMAT_BEGIN
 90
        0
 91
        1
 62
     0
 92
       -2
340
14
 93
        0
 40
0.045
309
GRIDFORMAT_END
 95
        4
302
GRIDFORMAT
  1
GRIDFORMAT_BEGIN
 90
        0
 91
        1
 62
     0
 92
       -2
340
14
 93
        0
 40
0.045
309
GRIDFORMAT_END
 95
        8
302
GRIDFORMAT
  1
GRIDFORMAT_BEGIN
 90
        0
 91
        1
 62
     0
 92
       -2
340
14
 93
        0
 40
0.045
309
GRIDFORMAT_END
 95
       16
302
GRIDFORMAT
  1
GRIDFORMAT_BEGIN
 90
        0
 91
        1
 62
     0
 92
       -2
340
14
 93
        0
 40
0.045
309
GRIDFORMAT_END
 95
       32
302
GRIDFORMAT
  1
GRIDFORMAT_BEGIN
 90
        0
 91
        1
 62
     0
 92
       -2
340
14
 93
        0
 40
0.045
309
GRIDFORMAT_END
309
TABLEFORMAT_END
  1
CELLSTYLE_BEGIN
 90
        1
 91
        1
300
_TITLE
309
CELLSTYLE_END
300
CELLSTYLE
  1
TABLEFORMAT_BEGIN
 90
        5
170
     1
 91
        0
 92
        0
 62
   257
 93
        1
300
CONTENTFORMAT
  1
CONTENTFORMAT_BEGIN
 90
        0
 91
        0
 92
        4
 93
        0
300

 40
0.0
140
1.0
 94
        5
 62
     0
340
11
144
4.5
309
CONTENTFORMAT_END
171
     1
301
MARGIN
  1
CELLMARGIN_BEGIN
 40
1.5
 40
1.5
 40
1.5
 40
1.5
 40
1.5
 40
1.5
309
CELLMARGIN_END
 94
        6
 95
        1
302
GRIDFORMAT
  1
GRIDFORMAT_BEGIN
 90
        0
 91
        1
 62
     0
 92
       -2
340
14
 93
        0
 40
0.045
309
GRIDFORMAT_END
 95
        2
302
GRIDFORMAT
  1
GRIDFORMAT_BEGIN
 90
        0
 91
        1
 62
     0
 92
       -2
340
14
 93
        0
 40
0.045
309
GRIDFORMAT_END
 95
        4
302
GRIDFORMAT
  1
GRIDFORMAT_BEGIN
 90
        0
 91
        1
 62
     0
 92
       -2
340
14
 93
        0
 40
0.045
309
GRIDFORMAT_END
 95
        8
302
GRIDFORMAT
  1
GRIDFORMAT_BEGIN
 90
        0
 91
        1
 62
     0
 92
       -2
340
14
 93
        0
 40
0.045
309
GRIDFORMAT_END
 95
       16
302
GRIDFORMAT
  1
GRIDFORMAT_BEGIN
 90
        0
 91
        1
 62
     0
 92
       -2
340
14
 93
        0
 40
0.045
309
GRIDFORMAT_END
 95
       32
302
GRIDFORMAT
  1
GRIDFORMAT_BEGIN
 90
        0
 91
        1
 62
     0
 92
       -2
340
14
 93
        0
 40
0.045
309
GRIDFORMAT_END
309
TABLEFORMAT_END
  1
CELLSTYLE_BEGIN
 90
        2
 91
        1
300
_HEADER
309
CELLSTYLE_END
300
CELLSTYLE
  1
TABLEFORMAT_BEGIN
 90
        5
170
     1
 91
        0
 92
        0
 62
   257
 93
        1
300
CONTENTFORMAT
  1
CONTENTFORMAT_BEGIN
 90
        0
 91
        0
 92
        4
 93
        0
300

 40
0.0
140
1.0
 94
        2
 62
     0
340
11
144
4.5
309
CONTENTFORMAT_END
171
     1
301
MARGIN
  1
CELLMARGIN_BEGIN
 40
1.5
 40
1.5
 40
1.5
 40
1.5
 40
1.5
 40
1.5
309
CELLMARGIN_END
 94
        6
 95
        1
302
GRIDFORMAT
  1
GRIDFORMAT_BEGIN
 90
        0
 91
        1
 62
     0
 92
       -2
340
14
 93
        0
 40
0.045
309
GRIDFORMAT_END
 95
        2
302
GRIDFORMAT
  1
GRIDFORMAT_BEGIN
 90
        0
 91
        1
 62
     0
 92
       -2
340
14
 93
        0
 40
0.045
309
GRIDFORMAT_END
 95
        4
302
GRIDFORMAT
  1
GRIDFORMAT_BEGIN
 90
        0
 91
        1
 62
     0
 92
       -2
340
14
 93
        0
 40
0.045
309
GRIDFORMAT_END
 95
        8
302
GRIDFORMAT
  1
GRIDFORMAT_BEGIN
 90
        0
 91
        1
 62
     0
 92
       -2
340
14
 93
        0
 40
0.045
309
GRIDFORMAT_END
 95
       16
302
GRIDFORMAT
  1
GRIDFORMAT_BEGIN
 90
        0
 91
        1
 62
     0
 92
       -2
340
14
 93
        0
 40
0.045
309
GRIDFORMAT_END
 95
       32
302
GRIDFORMAT
  1
GRIDFORMAT_BEGIN
 90
        0
 91
        1
 62
     0
 92
       -2
340
14
 93
        0
 40
0.045
309
GRIDFORMAT_END
309
TABLEFORMAT_END
  1
CELLSTYLE_BEGIN
 90
        3
 91
        2
300
_DATA
309
CELLSTYLE_END
  0
ENDSEC
  0
EOF
