  0
SECTION
  2
HEADER
  9
$ACADVER
  1
AC1027
  9
$ACADMAINTVER
 70
     8
  9
$DWGCODEPAGE
  3
ANSI_1252
  9
$REQUIREDVERSIONS
160
                 0
  9
$INSBASE
 10
0.0
 20
0.0
 30
0.0
  9
$EXTMIN
 10
0.0
 20
0.0
 30
0.0
  9
$EXTMAX
 10
420.0
 20
297.0
 30
0.0
  9
$LIMMIN
 10
0.0
 20
0.0
  9
$LIMMAX
 10
420.0
 20
297.0
  9
$ORTHOMODE
 70
     0
  9
$REGENMODE
 70
     1
  9
$FILLMODE
 70
     1
  9
$QTEXTMODE
 70
     0
  9
$MIRRTEXT
 70
     1
  9
$LTSCALE
 40
23.1
  9
$ATTMODE
 70
     1
  9
$TEXTSIZE
 40
0.2
  9
$TRACEWID
 40
0.05
  9
$TEXTSTYLE
  7
STANDARD
  9
$CLAYER
  8
0
  9
$CELTYPE
  6
BYLAYER
  9
$CECOLOR
 62
   256
  9
$CELTSCALE
 40
1.0
  9
$DISPSILH
 70
     0
  9
$DIMSCALE
 40
1.0
  9
$DIMASZ
 40
2.5
  9
$DIMEXO
 40
0.75
  9
$DIMDLI
 40
15.96
  9
$DIMRND
 40
0.0
  9
$DIMDLE
 40
0.0
  9
$DIMEXE
 40
0.75
  9
$DIMTP
 40
0.01
  9
$DIMTM
 40
0.01
  9
$DIMTXT
 40
3.0
  9
$DIMCEN
 40
3.78
  9
$DIMTSZ
 40
0.0
  9
$DIMTOL
 70
     1
  9
$DIMLIM
 70
     0
  9
$DIMTIH
 70
     1
  9
$DIMTOH
 70
     1
  9
$DIMSE1
 70
     0
  9
$DIMSE2
 70
     0
  9
$DIMTAD
 70
     0
  9
$DIMZIN
 70
     0
  9
$DIMBLK
  1
CLOSED
  9
$DIMASO
 70
     1
  9
$DIMSHO
 70
     1
  9
$DIMPOST
  1

  9
$DIMAPOST
  1

  9
$DIMALT
 70
     0
  9
$DIMALTD
 70
     2
  9
$DIMALTF
 40
25.4
  9
$DIMLFAC
 40
1.0
  9
$DIMTOFL
 70
     0
  9
$DIMTVP
 40
0.0
  9
$DIMTIX
 70
     0
  9
$DIMSOXD
 70
     0
  9
$DIMSAH
 70
     0
  9
$DIMBLK1
  1

  9
$DIMBLK2
  1

  9
$DIMSTYLE
  2
STANDARD
  9
$DIMCLRD
 70
     0
  9
$DIMCLRE
 70
     0
  9
$DIMCLRT
 70
     0
  9
$DIMTFAC
 40
1.0
  9
$DIMGAP
 40
0.625
  9
$DIMJUST
 70
     0
  9
$DIMSD1
 70
     0
  9
$DIMSD2
 70
     0
  9
$DIMTOLJ
 70
     1
  9
$DIMTZIN
 70
     0
  9
$DIMALTZ
 70
     0
  9
$DIMALTTZ
 70
     0
  9
$DIMUPT
 70
     0
  9
$DIMDEC
 70
     4
  9
$DIMTDEC
 70
     4
  9
$DIMALTU
 70
     2
  9
$DIMALTTD
 70
     2
  9
$DIMTXSTY
  7
STANDARD
  9
$DIMAUNIT
 70
     0
  9
$DIMADEC
 70
     0
  9
$DIMALTRND
 40
0.0
  9
$DIMAZIN
 70
     0
  9
$DIMDSEP
 70
    44
  9
$DIMATFIT
 70
     3
  9
$DIMFRAC
 70
     0
  9
$DIMLDRBLK
  1

  9
$DIMLUNIT
 70
     2
  9
$DIMLWD
 70
    -2
  9
$DIMLWE
 70
    -2
  9
$DIMTMOVE
 70
     0
  9
$DIMFXL
 40
1.0
  9
$DIMFXLON
 70
     0
  9
$DIMJOGANG
 40
0.785398
  9
$DIMTFILL
 70
     0
  9
$DIMTFILLCLR
 70
     0
  9
$DIMARCSYM
 70
     0
  9
$DIMLTYPE
  6

  9
$DIMLTEX1
  6

  9
$DIMLTEX2
  6

  9
$DIMTXTDIRECTION
 70
     0
  9
$LUNITS
 70
     2
  9
$LUPREC
 70
     4
  9
$SKETCHINC
 40
0.1
  9
$FILLETRAD
 40
0.5
  9
$AUNITS
 70
     0
  9
$AUPREC
 70
     0
  9
$MENU
  1
.
  9
$ELEVATION
 40
0.0
  9
$PELEVATION
 40
0.0
  9
$THICKNESS
 40
0.0
  9
$LIMCHECK
 70
     0
  9
$CHAMFERA
 40
0.0
  9
$CHAMFERB
 40
0.0
  9
$CHAMFERC
 40
0.0
  9
$CHAMFERD
 40
0.0
  9
$SKPOLY
 70
     0
  9
$TDCREATE
 40
2447893.083333333
  9
$TDUCREATE
 40
0.0
  9
$TDUPDATE
 40
2460486.38145206
  9
$TDUUPDATE
 40
2460486.298118727
  9
$TDINDWG
 40
0.0
  9
$TDUSRTIMER
 40
0.0
  9
$USRTIMER
 70
     1
  9
$ANGBASE
 50
0.0
  9
$ANGDIR
 70
     0
  9
$PDMODE
 70
     3
  9
$PDSIZE
 40
0.3125
  9
$PLINEWID
 40
0.0
  9
$SPLFRAME
 70
     0
  9
$SPLINETYPE
 70
     6
  9
$SPLINESEGS
 70
     8
  9
$HANDSEED
  5
4B1
  9
$SURFTAB1
 70
     6
  9
$SURFTAB2
 70
     6
  9
$SURFTYPE
 70
     6
  9
$SURFU
 70
     6
  9
$SURFV
 70
     6
  9
$UCSBASE
  2

  9
$UCSNAME
  2

  9
$UCSORG
 10
0.0
 20
0.0
 30
0.0
  9
$UCSXDIR
 10
1.0
 20
0.0
 30
0.0
  9
$UCSYDIR
 10
0.0
 20
1.0
 30
0.0
  9
$UCSORTHOREF
  2

  9
$UCSORTHOVIEW
 70
     0
  9
$UCSORGTOP
 10
0.0
 20
0.0
 30
0.0
  9
$UCSORGBOTTOM
 10
0.0
 20
0.0
 30
0.0
  9
$UCSORGLEFT
 10
0.0
 20
0.0
 30
0.0
  9
$UCSORGRIGHT
 10
0.0
 20
0.0
 30
0.0
  9
$UCSORGFRONT
 10
0.0
 20
0.0
 30
0.0
  9
$UCSORGBACK
 10
0.0
 20
0.0
 30
0.0
  9
$PUCSBASE
  2

  9
$PUCSNAME
  2

  9
$PUCSORG
 10
0.0
 20
0.0
 30
0.0
  9
$PUCSXDIR
 10
1.0
 20
0.0
 30
0.0
  9
$PUCSYDIR
 10
0.0
 20
1.0
 30
0.0
  9
$PUCSORTHOREF
  2

  9
$PUCSORTHOVIEW
 70
     0
  9
$PUCSORGTOP
 10
0.0
 20
0.0
 30
0.0
  9
$PUCSORGBOTTOM
 10
0.0
 20
0.0
 30
0.0
  9
$PUCSORGLEFT
 10
0.0
 20
0.0
 30
0.0
  9
$PUCSORGRIGHT
 10
0.0
 20
0.0
 30
0.0
  9
$PUCSORGFRONT
 10
0.0
 20
0.0
 30
0.0
  9
$PUCSORGBACK
 10
0.0
 20
0.0
 30
0.0
  9
$USERI1
 70
     0
  9
$USERI2
 70
     0
  9
$USERI3
 70
     0
  9
$USERI4
 70
     0
  9
$USERI5
 70
     0
  9
$USERR1
 40
0.0
  9
$USERR2
 40
0.0
  9
$USERR3
 40
0.0
  9
$USERR4
 40
0.0
  9
$USERR5
 40
0.0
  9
$WORLDVIEW
 70
     1
  9
$SHADEDGE
 70
     3
  9
$SHADEDIF
 70
    70
  9
$TILEMODE
 70
     0
  9
$MAXACTVP
 70
    64
  9
$PINSBASE
 10
0.0
 20
0.0
 30
0.0
  9
$PLIMCHECK
 70
     0
  9
$PEXTMIN
 10
1.000000E+20
 20
1.000000E+20
 30
1.000000E+20
  9
$PEXTMAX
 10
-1.000000E+20
 20
-1.000000E+20
 30
-1.000000E+20
  9
$PLIMMIN
 10
0.0
 20
0.0
  9
$PLIMMAX
 10
12.0
 20
9.0
  9
$UNITMODE
 70
     0
  9
$VISRETAIN
 70
     1
  9
$PLINEGEN
 70
     0
  9
$PSLTSCALE
 70
     0
  9
$TREEDEPTH
 70
  3020
  9
$CMLSTYLE
  2

  9
$CMLJUST
 70
     0
  9
$CMLSCALE
 40
1.0
  9
$PROXYGRAPHICS
 70
     1
  9
$MEASUREMENT
 70
     1
  9
$CELWEIGHT
370
    -1
  9
$ENDCAPS
280
     0
  9
$JOINSTYLE
280
     0
  9
$LWDISPLAY
290
     0
  9
$INSUNITS
 70
     4
  9
$HYPERLINKBASE
  1

  9
$STYLESHEET
  1

  9
$XEDIT
290
     1
  9
$CEPSNTYPE
380
     0
  9
$PSTYLEMODE
290
     1
  9
$FINGERPRINTGUID
  2
{F5D960F9-3560-4AFF-9BDB-9A40973CFC94}
  9
$VERSIONGUID
  2
{FAEB1C32-E019-11D5-929B-00C0DF256EC4}
  9
$EXTNAMES
290
     1
  9
$PSVPSCALE
 40
0.0
  9
$OLESTARTUP
290
     0
  9
$SORTENTS
280
   127
  9
$INDEXCTL
280
     0
  9
$HIDETEXT
280
     1
  9
$XCLIPFRAME
280
     2
  9
$HALOGAP
280
     0
  9
$OBSCOLOR
 70
   257
  9
$OBSLTYPE
280
     0
  9
$INTERSECTIONDISPLAY
280
     0
  9
$INTERSECTIONCOLOR
 70
   257
  9
$DIMASSOC
280
     2
  9
$PROJECTNAME
  1

  9
$CAMERADISPLAY
290
     0
  9
$LENSLENGTH
 40
50.0
  9
$CAMERAHEIGHT
 40
0.0
  9
$STEPSPERSEC
 40
2.0
  9
$STEPSIZE
 40
6.0
  9
$3DDWFPREC
 40
2.0
  9
$PSOLWIDTH
 40
0.25
  9
$PSOLHEIGHT
 40
4.0
  9
$LOFTANG1
 40
1.570796
  9
$LOFTANG2
 40
1.570796
  9
$LOFTMAG1
 40
0.0
  9
$LOFTMAG2
 40
0.0
  9
$LOFTPARAM
 70
     7
  9
$LOFTNORMALS
280
     1
  9
$LATITUDE
 40
37.795
  9
$LONGITUDE
 40
-122.394
  9
$NORTHDIRECTION
 40
0.0
  9
$TIMEZONE
 70
 -8000
  9
$LIGHTGLYPHDISPLAY
280
     1
  9
$TILEMODELIGHTSYNCH
280
     1
  9
$SOLIDHIST
280
     1
  9
$SHOWHIST
280
     1
  9
$DWFFRAME
280
     2
  9
$DGNFRAME
280
     2
  9
$REALWORLDSCALE
290
     1
  9
$INTERFERECOLOR
 62
   256
  9
$CSHADOW
280
     0
  9
$SHADOWPLANELOCATION
 40
0.0
  0
ENDSEC
  0
SECTION
  2
CLASSES
  0
CLASS
  1
ACDBDICTIONARYWDFLT
  2
AcDbDictionaryWithDefault
  3
ObjectDBX Classes
 90
        0
 91
        6
280
     0
281
     0
  0
CLASS
  1
ACDBPLACEHOLDER
  2
AcDbPlaceHolder
  3
ObjectDBX Classes
 90
        0
 91
        1
280
     0
281
     0
  0
CLASS
  1
LAYOUT
  2
AcDbLayout
  3
ObjectDBX Classes
 90
        0
 91
        1
280
     0
281
     0
  0
CLASS
  1
TABLESTYLE
  2
AcDbTableStyle
  3
ObjectDBX Classes
 90
     4095
 91
        5
280
     0
281
     0
  0
CLASS
  1
ACAD_TABLE
  2
AcDbTable
  3
ObjectDBX Classes
 90
     1025
 91
        5
280
     0
281
     1
  0
CLASS
  1
SCALE
  2
AcDbScale
  3
ObjectDBX Classes
 90
     1153
 91
        5
280
     0
281
     0
  0
CLASS
  1
VISUALSTYLE
  2
AcDbVisualStyle
  3
ObjectDBX Classes
 90
     4095
 91
        5
280
     0
281
     0
  0
CLASS
  1
TABLEGEOMETRY
  2
AcDbTableGeometry
  3
ObjectDBX Classes
 90
     1152
 91
        4
280
     0
281
     0
  0
CLASS
  1
MATERIAL
  2
AcDbMaterial
  3
ObjectDBX Classes
 90
     1153
 91
        5
280
     0
281
     0
  0
CLASS
  1
SUN
  2
AcDbSun
  3
SCENEOE
 90
     1153
 91
        5
280
     0
281
     0
  0
CLASS
  1
CSACDOCUMENTOPTIONS
  2
CDocDataContainer
  3
"DERU003_CSAPP"
 90
     4095
 91
        4
280
     0
281
     0
  0
CLASS
  1
TABLECONTENT
  2
AcDbTableContent
  3
ObjectDBX Classes
 90
     1152
 91
        4
280
     0
281
     0
  0
CLASS
  1
DICTIONARYVAR
  2
AcDbDictionaryVar
  3
ObjectDBX Classes
 90
        0
 91
        4
280
     0
281
     0
  0
CLASS
  1
CELLSTYLEMAP
  2
AcDbCellStyleMap
  3
ObjectDBX Classes
 90
     1152
 91
        4
280
     0
281
     0
  0
ENDSEC
  0
SECTION
  2
TABLES
  0
TABLE
  2
VPORT
  5
8
330
0
100
AcDbSymbolTable
 70
     1
  0
VPORT
  5
1F4
330
8
100
AcDbSymbolTableRecord
100
AcDbViewportTableRecord
  2
*ACTIVE
 70
     0
 10
0.0
 20
0.0
 11
1.0
 21
1.0
 12
210.0
 22
148.5
 13
0.0
 23
0.0
 14
1.0
 24
1.0
 15
0.0
 25
0.0
 16
0.0
 26
0.0
 36
1.0
 17
0.0
 27
0.0
 37
0.0
 40
297.0
 41
1.414141
 42
50.0
 43
0.0
 44
0.0
 50
0.0
 51
0.0
 71
     0
 72
   100
 73
     1
 74
     1
 75
     0
 76
     0
 77
     0
 78
     0
281
     0
 65
     1
110
0.0
120
0.0
130
0.0
111
1.0
121
0.0
131
0.0
112
0.0
122
1.0
132
0.0
 79
     0
146
0.0
348
47C
 60
     3
 61
     5
292
     1
282
     1
141
0.0
142
0.0
 63
   256
  0
ENDTAB
  0
TABLE
  2
LTYPE
  5
5
330
0
100
AcDbSymbolTable
 70
     6
  0
LTYPE
  5
14
330
5
100
AcDbSymbolTableRecord
100
AcDbLinetypeTableRecord
  2
BYBLOCK
 70
     0
  3

 72
    65
 73
     0
 40
0.0
  0
LTYPE
  5
15
330
5
100
AcDbSymbolTableRecord
100
AcDbLinetypeTableRecord
  2
BYLAYER
 70
     0
  3

 72
    65
 73
     0
 40
0.0
  0
LTYPE
  5
16
330
5
100
AcDbSymbolTableRecord
100
AcDbLinetypeTableRecord
  2
CONTINUOUS
 70
     0
  3
Solid line
 72
    65
 73
     0
 40
0.0
  0
LTYPE
  5
1F5
330
5
100
AcDbSymbolTableRecord
100
AcDbLinetypeTableRecord
  2
CENTER
 70
     0
  3
____ _ ____ _ ____ _ ____ _ ____ _ ____ _ ____
 72
    65
 73
     4
 40
0.6
 49
0.375
 74
     0
 49
-0.075
 74
     0
 49
0.075
 74
     0
 49
-0.075
 74
     0
  0
LTYPE
  5
1F6
330
5
100
AcDbSymbolTableRecord
100
AcDbLinetypeTableRecord
  2
HIDDEN
 70
     0
  3
- - - - - - - - - - - - - - - - - - - -
 72
    65
 73
     2
 40
0.2
 49
0.1
 74
     0
 49
-0.1
 74
     0
  0
LTYPE
  5
1F7
330
5
100
AcDbSymbolTableRecord
100
AcDbLinetypeTableRecord
  2
PHANTOM
 70
     0
  3
_____ _ _ _____ _ _ _____ _ _ _____
 72
    65
 73
     6
 40
0.8
 49
0.45
 74
     0
 49
-0.05
 74
     0
 49
0.1
 74
     0
 49
-0.05
 74
     0
 49
0.1
 74
     0
 49
-0.05
 74
     0
  0
LTYPE
  5
1F8
330
5
100
AcDbSymbolTableRecord
100
AcDbLinetypeTableRecord
  2
DOT
 70
     0
  3
. . . . . . . . . . . . . . . . . . . .
 72
    65
 73
     2
 40
0.2
 49
0.1
 74
     0
 49
-0.1
 74
     0
  0
LTYPE
  5
1F9
330
5
100
AcDbSymbolTableRecord
100
AcDbLinetypeTableRecord
  2
DASHED
 70
     0
  3
- - - - - - - - - - - - - - - - - - - -
 72
    65
 73
     2
 40
0.2
 49
0.1
 74
     0
 49
-0.1
 74
     0
  0
ENDTAB
  0
TABLE
  2
LAYER
  5
2
330
0
100
AcDbSymbolTable
 70
    45
  0
LAYER
  5
10
330
2
100
AcDbSymbolTableRecord
100
AcDbLayerTableRecord
  2
0
 70
     0
 62
     7
  6
CONTINUOUS
370
    -3
390
F
347
496
348
0
  0
LAYER
  5
1FA
330
2
100
AcDbSymbolTableRecord
100
AcDbLayerTableRecord
  2
DEFAULT_1
 70
     0
 62
     7
  6
CENTER
370
    -3
390
F
347
496
348
0
  0
LAYER
  5
1FB
330
2
100
AcDbSymbolTableRecord
100
AcDbLayerTableRecord
  2
DEFAULT_2
 70
     0
 62
     8
  6
HIDDEN
370
    -3
390
F
347
496
348
0
  0
LAYER
  5
1FC
330
2
100
AcDbSymbolTableRecord
100
AcDbLayerTableRecord
  2
DEFAULT_3
 70
     0
 62
     7
  6
PHANTOM
370
    -3
390
F
347
496
348
0
  0
LAYER
  5
1FD
330
2
100
AcDbSymbolTableRecord
100
AcDbLayerTableRecord
  2
01_ALL_DTM_PLN
 70
     0
 62
     7
  6
CONTINUOUS
370
    -3
390
F
347
496
348
0
  0
LAYER
  5
1FE
330
2
100
AcDbSymbolTableRecord
100
AcDbLayerTableRecord
  2
01__ASM_ALL_DTM_PLN
 70
     0
 62
     7
  6
CONTINUOUS
370
    -3
390
F
347
496
348
0
  0
LAYER
  5
1FF
330
2
100
AcDbSymbolTableRecord
100
AcDbLayerTableRecord
  2
01__ASM_DEF_DTM_PLN
 70
     0
 62
     7
  6
CONTINUOUS
370
    -3
390
F
347
496
348
0
  0
LAYER
  5
200
330
2
100
AcDbSymbolTableRecord
100
AcDbLayerTableRecord
  2
01___PRT_ALL_DTM_PLN
 70
     0
 62
     7
  6
CONTINUOUS
370
    -3
390
F
347
496
348
0
  0
LAYER
  5
201
330
2
100
AcDbSymbolTableRecord
100
AcDbLayerTableRecord
  2
01___PRT_DEF_DTM_PLN
 70
     0
 62
     7
  6
CONTINUOUS
370
    -3
390
F
347
496
348
0
  0
LAYER
  5
202
330
2
100
AcDbSymbolTableRecord
100
AcDbLayerTableRecord
  2
02_ALL_AXES
 70
     0
 62
     7
  6
CONTINUOUS
370
    -3
390
F
347
496
348
0
  0
LAYER
  5
203
330
2
100
AcDbSymbolTableRecord
100
AcDbLayerTableRecord
  2
02__ASM_ALL_AXES
 70
     0
 62
     7
  6
CONTINUOUS
370
    -3
390
F
347
496
348
0
  0
LAYER
  5
204
330
2
100
AcDbSymbolTableRecord
100
AcDbLayerTableRecord
  2
02___PRT_ALL_AXES
 70
     0
 62
     7
  6
CONTINUOUS
370
    -3
390
F
347
496
348
0
  0
LAYER
  5
205
330
2
100
AcDbSymbolTableRecord
100
AcDbLayerTableRecord
  2
03_ALL_CURVES
 70
     0
 62
     7
  6
CONTINUOUS
370
    -3
390
F
347
496
348
0
  0
LAYER
  5
206
330
2
100
AcDbSymbolTableRecord
100
AcDbLayerTableRecord
  2
03__ASM_ALL_CURVES
 70
     0
 62
     7
  6
CONTINUOUS
370
    -3
390
F
347
496
348
0
  0
LAYER
  5
207
330
2
100
AcDbSymbolTableRecord
100
AcDbLayerTableRecord
  2
03___PRT_ALL_CURVES
 70
     0
 62
     7
  6
CONTINUOUS
370
    -3
390
F
347
496
348
0
  0
LAYER
  5
208
330
2
100
AcDbSymbolTableRecord
100
AcDbLayerTableRecord
  2
04_ALL_DTM_PNT
 70
     0
 62
     7
  6
CONTINUOUS
370
    -3
390
F
347
496
348
0
  0
LAYER
  5
209
330
2
100
AcDbSymbolTableRecord
100
AcDbLayerTableRecord
  2
04__ASM_ALL_DTM_PNT
 70
     0
 62
     7
  6
CONTINUOUS
370
    -3
390
F
347
496
348
0
  0
LAYER
  5
20A
330
2
100
AcDbSymbolTableRecord
100
AcDbLayerTableRecord
  2
04___PRT_ALL_DTM_PNT
 70
     0
 62
     7
  6
CONTINUOUS
370
    -3
390
F
347
496
348
0
  0
LAYER
  5
20B
330
2
100
AcDbSymbolTableRecord
100
AcDbLayerTableRecord
  2
05_ALL_DTM_CSYS
 70
     0
 62
     7
  6
CONTINUOUS
370
    -3
390
F
347
496
348
0
  0
LAYER
  5
20C
330
2
100
AcDbSymbolTableRecord
100
AcDbLayerTableRecord
  2
05__ASM_ALL_DTM_CSYS
 70
     0
 62
     7
  6
CONTINUOUS
370
    -3
390
F
347
496
348
0
  0
LAYER
  5
20D
330
2
100
AcDbSymbolTableRecord
100
AcDbLayerTableRecord
  2
05__ASM_DEF_DTM_CSYS
 70
     0
 62
     7
  6
CONTINUOUS
370
    -3
390
F
347
496
348
0
  0
LAYER
  5
20E
330
2
100
AcDbSymbolTableRecord
100
AcDbLayerTableRecord
  2
05___PRT_ALL_DTM_CSYS
 70
     0
 62
     7
  6
CONTINUOUS
370
    -3
390
F
347
496
348
0
  0
LAYER
  5
20F
330
2
100
AcDbSymbolTableRecord
100
AcDbLayerTableRecord
  2
05___PRT_DEF_DTM_CSYS
 70
     0
 62
     7
  6
CONTINUOUS
370
    -3
390
F
347
496
348
0
  0
LAYER
  5
210
330
2
100
AcDbSymbolTableRecord
100
AcDbLayerTableRecord
  2
06_ALL_SURFS
 70
     0
 62
     7
  6
CONTINUOUS
370
    -3
390
F
347
496
348
0
  0
LAYER
  5
211
330
2
100
AcDbSymbolTableRecord
100
AcDbLayerTableRecord
  2
06__ASM_ALL_SURFS
 70
     0
 62
     7
  6
CONTINUOUS
370
    -3
390
F
347
496
348
0
  0
LAYER
  5
212
330
2
100
AcDbSymbolTableRecord
100
AcDbLayerTableRecord
  2
06___PRT_ALL_SURFS
 70
     0
 62
     7
  6
CONTINUOUS
370
    -3
390
F
347
496
348
0
  0
LAYER
  5
213
330
2
100
AcDbSymbolTableRecord
100
AcDbLayerTableRecord
  2
07__ASM_ALL_SKELETONS
 70
     0
 62
     7
  6
CONTINUOUS
370
    -3
390
F
347
496
348
0
  0
LAYER
  5
214
330
2
100
AcDbSymbolTableRecord
100
AcDbLayerTableRecord
  2
1_ALL_PLANES
 70
     0
 62
     7
  6
CONTINUOUS
370
    -3
390
F
347
496
348
0
  0
LAYER
  5
215
330
2
100
AcDbSymbolTableRecord
100
AcDbLayerTableRecord
  2
1__APPOGGIO
 70
     0
 62
     7
  6
CONTINUOUS
370
    -3
390
F
347
496
348
0
  0
LAYER
  5
216
330
2
100
AcDbSymbolTableRecord
100
AcDbLayerTableRecord
  2
2_ALL_CSYS
 70
     0
 62
     7
  6
CONTINUOUS
370
    -3
390
F
347
496
348
0
  0
LAYER
  5
217
330
2
100
AcDbSymbolTableRecord
100
AcDbLayerTableRecord
  2
3_ALL_AXES
 70
     0
 62
     7
  6
CONTINUOUS
370
    -3
390
F
347
496
348
0
  0
LAYER
  5
218
330
2
100
AcDbSymbolTableRecord
100
AcDbLayerTableRecord
  2
4_ALL_POINTS
 70
     0
 62
     7
  6
CONTINUOUS
370
    -3
390
F
347
496
348
0
  0
LAYER
  5
219
330
2
100
AcDbSymbolTableRecord
100
AcDbLayerTableRecord
  2
5_ALL_CURVES
 70
     0
 62
     7
  6
CONTINUOUS
370
    -3
390
F
347
496
348
0
  0
LAYER
  5
21A
330
2
100
AcDbSymbolTableRecord
100
AcDbLayerTableRecord
  2
5__APPOGGIO
 70
     0
 62
     7
  6
CONTINUOUS
370
    -3
390
F
347
496
348
0
  0
LAYER
  5
21B
330
2
100
AcDbSymbolTableRecord
100
AcDbLayerTableRecord
  2
5__COSTRUZIONE
 70
     0
 62
     7
  6
CONTINUOUS
370
    -3
390
F
347
496
348
0
  0
LAYER
  5
21C
330
2
100
AcDbSymbolTableRecord
100
AcDbLayerTableRecord
  2
5__CUSPIDI
 70
     0
 62
     7
  6
CONTINUOUS
370
    -3
390
F
347
496
348
0
  0
LAYER
  5
21D
330
2
100
AcDbSymbolTableRecord
100
AcDbLayerTableRecord
  2
5__CUSPIDI_COSTR
 70
     0
 62
     7
  6
CONTINUOUS
370
    -3
390
F
347
496
348
0
  0
LAYER
  5
21E
330
2
100
AcDbSymbolTableRecord
100
AcDbLayerTableRecord
  2
5__SEZIONI
 70
     0
 62
     7
  6
CONTINUOUS
370
    -3
390
F
347
496
348
0
  0
LAYER
  5
21F
330
2
100
AcDbSymbolTableRecord
100
AcDbLayerTableRecord
  2
6_ALL_SURFS
 70
     0
 62
     7
  6
CONTINUOUS
370
    -3
390
F
347
496
348
0
  0
LAYER
  5
220
330
2
100
AcDbSymbolTableRecord
100
AcDbLayerTableRecord
  2
6__APPOGGIO
 70
     0
 62
     7
  6
CONTINUOUS
370
    -3
390
F
347
496
348
0
  0
LAYER
  5
221
330
2
100
AcDbSymbolTableRecord
100
AcDbLayerTableRecord
  2
7_ALL_FEATURES
 70
     0
 62
     7
  6
CONTINUOUS
370
    -3
390
F
347
496
348
0
  0
LAYER
  5
222
330
2
100
AcDbSymbolTableRecord
100
AcDbLayerTableRecord
  2
8_ALL_NOTES_BALLOONS_SYMBOLS_GT
 70
     0
 62
     7
  6
CONTINUOUS
370
    -3
390
F
347
496
348
0
  0
LAYER
  5
223
330
2
100
AcDbSymbolTableRecord
100
AcDbLayerTableRecord
  2
9_SOLID
 70
     0
 62
     7
  6
CONTINUOUS
370
    -3
390
F
347
496
348
0
  0
LAYER
  5
224
330
2
100
AcDbSymbolTableRecord
100
AcDbLayerTableRecord
  2
INTFCLR_3
 70
     0
 62
     7
  6
CONTINUOUS
370
    -3
390
F
347
496
348
0
  0
LAYER
  5
225
330
2
100
AcDbSymbolTableRecord
100
AcDbLayerTableRecord
  2
XXX_SOLIDO
 70
     0
 62
     7
  6
CONTINUOUS
370
    -3
390
F
347
496
348
0
  0
ENDTAB
  0
TABLE
  2
STYLE
  5
3
330
0
100
AcDbSymbolTable
 70
     5
  0
STYLE
  5
11
330
3
100
AcDbSymbolTableRecord
100
AcDbTextStyleTableRecord
  2
STANDARD
 70
     0
 40
0.0
 41
0.85
 50
0.0
 71
     0
 42
0.2
  3
txt
  4

  0
STYLE
  5
226
330
3
100
AcDbSymbolTableRecord
100
AcDbTextStyleTableRecord
  2
TEXTSTYLE_1
 70
     0
 40
0.0
 41
0.8
 50
0.0
 71
     0
 42
0.2
  3
gdt
  4

  0
STYLE
  5
227
330
3
100
AcDbSymbolTableRecord
100
AcDbTextStyleTableRecord
  2
TEXTSTYLE_2
 70
     0
 40
0.0
 41
0.9
 50
0.0
 71
     0
 42
0.2
  3
txt
  4

  0
STYLE
  5
228
330
3
100
AcDbSymbolTableRecord
100
AcDbTextStyleTableRecord
  2
TEXTSTYLE_3
 70
     0
 40
0.0
 41
0.9
 50
0.0
 71
     0
 42
0.2
  3
txt
  4

  0
STYLE
  5
229
330
3
100
AcDbSymbolTableRecord
100
AcDbTextStyleTableRecord
  2
TEXTSTYLE_4
 70
     0
 40
0.0
 41
1.0
 50
0.0
 71
     0
 42
0.2
  3
arial.ttf
  4

  0
ENDTAB
  0
TABLE
  2
VIEW
  5
6
330
0
100
AcDbSymbolTable
 70
     0
  0
ENDTAB
  0
TABLE
  2
UCS
  5
7
330
0
100
AcDbSymbolTable
 70
     0
  0
ENDTAB
  0
TABLE
  2
APPID
  5
9
330
0
100
AcDbSymbolTable
 70
     6
  0
APPID
  5
22A
330
9
100
AcDbSymbolTableRecord
100
AcDbRegAppTableRecord
  2
ACAD
 70
     0
  0
APPID
  5
497
330
9
100
AcDbSymbolTableRecord
100
AcDbRegAppTableRecord
  2
MCS_DIM1
 70
     0
  0
APPID
  5
498
330
9
100
AcDbSymbolTableRecord
100
AcDbRegAppTableRecord
  2
McsXdata5
 70
     0
  0
APPID
  5
49B
330
9
100
AcDbSymbolTableRecord
100
AcDbRegAppTableRecord
  2
MCS_DOCUMENT_ID
 70
     0
  0
APPID
  5
4A1
330
9
100
AcDbSymbolTableRecord
100
AcDbRegAppTableRecord
  2
MCS_PARAMS_DATA
 70
     0
  0
APPID
  5
4A3
330
9
100
AcDbSymbolTableRecord
100
AcDbRegAppTableRecord
  2
MC_VERSION_DATA
 70
     0
  0
ENDTAB
  0
TABLE
  2
DIMSTYLE
  5
A
330
0
100
AcDbSymbolTable
 70
     2
100
AcDbDimStyleTable
  0
DIMSTYLE
105
235
330
A
100
AcDbSymbolTableRecord
100
AcDbDimStyleTableRecord
  2
STANDARD
 70
     0
 41
2.5
 42
0.75
 44
0.75
 47
0.01
 48
0.01
 71
     1
 73
     0
 74
     0
 77
     1
 78
     8
 79
     2
140
3.0
147
0.625
171
     1
178
     0
179
     2
271
     2
272
     2
278
    44
284
     8
340
11
341
22D
342
22D
343
22D
344
22D
  0
DIMSTYLE
105
236
330
A
100
AcDbSymbolTableRecord
100
AcDbDimStyleTableRecord
  2
DIMSTYLE_1
 70
     0
 41
2.5
 42
0.75
 44
0.75
 47
0.3
 48
0.3
 73
     0
 74
     0
 77
     1
 78
     8
 79
     2
140
6.0
147
1.5
171
     1
178
     0
179
     2
271
     2
272
     2
278
    44
284
     8
340
11
341
22D
342
22D
343
22D
344
22D
  0
ENDTAB
  0
TABLE
  2
BLOCK_RECORD
  5
1
330
0
100
AcDbSymbolTable
 70
     8
  0
BLOCK_RECORD
  5
22B
330
1
100
AcDbSymbolTableRecord
100
AcDbBlockTableRecord
  2
*Model_Space
340
451
 70
     0
280
     1
281
     0
  0
BLOCK_RECORD
  5
22C
330
1
100
AcDbSymbolTableRecord
100
AcDbBlockTableRecord
  2
*Paper_Space
340
452
 70
     0
280
     1
281
     0
  0
BLOCK_RECORD
  5
22D
330
1
100
AcDbSymbolTableRecord
100
AcDbBlockTableRecord
  2
_CLOSED
340
0
102
{BLKREFS
331
27F
331
280
331
288
331
289
331
291
331
292
331
29A
331
29B
331
2A3
331
2A4
102
}
 70
     0
280
     1
281
     0
  0
BLOCK_RECORD
  5
22E
330
1
100
AcDbSymbolTableRecord
100
AcDbBlockTableRecord
  2
*D1
340
0
 70
     0
280
     1
281
     0
  0
BLOCK_RECORD
  5
22F
330
1
100
AcDbSymbolTableRecord
100
AcDbBlockTableRecord
  2
*D2
340
0
 70
     0
280
     1
281
     0
  0
BLOCK_RECORD
  5
230
330
1
100
AcDbSymbolTableRecord
100
AcDbBlockTableRecord
  2
*D3
340
0
 70
     0
280
     1
281
     0
  0
BLOCK_RECORD
  5
231
330
1
100
AcDbSymbolTableRecord
100
AcDbBlockTableRecord
  2
*D4
340
0
 70
     0
280
     1
281
     0
  0
BLOCK_RECORD
  5
232
330
1
100
AcDbSymbolTableRecord
100
AcDbBlockTableRecord
  2
*D5
340
0
 70
     0
280
     1
281
     0
  0
BLOCK_RECORD
  5
233
330
1
100
AcDbSymbolTableRecord
100
AcDbBlockTableRecord
  2
LOGO2_BL0
340
0
102
{BLKREFS
331
44E
102
}
 70
     0
280
     1
281
     0
  0
BLOCK_RECORD
  5
234
330
1
100
AcDbSymbolTableRecord
100
AcDbBlockTableRecord
  2
*T7
340
0
102
{BLKREFS
331
44F
102
}
 70
     0
280
     1
281
     0
  0
ENDTAB
  0
ENDSEC
  0
SECTION
  2
BLOCKS
  0
BLOCK
  5
20
330
22B
100
AcDbEntity
  8
0
100
AcDbBlockBegin
  2
*Model_Space
 70
     0
 10
0.0
 20
0.0
 30
0.0
  3
*Model_Space
  1
*Model_Space
  0
ENDBLK
  5
21
330
22B
100
AcDbEntity
  8
0
100
AcDbBlockEnd
  0
BLOCK
  5
1C
330
22C
100
AcDbEntity
 67
     1
  8
0
100
AcDbBlockBegin
  2
*Paper_Space
 70
     0
 10
0.0
 20
0.0
 30
0.0
  3
*Paper_Space
  1
*Paper_Space
  0
ENDBLK
  5
1D
330
22C
100
AcDbEntity
 67
     1
  8
0
100
AcDbBlockEnd
  0
BLOCK
  5
273
330
22D
100
AcDbEntity
  8
0
100
AcDbBlockBegin
  2
_CLOSED
 70
     0
 10
0.0
 20
0.0
 30
0.0
  3
_CLOSED
  1
_CLOSED
  0
LINE
  5
274
330
22D
100
AcDbEntity
  8
0
  6
ByBlock
 62
     0
100
AcDbLine
 10
0.0
 20
0.0
 30
0.0
 11
-1.0
 21
0.2
 31
0.0
  0
LINE
  5
275
330
22D
100
AcDbEntity
  8
0
  6
ByBlock
 62
     0
100
AcDbLine
 10
-1.0
 20
0.2
 30
0.0
 11
-1.0
 21
-0.2
 31
0.0
  0
LINE
  5
276
330
22D
100
AcDbEntity
  8
0
  6
ByBlock
 62
     0
100
AcDbLine
 10
-1.0
 20
-0.2
 30
0.0
 11
0.0
 21
0.0
 31
0.0
  0
LINE
  5
277
330
22D
100
AcDbEntity
  8
0
  6
ByBlock
 62
     0
100
AcDbLine
 10
-1.0
 20
0.0
 30
0.0
 11
0.0
 21
0.0
 31
0.0
  0
ENDBLK
  5
278
330
22D
100
AcDbEntity
  8
0
  6
ByBlock
 62
     0
100
AcDbBlockEnd
  0
BLOCK
  5
279
330
22E
100
AcDbEntity
  8
0
100
AcDbBlockBegin
  2
*D1
 70
     1
 10
0.0
 20
0.0
 30
0.0
  3
*D1
  1
*D1
  0
MTEXT
  5
27A
330
22E
100
AcDbEntity
  8
0
  6
Continuous
 62
     2
100
AcDbMText
 10
162.977146
 20
218.516331
 30
0.0
 40
6.0
 41
19.285714
 46
0.0
 71
     2
 72
     1
  1
120
 11
0.0
 21
1.0
 31
0.0
 73
     1
 44
0.9
  0
LINE
  5
27B
330
22E
100
AcDbEntity
  8
0
  6
Continuous
 62
     2
100
AcDbLine
 10
158.194436
 20
278.516331
 30
0.0
 11
171.227146
 21
278.516331
 31
0.0
  0
LINE
  5
27C
330
22E
100
AcDbEntity
  8
0
  6
Continuous
 62
     2
100
AcDbLine
 10
157.878579
 20
158.516331
 30
0.0
 11
171.227146
 21
158.516331
 31
0.0
  0
LINE
  5
27D
330
22E
100
AcDbEntity
  8
0
  6
Continuous
 62
     2
100
AcDbLine
 10
170.477146
 20
278.516331
 30
0.0
 11
170.477146
 21
218.516331
 31
0.0
  0
LINE
  5
27E
330
22E
100
AcDbEntity
  8
0
  6
Continuous
 62
     2
100
AcDbLine
 10
170.477146
 20
158.516331
 30
0.0
 11
170.477146
 21
218.516331
 31
0.0
  0
INSERT
  5
27F
330
22E
100
AcDbEntity
  8
0
  6
Continuous
 62
     2
100
AcDbBlockReference
  2
_CLOSED
 10
170.477146
 20
278.516331
 30
0.0
 41
2.5
 42
2.5
 43
2.5
 50
90.0
  0
INSERT
  5
280
330
22E
100
AcDbEntity
  8
0
  6
Continuous
 62
     2
100
AcDbBlockReference
  2
_CLOSED
 10
170.477146
 20
158.516331
 30
0.0
 41
2.5
 42
2.5
 43
2.5
 50
270.0
  0
ENDBLK
  5
281
330
22E
100
AcDbEntity
  8
0
  6
ByBlock
 62
     0
100
AcDbBlockEnd
  0
BLOCK
  5
282
330
22F
100
AcDbEntity
  8
0
100
AcDbBlockBegin
  2
*D2
 70
     1
 10
0.0
 20
0.0
 30
0.0
  3
*D2
  1
*D2
  0
MTEXT
  5
283
330
22F
100
AcDbEntity
  8
0
  6
Continuous
 62
     2
100
AcDbMText
 10
162.977146
 20
81.75391
 30
0.0
 40
6.0
 41
19.285714
 46
0.0
 71
     2
 72
     1
  1
100
 11
0.0
 21
1.0
 31
0.0
 73
     1
 44
0.9
  0
LINE
  5
284
330
22F
100
AcDbEntity
  8
0
  6
Continuous
 62
     2
100
AcDbLine
 10
157.781277
 20
131.75391
 30
0.0
 11
171.227146
 21
131.75391
 31
0.0
  0
LINE
  5
285
330
22F
100
AcDbEntity
  8
0
  6
Continuous
 62
     2
100
AcDbLine
 10
158.812226
 20
31.75391
 30
0.0
 11
171.227146
 21
31.75391
 31
0.0
  0
LINE
  5
286
330
22F
100
AcDbEntity
  8
0
  6
Continuous
 62
     2
100
AcDbLine
 10
170.477146
 20
131.75391
 30
0.0
 11
170.477146
 21
81.75391
 31
0.0
  0
LINE
  5
287
330
22F
100
AcDbEntity
  8
0
  6
Continuous
 62
     2
100
AcDbLine
 10
170.477146
 20
31.75391
 30
0.0
 11
170.477146
 21
81.75391
 31
0.0
  0
INSERT
  5
288
330
22F
100
AcDbEntity
  8
0
  6
Continuous
 62
     2
100
AcDbBlockReference
  2
_CLOSED
 10
170.477146
 20
131.75391
 30
0.0
 41
2.5
 42
2.5
 43
2.5
 50
90.0
  0
INSERT
  5
289
330
22F
100
AcDbEntity
  8
0
  6
Continuous
 62
     2
100
AcDbBlockReference
  2
_CLOSED
 10
170.477146
 20
31.75391
 30
0.0
 41
2.5
 42
2.5
 43
2.5
 50
270.0
  0
ENDBLK
  5
28A
330
22F
100
AcDbEntity
  8
0
  6
ByBlock
 62
     0
100
AcDbBlockEnd
  0
BLOCK
  5
28B
330
230
100
AcDbEntity
  8
0
100
AcDbBlockBegin
  2
*D3
 70
     1
 10
0.0
 20
0.0
 30
0.0
  3
*D3
  1
*D3
  0
MTEXT
  5
28C
330
230
100
AcDbEntity
  8
0
  6
Continuous
 62
     2
100
AcDbMText
 10
105.477145
 20
24.253908
 30
0.0
 40
6.0
 41
19.285714
 46
0.0
 71
     2
 72
     1
  1
100
 73
     1
 44
0.9
  0
LINE
  5
28D
330
230
100
AcDbEntity
  8
0
  6
Continuous
 62
     2
100
AcDbLine
 10
55.477145
 20
29.03144
 30
0.0
 11
55.477145
 21
16.003908
 31
0.0
  0
LINE
  5
28E
330
230
100
AcDbEntity
  8
0
  6
Continuous
 62
     2
100
AcDbLine
 10
155.477145
 20
28.696313
 30
0.0
 11
155.477145
 21
16.003908
 31
0.0
  0
LINE
  5
28F
330
230
100
AcDbEntity
  8
0
  6
Continuous
 62
     2
100
AcDbLine
 10
55.477145
 20
16.753908
 30
0.0
 11
105.477145
 21
16.753908
 31
0.0
  0
LINE
  5
290
330
230
100
AcDbEntity
  8
0
  6
Continuous
 62
     2
100
AcDbLine
 10
155.477145
 20
16.753908
 30
0.0
 11
105.477145
 21
16.753908
 31
0.0
  0
INSERT
  5
291
330
230
100
AcDbEntity
  8
0
  6
Continuous
 62
     2
100
AcDbBlockReference
  2
_CLOSED
 10
55.477145
 20
16.753908
 30
0.0
 41
2.5
 42
2.5
 43
2.5
 50
180.0
  0
INSERT
  5
292
330
230
100
AcDbEntity
  8
0
  6
Continuous
 62
     2
100
AcDbBlockReference
  2
_CLOSED
 10
155.477145
 20
16.753908
 30
0.0
 41
2.5
 42
2.5
 43
2.5
  0
ENDBLK
  5
293
330
230
100
AcDbEntity
  8
0
  6
ByBlock
 62
     0
100
AcDbBlockEnd
  0
BLOCK
  5
294
330
231
100
AcDbEntity
  8
0
100
AcDbBlockBegin
  2
*D4
 70
     1
 10
0.0
 20
0.0
 30
0.0
  3
*D4
  1
*D4
  0
MTEXT
  5
295
330
231
100
AcDbEntity
  8
0
  6
Continuous
 62
     2
100
AcDbMText
 10
255.434437
 20
145.745394
 30
0.0
 40
6.0
 41
12.857143
 46
0.0
 71
     2
 72
     1
  1
55
 73
     1
 44
0.9
  0
LINE
  5
296
330
231
100
AcDbEntity
  8
0
  6
Continuous
 62
     2
100
AcDbLine
 10
227.934437
 20
105.432896
 30
0.0
 11
227.934437
 21
138.995394
 31
0.0
  0
LINE
  5
297
330
231
100
AcDbEntity
  8
0
  6
Continuous
 62
     2
100
AcDbLine
 10
282.934437
 20
105.432896
 30
0.0
 11
282.934437
 21
138.995394
 31
0.0
  0
LINE
  5
298
330
231
100
AcDbEntity
  8
0
  6
Continuous
 62
     2
100
AcDbLine
 10
227.934437
 20
138.245394
 30
0.0
 11
255.434437
 21
138.245394
 31
0.0
  0
LINE
  5
299
330
231
100
AcDbEntity
  8
0
  6
Continuous
 62
     2
100
AcDbLine
 10
282.934437
 20
138.245394
 30
0.0
 11
255.434437
 21
138.245394
 31
0.0
  0
INSERT
  5
29A
330
231
100
AcDbEntity
  8
0
  6
Continuous
 62
     2
100
AcDbBlockReference
  2
_CLOSED
 10
227.934437
 20
138.245394
 30
0.0
 41
2.5
 42
2.5
 43
2.5
 50
180.0
  0
INSERT
  5
29B
330
231
100
AcDbEntity
  8
0
  6
Continuous
 62
     2
100
AcDbBlockReference
  2
_CLOSED
 10
282.934437
 20
138.245394
 30
0.0
 41
2.5
 42
2.5
 43
2.5
  0
ENDBLK
  5
29C
330
231
100
AcDbEntity
  8
0
  6
ByBlock
 62
     0
100
AcDbBlockEnd
  0
BLOCK
  5
29D
330
232
100
AcDbEntity
  8
0
100
AcDbBlockBegin
  2
*D5
 70
     1
 10
0.0
 20
0.0
 30
0.0
  3
*D5
  1
*D5
  0
MTEXT
  5
29E
330
232
100
AcDbEntity
  8
0
  6
Continuous
 62
     2
100
AcDbMText
 10
306.832182
 20
81.75391
 30
0.0
 40
6.0
 41
13.5
 46
0.0
 71
     2
 72
     1
  1
45
 11
0.0
 21
1.0
 31
0.0
 73
     1
 44
0.9
  0
LINE
  5
29F
330
232
100
AcDbEntity
  8
0
  6
Continuous
 62
     2
100
AcDbLine
 10
286.274836
 20
104.25391
 30
0.0
 11
315.082182
 21
104.25391
 31
0.0
  0
LINE
  5
2A0
330
232
100
AcDbEntity
  8
0
  6
Continuous
 62
     2
100
AcDbLine
 10
286.688262
 20
59.25391
 30
0.0
 11
315.082182
 21
59.25391
 31
0.0
  0
LINE
  5
2A1
330
232
100
AcDbEntity
  8
0
  6
Continuous
 62
     2
100
AcDbLine
 10
314.332182
 20
104.25391
 30
0.0
 11
314.332182
 21
81.75391
 31
0.0
  0
LINE
  5
2A2
330
232
100
AcDbEntity
  8
0
  6
Continuous
 62
     2
100
AcDbLine
 10
314.332182
 20
59.25391
 30
0.0
 11
314.332182
 21
81.75391
 31
0.0
  0
INSERT
  5
2A3
330
232
100
AcDbEntity
  8
0
  6
Continuous
 62
     2
100
AcDbBlockReference
  2
_CLOSED
 10
314.332182
 20
104.25391
 30
0.0
 41
2.5
 42
2.5
 43
2.5
 50
90.0
  0
INSERT
  5
2A4
330
232
100
AcDbEntity
  8
0
  6
Continuous
 62
     2
100
AcDbBlockReference
  2
_CLOSED
 10
314.332182
 20
59.25391
 30
0.0
 41
2.5
 42
2.5
 43
2.5
 50
270.0
  0
ENDBLK
  5
2A5
330
232
100
AcDbEntity
  8
0
  6
ByBlock
 62
     0
100
AcDbBlockEnd
  0
BLOCK
  5
237
330
233
100
AcDbEntity
  8
0
100
AcDbBlockBegin
  2
LOGO2_BL0
 70
     0
 10
332.572555
 20
37.515934
 30
0.0
  3
LOGO2_BL0
  1
LOGO2_BL0
  0
LINE
  5
238
330
233
100
AcDbEntity
  8
0
  6
Continuous
 62
     7
100
AcDbLine
 10
324.31548
 20
40.711426
 30
0.0
 11
323.011139
 21
40.711426
 31
0.0
  0
LINE
  5
239
330
233
100
AcDbEntity
  8
0
  6
Continuous
 62
     7
100
AcDbLine
 10
323.011139
 20
40.711426
 30
0.0
 11
323.011139
 21
30.25236
 31
0.0
  0
LINE
  5
23A
330
233
100
AcDbEntity
  8
0
  6
Continuous
 62
     7
100
AcDbLine
 10
323.011139
 20
30.25236
 30
0.0
 11
327.492194
 21
30.25236
 31
0.0
  0
LINE
  5
23B
330
233
100
AcDbEntity
  8
0
  6
Continuous
 62
     7
100
AcDbLine
 10
327.492194
 20
30.25236
 30
0.0
 11
327.492194
 21
31.445214
 31
0.0
  0
LINE
  5
23C
330
233
100
AcDbEntity
  8
0
  6
Continuous
 62
     7
100
AcDbLine
 10
327.492194
 20
31.445214
 30
0.0
 11
324.31548
 21
31.445214
 31
0.0
  0
LINE
  5
23D
330
233
100
AcDbEntity
  8
0
  6
Continuous
 62
     7
100
AcDbLine
 10
324.31548
 20
31.445214
 30
0.0
 11
324.31548
 21
40.711426
 31
0.0
  0
LINE
  5
23E
330
233
100
AcDbEntity
  8
0
  6
Continuous
 62
     7
100
AcDbLine
 10
339.251806
 20
40.711426
 30
0.0
 11
337.947989
 21
40.711426
 31
0.0
  0
LINE
  5
23F
330
233
100
AcDbEntity
  8
0
  6
Continuous
 62
     7
100
AcDbLine
 10
337.947989
 20
40.711426
 30
0.0
 11
337.947989
 21
30.25236
 31
0.0
  0
LINE
  5
240
330
233
100
AcDbEntity
  8
0
  6
Continuous
 62
     7
100
AcDbLine
 10
337.947989
 20
30.25236
 30
0.0
 11
342.429174
 21
30.25236
 31
0.0
  0
LINE
  5
241
330
233
100
AcDbEntity
  8
0
  6
Continuous
 62
     7
100
AcDbLine
 10
342.429174
 20
30.25236
 30
0.0
 11
342.429174
 21
31.445214
 31
0.0
  0
LINE
  5
242
330
233
100
AcDbEntity
  8
0
  6
Continuous
 62
     7
100
AcDbLine
 10
342.429174
 20
31.445214
 30
0.0
 11
339.251806
 21
31.445214
 31
0.0
  0
LINE
  5
243
330
233
100
AcDbEntity
  8
0
  6
Continuous
 62
     7
100
AcDbLine
 10
339.251806
 20
31.445214
 30
0.0
 11
339.251806
 21
40.711426
 31
0.0
  0
LWPOLYLINE
  5
244
330
233
100
AcDbEntity
  8
0
  6
Continuous
 62
     7
100
AcDbPolyline
 90
        2
 70
     0
 43
0.2
 10
321.365534
 20
26.908808
 10
321.365534
 20
25.051745
  0
LWPOLYLINE
  5
245
330
233
100
AcDbEntity
  8
0
  6
Continuous
 62
     7
100
AcDbPolyline
 90
        2
 70
     0
 43
0.2
 10
321.365534
 20
25.051745
 10
322.16125
 20
25.051745
  0
LWPOLYLINE
  5
246
330
233
100
AcDbEntity
  8
0
  6
Continuous
 62
     7
100
AcDbPolyline
 90
        2
 70
     0
 43
0.2
 10
322.16125
 20
25.051745
 10
322.16125
 20
25.263727
  0
LWPOLYLINE
  5
247
330
233
100
AcDbEntity
  8
0
  6
Continuous
 62
     7
100
AcDbPolyline
 90
        2
 70
     0
 43
0.2
 10
322.16125
 20
25.263727
 10
321.597143
 20
25.263727
  0
LWPOLYLINE
  5
248
330
233
100
AcDbEntity
  8
0
  6
Continuous
 62
     7
100
AcDbPolyline
 90
        2
 70
     0
 43
0.2
 10
321.597143
 20
25.263727
 10
321.597143
 20
26.908808
  0
LWPOLYLINE
  5
249
330
233
100
AcDbEntity
  8
0
  6
Continuous
 62
     7
100
AcDbPolyline
 90
        2
 70
     0
 43
0.2
 10
321.597143
 20
26.908808
 10
321.365534
 20
26.908808
  0
SPLINE
  5
24A
330
233
100
AcDbEntity
  8
0
  6
Continuous
 62
     7
100
AcDbSpline
 70
     3
 71
     3
 72
    35
 73
    31
 74
     0
 42
0.000000001
 43
0.0000001
 40
0.0
 40
0.0
 40
0.0
 40
0.0
 40
1.0
 40
1.0
 40
1.0
 40
2.0
 40
2.0
 40
2.0
 40
3.0
 40
3.0
 40
3.0
 40
4.0
 40
4.0
 40
4.0
 40
5.0
 40
5.0
 40
5.0
 40
6.0
 40
6.0
 40
6.0
 40
7.0
 40
7.0
 40
7.0
 40
8.0
 40
8.0
 40
8.0
 40
9.0
 40
9.0
 40
9.0
 40
10.0
 40
10.0
 40
10.0
 40
10.0
 10
323.5595430874
 20
26.2042966045
 30
0.0
 10
323.5595430874
 20
26.2042966045
 30
0.0
 10
323.5595430874
 20
25.5421813253
 30
0.0
 10
323.5595430874
 20
25.5421813253
 30
0.0
 10
323.5595430874
 20
25.22708773
 30
0.0
 10
323.7074067762
 20
25.012489102
 30
0.0
 10
324.0474932605
 20
25.012489102
 30
0.0
 10
324.3870563335
 20
25.012489102
 30
0.0
 10
324.535181728
 20
25.22708773
 30
0.0
 10
324.535181728
 20
25.5421813253
 30
0.0
 10
324.535181728
 20
25.5421813253
 30
0.0
 10
324.535181728
 20
26.2042966045
 30
0.0
 10
324.535181728
 20
26.2042966045
 30
0.0
 10
324.535181728
 20
26.2042966045
 30
0.0
 10
324.3131244891
 20
26.2042966045
 30
0.0
 10
324.3131244891
 20
26.2042966045
 30
0.0
 10
324.3131244891
 20
26.2042966045
 30
0.0
 10
324.3131244891
 20
25.5673050671
 30
0.0
 10
324.3131244891
 20
25.5673050671
 30
0.0
 10
324.3131244891
 20
25.3814940599
 30
0.0
 10
324.2664100317
 20
25.2187131494
 30
0.0
 10
324.0474932605
 20
25.2187131494
 30
0.0
 10
323.8280530781
 20
25.2187131494
 30
0.0
 10
323.7813386206
 20
25.3814940599
 30
0.0
 10
323.7813386206
 20
25.5673050671
 30
0.0
 10
323.7813386206
 20
25.5673050671
 30
0.0
 10
323.7813386206
 20
26.2042966045
 30
0.0
 10
323.7813386206
 20
26.2042966045
 30
0.0
 10
323.7813386206
 20
26.2042966045
 30
0.0
 10
323.5595430874
 20
26.2042966045
 30
0.0
 10
323.5595430874
 20
26.2042966045
 30
0.0
  0
SPLINE
  5
24B
330
233
100
AcDbEntity
  8
0
  6
Continuous
 62
     7
100
AcDbSpline
 70
     3
 71
     3
 72
    35
 73
    31
 74
     0
 42
0.000000001
 43
0.0000001
 40
0.0
 40
0.0
 40
0.0
 40
0.0
 40
1.0
 40
1.0
 40
1.0
 40
2.0
 40
2.0
 40
2.0
 40
3.0
 40
3.0
 40
3.0
 40
4.0
 40
4.0
 40
4.0
 40
5.0
 40
5.0
 40
5.0
 40
6.0
 40
6.0
 40
6.0
 40
7.0
 40
7.0
 40
7.0
 40
8.0
 40
8.0
 40
8.0
 40
9.0
 40
9.0
 40
9.0
 40
10.0
 40
10.0
 40
10.0
 40
10.0
 10
326.9583142852
 20
26.1629471127
 30
0.0
 10
326.8698577775
 20
26.2142414189
 30
0.0
 10
326.7564083809
 20
26.2393651607
 30
0.0
 10
326.6527729459
 20
26.2393651607
 30
0.0
 10
326.2979000927
 20
26.2393651607
 30
0.0
 10
326.0224549025
 20
25.9755658717
 30
0.0
 10
326.0224549025
 20
25.618075962
 30
0.0
 10
326.0224549025
 20
25.2731479233
 30
0.0
 10
326.3009097076
 20
25.0130125133
 30
0.0
 10
326.6404727806
 20
25.0130125133
 30
0.0
 10
326.7564083809
 20
25.0130125133
 30
0.0
 10
326.8571650538
 20
25.0349957873
 30
0.0
 10
326.9583142852
 20
25.08890715
 30
0.0
 10
326.9583142852
 20
25.08890715
 30
0.0
 10
326.9583142852
 20
25.3715492454
 30
0.0
 10
326.9583142852
 20
25.3715492454
 30
0.0
 10
326.8744376263
 20
25.2783820362
 30
0.0
 10
326.7709330441
 20
25.2192365607
 30
0.0
 10
326.6428281314
 20
25.2192365607
 30
0.0
 10
326.4091249914
 20
25.2192365607
 30
0.0
 10
326.2438578773
 20
25.3914388744
 30
0.0
 10
326.2438578773
 20
25.6280207765
 30
0.0
 10
326.2438578773
 20
25.8400023481
 30
0.0
 10
326.411611195
 20
26.0320942907
 30
0.0
 10
326.628434321
 20
26.0320942907
 30
0.0
 10
326.7612499353
 20
26.0320942907
 30
0.0
 10
326.8698577775
 20
25.9781829281
 30
0.0
 10
326.9583142852
 20
25.8771645495
 30
0.0
 10
326.9583142852
 20
25.8771645495
 30
0.0
 10
326.9583142852
 20
26.1629471127
 30
0.0
 10
326.9583142852
 20
26.1629471127
 30
0.0
  0
SPLINE
  5
24C
330
233
100
AcDbEntity
  8
0
  6
Continuous
 62
     7
100
AcDbSpline
 70
     3
 71
     3
 72
    32
 73
    28
 74
     0
 42
0.000000001
 43
0.0000001
 40
0.0
 40
0.0
 40
0.0
 40
0.0
 40
1.0
 40
1.0
 40
1.0
 40
2.0
 40
2.0
 40
2.0
 40
3.0
 40
3.0
 40
3.0
 40
4.0
 40
4.0
 40
4.0
 40
5.0
 40
5.0
 40
5.0
 40
6.0
 40
6.0
 40
6.0
 40
7.0
 40
7.0
 40
7.0
 40
8.0
 40
8.0
 40
8.0
 40
9.0
 40
9.0
 40
9.0
 40
9.0
 10
329.4901855374
 20
25.5913819864
 30
0.0
 10
329.4901855374
 20
25.5913819864
 30
0.0
 10
329.4901855374
 20
25.6254037201
 30
0.0
 10
329.4901855374
 20
25.6254037201
 30
0.0
 10
329.4901855374
 20
25.9677147023
 30
0.0
 10
329.3173289596
 20
26.2393651607
 30
0.0
 10
328.9506793525
 20
26.2393651607
 30
0.0
 10
328.5790573381
 20
26.2393651607
 30
0.0
 10
328.3893207462
 20
25.9729488152
 30
0.0
 10
328.3893207462
 20
25.618075962
 30
0.0
 10
328.3893207462
 20
25.2783820362
 30
0.0
 10
328.603395963
 20
25.012489102
 30
0.0
 10
328.9555209069
 20
25.012489102
 30
0.0
 10
329.1795409381
 20
25.012489102
 30
0.0
 10
329.381708548
 20
25.1281629966
 30
0.0
 10
329.4901855374
 20
25.3275826973
 30
0.0
 10
329.4901855374
 20
25.3275826973
 30
0.0
 10
329.3025425907
 20
25.4343586
 30
0.0
 10
329.3025425907
 20
25.4343586
 30
0.0
 10
329.2190584903
 20
25.2956546087
 30
0.0
 10
329.1278540734
 20
25.2098151575
 30
0.0
 10
328.9582688162
 20
25.2098151575
 30
0.0
 10
328.7462872446
 20
25.2098151575
 30
0.0
 10
328.6133407774
 20
25.3945793421
 30
0.0
 10
328.6109854266
 20
25.5913819864
 30
0.0
 10
328.6109854266
 20
25.5913819864
 30
0.0
 10
329.4901855374
 20
25.5913819864
 30
0.0
 10
329.4901855374
 20
25.5913819864
 30
0.0
  0
SPLINE
  5
24D
330
233
100
AcDbEntity
  8
0
  6
Continuous
 62
     7
100
AcDbSpline
 70
     3
 71
     3
 72
    14
 73
    10
 74
     0
 42
0.000000001
 43
0.0000001
 40
0.0
 40
0.0
 40
0.0
 40
0.0
 40
1.0
 40
1.0
 40
1.0
 40
2.0
 40
2.0
 40
2.0
 40
3.0
 40
3.0
 40
3.0
 40
3.0
 10
328.6230238863
 20
25.7588735985
 30
0.0
 10
328.6506338317
 20
25.9237481542
 30
0.0
 10
328.7784770388
 20
26.0467498068
 30
0.0
 10
328.9506793525
 20
26.0467498068
 30
0.0
 10
329.1278540734
 20
26.0467498068
 30
0.0
 10
329.2413034701
 20
25.9310759122
 30
0.0
 10
329.268520857
 20
25.7588735985
 30
0.0
 10
329.268520857
 20
25.7588735985
 30
0.0
 10
328.6230238863
 20
25.7588735985
 30
0.0
 10
328.6230238863
 20
25.7588735985
 30
0.0
  0
SPLINE
  5
24E
330
233
100
AcDbEntity
  8
0
  6
Continuous
 62
     7
100
AcDbSpline
 70
     3
 71
     3
 72
    20
 73
    16
 74
     0
 42
0.000000001
 43
0.0000001
 40
0.0
 40
0.0
 40
0.0
 40
0.0
 40
1.0
 40
1.0
 40
1.0
 40
2.0
 40
2.0
 40
2.0
 40
3.0
 40
3.0
 40
3.0
 40
4.0
 40
4.0
 40
4.0
 40
5.0
 40
5.0
 40
5.0
 40
5.0
 10
331.5142169876
 20
25.9682381136
 30
0.0
 10
331.5142169876
 20
25.9682381136
 30
0.0
 10
331.9253565543
 20
25.4657632773
 30
0.0
 10
331.9253565543
 20
25.4657632773
 30
0.0
 10
331.8092901012
 20
25.3500893826
 30
0.0
 10
331.6715020796
 20
25.219759972
 30
0.0
 10
331.4995614716
 20
25.219759972
 30
0.0
 10
331.322125045
 20
25.219759972
 30
0.0
 10
331.1546334329
 20
25.3841111164
 30
0.0
 10
331.1546334329
 20
25.5610241317
 30
0.0
 10
331.1546334329
 20
25.7389839695
 30
0.0
 10
331.3643905065
 20
25.8651260899
 30
0.0
 10
331.4919720079
 20
25.9530591863
 30
0.0
 10
331.4919720079
 20
25.9530591863
 30
0.0
 10
331.5142169876
 20
25.9682381136
 30
0.0
 10
331.5142169876
 20
25.9682381136
 30
0.0
  0
SPLINE
  5
24F
330
233
100
AcDbEntity
  8
0
  6
Continuous
 62
     7
100
AcDbSpline
 70
     3
 71
     3
 72
    23
 73
    19
 74
     0
 42
0.000000001
 43
0.0000001
 40
0.0
 40
0.0
 40
0.0
 40
0.0
 40
1.0
 40
1.0
 40
1.0
 40
2.0
 40
2.0
 40
2.0
 40
3.0
 40
3.0
 40
3.0
 40
4.0
 40
4.0
 40
4.0
 40
5.0
 40
5.0
 40
5.0
 40
6.0
 40
6.0
 40
6.0
 40
6.0
 10
331.5635485015
 20
26.2592547897
 30
0.0
 10
331.5635485015
 20
26.2592547897
 30
0.0
 10
331.5019168224
 20
26.3377664829
 30
0.0
 10
331.5019168224
 20
26.3377664829
 30
0.0
 10
331.4480054597
 20
26.4063333616
 30
0.0
 10
331.391215335
 20
26.4754236516
 30
0.0
 10
331.391215335
 20
26.5691142721
 30
0.0
 10
331.391215335
 20
26.6879286344
 30
0.0
 10
331.4871304535
 20
26.765393505
 30
0.0
 10
331.5980936465
 20
26.765393505
 30
0.0
 10
331.7213570048
 20
26.765393505
 30
0.0
 10
331.8146550669
 20
26.6942095699
 30
0.0
 10
331.8146550669
 20
26.5638801592
 30
0.0
 10
331.8146550669
 20
26.4288400469
 30
0.0
 10
331.6865501542
 20
26.3524219989
 30
0.0
 10
331.5929903865
 20
26.2786210073
 30
0.0
 10
331.5929903865
 20
26.2786210073
 30
0.0
 10
331.5635485015
 20
26.2592547897
 30
0.0
 10
331.5635485015
 20
26.2592547897
 30
0.0
  0
SPLINE
  5
250
330
233
100
AcDbEntity
  8
0
  6
Continuous
 62
     7
100
AcDbSpline
 70
     3
 71
     3
 72
    50
 73
    46
 74
     0
 42
0.000000001
 43
0.0000001
 40
0.0
 40
0.0
 40
0.0
 40
0.0
 40
1.0
 40
1.0
 40
1.0
 40
2.0
 40
2.0
 40
2.0
 40
3.0
 40
3.0
 40
3.0
 40
4.0
 40
4.0
 40
4.0
 40
5.0
 40
5.0
 40
5.0
 40
6.0
 40
6.0
 40
6.0
 40
7.0
 40
7.0
 40
7.0
 40
8.0
 40
8.0
 40
8.0
 40
9.0
 40
9.0
 40
9.0
 40
10.0
 40
10.0
 40
10.0
 40
11.0
 40
11.0
 40
11.0
 40
12.0
 40
12.0
 40
12.0
 40
13.0
 40
13.0
 40
13.0
 40
14.0
 40
14.0
 40
14.0
 40
15.0
 40
15.0
 40
15.0
 40
15.0
 10
332.2657047442
 20
25.0522683598
 30
0.0
 10
332.2657047442
 20
25.0522683598
 30
0.0
 10
332.5510947489
 20
25.0522683598
 30
0.0
 10
332.5510947489
 20
25.0522683598
 30
0.0
 10
332.5510947489
 20
25.0522683598
 30
0.0
 10
332.2187285811
 20
25.4631462208
 30
0.0
 10
332.2187285811
 20
25.4631462208
 30
0.0
 10
332.2187285811
 20
25.4631462208
 30
0.0
 10
332.4452348159
 20
25.7290391551
 30
0.0
 10
332.4452348159
 20
25.7290391551
 30
0.0
 10
332.4452348159
 20
25.7290391551
 30
0.0
 10
332.2969785687
 20
25.8818752511
 30
0.0
 10
332.2969785687
 20
25.8818752511
 30
0.0
 10
332.2969785687
 20
25.8818752511
 30
0.0
 10
332.0810714124
 20
25.6306378329
 30
0.0
 10
332.0810714124
 20
25.6306378329
 30
0.0
 10
332.0810714124
 20
25.6306378329
 30
0.0
 10
331.694008765
 20
26.0985675243
 30
0.0
 10
331.694008765
 20
26.0985675243
 30
0.0
 10
331.8494619175
 20
26.2126711851
 30
0.0
 10
332.0317398985
 20
26.3524219989
 30
0.0
 10
332.0317398985
 20
26.5617865141
 30
0.0
 10
332.0317398985
 20
26.8056961742
 30
0.0
 10
331.8297031414
 20
26.9491108671
 30
0.0
 10
331.6031969066
 20
26.9491108671
 30
0.0
 10
331.3590255408
 20
26.9491108671
 30
0.0
 10
331.1746539146
 20
26.7983684162
 30
0.0
 10
331.1746539146
 20
26.5418968851
 30
0.0
 10
331.1746539146
 20
26.3843500875
 30
0.0
 10
331.2733169424
 20
26.2466929188
 30
0.0
 10
331.3786534641
 20
26.1357297257
 30
0.0
 10
331.3786534641
 20
26.1357297257
 30
0.0
 10
331.2631104223
 20
26.0519839197
 30
0.0
 10
331.2631104223
 20
26.0519839197
 30
0.0
 10
331.0854122901
 20
25.9237481542
 30
0.0
 10
330.9380720125
 20
25.7960357999
 30
0.0
 10
330.9380720125
 20
25.5589304865
 30
0.0
 10
330.9380720125
 20
25.2386027783
 30
0.0
 10
331.1966371887
 20
25.012489102
 30
0.0
 10
331.5070200824
 20
25.012489102
 30
0.0
 10
331.7259368536
 20
25.012489102
 30
0.0
 10
331.9231320563
 20
25.1375843998
 30
0.0
 10
332.0634062814
 20
25.303505778
 30
0.0
 10
332.0634062814
 20
25.303505778
 30
0.0
 10
332.2657047442
 20
25.0522683598
 30
0.0
 10
332.2657047442
 20
25.0522683598
 30
0.0
  0
LWPOLYLINE
  5
251
330
233
100
AcDbEntity
  8
0
  6
Continuous
 62
     7
100
AcDbPolyline
 90
        2
 70
     0
 43
0.2
 10
334.201149
 20
26.908808
 10
333.969801
 20
26.908808
  0
LWPOLYLINE
  5
252
330
233
100
AcDbEntity
  8
0
  6
Continuous
 62
     7
100
AcDbPolyline
 90
        2
 70
     0
 43
0.2
 10
333.969801
 20
26.908808
 10
333.969801
 20
25.051745
  0
LWPOLYLINE
  5
253
330
233
100
AcDbEntity
  8
0
  6
Continuous
 62
     7
100
AcDbPolyline
 90
        2
 70
     0
 43
0.2
 10
333.969801
 20
25.051745
 10
334.765124
 20
25.051745
  0
LWPOLYLINE
  5
254
330
233
100
AcDbEntity
  8
0
  6
Continuous
 62
     7
100
AcDbPolyline
 90
        2
 70
     0
 43
0.2
 10
334.765124
 20
25.051745
 10
334.765124
 20
25.263727
  0
LWPOLYLINE
  5
255
330
233
100
AcDbEntity
  8
0
  6
Continuous
 62
     7
100
AcDbPolyline
 90
        2
 70
     0
 43
0.2
 10
334.765124
 20
25.263727
 10
334.201149
 20
25.263727
  0
LWPOLYLINE
  5
256
330
233
100
AcDbEntity
  8
0
  6
Continuous
 62
     7
100
AcDbPolyline
 90
        2
 70
     0
 43
0.2
 10
334.201149
 20
25.263727
 10
334.201149
 20
26.908808
  0
LWPOLYLINE
  5
257
330
233
100
AcDbEntity
  8
0
  6
Continuous
 62
     7
100
AcDbPolyline
 90
        2
 70
     0
 43
0.2
 10
336.444228
 20
26.204297
 10
336.223087
 20
26.204297
  0
LWPOLYLINE
  5
258
330
233
100
AcDbEntity
  8
0
  6
Continuous
 62
     7
100
AcDbPolyline
 90
        2
 70
     0
 43
0.2
 10
336.223087
 20
26.204297
 10
336.223087
 20
25.052268
  0
LWPOLYLINE
  5
259
330
233
100
AcDbEntity
  8
0
  6
Continuous
 62
     7
100
AcDbPolyline
 90
        2
 70
     0
 43
0.2
 10
336.223087
 20
25.052268
 10
336.444228
 20
25.052268
  0
LWPOLYLINE
  5
25A
330
233
100
AcDbEntity
  8
0
  6
Continuous
 62
     7
100
AcDbPolyline
 90
        2
 70
     0
 43
0.2
 10
336.444228
 20
25.052268
 10
336.444228
 20
26.204297
  0
LWPOLYLINE
  5
25B
330
233
100
AcDbEntity
  8
0
  6
Continuous
 62
     7
100
AcDbPolyline
 90
        2
 70
     1
 43
0.2
 10
336.181205
 20
26.734251
 42
1.0
 10
336.486372
 20
26.734251
 42
1.0
  0
SPLINE
  5
25C
330
233
100
AcDbEntity
  8
0
  6
Continuous
 62
     7
100
AcDbSpline
 70
     3
 71
     3
 72
    17
 73
    13
 74
     0
 42
0.000000001
 43
0.0000001
 40
0.0
 40
0.0
 40
0.0
 40
0.0
 40
1.0
 40
1.0
 40
1.0
 40
2.0
 40
2.0
 40
2.0
 40
3.0
 40
3.0
 40
3.0
 40
4.0
 40
4.0
 40
4.0
 40
4.0
 10
338.5745118497
 20
25.2098151575
 30
0.0
 10
338.340547004
 20
25.2098151575
 30
0.0
 10
338.2102175934
 20
25.4118519146
 30
0.0
 10
338.2102175934
 20
25.6280207765
 30
0.0
 10
338.2102175934
 20
25.8426194045
 30
0.0
 10
338.3460428226
 20
26.0415156939
 30
0.0
 10
338.5745118497
 20
26.0415156939
 30
0.0
 10
338.8139725139
 20
26.0415156939
 30
0.0
 10
338.9495360375
 20
25.852564219
 30
0.0
 10
338.9495360375
 20
25.6280207765
 30
0.0
 10
338.9495360375
 20
25.4019071001
 30
0.0
 10
338.8163278647
 20
25.2098151575
 30
0.0
 10
338.5745118497
 20
25.2098151575
 30
0.0
  0
SPLINE
  5
25D
330
233
100
AcDbEntity
  8
0
  6
Continuous
 62
     7
100
AcDbSpline
 70
     3
 71
     3
 72
    50
 73
    46
 74
     0
 42
0.000000001
 43
0.0000001
 40
0.0
 40
0.0
 40
0.0
 40
0.0
 40
1.0
 40
1.0
 40
1.0
 40
2.0
 40
2.0
 40
2.0
 40
3.0
 40
3.0
 40
3.0
 40
4.0
 40
4.0
 40
4.0
 40
5.0
 40
5.0
 40
5.0
 40
6.0
 40
6.0
 40
6.0
 40
7.0
 40
7.0
 40
7.0
 40
8.0
 40
8.0
 40
8.0
 40
9.0
 40
9.0
 40
9.0
 40
10.0
 40
10.0
 40
10.0
 40
11.0
 40
11.0
 40
11.0
 40
12.0
 40
12.0
 40
12.0
 40
13.0
 40
13.0
 40
13.0
 40
14.0
 40
14.0
 40
14.0
 40
15.0
 40
15.0
 40
15.0
 40
15.0
 10
339.158638847
 20
26.2048200157
 30
0.0
 10
339.158638847
 20
26.2048200157
 30
0.0
 10
338.9369741666
 20
26.2048200157
 30
0.0
 10
338.9369741666
 20
26.2048200157
 30
0.0
 10
338.9369741666
 20
26.2048200157
 30
0.0
 10
338.9369741666
 20
26.0074939602
 30
0.0
 10
338.9369741666
 20
26.0074939602
 30
0.0
 10
338.9369741666
 20
26.0074939602
 30
0.0
 10
338.932263465
 20
26.0074939602
 30
0.0
 10
338.932263465
 20
26.0074939602
 30
0.0
 10
338.8409281952
 20
26.1503852418
 30
0.0
 10
338.7030093209
 20
26.2388417494
 30
0.0
 10
338.5302835959
 20
26.2388417494
 30
0.0
 10
338.1979174281
 20
26.2388417494
 30
0.0
 10
337.9888146186
 20
25.9509655411
 30
0.0
 10
337.9888146186
 20
25.6353485345
 30
0.0
 10
337.9888146186
 20
25.3055994232
 30
0.0
 10
338.1858789685
 20
25.012489102
 30
0.0
 10
338.5407518217
 20
25.012489102
 30
0.0
 10
338.7030093209
 20
25.012489102
 30
0.0
 10
338.8430218404
 20
25.1009456096
 30
0.0
 10
338.932263465
 20
25.2317984316
 30
0.0
 10
338.932263465
 20
25.2317984316
 30
0.0
 10
338.9369741666
 20
25.2317984316
 30
0.0
 10
338.9369741666
 20
25.2317984316
 30
0.0
 10
338.9369741666
 20
25.2317984316
 30
0.0
 10
338.9369741666
 20
25.012489102
 30
0.0
 10
338.9369741666
 20
25.012489102
 30
0.0
 10
338.9369741666
 20
24.7759071999
 30
0.0
 10
338.8804457475
 20
24.5890493701
 30
0.0
 10
338.6072250552
 20
24.5890493701
 30
0.0
 10
338.4049265925
 20
24.5890493701
 30
0.0
 10
338.2622970165
 20
24.7073403211
 30
0.0
 10
338.2622970165
 20
24.9135643686
 30
0.0
 10
338.2622970165
 20
24.9135643686
 30
0.0
 10
338.0406323361
 20
24.9135643686
 30
0.0
 10
338.0406323361
 20
24.9135643686
 30
0.0
 10
338.0456047433
 20
24.5890493701
 30
0.0
 10
338.2766908269
 20
24.3922467258
 30
0.0
 10
338.5970185351
 20
24.3922467258
 30
0.0
 10
339.0450585975
 20
24.3922467258
 30
0.0
 10
339.158638847
 20
24.6775058777
 30
0.0
 10
339.158638847
 20
25.0742516339
 30
0.0
 10
339.158638847
 20
25.0742516339
 30
0.0
 10
339.158638847
 20
26.2048200157
 30
0.0
 10
339.158638847
 20
26.2048200157
 30
0.0
  0
SPLINE
  5
25E
330
233
100
AcDbEntity
  8
0
  6
Continuous
 62
     7
100
AcDbSpline
 70
     3
 71
     3
 72
    44
 73
    40
 74
     0
 42
0.000000001
 43
0.0000001
 40
0.0
 40
0.0
 40
0.0
 40
0.0
 40
1.0
 40
1.0
 40
1.0
 40
2.0
 40
2.0
 40
2.0
 40
3.0
 40
3.0
 40
3.0
 40
4.0
 40
4.0
 40
4.0
 40
5.0
 40
5.0
 40
5.0
 40
6.0
 40
6.0
 40
6.0
 40
7.0
 40
7.0
 40
7.0
 40
8.0
 40
8.0
 40
8.0
 40
9.0
 40
9.0
 40
9.0
 40
10.0
 40
10.0
 40
10.0
 40
11.0
 40
11.0
 40
11.0
 40
12.0
 40
12.0
 40
12.0
 40
13.0
 40
13.0
 40
13.0
 40
13.0
 10
340.7275641824
 20
27.1898800595
 30
0.0
 10
340.7275641824
 20
27.1898800595
 30
0.0
 10
340.7275641824
 20
25.0517449486
 30
0.0
 10
340.7275641824
 20
25.0517449486
 30
0.0
 10
340.7275641824
 20
25.0517449486
 30
0.0
 10
340.9489671571
 20
25.0517449486
 30
0.0
 10
340.9489671571
 20
25.0517449486
 30
0.0
 10
340.9489671571
 20
25.0517449486
 30
0.0
 10
340.9489671571
 20
25.5814371719
 30
0.0
 10
340.9489671571
 20
25.5814371719
 30
0.0
 10
340.9489671571
 20
25.7913250983
 30
0.0
 10
340.9489671571
 20
26.0420391052
 30
0.0
 10
341.234226309
 20
26.0420391052
 30
0.0
 10
341.4611251023
 20
26.0420391052
 30
0.0
 10
341.4880807837
 20
25.9090926381
 30
0.0
 10
341.4880807837
 20
25.7128134051
 30
0.0
 10
341.4880807837
 20
25.7128134051
 30
0.0
 10
341.4880807837
 20
25.0517449486
 30
0.0
 10
341.4880807837
 20
25.0517449486
 30
0.0
 10
341.4880807837
 20
25.0517449486
 30
0.0
 10
341.7100071697
 20
25.0517449486
 30
0.0
 10
341.7100071697
 20
25.0517449486
 30
0.0
 10
341.7100071697
 20
25.0517449486
 30
0.0
 10
341.7100071697
 20
25.7389839695
 30
0.0
 10
341.7100071697
 20
25.7389839695
 30
0.0
 10
341.7100071697
 20
26.0195324198
 30
0.0
 10
341.625999658
 20
26.2393651607
 30
0.0
 10
341.3009612482
 20
26.2393651607
 30
0.0
 10
341.1612104344
 20
26.2393651607
 30
0.0
 10
341.0230298544
 20
26.1728919272
 30
0.0
 10
340.9536778587
 20
26.0498902745
 30
0.0
 10
340.9536778587
 20
26.0498902745
 30
0.0
 10
340.9489671571
 20
26.0498902745
 30
0.0
 10
340.9489671571
 20
26.0498902745
 30
0.0
 10
340.9489671571
 20
26.0498902745
 30
0.0
 10
340.9489671571
 20
27.1898800595
 30
0.0
 10
340.9489671571
 20
27.1898800595
 30
0.0
 10
340.9489671571
 20
27.1898800595
 30
0.0
 10
340.7275641824
 20
27.1898800595
 30
0.0
 10
340.7275641824
 20
27.1898800595
 30
0.0
  0
LWPOLYLINE
  5
25F
330
233
100
AcDbEntity
  8
0
  6
Continuous
 62
     7
100
AcDbPolyline
 90
        2
 70
     0
 43
0.2
 10
343.549798
 20
25.997549
 10
343.766228
 20
25.997549
  0
LWPOLYLINE
  5
260
330
233
100
AcDbEntity
  8
0
  6
Continuous
 62
     7
100
AcDbPolyline
 90
        2
 70
     0
 43
0.2
 10
343.766228
 20
25.997549
 10
343.766228
 20
26.204297
  0
LWPOLYLINE
  5
261
330
233
100
AcDbEntity
  8
0
  6
Continuous
 62
     7
100
AcDbPolyline
 90
        2
 70
     0
 43
0.2
 10
343.766228
 20
26.204297
 10
343.549798
 20
26.204297
  0
LWPOLYLINE
  5
262
330
233
100
AcDbEntity
  8
0
  6
Continuous
 62
     7
100
AcDbPolyline
 90
        2
 70
     0
 43
0.2
 10
343.549798
 20
26.204297
 10
343.549798
 20
26.645009
  0
LWPOLYLINE
  5
263
330
233
100
AcDbEntity
  8
0
  6
Continuous
 62
     7
100
AcDbPolyline
 90
        2
 70
     0
 43
0.2
 10
343.549798
 20
26.645009
 10
343.328133
 20
26.645009
  0
LWPOLYLINE
  5
264
330
233
100
AcDbEntity
  8
0
  6
Continuous
 62
     7
100
AcDbPolyline
 90
        2
 70
     0
 43
0.2
 10
343.328133
 20
26.645009
 10
343.328133
 20
26.204297
  0
LWPOLYLINE
  5
265
330
233
100
AcDbEntity
  8
0
  6
Continuous
 62
     7
100
AcDbPolyline
 90
        2
 70
     0
 43
0.2
 10
343.328133
 20
26.204297
 10
343.207487
 20
26.204297
  0
LWPOLYLINE
  5
266
330
233
100
AcDbEntity
  8
0
  6
Continuous
 62
     7
100
AcDbPolyline
 90
        2
 70
     0
 43
0.2
 10
343.207487
 20
26.204297
 10
343.207487
 20
25.997549
  0
LWPOLYLINE
  5
267
330
233
100
AcDbEntity
  8
0
  6
Continuous
 62
     7
100
AcDbPolyline
 90
        2
 70
     0
 43
0.2
 10
343.207487
 20
25.997549
 10
343.328133
 20
25.997549
  0
LWPOLYLINE
  5
268
330
233
100
AcDbEntity
  8
0
  6
Continuous
 62
     7
100
AcDbPolyline
 90
        2
 70
     0
 43
0.2
 10
343.328133
 20
25.997549
 10
343.328133
 20
25.051745
  0
LWPOLYLINE
  5
269
330
233
100
AcDbEntity
  8
0
  6
Continuous
 62
     7
100
AcDbPolyline
 90
        2
 70
     0
 43
0.2
 10
343.328133
 20
25.051745
 10
343.549798
 20
25.051745
  0
LWPOLYLINE
  5
26A
330
233
100
AcDbEntity
  8
0
  6
Continuous
 62
     7
100
AcDbPolyline
 90
        2
 70
     0
 43
0.2
 10
343.549798
 20
25.051745
 10
343.549798
 20
25.997549
  0
SPLINE
  5
26B
330
233
100
AcDbEntity
  8
0
  6
Continuous
 62
     7
100
AcDbSpline
 70
     3
 71
     3
 72
    20
 73
    16
 74
     0
 42
0.000000001
 43
0.0000001
 40
0.0
 40
0.0
 40
0.0
 40
0.0
 40
1.0
 40
1.0
 40
1.0
 40
2.0
 40
2.0
 40
2.0
 40
3.0
 40
3.0
 40
3.0
 40
4.0
 40
4.0
 40
4.0
 40
5.0
 40
5.0
 40
5.0
 40
5.0
 10
331.3318081538
 20
35.4126713919
 30
0.0
 10
331.3318081538
 20
35.4126713919
 30
0.0
 10
333.6481648083
 20
32.5831099697
 30
0.0
 10
333.6481648083
 20
32.5831099697
 30
0.0
 10
332.9965177549
 20
31.930939505
 30
0.0
 10
332.2196445509
 20
31.1950232343
 30
0.0
 10
331.2484549062
 20
31.1950232343
 30
0.0
 10
330.2499170218
 20
31.1950232343
 30
0.0
 10
329.3065990282
 20
32.1246016815
 30
0.0
 10
329.3065990282
 20
33.1237938301
 30
0.0
 10
329.3065990282
 20
34.1229859786
 30
0.0
 10
330.4854521013
 20
34.8295912173
 30
0.0
 10
331.2069745617
 20
35.3294489972
 30
0.0
 10
331.2069745617
 20
35.3294489972
 30
0.0
 10
331.3318081538
 20
35.4126713919
 30
0.0
 10
331.3318081538
 20
35.4126713919
 30
0.0
  0
SPLINE
  5
26C
330
233
100
AcDbEntity
  8
0
  6
Continuous
 62
     7
100
AcDbSpline
 70
     3
 71
     3
 72
    23
 73
    19
 74
     0
 42
0.000000001
 43
0.0000001
 40
0.0
 40
0.0
 40
0.0
 40
0.0
 40
1.0
 40
1.0
 40
1.0
 40
2.0
 40
2.0
 40
2.0
 40
3.0
 40
3.0
 40
3.0
 40
4.0
 40
4.0
 40
4.0
 40
5.0
 40
5.0
 40
5.0
 40
6.0
 40
6.0
 40
6.0
 40
6.0
 10
331.6092161364
 20
37.0504253117
 30
0.0
 10
331.6092161364
 20
37.0504253117
 30
0.0
 10
331.2627178638
 20
37.4937546725
 30
0.0
 10
331.2627178638
 20
37.4937546725
 30
0.0
 10
330.9569148189
 20
37.8818641425
 30
0.0
 10
330.6380264917
 20
38.2703661709
 30
0.0
 10
330.6380264917
 20
38.797310485
 30
0.0
 10
330.6380264917
 20
39.4634822016
 30
0.0
 10
331.1793646162
 20
39.9072041209
 30
0.0
 10
331.8032708714
 20
39.9072041209
 30
0.0
 10
332.4970525334
 20
39.9072041209
 30
0.0
 10
333.0242585531
 20
39.5049625462
 30
0.0
 10
333.0242585531
 20
38.7699622452
 30
0.0
 10
333.0242585531
 20
38.0066977346
 30
0.0
 10
332.3029977985
 20
37.5765845088
 30
0.0
 10
331.7759226316
 20
37.1608650934
 30
0.0
 10
331.7759226316
 20
37.1608650934
 30
0.0
 10
331.6092161364
 20
37.0504253117
 30
0.0
 10
331.6092161364
 20
37.0504253117
 30
0.0
  0
SPLINE
  5
26D
330
233
100
AcDbEntity
  8
0
  6
Continuous
 62
     7
100
AcDbSpline
 70
     3
 71
     3
 72
    50
 73
    46
 74
     0
 42
0.000000001
 43
0.0000001
 40
0.0
 40
0.0
 40
0.0
 40
0.0
 40
1.0
 40
1.0
 40
1.0
 40
2.0
 40
2.0
 40
2.0
 40
3.0
 40
3.0
 40
3.0
 40
4.0
 40
4.0
 40
4.0
 40
5.0
 40
5.0
 40
5.0
 40
6.0
 40
6.0
 40
6.0
 40
7.0
 40
7.0
 40
7.0
 40
8.0
 40
8.0
 40
8.0
 40
9.0
 40
9.0
 40
9.0
 40
10.0
 40
10.0
 40
10.0
 40
11.0
 40
11.0
 40
11.0
 40
12.0
 40
12.0
 40
12.0
 40
13.0
 40
13.0
 40
13.0
 40
14.0
 40
14.0
 40
14.0
 40
15.0
 40
15.0
 40
15.0
 40
15.0
 10
335.5628032993
 20
30.2518360935
 30
0.0
 10
335.5628032993
 20
30.2518360935
 30
0.0
 10
337.1720313039
 20
30.2518360935
 30
0.0
 10
337.1720313039
 20
30.2518360935
 30
0.0
 10
337.1720313039
 20
30.2518360935
 30
0.0
 10
335.2990040102
 20
32.568977865
 30
0.0
 10
335.2990040102
 20
32.568977865
 30
0.0
 10
335.2990040102
 20
32.568977865
 30
0.0
 10
336.5753424357
 20
34.0664575595
 30
0.0
 10
336.5753424357
 20
34.0664575595
 30
0.0
 10
336.5753424357
 20
34.0664575595
 30
0.0
 10
335.743118488
 20
34.9274691281
 30
0.0
 10
335.743118488
 20
34.9274691281
 30
0.0
 10
335.743118488
 20
34.9274691281
 30
0.0
 10
334.5225233647
 20
33.5121650057
 30
0.0
 10
334.5225233647
 20
33.5121650057
 30
0.0
 10
334.5225233647
 20
33.5121650057
 30
0.0
 10
332.3446089958
 20
36.1475408401
 30
0.0
 10
332.3446089958
 20
36.1475408401
 30
0.0
 10
333.2181824353
 20
36.7855792
 30
0.0
 10
334.2448536765
 20
37.5765845088
 30
0.0
 10
334.2448536765
 20
38.7554375819
 30
0.0
 10
334.2448536765
 20
40.1291305069
 30
0.0
 10
333.1069575366
 20
40.9336136564
 30
0.0
 10
331.8316659337
 20
40.9336136564
 30
0.0
 10
330.4582347144
 20
40.9336136564
 30
0.0
 10
329.4173005156
 20
40.0873884567
 30
0.0
 10
329.4173005156
 20
38.6447360945
 30
0.0
 10
329.4173005156
 20
37.7571614031
 30
0.0
 10
329.972639892
 20
36.9802881991
 30
0.0
 10
330.5688053489
 20
36.3558585327
 30
0.0
 10
330.5688053489
 20
36.3558585327
 30
0.0
 10
329.9168965899
 20
35.8842649623
 30
0.0
 10
329.9168965899
 20
35.8842649623
 30
0.0
 10
328.9183587055
 20
35.1630042076
 30
0.0
 10
328.0854804936
 20
34.4417434529
 30
0.0
 10
328.0854804936
 20
33.1101851366
 30
0.0
 10
328.0854804936
 20
31.3065098386
 30
0.0
 10
329.5425266662
 20
30.0299097075
 30
0.0
 10
331.2900661036
 20
30.0299097075
 30
0.0
 10
332.5249241845
 20
30.0299097075
 30
0.0
 10
333.6342944092
 20
30.73808518
 30
0.0
 10
334.4251688651
 20
31.6666168047
 30
0.0
 10
334.4251688651
 20
31.6666168047
 30
0.0
 10
335.5628032993
 20
30.2518360935
 30
0.0
 10
335.5628032993
 20
30.2518360935
 30
0.0
  0
LINE
  5
26E
330
233
100
AcDbEntity
  8
0
  6
Continuous
 62
     7
100
AcDbLine
 10
321.365665
 20
28.225711
 30
0.0
 11
343.779575
 21
28.225711
 31
0.0
  0
LINE
  5
26F
330
233
100
AcDbEntity
  8
0
  6
Continuous
 62
     7
100
AcDbLine
 10
343.779575
 20
28.225711
 30
0.0
 11
343.779575
 21
50.639622
 31
0.0
  0
LINE
  5
270
330
233
100
AcDbEntity
  8
0
  6
Continuous
 62
     7
100
AcDbLine
 10
343.779575
 20
50.639622
 30
0.0
 11
321.365665
 21
50.639622
 31
0.0
  0
LINE
  5
271
330
233
100
AcDbEntity
  8
0
  6
Continuous
 62
     7
100
AcDbLine
 10
321.365665
 20
50.639622
 30
0.0
 11
321.365665
 21
28.225711
 31
0.0
  0
ENDBLK
  5
272
330
233
100
AcDbEntity
  8
0
  6
ByBlock
 62
     0
100
AcDbBlockEnd
  0
BLOCK
  5
2A6
330
234
100
AcDbEntity
  8
0
100
AcDbBlockBegin
  2
*T7
 70
     1
 10
0.0
 20
0.0
 30
0.0
  3
*T7
  1
*T7
  0
LINE
  5
2A7
330
234
100
AcDbEntity
  8
0
  6
Continuous
 62
     2
100
AcDbLine
 10
0.0
 20
0.0
 30
0.0
 11
90.0
 21
0.0
 31
0.0
  0
LINE
  5
2A8
330
234
100
AcDbEntity
  8
0
  6
Continuous
 62
     2
100
AcDbLine
 10
0.0
 20
0.0
 30
0.0
 11
0.0
 21
-40.0
 31
0.0
  0
LINE
  5
2A9
330
234
100
AcDbEntity
  8
0
  6
Continuous
 62
     2
100
AcDbLine
 10
30.0
 20
-6.0
 30
0.0
 11
90.0
 21
-6.0
 31
0.0
  0
LINE
  5
2AA
330
234
100
AcDbEntity
  8
0
  6
Continuous
 62
     2
100
AcDbLine
 10
30.0
 20
-12.0
 30
0.0
 11
90.0
 21
-12.0
 31
0.0
  0
LINE
  5
2AB
330
234
100
AcDbEntity
  8
0
  6
Continuous
 62
     2
100
AcDbLine
 10
30.0
 20
-22.0
 30
0.0
 11
90.0
 21
-22.0
 31
0.0
  0
LINE
  5
2AC
330
234
100
AcDbEntity
  8
0
  6
Continuous
 62
     2
100
AcDbLine
 10
0.0
 20
-27.0
 30
0.0
 11
90.0
 21
-27.0
 31
0.0
  0
LINE
  5
2AD
330
234
100
AcDbEntity
  8
0
  6
Continuous
 62
     2
100
AcDbLine
 10
0.0
 20
-40.0
 30
0.0
 11
90.0
 21
-40.0
 31
0.0
  0
LINE
  5
2AE
330
234
100
AcDbEntity
  8
0
  6
Continuous
 62
     2
100
AcDbLine
 10
30.0
 20
0.0
 30
0.0
 11
30.0
 21
-27.0
 31
0.0
  0
LINE
  5
2AF
330
234
100
AcDbEntity
  8
0
  6
Continuous
 62
     2
100
AcDbLine
 10
70.0
 20
0.0
 30
0.0
 11
70.0
 21
-12.0
 31
0.0
  0
LINE
  5
2B0
330
234
100
AcDbEntity
  8
0
  6
Continuous
 62
     2
100
AcDbLine
 10
90.0
 20
0.0
 30
0.0
 11
90.0
 21
-40.0
 31
0.0
  0
MTEXT
  5
2B1
330
234
100
AcDbEntity
  8
9_SOLID
  6
Continuous
 62
     2
100
AcDbMText
 10
31.4875
 20
-1.5
 30
0.0
 40
3.0
 41
44.72119
 46
0.0
 71
     1
 72
     1
  1
3D1_C_081
  7
TEXTSTYLE_4
 73
     1
 44
0.9
  0
MTEXT
  5
2B2
330
234
100
AcDbEntity
  8
9_SOLID
  6
Continuous
 62
     2
100
AcDbMText
 10
71.4875
 20
-1.25
 30
0.0
 40
3.5
 41
30.966543
 46
0.0
 71
     1
 72
     1
  1
Rev:00
  7
TEXTSTYLE_4
 73
     1
 44
0.9
  0
MTEXT
  5
2B3
330
234
100
AcDbEntity
  8
9_SOLID
  6
Continuous
 62
     2
100
AcDbMText
 10
31.4875
 20
-7.75
 30
0.0
 40
3.5
 41
40.724907
 46
0.0
 71
     1
 72
     1
  1
Scale:1:1
  7
TEXTSTYLE_4
 73
     1
 44
0.9
  0
MTEXT
  5
2B4
330
234
100
AcDbEntity
  8
9_SOLID
  6
Continuous
 62
     2
100
AcDbMText
 10
71.4875
 20
-7.25
 30
0.0
 40
3.5
 41
11.944238
 46
0.0
 71
     1
 72
     1
  1
A3
  7
TEXTSTYLE_4
 73
     1
 44
0.9
  0
MTEXT
  5
2B5
330
234
100
AcDbEntity
  8
9_SOLID
  6
Continuous
 62
     2
100
AcDbMText
 10
31.4875
 20
-15.25
 30
0.0
 40
3.5
 41
51.003717
 46
0.0
 71
     1
 72
     1
  1
KOCCA 1.1
  7
TEXTSTYLE_4
 73
     1
 44
0.9
  0
MTEXT
  5
2B6
330
234
100
AcDbEntity
  8
9_SOLID
  6
Continuous
 62
     2
100
AcDbMText
 10
31.4875
 20
-23.25
 30
0.0
 40
2.5
 41
47.695167
 46
0.0
 71
     1
 72
     1
  1
DATE:27.03.14
  7
TEXTSTYLE_4
 73
     1
 44
0.9
  0
MTEXT
  5
2B7
330
234
100
AcDbEntity
  8
9_SOLID
  6
Continuous
 62
     2
100
AcDbMText
 10
1.4875
 20
-27.3125
 30
0.0
 40
2.25
 41
148.98513
 46
0.0
 71
     1
 72
     1
  1
Any integral or partial reproductions are prohibited \Pwithout prior authorisation of L & L Luce & Light s.r.l., \Pin accordance with the law in force. \PAll rights reserved.
  7
TEXTSTYLE_4
 73
     1
 44
0.9
  0
ENDBLK
  5
2B8
330
234
100
AcDbEntity
  8
0
  6
ByBlock
 62
     0
100
AcDbBlockEnd
  0
ENDSEC
  0
SECTION
  2
ENTITIES
  0
LINE
  5
2B9
330
22C
100
AcDbEntity
 67
     1
  8
0
  6
Continuous
 62
     7
100
AcDbLine
 10
0.0
 20
0.0
 30
0.0
 11
420.0
 21
0.0
 31
0.0
  0
LINE
  5
2BA
330
22C
100
AcDbEntity
 67
     1
  8
0
  6
Continuous
 62
     7
100
AcDbLine
 10
420.0
 20
0.0
 30
0.0
 11
420.0
 21
297.0
 31
0.0
  0
LINE
  5
2BB
330
22C
100
AcDbEntity
 67
     1
  8
0
  6
Continuous
 62
     7
100
AcDbLine
 10
0.0
 20
297.0
 30
0.0
 11
420.0
 21
297.0
 31
0.0
  0
LINE
  5
2BC
330
22C
100
AcDbEntity
 67
     1
  8
0
  6
Continuous
 62
     7
100
AcDbLine
 10
0.0
 20
0.0
 30
0.0
 11
0.0
 21
297.0
 31
0.0
  0
LWPOLYLINE
  5
2BD
330
22C
100
AcDbEntity
 67
     1
  8
0
  6
Continuous
 62
     7
100
AcDbPolyline
 90
        2
 70
     0
 43
0.5
 10
410.0
 20
10.031844
 10
410.0
 20
287.0
  0
LWPOLYLINE
  5
2BE
330
22C
100
AcDbEntity
 67
     1
  8
0
  6
Continuous
 62
     7
100
AcDbPolyline
 90
        2
 70
     0
 43
0.5
 10
10.053631
 20
10.031844
 10
10.053631
 20
287.0
  0
LWPOLYLINE
  5
2BF
330
22C
100
AcDbEntity
 67
     1
  8
0
  6
Continuous
 62
     7
100
AcDbPolyline
 90
        2
 70
     0
 43
0.5
 10
10.053631
 20
10.031844
 10
410.0
 20
10.031844
  0
LWPOLYLINE
  5
2C0
330
22C
100
AcDbEntity
 67
     1
  8
0
  6
Continuous
 62
     7
100
AcDbPolyline
 90
        2
 70
     0
 43
0.1
 10
210.0
 20
10.0
 10
210.0
 20
0.0
  0
LWPOLYLINE
  5
2C1
330
22C
100
AcDbEntity
 67
     1
  8
0
  6
Continuous
 62
     7
100
AcDbPolyline
 90
        2
 70
     0
 43
0.1
 10
210.0
 20
287.0
 10
210.0
 20
297.0
  0
LWPOLYLINE
  5
2C2
330
22C
100
AcDbEntity
 67
     1
  8
0
  6
Continuous
 62
     7
100
AcDbPolyline
 90
        2
 70
     0
 43
0.1
 10
410.0
 20
148.5
 10
420.0
 20
148.5
  0
LWPOLYLINE
  5
2C3
330
22C
100
AcDbEntity
 67
     1
  8
0
  6
Continuous
 62
     7
100
AcDbPolyline
 90
        2
 70
     0
 43
0.1
 10
10.0
 20
148.5
 10
0.0
 20
148.5
  0
LWPOLYLINE
  5
2C4
330
22C
100
AcDbEntity
 67
     1
  8
0
  6
Continuous
 62
     7
100
AcDbPolyline
 90
        2
 70
     0
 43
0.5
 10
10.053631
 20
287.0
 10
410.0
 20
287.0
  0
LWPOLYLINE
  5
2C5
330
22C
100
AcDbEntity
 67
     1
  8
0
  6
Continuous
 62
     7
100
AcDbPolyline
 90
        2
 70
     0
 43
0.1
 10
0.0
 20
290.0
 10
420.0
 20
290.0
  0
LWPOLYLINE
  5
2C6
330
22C
100
AcDbEntity
 67
     1
  8
0
  6
Continuous
 62
     7
100
AcDbPolyline
 90
        2
 70
     0
 43
0.1
 10
7.053631
 20
0.0
 10
7.053631
 20
297.0
  0
LWPOLYLINE
  5
2C7
330
22C
100
AcDbEntity
 67
     1
  8
0
  6
Continuous
 62
     7
100
AcDbPolyline
 90
        2
 70
     0
 43
0.1
 10
413.0
 20
0.0
 10
413.0
 20
297.0
  0
LWPOLYLINE
  5
2C8
330
22C
100
AcDbEntity
 67
     1
  8
0
  6
Continuous
 62
     7
100
AcDbPolyline
 90
        2
 70
     0
 43
0.1
 10
0.0
 20
7.031844
 10
420.0
 20
7.031844
  0
LWPOLYLINE
  5
2C9
330
22C
100
AcDbEntity
 67
     1
  8
0
  6
Continuous
 62
     7
100
AcDbPolyline
 90
        2
 70
     0
 43
0.1
 10
10.0
 20
202.968156
 10
0.0
 20
202.968156
  0
LINE
  5
2CA
330
22C
100
AcDbEntity
 67
     1
  8
0
  6
Continuous
 62
     7
100
AcDbLine
 10
0.0
 20
99.968156
 30
0.0
 11
7.0
 21
99.968156
 31
0.0
  0
LINE
  5
2CB
330
22C
100
AcDbEntity
 67
     1
  8
0
  6
Continuous
 62
     7
100
AcDbLine
 10
0.0
 20
199.968156
 30
0.0
 11
7.0
 21
199.968156
 31
0.0
  0
LWPOLYLINE
  5
2CC
330
22C
100
AcDbEntity
 67
     1
  8
0
  6
Continuous
 62
     7
100
AcDbPolyline
 90
        2
 70
     0
 43
0.1
 10
410.0
 20
210.0
 10
420.0
 20
210.0
  0
LINE
  5
2CD
330
22C
100
AcDbEntity
 67
     1
  8
0
  6
Continuous
 62
     7
100
AcDbLine
 10
413.0
 20
107.0
 30
0.0
 11
420.0
 21
107.0
 31
0.0
  0
LWPOLYLINE
  5
2CE
330
22C
100
AcDbEntity
 67
     1
  8
0
  6
Continuous
 62
     7
100
AcDbPolyline
 90
        2
 70
     0
 43
0.1
 10
123.0
 20
10.0
 10
123.0
 20
0.0
  0
LINE
  5
2CF
330
22C
100
AcDbEntity
 67
     1
  8
0
  6
Continuous
 62
     7
100
AcDbLine
 10
210.0
 20
0.0
 30
0.0
 11
210.0
 21
10.0
 31
0.0
  0
LINE
  5
2D0
330
22C
100
AcDbEntity
 67
     1
  8
0
  6
Continuous
 62
     7
100
AcDbLine
 10
313.0
 20
7.0
 30
0.0
 11
313.0
 21
0.0
 31
0.0
  0
LINE
  5
2D1
330
22C
100
AcDbEntity
 67
     1
  8
0
  6
Continuous
 62
     7
100
AcDbLine
 10
113.0
 20
7.0
 30
0.0
 11
113.0
 21
0.0
 31
0.0
  0
LWPOLYLINE
  5
2D2
330
22C
100
AcDbEntity
 67
     1
  8
0
  6
Continuous
 62
     7
100
AcDbPolyline
 90
        2
 70
     0
 43
0.1
 10
123.0
 20
287.0
 10
123.0
 20
297.0
  0
LINE
  5
2D3
330
22C
100
AcDbEntity
 67
     1
  8
0
  6
Continuous
 62
     7
100
AcDbLine
 10
210.0
 20
287.0
 30
0.0
 11
210.0
 21
297.0
 31
0.0
  0
LINE
  5
2D4
330
22C
100
AcDbEntity
 67
     1
  8
0
  6
Continuous
 62
     7
100
AcDbLine
 10
313.0
 20
297.0
 30
0.0
 11
313.0
 21
290.0
 31
0.0
  0
LINE
  5
2D5
330
22C
100
AcDbEntity
 67
     1
  8
0
  6
Continuous
 62
     7
100
AcDbLine
 10
113.0
 20
297.0
 30
0.0
 11
113.0
 21
290.0
 31
0.0
  0
MTEXT
  5
2D6
330
22C
100
AcDbEntity
 67
     1
  8
0
  6
Continuous
 62
     2
100
AcDbMText
 10
1.646722
 20
53.595027
 30
0.0
 40
4.0
 41
3.428571
 46
0.0
 71
     1
 72
     1
  1
1
  7
TEXTSTYLE_2
 73
     1
 44
0.9
  0
MTEXT
  5
2D7
330
22C
100
AcDbEntity
 67
     1
  8
0
  6
Continuous
 62
     2
100
AcDbMText
 10
1.646722
 20
153.595027
 30
0.0
 40
4.0
 41
4.714286
 46
0.0
 71
     1
 72
     1
  1
2
  7
TEXTSTYLE_2
 73
     1
 44
0.9
  0
MTEXT
  5
2D8
330
22C
100
AcDbEntity
 67
     1
  8
0
  6
Continuous
 62
     2
100
AcDbMText
 10
1.646722
 20
253.595027
 30
0.0
 40
4.0
 41
4.285714
 46
0.0
 71
     1
 72
     1
  1
3
  7
TEXTSTYLE_2
 73
     1
 44
0.9
  0
MTEXT
  5
2D9
330
22C
100
AcDbEntity
 67
     1
  8
0
  6
Continuous
 62
     2
100
AcDbMText
 10
414.646722
 20
60.626871
 30
0.0
 40
4.0
 41
3.428571
 46
0.0
 71
     1
 72
     1
  1
1
  7
TEXTSTYLE_2
 73
     1
 44
0.9
  0
MTEXT
  5
2DA
330
22C
100
AcDbEntity
 67
     1
  8
0
  6
Continuous
 62
     2
100
AcDbMText
 10
414.646722
 20
160.626871
 30
0.0
 40
4.0
 41
4.714286
 46
0.0
 71
     1
 72
     1
  1
2
  7
TEXTSTYLE_2
 73
     1
 44
0.9
  0
MTEXT
  5
2DB
330
22C
100
AcDbEntity
 67
     1
  8
0
  6
Continuous
 62
     2
100
AcDbMText
 10
414.646722
 20
260.626871
 30
0.0
 40
4.0
 41
4.285714
 46
0.0
 71
     1
 72
     1
  1
3
  7
TEXTSTYLE_2
 73
     1
 44
0.9
  0
MTEXT
  5
2DC
330
22C
100
AcDbEntity
 67
     1
  8
0
  6
Continuous
 62
     2
100
AcDbMText
 10
362.154891
 20
5.35876
 30
0.0
 40
4.0
 41
3.6
 46
0.0
 71
     1
 72
     1
  1
A
  7
TEXTSTYLE_3
 73
     1
 44
0.9
  0
MTEXT
  5
2DD
330
22C
100
AcDbEntity
 67
     1
  8
0
  6
Continuous
 62
     2
100
AcDbMText
 10
262.154891
 20
5.35876
 30
0.0
 40
4.0
 41
3.6
 46
0.0
 71
     1
 72
     1
  1
B
  7
TEXTSTYLE_3
 73
     1
 44
0.9
  0
MTEXT
  5
2DE
330
22C
100
AcDbEntity
 67
     1
  8
0
  6
Continuous
 62
     2
100
AcDbMText
 10
162.154891
 20
5.35876
 30
0.0
 40
4.0
 41
3.6
 46
0.0
 71
     1
 72
     1
  1
C
  7
TEXTSTYLE_3
 73
     1
 44
0.9
  0
MTEXT
  5
2DF
330
22C
100
AcDbEntity
 67
     1
  8
0
  6
Continuous
 62
     2
100
AcDbMText
 10
55.797869
 20
5.535344
 30
0.0
 40
4.0
 41
3.6
 46
0.0
 71
     1
 72
     1
  1
D
  7
TEXTSTYLE_3
 73
     1
 44
0.9
  0
MTEXT
  5
2E0
330
22C
100
AcDbEntity
 67
     1
  8
0
  6
Continuous
 62
     2
100
AcDbMText
 10
362.154891
 20
295.35876
 30
0.0
 40
4.0
 41
3.6
 46
0.0
 71
     1
 72
     1
  1
A
  7
TEXTSTYLE_3
 73
     1
 44
0.9
  0
MTEXT
  5
2E1
330
22C
100
AcDbEntity
 67
     1
  8
0
  6
Continuous
 62
     2
100
AcDbMText
 10
262.154891
 20
295.35876
 30
0.0
 40
4.0
 41
3.6
 46
0.0
 71
     1
 72
     1
  1
B
  7
TEXTSTYLE_3
 73
     1
 44
0.9
  0
MTEXT
  5
2E2
330
22C
100
AcDbEntity
 67
     1
  8
0
  6
Continuous
 62
     2
100
AcDbMText
 10
162.154891
 20
295.35876
 30
0.0
 40
4.0
 41
3.6
 46
0.0
 71
     1
 72
     1
  1
C
  7
TEXTSTYLE_3
 73
     1
 44
0.9
  0
MTEXT
  5
2E3
330
22C
100
AcDbEntity
 67
     1
  8
0
  6
Continuous
 62
     2
100
AcDbMText
 10
53.987883
 20
295.57949
 30
0.0
 40
4.0
 41
3.6
 46
0.0
 71
     1
 72
     1
  1
D
  7
TEXTSTYLE_3
 73
     1
 44
0.9
  0
VIEWPORT
  5
2E4
330
22C
100
AcDbEntity
 67
     1
  8
0
100
AcDbViewport
 10
0.0
 20
0.0
 30
0.0
 40
588.18318
 41
297.0
 68
     1
 69
     1
 12
210.0
 22
148.5
 13
0.0
 23
0.0
 14
10.0
 24
10.0
 15
10.0
 25
10.0
 16
0.0
 26
0.0
 36
1.0
 17
0.0
 27
0.0
 37
0.0
 42
50.0
 43
0.0
 44
0.0
 45
297.0
 50
0.0
 51
0.0
 72
   100
 90
    32880
  1

281
     0
 71
     1
 74
     0
110
0.0
120
0.0
130
0.0
111
1.0
121
0.0
131
0.0
112
0.0
122
1.0
132
0.0
 79
     0
146
0.0
170
     0
 61
     5
292
     1
282
     1
141
0.0
142
0.0
 63
   256
361
49C
  0
LINE
  5
2E5
330
22C
100
AcDbEntity
 67
     1
  8
7_ALL_FEATURES
  6
HIDDEN
 62
     8
100
AcDbLine
 10
134.724945
 20
257.826259
 30
0.0
 11
135.456765
 21
257.826259
 31
0.0
  0
LINE
  5
2E6
330
22C
100
AcDbEntity
 67
     1
  8
7_ALL_FEATURES
  6
HIDDEN
 62
     8
100
AcDbLine
 10
135.456765
 20
257.826259
 30
0.0
 11
135.456765
 21
257.551461
 31
0.0
  0
LINE
  5
2E7
330
22C
100
AcDbEntity
 67
     1
  8
7_ALL_FEATURES
  6
HIDDEN
 62
     8
100
AcDbLine
 10
135.456765
 20
257.551461
 30
0.0
 11
134.424463
 21
257.551461
 31
0.0
  0
LINE
  5
2E8
330
22C
100
AcDbEntity
 67
     1
  8
7_ALL_FEATURES
  6
HIDDEN
 62
     8
100
AcDbLine
 10
134.424463
 20
257.551461
 30
0.0
 11
134.424463
 21
259.96092
 31
0.0
  0
LINE
  5
2E9
330
22C
100
AcDbEntity
 67
     1
  8
7_ALL_FEATURES
  6
HIDDEN
 62
     8
100
AcDbLine
 10
134.424463
 20
259.96092
 30
0.0
 11
134.724945
 21
259.96092
 31
0.0
  0
LINE
  5
2EA
330
22C
100
AcDbEntity
 67
     1
  8
7_ALL_FEATURES
  6
HIDDEN
 62
     8
100
AcDbLine
 10
134.724945
 20
259.96092
 30
0.0
 11
134.724945
 21
257.826259
 31
0.0
  0
LINE
  5
2EB
330
22C
100
AcDbEntity
 67
     1
  8
7_ALL_FEATURES
  6
HIDDEN
 62
     8
100
AcDbLine
 10
136.325382
 20
259.219664
 30
0.0
 11
136.405205
 21
259.117534
 31
0.0
  0
LINE
  5
2EC
330
22C
100
AcDbEntity
 67
     1
  8
7_ALL_FEATURES
  6
HIDDEN
 62
     8
100
AcDbLine
 10
136.405205
 20
259.117534
 30
0.0
 11
136.443609
 21
259.142976
 31
0.0
  0
SPLINE
  5
2ED
330
22C
100
AcDbEntity
 67
     1
  8
7_ALL_FEATURES
  6
HIDDEN
 62
     8
100
AcDbSpline
 70
     0
 71
     3
 72
    11
 73
     7
 74
     0
 42
0.000000001
 43
0.0000001
 40
0.0
 40
0.0
 40
0.0
 40
0.0
 40
0.2488928963
 40
0.503618197
 40
0.7495274719
 40
1.0
 40
1.0
 40
1.0
 40
1.0
 10
136.4436093689
 20
259.1429757813
 30
0.0
 10
136.4753015889
 20
259.1679723511
 30
0.0
 10
136.5413186564
 20
259.2160761737
 30
0.0
 10
136.6347854595
 20
259.2940839874
 30
0.0
 10
136.7113398883
 20
259.3913479863
 30
0.0
 10
136.7311889042
 20
259.4730441571
 30
0.0
 10
136.7311889042
 20
259.5136639937
 30
0.0
  0
SPLINE
  5
2EE
330
22C
100
AcDbEntity
 67
     1
  8
7_ALL_FEATURES
  6
HIDDEN
 62
     8
100
AcDbSpline
 70
     0
 71
     3
 72
    10
 73
     6
 74
     0
 42
0.000000001
 43
0.0000001
 40
0.0
 40
0.0
 40
0.0
 40
0.0
 40
0.2677432381
 40
0.5047124626
 40
1.0
 40
1.0
 40
1.0
 40
1.0
 10
136.7311889042
 20
259.5136639937
 30
0.0
 10
136.7311889042
 20
259.5517979227
 30
0.0
 10
136.7192277676
 20
259.6251602175
 30
0.0
 10
136.6336858996
 20
259.7451610058
 30
0.0
 10
136.5204520257
 20
259.7756507591
 30
0.0
 10
136.4499095914
 20
259.7756507591
 30
0.0
  0
SPLINE
  5
2EF
330
22C
100
AcDbEntity
 67
     1
  8
7_ALL_FEATURES
  6
HIDDEN
 62
     8
100
AcDbSpline
 70
     0
 71
     3
 72
    21
 73
    17
 74
     0
 42
0.000000001
 43
0.0000001
 40
0.0
 40
0.0
 40
0.0
 40
0.0
 40
0.1385587501
 40
0.2716037165
 40
0.3378237324
 40
0.4049060553
 40
0.4742968392
 40
0.5104789143
 40
0.54797154
 40
0.5777690112
 40
0.6067971626
 40
0.6633032496
 40
0.7188537262
 40
0.774324849
 40
0.886467178
 40
1.0
 40
1.0
 40
1.0
 40
1.0
 10
136.4499095914
 20
259.7756507591
 30
0.0
 10
136.4151725525
 20
259.7756507591
 30
0.0
 10
136.3464184177
 20
259.763781268
 30
0.0
 10
136.2719301648
 20
259.7191028055
 30
0.0
 10
136.2269841234
 20
259.6691625261
 30
0.0
 10
136.2012839888
 20
259.6248850041
 30
0.0
 10
136.1879097053
 20
259.5833441976
 30
0.0
 10
136.1823917747
 20
259.5478503288
 30
0.0
 10
136.1811097288
 20
259.5218921415
 30
0.0
 10
136.1820257067
 20
259.4977405046
 30
0.0
 10
136.1852702183
 20
259.4689858477
 30
0.0
 10
136.1930895227
 20
259.4343586353
 30
0.0
 10
136.2077166611
 20
259.3948811331
 30
0.0
 10
136.2328801976
 20
259.3448076057
 30
0.0
 10
136.2725302312
 20
259.2862672396
 30
0.0
 10
136.307766578
 20
259.242020531
 30
0.0
 10
136.3253822266
 20
259.2196636574
 30
0.0
  0
LINE
  5
2F0
330
22C
100
AcDbEntity
 67
     1
  8
7_ALL_FEATURES
  6
HIDDEN
 62
     8
100
AcDbLine
 10
136.341299
 20
258.740244
 30
0.0
 11
136.312541
 21
258.721072
 31
0.0
  0
SPLINE
  5
2F1
330
22C
100
AcDbEntity
 67
     1
  8
7_ALL_FEATURES
  6
HIDDEN
 62
     8
100
AcDbSpline
 70
     0
 71
     3
 72
    11
 73
     7
 74
     0
 42
0.000000001
 43
0.0000001
 40
0.0
 40
0.0
 40
0.0
 40
0.0
 40
0.3736376495
 40
0.5714235753
 40
0.7604690273
 40
1.0
 40
1.0
 40
1.0
 40
1.0
 10
136.3125406247
 20
258.7210718844
 30
0.0
 10
136.241371137
 20
258.6717669437
 30
0.0
 10
136.1301861919
 20
258.5993805417
 30
0.0
 10
135.997801695
 20
258.4821453001
 30
0.0
 10
135.9064058929
 20
258.3683965652
 30
0.0
 10
135.8747505207
 20
258.2684588854
 30
0.0
 10
135.8747505207
 20
258.212954416
 30
0.0
  0
SPLINE
  5
2F2
330
22C
100
AcDbEntity
 67
     1
  8
7_ALL_FEATURES
  6
HIDDEN
 62
     8
100
AcDbSpline
 70
     0
 71
     3
 72
     9
 73
     5
 74
     0
 42
0.000000001
 43
0.0000001
 40
0.0
 40
0.0
 40
0.0
 40
0.0
 40
0.4994860816
 40
1.0
 40
1.0
 40
1.0
 40
1.0
 10
135.8747505207
 20
258.212954416
 30
0.0
 10
135.8747505207
 20
258.1003861622
 30
0.0
 10
135.9826421236
 20
257.874093584
 30
0.0
 10
136.209296569
 20
257.7686229327
 30
0.0
 10
136.3220964646
 20
257.7686229327
 30
0.0
  0
SPLINE
  5
2F3
330
22C
100
AcDbEntity
 67
     1
  8
7_ALL_FEATURES
  6
HIDDEN
 62
     8
100
AcDbSpline
 70
     0
 71
     3
 72
    10
 73
     6
 74
     0
 42
0.000000001
 43
0.0000001
 40
0.0
 40
0.0
 40
0.0
 40
0.0
 40
0.2479121934
 40
0.4962955565
 40
1.0
 40
1.0
 40
1.0
 40
1.0
 10
136.3220964646
 20
257.7686229327
 30
0.0
 10
136.3761760112
 20
257.7686229327
 30
0.0
 10
136.4851102818
 20
257.7896672457
 30
0.0
 10
136.6783195912
 20
257.8951582796
 30
0.0
 10
136.7972540664
 20
258.0106702093
 30
0.0
 10
136.8749183827
 20
258.0883969066
 30
0.0
  0
LINE
  5
2F4
330
22C
100
AcDbEntity
 67
     1
  8
7_ALL_FEATURES
  6
HIDDEN
 62
     8
100
AcDbLine
 10
136.874918
 20
258.088397
 30
0.0
 11
136.341299
 21
258.740244
 31
0.0
  0
LINE
  5
2F5
330
22C
100
AcDbEntity
 67
     1
  8
7_ALL_FEATURES
  6
HIDDEN
 62
     8
100
AcDbLine
 10
137.076345
 20
258.302424
 30
0.0
 11
137.357534
 21
258.628468
 31
0.0
  0
LINE
  5
2F6
330
22C
100
AcDbEntity
 67
     1
  8
7_ALL_FEATURES
  6
HIDDEN
 62
     8
100
AcDbLine
 10
137.357534
 20
258.628468
 30
0.0
 11
137.549253
 21
258.430116
 31
0.0
  0
LINE
  5
2F7
330
22C
100
AcDbEntity
 67
     1
  8
7_ALL_FEATURES
  6
HIDDEN
 62
     8
100
AcDbLine
 10
137.549253
 20
258.430116
 30
0.0
 11
137.255223
 21
258.085141
 31
0.0
  0
LINE
  5
2F8
330
22C
100
AcDbEntity
 67
     1
  8
7_ALL_FEATURES
  6
HIDDEN
 62
     8
100
AcDbLine
 10
137.255223
 20
258.085141
 30
0.0
 11
137.686713
 21
257.551341
 31
0.0
  0
LINE
  5
2F9
330
22C
100
AcDbEntity
 67
     1
  8
7_ALL_FEATURES
  6
HIDDEN
 62
     8
100
AcDbLine
 10
137.686713
 20
257.551341
 30
0.0
 11
137.315994
 21
257.551341
 31
0.0
  0
LINE
  5
2FA
330
22C
100
AcDbEntity
 67
     1
  8
7_ALL_FEATURES
  6
HIDDEN
 62
     8
100
AcDbLine
 10
137.315994
 20
257.551341
 30
0.0
 11
137.053917
 21
257.877264
 31
0.0
  0
SPLINE
  5
2FB
330
22C
100
AcDbEntity
 67
     1
  8
7_ALL_FEATURES
  6
HIDDEN
 62
     8
100
AcDbSpline
 70
     0
 71
     3
 72
    28
 73
    24
 74
     0
 42
0.000000001
 43
0.0000001
 40
0.0
 40
0.0
 40
0.0
 40
0.0
 40
0.0760284172
 40
0.1517054191
 40
0.2265410138
 40
0.2640379459
 40
0.3019922458
 40
0.3552080395
 40
0.4067590479
 40
0.4571407166
 40
0.5068209117
 40
0.5563345336
 40
0.6063774127
 40
0.6578810319
 40
0.6845814527
 40
0.712118286
 40
0.732245749
 40
0.7513887002
 40
0.7874791981
 40
0.8219163452
 40
0.855930253
 40
0.9257103576
 40
1.0
 40
1.0
 40
1.0
 40
1.0
 10
137.0539170494
 20
257.8772640905
 30
0.0
 10
137.0082404196
 20
257.8236371274
 30
0.0
 10
136.9084565589
 20
257.7235783007
 30
0.0
 10
136.7355700326
 20
257.6024742461
 30
0.0
 10
136.5734467059
 20
257.5340879544
 30
0.0
 10
136.4368413964
 20
257.5051731102
 30
0.0
 10
136.317549622
 20
257.4968653047
 30
0.0
 10
136.1850774498
 20
257.5090093098
 30
0.0
 10
136.0459151472
 20
257.5481121375
 30
0.0
 10
135.9193856613
 20
257.6110541414
 30
0.0
 10
135.80860427
 20
257.6957569501
 30
0.0
 10
135.716744452
 20
257.8003523845
 30
0.0
 10
135.6471077409
 20
257.9228879602
 30
0.0
 10
135.6108541859
 20
258.0370381584
 30
0.0
 10
135.595950036
 20
258.1340111125
 30
0.0
 10
135.5924896092
 20
258.202954489
 30
0.0
 10
135.5948242867
 20
258.2648731928
 30
0.0
 10
135.6032533129
 20
258.3342547072
 30
0.0
 10
135.6237848483
 20
258.4152371422
 30
0.0
 10
135.6638635474
 20
258.5039213653
 30
0.0
 10
135.734849389
 20
258.6110943072
 30
0.0
 10
135.8526313301
 20
258.7285707391
 30
0.0
 10
135.9595468827
 20
258.8085811188
 30
0.0
 10
136.0153449602
 20
258.8488850112
 30
0.0
  0
LINE
  5
2FC
330
22C
100
AcDbEntity
 67
     1
  8
7_ALL_FEATURES
  6
HIDDEN
 62
     8
100
AcDbLine
 10
136.015345
 20
258.848885
 30
0.0
 11
136.165525
 21
258.957526
 31
0.0
  0
SPLINE
  5
2FD
330
22C
100
AcDbEntity
 67
     1
  8
7_ALL_FEATURES
  6
HIDDEN
 62
     8
100
AcDbSpline
 70
     0
 71
     3
 72
     9
 73
     5
 74
     0
 42
0.000000001
 43
0.0000001
 40
0.0
 40
0.0
 40
0.0
 40
0.0
 40
0.5046401266
 40
1.0
 40
1.0
 40
1.0
 40
1.0
 10
136.1655253842
 20
258.957526169
 30
0.0
 10
136.0957282334
 20
259.0306324034
 30
0.0
 10
135.9665949365
 20
259.1854641787
 30
0.0
 10
135.9002528569
 20
259.3855993203
 30
0.0
 10
135.9002528569
 20
259.4848156063
 30
0.0
  0
SPLINE
  5
2FE
330
22C
100
AcDbEntity
 67
     1
  8
7_ALL_FEATURES
  6
HIDDEN
 62
     8
100
AcDbSpline
 70
     0
 71
     3
 72
    17
 73
    13
 74
     0
 42
0.000000001
 43
0.0000001
 40
0.0
 40
0.0
 40
0.0
 40
0.0
 40
0.1339928955
 40
0.2539391643
 40
0.3748156858
 40
0.4392397342
 40
0.5072968424
 40
0.5715000227
 40
0.6339713651
 40
0.7538672661
 40
0.8718322551
 40
1.0
 40
1.0
 40
1.0
 40
1.0
 10
135.9002528569
 20
259.4848156063
 30
0.0
 10
135.9002528569
 20
259.5603493511
 30
0.0
 10
135.9243934552
 20
259.7062646833
 30
0.0
 10
136.0498113453
 20
259.8849320483
 30
0.0
 10
136.2040808479
 20
259.9721935675
 30
0.0
 10
136.3432214677
 20
260.0064503204
 30
0.0
 10
136.4542816271
 20
260.0149651402
 30
0.0
 10
136.5642012291
 20
260.0065639247
 30
0.0
 10
136.6996641144
 20
259.97345484
 30
0.0
 10
136.8526100962
 20
259.891543513
 30
0.0
 10
136.9844541324
 20
259.7242824886
 30
0.0
 10
137.0123777832
 20
259.5825679651
 30
0.0
 10
137.0123777832
 20
259.5103179425
 30
0.0
  0
SPLINE
  5
2FF
330
22C
100
AcDbEntity
 67
     1
  8
7_ALL_FEATURES
  6
HIDDEN
 62
     8
100
AcDbSpline
 70
     0
 71
     3
 72
    11
 73
     7
 74
     0
 42
0.000000001
 43
0.0000001
 40
0.0
 40
0.0
 40
0.0
 40
0.0
 40
0.2490047129
 40
0.4952799166
 40
0.7493595777
 40
1.0
 40
1.0
 40
1.0
 40
1.0
 10
137.0123777832
 20
259.5103179425
 30
0.0
 10
137.0123777832
 20
259.446315874
 30
0.0
 10
136.9837284024
 20
259.3175750129
 30
0.0
 10
136.8727860603
 20
259.156791036
 30
0.0
 10
136.7307686795
 20
259.0250288313
 30
0.0
 10
136.6266416835
 20
258.9475330123
 30
0.0
 10
136.5746178239
 20
258.9095359572
 30
0.0
  0
LINE
  5
300
330
22C
100
AcDbEntity
 67
     1
  8
7_ALL_FEATURES
  6
HIDDEN
 62
     8
100
AcDbLine
 10
136.574618
 20
258.909536
 30
0.0
 11
137.076345
 21
258.302424
 31
0.0
  0
LINE
  5
301
330
22C
100
AcDbEntity
 67
     1
  8
7_ALL_FEATURES
  6
HIDDEN
 62
     8
100
AcDbLine
 10
138.165831
 20
257.826259
 30
0.0
 11
138.897802
 21
257.826259
 31
0.0
  0
LINE
  5
302
330
22C
100
AcDbEntity
 67
     1
  8
7_ALL_FEATURES
  6
HIDDEN
 62
     8
100
AcDbLine
 10
138.897802
 20
257.826259
 30
0.0
 11
138.897802
 21
257.551461
 31
0.0
  0
LINE
  5
303
330
22C
100
AcDbEntity
 67
     1
  8
7_ALL_FEATURES
  6
HIDDEN
 62
     8
100
AcDbLine
 10
138.897802
 20
257.551461
 30
0.0
 11
137.86547
 21
257.551461
 31
0.0
  0
LINE
  5
304
330
22C
100
AcDbEntity
 67
     1
  8
7_ALL_FEATURES
  6
HIDDEN
 62
     8
100
AcDbLine
 10
137.86547
 20
257.551461
 30
0.0
 11
137.86547
 21
259.96092
 31
0.0
  0
LINE
  5
305
330
22C
100
AcDbEntity
 67
     1
  8
7_ALL_FEATURES
  6
HIDDEN
 62
     8
100
AcDbLine
 10
137.86547
 20
259.96092
 30
0.0
 11
138.165831
 21
259.96092
 31
0.0
  0
LINE
  5
306
330
22C
100
AcDbEntity
 67
     1
  8
7_ALL_FEATURES
  6
HIDDEN
 62
     8
100
AcDbLine
 10
138.165831
 20
259.96092
 30
0.0
 11
138.165831
 21
257.826259
 31
0.0
  0
LINE
  5
307
330
22C
100
AcDbEntity
 67
     1
  8
7_ALL_FEATURES
  6
HIDDEN
 62
     8
100
AcDbLine
 10
139.134498
 20
262.173745
 30
0.0
 11
134.119732
 21
262.173745
 31
0.0
  0
LINE
  5
308
330
22C
100
AcDbEntity
 67
     1
  8
7_ALL_FEATURES
  6
HIDDEN
 62
     8
100
AcDbLine
 10
134.119732
 20
262.173745
 30
0.0
 11
134.119732
 21
257.158858
 31
0.0
  0
LINE
  5
309
330
22C
100
AcDbEntity
 67
     1
  8
7_ALL_FEATURES
  6
HIDDEN
 62
     8
100
AcDbLine
 10
134.119732
 20
257.158858
 30
0.0
 11
139.134498
 21
257.158858
 31
0.0
  0
LINE
  5
30A
330
22C
100
AcDbEntity
 67
     1
  8
7_ALL_FEATURES
  6
HIDDEN
 62
     8
100
AcDbLine
 10
139.134498
 20
257.158858
 30
0.0
 11
139.134498
 21
262.173745
 31
0.0
  0
LINE
  5
30B
330
22C
100
AcDbEntity
 67
     1
  8
7_ALL_FEATURES
  6
HIDDEN
 62
     8
100
AcDbLine
 10
139.208895
 20
257.084582
 30
0.0
 11
134.045395
 21
257.084582
 31
0.0
  0
LINE
  5
30C
330
22C
100
AcDbEntity
 67
     1
  8
7_ALL_FEATURES
  6
HIDDEN
 62
     8
100
AcDbLine
 10
134.045395
 20
257.084582
 30
0.0
 11
134.045395
 21
262.248081
 31
0.0
  0
LINE
  5
30D
330
22C
100
AcDbEntity
 67
     1
  8
7_ALL_FEATURES
  6
HIDDEN
 62
     8
100
AcDbLine
 10
134.045395
 20
262.248081
 30
0.0
 11
139.208895
 21
262.248081
 31
0.0
  0
LINE
  5
30E
330
22C
100
AcDbEntity
 67
     1
  8
7_ALL_FEATURES
  6
HIDDEN
 62
     8
100
AcDbLine
 10
139.208895
 20
262.248081
 30
0.0
 11
139.208895
 21
257.084582
 31
0.0
  0
LINE
  5
30F
330
22C
100
AcDbEntity
 67
     1
  8
7_ALL_FEATURES
  6
HIDDEN
 62
     8
100
AcDbLine
 10
141.127145
 20
192.866331
 30
0.0
 11
141.127145
 21
264.166331
 31
0.0
  0
LINE
  5
310
330
22C
100
AcDbEntity
 67
     1
  8
7_ALL_FEATURES
  6
HIDDEN
 62
     8
100
AcDbLine
 10
141.127145
 20
264.166331
 30
0.0
 11
69.827145
 21
264.166331
 31
0.0
  0
LINE
  5
311
330
22C
100
AcDbEntity
 67
     1
  8
7_ALL_FEATURES
  6
HIDDEN
 62
     8
100
AcDbLine
 10
69.827145
 20
264.166331
 30
0.0
 11
69.827145
 21
192.866331
 31
0.0
  0
LINE
  5
312
330
22C
100
AcDbEntity
 67
     1
  8
7_ALL_FEATURES
  6
HIDDEN
 62
     8
100
AcDbLine
 10
69.827145
 20
192.866331
 30
0.0
 11
141.127145
 21
192.866331
 31
0.0
  0
LINE
  5
313
330
22C
100
AcDbEntity
 67
     1
  8
7_ALL_FEATURES
  6
HIDDEN
 62
     8
100
AcDbLine
 10
61.357145
 20
272.696331
 30
0.0
 11
149.597145
 21
272.696331
 31
0.0
  0
LINE
  5
314
330
22C
100
AcDbEntity
 67
     1
  8
7_ALL_FEATURES
  6
HIDDEN
 62
     8
100
AcDbLine
 10
61.297145
 20
184.396331
 30
0.0
 11
61.297145
 21
272.636331
 31
0.0
  0
LINE
  5
315
330
22C
100
AcDbEntity
 67
     1
  8
7_ALL_FEATURES
  6
HIDDEN
 62
     8
100
AcDbLine
 10
149.597145
 20
184.336331
 30
0.0
 11
61.357145
 21
184.336331
 31
0.0
  0
LINE
  5
316
330
22C
100
AcDbEntity
 67
     1
  8
7_ALL_FEATURES
  6
HIDDEN
 62
     8
100
AcDbLine
 10
149.657145
 20
272.636331
 30
0.0
 11
149.657145
 21
184.396331
 31
0.0
  0
ARC
  5
317
330
22C
100
AcDbEntity
 67
     1
  8
7_ALL_FEATURES
  6
Continuous
 62
     7
100
AcDbCircle
 10
64.977145
 20
165.766331
 30
0.0
 40
2.5
100
AcDbArc
 50
0.0
 51
180.0
  0
LINE
  5
318
330
22C
100
AcDbEntity
 67
     1
  8
7_ALL_FEATURES
  6
Continuous
 62
     7
100
AcDbLine
 10
65.698833
 20
167.016331
 30
0.0
 11
66.42052
 21
165.766331
 31
0.0
  0
ARC
  5
319
330
22C
100
AcDbEntity
 67
     1
  8
7_ALL_FEATURES
  6
Continuous
 62
     7
100
AcDbCircle
 10
64.977145
 20
165.766331
 30
0.0
 40
2.5
100
AcDbArc
 50
180.0
 51
360.0
  0
LINE
  5
31A
330
22C
100
AcDbEntity
 67
     1
  8
7_ALL_FEATURES
  6
Continuous
 62
     7
100
AcDbLine
 10
66.42052
 20
165.766331
 30
0.0
 11
65.698833
 21
164.516331
 31
0.0
  0
LINE
  5
31B
330
22C
100
AcDbEntity
 67
     1
  8
7_ALL_FEATURES
  6
Continuous
 62
     7
100
AcDbLine
 10
64.255457
 20
164.516331
 30
0.0
 11
64.977145
 21
164.516331
 31
0.0
  0
LINE
  5
31C
330
22C
100
AcDbEntity
 67
     1
  8
7_ALL_FEATURES
  6
Continuous
 62
     7
100
AcDbLine
 10
64.977145
 20
164.516331
 30
0.0
 11
65.698833
 21
164.516331
 31
0.0
  0
LINE
  5
31D
330
22C
100
AcDbEntity
 67
     1
  8
7_ALL_FEATURES
  6
Continuous
 62
     7
100
AcDbLine
 10
64.255457
 20
164.516331
 30
0.0
 11
63.533769
 21
165.766331
 31
0.0
  0
LINE
  5
31E
330
22C
100
AcDbEntity
 67
     1
  8
7_ALL_FEATURES
  6
Continuous
 62
     7
100
AcDbLine
 10
63.533769
 20
165.766331
 30
0.0
 11
64.255457
 21
167.016331
 31
0.0
  0
LINE
  5
31F
330
22C
100
AcDbEntity
 67
     1
  8
7_ALL_FEATURES
  6
Continuous
 62
     7
100
AcDbLine
 10
64.977145
 20
167.016331
 30
0.0
 11
64.255457
 21
167.016331
 31
0.0
  0
LINE
  5
320
330
22C
100
AcDbEntity
 67
     1
  8
7_ALL_FEATURES
  6
Continuous
 62
     7
100
AcDbLine
 10
65.698833
 20
167.016331
 30
0.0
 11
64.977145
 21
167.016331
 31
0.0
  0
ARC
  5
321
330
22C
100
AcDbEntity
 67
     1
  8
7_ALL_FEATURES
  6
Continuous
 62
     7
100
AcDbCircle
 10
64.977145
 20
165.766331
 30
0.0
 40
2.1999999424
100
AcDbArc
 50
180.0
 51
360.0
  0
ARC
  5
322
330
22C
100
AcDbEntity
 67
     1
  8
7_ALL_FEATURES
  6
Continuous
 62
     7
100
AcDbCircle
 10
64.977145
 20
165.766331
 30
0.0
 40
2.1999999424
100
AcDbArc
 50
0.0
 51
180.0
  0
ARC
  5
323
330
22C
100
AcDbEntity
 67
     1
  8
7_ALL_FEATURES
  6
Continuous
 62
     7
100
AcDbCircle
 10
64.977145
 20
165.766331
 30
0.0
 40
1.55
100
AcDbArc
 50
270.0
 51
90.0
  0
ARC
  5
324
330
22C
100
AcDbEntity
 67
     1
  8
7_ALL_FEATURES
  6
Continuous
 62
     7
100
AcDbCircle
 10
64.977145
 20
165.766331
 30
0.0
 40
1.55
100
AcDbArc
 50
90.0
 51
270.0
  0
LINE
  5
325
330
22C
100
AcDbEntity
 67
     1
  8
7_ALL_FEATURES
  6
Continuous
 62
     7
100
AcDbLine
 10
61.327145
 20
184.366331
 30
0.0
 11
60.827145
 21
184.866331
 31
0.0
  0
LINE
  5
326
330
22C
100
AcDbEntity
 67
     1
  8
7_ALL_FEATURES
  6
Continuous
 62
     7
100
AcDbLine
 10
61.827145
 20
273.166331
 30
0.0
 11
61.327145
 21
272.666331
 31
0.0
  0
LINE
  5
327
330
22C
100
AcDbEntity
 67
     1
  8
7_ALL_FEATURES
  6
Continuous
 62
     7
100
AcDbLine
 10
149.127145
 20
273.166331
 30
0.0
 11
149.627145
 21
272.666331
 31
0.0
  0
LINE
  5
328
330
22C
100
AcDbEntity
 67
     1
  8
7_ALL_FEATURES
  6
Continuous
 62
     7
100
AcDbLine
 10
60.827145
 20
272.166331
 30
0.0
 11
61.327145
 21
272.666331
 31
0.0
  0
LINE
  5
329
330
22C
100
AcDbEntity
 67
     1
  8
7_ALL_FEATURES
  6
Continuous
 62
     7
100
AcDbLine
 10
150.127145
 20
184.866331
 30
0.0
 11
149.627145
 21
184.366331
 31
0.0
  0
LINE
  5
32A
330
22C
100
AcDbEntity
 67
     1
  8
7_ALL_FEATURES
  6
Continuous
 62
     7
100
AcDbLine
 10
149.627145
 20
272.666331
 30
0.0
 11
150.127145
 21
272.166331
 31
0.0
  0
LINE
  5
32B
330
22C
100
AcDbEntity
 67
     1
  8
7_ALL_FEATURES
  6
Continuous
 62
     7
100
AcDbLine
 10
149.627145
 20
184.366331
 30
0.0
 11
149.127145
 21
183.866331
 31
0.0
  0
LINE
  5
32C
330
22C
100
AcDbEntity
 67
     1
  8
7_ALL_FEATURES
  6
Continuous
 62
     7
100
AcDbLine
 10
61.827145
 20
183.866331
 30
0.0
 11
61.327145
 21
184.366331
 31
0.0
  0
LINE
  5
32D
330
22C
100
AcDbEntity
 67
     1
  8
7_ALL_FEATURES
  6
Continuous
 62
     7
100
AcDbLine
 10
149.127145
 20
273.166331
 30
0.0
 11
61.827145
 21
273.166331
 31
0.0
  0
LINE
  5
32E
330
22C
100
AcDbEntity
 67
     1
  8
7_ALL_FEATURES
  6
Continuous
 62
     7
100
AcDbLine
 10
150.127145
 20
184.866331
 30
0.0
 11
150.127145
 21
272.166331
 31
0.0
  0
LINE
  5
32F
330
22C
100
AcDbEntity
 67
     1
  8
7_ALL_FEATURES
  6
Continuous
 62
     7
100
AcDbLine
 10
61.827145
 20
183.866331
 30
0.0
 11
149.127145
 21
183.866331
 31
0.0
  0
LINE
  5
330
330
22C
100
AcDbEntity
 67
     1
  8
7_ALL_FEATURES
  6
Continuous
 62
     7
100
AcDbLine
 10
60.827145
 20
272.166331
 30
0.0
 11
60.827145
 21
184.866331
 31
0.0
  0
LINE
  5
331
330
22C
100
AcDbEntity
 67
     1
  8
7_ALL_FEATURES
  6
Continuous
 62
     7
100
AcDbLine
 10
149.627145
 20
184.366331
 30
0.0
 11
149.627145
 21
272.666331
 31
0.0
  0
LINE
  5
332
330
22C
100
AcDbEntity
 67
     1
  8
7_ALL_FEATURES
  6
Continuous
 62
     7
100
AcDbLine
 10
149.627145
 20
272.666331
 30
0.0
 11
61.327145
 21
272.666331
 31
0.0
  0
LINE
  5
333
330
22C
100
AcDbEntity
 67
     1
  8
7_ALL_FEATURES
  6
Continuous
 62
     7
100
AcDbLine
 10
61.327145
 20
272.666331
 30
0.0
 11
61.327145
 21
184.366331
 31
0.0
  0
LINE
  5
334
330
22C
100
AcDbEntity
 67
     1
  8
7_ALL_FEATURES
  6
Continuous
 62
     7
100
AcDbLine
 10
61.327145
 20
184.366331
 30
0.0
 11
149.627145
 21
184.366331
 31
0.0
  0
LINE
  5
335
330
22C
100
AcDbEntity
 67
     1
  8
06___PRT_ALL_SURFS
  6
Continuous
 62
     7
100
AcDbLine
 10
55.477145
 20
158.516331
 30
0.0
 11
155.477145
 21
158.516331
 31
0.0
  0
LINE
  5
336
330
22C
100
AcDbEntity
 67
     1
  8
06___PRT_ALL_SURFS
  6
Continuous
 62
     7
100
AcDbLine
 10
55.477145
 20
278.516331
 30
0.0
 11
155.477145
 21
278.516331
 31
0.0
  0
LINE
  5
337
330
22C
100
AcDbEntity
 67
     1
  8
06___PRT_ALL_SURFS
  6
Continuous
 62
     7
100
AcDbLine
 10
155.477145
 20
158.516331
 30
0.0
 11
155.477145
 21
278.516331
 31
0.0
  0
LINE
  5
338
330
22C
100
AcDbEntity
 67
     1
  8
06___PRT_ALL_SURFS
  6
Continuous
 62
     7
100
AcDbLine
 10
55.477145
 20
158.516331
 30
0.0
 11
55.477145
 21
278.516331
 31
0.0
  0
ARC
  5
339
330
22C
100
AcDbEntity
 67
     1
  8
06___PRT_ALL_SURFS
  6
Continuous
 62
     7
100
AcDbCircle
 10
152.73467
 20
157.716331
 30
0.0
 40
0.4
100
AcDbArc
 50
270.0
 51
357.0
  0
LINE
  5
33A
330
22C
100
AcDbEntity
 67
     1
  8
06___PRT_ALL_SURFS
  6
Continuous
 62
     7
100
AcDbLine
 10
151.177145
 20
157.316331
 30
0.0
 11
151.658446
 21
157.316331
 31
0.0
  0
LINE
  5
33B
330
22C
100
AcDbEntity
 67
     1
  8
06___PRT_ALL_SURFS
  6
Continuous
 62
     7
100
AcDbLine
 10
151.658446
 20
157.316331
 30
0.0
 11
152.092635
 21
157.316331
 31
0.0
  0
LINE
  5
33C
330
22C
100
AcDbEntity
 67
     1
  8
06___PRT_ALL_SURFS
  6
Continuous
 62
     7
100
AcDbLine
 10
152.092635
 20
157.316331
 30
0.0
 11
152.73467
 21
157.316331
 31
0.0
  0
LINE
  5
33D
330
22C
100
AcDbEntity
 67
     1
  8
06___PRT_ALL_SURFS
  6
Continuous
 62
     7
100
AcDbLine
 10
151.177145
 20
157.316331
 30
0.0
 11
145.777145
 21
157.316331
 31
0.0
  0
ARC
  5
33E
330
22C
100
AcDbEntity
 67
     1
  8
06___PRT_ALL_SURFS
  6
Continuous
 62
     7
100
AcDbCircle
 10
145.61962
 20
157.716331
 30
0.0
 40
0.4
100
AcDbArc
 50
248.25
 51
270.0
  0
ARC
  5
33F
330
22C
100
AcDbEntity
 67
     1
  8
06___PRT_ALL_SURFS
  6
Continuous
 62
     7
100
AcDbCircle
 10
145.61962
 20
157.716331
 30
0.0
 40
0.4
100
AcDbArc
 50
183.0
 51
248.25
  0
LINE
  5
340
330
22C
100
AcDbEntity
 67
     1
  8
06___PRT_ALL_SURFS
  6
Continuous
 62
     7
100
AcDbLine
 10
145.777145
 20
157.316331
 30
0.0
 11
145.619621
 21
157.316331
 31
0.0
  0
LINE
  5
341
330
22C
100
AcDbEntity
 67
     1
  8
06___PRT_ALL_SURFS
  6
Continuous
 62
     7
100
AcDbLine
 10
145.623569
 20
157.316331
 30
0.0
 11
145.777145
 21
157.316331
 31
0.0
  0
LINE
  5
342
330
22C
100
AcDbEntity
 67
     1
  8
06___PRT_ALL_SURFS
  6
Continuous
 62
     7
100
AcDbLine
 10
145.777145
 20
157.316331
 30
0.0
 11
145.623569
 21
157.316331
 31
0.0
  0
LINE
  5
343
330
22C
100
AcDbEntity
 67
     1
  8
06___PRT_ALL_SURFS
  6
Continuous
 62
     7
100
AcDbLine
 10
145.220168
 20
157.695397
 30
0.0
 11
145.177145
 21
158.516331
 31
0.0
  0
LINE
  5
344
330
22C
100
AcDbEntity
 67
     1
  8
06___PRT_ALL_SURFS
  6
Continuous
 62
     7
100
AcDbLine
 10
65.334669
 20
157.316331
 30
0.0
 11
65.177145
 21
157.316331
 31
0.0
  0
ARC
  5
345
330
22C
100
AcDbEntity
 67
     1
  8
06___PRT_ALL_SURFS
  6
Continuous
 62
     7
100
AcDbCircle
 10
65.33467
 20
157.716331
 30
0.0
 40
0.4
100
AcDbArc
 50
270.0
 51
291.75
  0
ARC
  5
346
330
22C
100
AcDbEntity
 67
     1
  8
06___PRT_ALL_SURFS
  6
Continuous
 62
     7
100
AcDbCircle
 10
65.33467
 20
157.716331
 30
0.0
 40
0.4
100
AcDbArc
 50
291.75
 51
313.5
  0
ARC
  5
347
330
22C
100
AcDbEntity
 67
     1
  8
06___PRT_ALL_SURFS
  6
Continuous
 62
     7
100
AcDbCircle
 10
65.33467
 20
157.716331
 30
0.0
 40
0.4
100
AcDbArc
 50
313.5
 51
357.0
  0
LINE
  5
348
330
22C
100
AcDbEntity
 67
     1
  8
06___PRT_ALL_SURFS
  6
Continuous
 62
     7
100
AcDbLine
 10
65.33072
 20
157.316331
 30
0.0
 11
65.33467
 21
157.316331
 31
0.0
  0
LINE
  5
349
330
22C
100
AcDbEntity
 67
     1
  8
06___PRT_ALL_SURFS
  6
Continuous
 62
     7
100
AcDbLine
 10
65.33467
 20
157.316331
 30
0.0
 11
65.177145
 21
157.316331
 31
0.0
  0
LINE
  5
34A
330
22C
100
AcDbEntity
 67
     1
  8
06___PRT_ALL_SURFS
  6
Continuous
 62
     7
100
AcDbLine
 10
65.177145
 20
157.316331
 30
0.0
 11
65.33072
 21
157.316331
 31
0.0
  0
LINE
  5
34B
330
22C
100
AcDbEntity
 67
     1
  8
06___PRT_ALL_SURFS
  6
Continuous
 62
     7
100
AcDbLine
 10
65.177145
 20
157.316331
 30
0.0
 11
59.777145
 21
157.316331
 31
0.0
  0
ARC
  5
34C
330
22C
100
AcDbEntity
 67
     1
  8
06___PRT_ALL_SURFS
  6
Continuous
 62
     7
100
AcDbCircle
 10
58.21962
 20
157.716331
 30
0.0
 40
0.4
100
AcDbArc
 50
183.0
 51
270.0
  0
LINE
  5
34D
330
22C
100
AcDbEntity
 67
     1
  8
06___PRT_ALL_SURFS
  6
Continuous
 62
     7
100
AcDbLine
 10
58.21962
 20
157.316331
 30
0.0
 11
58.861655
 21
157.316331
 31
0.0
  0
LINE
  5
34E
330
22C
100
AcDbEntity
 67
     1
  8
06___PRT_ALL_SURFS
  6
Continuous
 62
     7
100
AcDbLine
 10
58.861655
 20
157.316331
 30
0.0
 11
59.295843
 21
157.316331
 31
0.0
  0
LINE
  5
34F
330
22C
100
AcDbEntity
 67
     1
  8
06___PRT_ALL_SURFS
  6
Continuous
 62
     7
100
AcDbLine
 10
59.295843
 20
157.316331
 30
0.0
 11
59.777145
 21
157.316331
 31
0.0
  0
LINE
  5
350
330
22C
100
AcDbEntity
 67
     1
  8
06___PRT_ALL_SURFS
  6
Continuous
 62
     7
100
AcDbLine
 10
57.820168
 20
157.695397
 30
0.0
 11
57.777145
 21
158.516331
 31
0.0
  0
LINE
  5
351
330
22C
100
AcDbEntity
 67
     1
  8
06___PRT_ALL_SURFS
  6
Continuous
 62
     7
100
AcDbLine
 10
65.734121
 20
157.695397
 30
0.0
 11
65.777145
 21
158.516331
 31
0.0
  0
LINE
  5
352
330
22C
100
AcDbEntity
 67
     1
  8
06___PRT_ALL_SURFS
  6
Continuous
 62
     7
100
AcDbLine
 10
59.777145
 20
157.316331
 30
0.0
 11
59.301111
 21
157.316331
 31
0.0
  0
LINE
  5
353
330
22C
100
AcDbEntity
 67
     1
  8
06___PRT_ALL_SURFS
  6
Continuous
 62
     7
100
AcDbLine
 10
59.301111
 20
157.316331
 30
0.0
 11
58.862621
 21
157.316331
 31
0.0
  0
LINE
  5
354
330
22C
100
AcDbEntity
 67
     1
  8
06___PRT_ALL_SURFS
  6
Continuous
 62
     7
100
AcDbLine
 10
58.862621
 20
157.316331
 30
0.0
 11
58.21962
 21
157.316331
 31
0.0
  0
LINE
  5
355
330
22C
100
AcDbEntity
 67
     1
  8
06___PRT_ALL_SURFS
  6
Continuous
 62
     7
100
AcDbLine
 10
65.177145
 20
157.316331
 30
0.0
 11
59.777145
 21
157.316331
 31
0.0
  0
LINE
  5
356
330
22C
100
AcDbEntity
 67
     1
  8
06___PRT_ALL_SURFS
  6
Continuous
 62
     7
100
AcDbLine
 10
57.820168
 20
157.695397
 30
0.0
 11
57.777145
 21
158.516331
 31
0.0
  0
LINE
  5
357
330
22C
100
AcDbEntity
 67
     1
  8
06___PRT_ALL_SURFS
  6
Continuous
 62
     7
100
AcDbLine
 10
151.177145
 20
157.316331
 30
0.0
 11
145.777145
 21
157.316331
 31
0.0
  0
LINE
  5
358
330
22C
100
AcDbEntity
 67
     1
  8
06___PRT_ALL_SURFS
  6
Continuous
 62
     7
100
AcDbLine
 10
152.73467
 20
157.316331
 30
0.0
 11
152.0917
 21
157.316331
 31
0.0
  0
LINE
  5
359
330
22C
100
AcDbEntity
 67
     1
  8
06___PRT_ALL_SURFS
  6
Continuous
 62
     7
100
AcDbLine
 10
152.0917
 20
157.316331
 30
0.0
 11
151.653175
 21
157.316331
 31
0.0
  0
LINE
  5
35A
330
22C
100
AcDbEntity
 67
     1
  8
06___PRT_ALL_SURFS
  6
Continuous
 62
     7
100
AcDbLine
 10
151.653175
 20
157.316331
 30
0.0
 11
151.177145
 21
157.316331
 31
0.0
  0
LINE
  5
35B
330
22C
100
AcDbEntity
 67
     1
  8
06___PRT_ALL_SURFS
  6
Continuous
 62
     7
100
AcDbLine
 10
153.134121
 20
157.695397
 30
0.0
 11
153.177145
 21
158.516331
 31
0.0
  0
ARC
  5
35C
330
22C
100
AcDbEntity
 67
     1
  8
06___PRT_ALL_SURFS
  6
Continuous
 62
     9
100
AcDbCircle
 10
149.753146
 20
272.792333
 30
0.0
 40
0.2495163928
100
AcDbArc
 50
359.967615
 51
90.032385
  0
LINE
  5
35D
330
22C
100
AcDbEntity
 67
     1
  8
06___PRT_ALL_SURFS
  6
Continuous
 62
     9
100
AcDbLine
 10
150.002663
 20
272.792192
 30
0.0
 11
150.002663
 21
272.290814
 31
0.0
  0
LINE
  5
35E
330
22C
100
AcDbEntity
 67
     1
  8
06___PRT_ALL_SURFS
  6
Continuous
 62
     9
100
AcDbLine
 10
150.002663
 20
184.741849
 30
0.0
 11
150.002663
 21
184.240471
 31
0.0
  0
ARC
  5
35F
330
22C
100
AcDbEntity
 67
     1
  8
06___PRT_ALL_SURFS
  6
Continuous
 62
     9
100
AcDbCircle
 10
149.753146
 20
184.24033
 30
0.0
 40
0.2495163928
100
AcDbArc
 50
269.967615
 51
0.032385
  0
LINE
  5
360
330
22C
100
AcDbEntity
 67
     1
  8
06___PRT_ALL_SURFS
  6
Continuous
 62
     9
100
AcDbLine
 10
149.753005
 20
183.990814
 30
0.0
 11
149.251627
 21
183.990814
 31
0.0
  0
LINE
  5
361
330
22C
100
AcDbEntity
 67
     1
  8
06___PRT_ALL_SURFS
  6
Continuous
 62
     9
100
AcDbLine
 10
61.702663
 20
183.990814
 30
0.0
 11
61.201284
 21
183.990814
 31
0.0
  0
ARC
  5
362
330
22C
100
AcDbEntity
 67
     1
  8
06___PRT_ALL_SURFS
  6
Continuous
 62
     9
100
AcDbCircle
 10
61.201143
 20
184.24033
 30
0.0
 40
0.2495163928
100
AcDbArc
 50
179.967615
 51
270.032385
  0
LINE
  5
363
330
22C
100
AcDbEntity
 67
     1
  8
06___PRT_ALL_SURFS
  6
Continuous
 62
     9
100
AcDbLine
 10
60.951627
 20
184.240471
 30
0.0
 11
60.951627
 21
184.741849
 31
0.0
  0
LINE
  5
364
330
22C
100
AcDbEntity
 67
     1
  8
06___PRT_ALL_SURFS
  6
Continuous
 62
     9
100
AcDbLine
 10
60.951627
 20
272.290814
 30
0.0
 11
60.951627
 21
272.792192
 31
0.0
  0
ARC
  5
365
330
22C
100
AcDbEntity
 67
     1
  8
06___PRT_ALL_SURFS
  6
Continuous
 62
     9
100
AcDbCircle
 10
61.201143
 20
272.792333
 30
0.0
 40
0.2495163928
100
AcDbArc
 50
89.967615
 51
180.032385
  0
LINE
  5
366
330
22C
100
AcDbEntity
 67
     1
  8
06___PRT_ALL_SURFS
  6
Continuous
 62
     9
100
AcDbLine
 10
61.201284
 20
273.041849
 30
0.0
 11
61.702663
 21
273.041849
 31
0.0
  0
LINE
  5
367
330
22C
100
AcDbEntity
 67
     1
  8
06___PRT_ALL_SURFS
  6
Continuous
 62
     9
100
AcDbLine
 10
149.251627
 20
273.041849
 30
0.0
 11
149.753005
 21
273.041849
 31
0.0
  0
LINE
  5
368
330
22C
100
AcDbEntity
 67
     1
  8
06___PRT_ALL_SURFS
  6
Continuous
 62
     9
100
AcDbLine
 10
60.452312
 20
184.240471
 30
0.0
 11
60.452312
 21
272.792192
 31
0.0
  0
LINE
  5
369
330
22C
100
AcDbEntity
 67
     1
  8
06___PRT_ALL_SURFS
  6
Continuous
 62
     9
100
AcDbLine
 10
60.294281
 20
184.08244
 30
0.0
 11
60.452312
 21
184.240471
 31
0.0
  0
LINE
  5
36A
330
22C
100
AcDbEntity
 67
     1
  8
06___PRT_ALL_SURFS
  6
Continuous
 62
     9
100
AcDbLine
 10
60.294281
 20
184.08244
 30
0.0
 11
60.294281
 21
272.950223
 31
0.0
  0
LINE
  5
36B
330
22C
100
AcDbEntity
 67
     1
  8
06___PRT_ALL_SURFS
  6
Continuous
 62
     9
100
AcDbLine
 10
60.294281
 20
272.950223
 30
0.0
 11
60.452312
 21
272.792192
 31
0.0
  0
LINE
  5
36C
330
22C
100
AcDbEntity
 67
     1
  8
06___PRT_ALL_SURFS
  6
Continuous
 62
     9
100
AcDbLine
 10
149.753005
 20
183.491499
 30
0.0
 11
61.201284
 21
183.491499
 31
0.0
  0
LINE
  5
36D
330
22C
100
AcDbEntity
 67
     1
  8
06___PRT_ALL_SURFS
  6
Continuous
 62
     9
100
AcDbLine
 10
149.911037
 20
183.333467
 30
0.0
 11
149.753005
 21
183.491499
 31
0.0
  0
LINE
  5
36E
330
22C
100
AcDbEntity
 67
     1
  8
06___PRT_ALL_SURFS
  6
Continuous
 62
     9
100
AcDbLine
 10
149.911037
 20
183.333467
 30
0.0
 11
61.043253
 21
183.333467
 31
0.0
  0
LINE
  5
36F
330
22C
100
AcDbEntity
 67
     1
  8
06___PRT_ALL_SURFS
  6
Continuous
 62
     9
100
AcDbLine
 10
61.043253
 20
183.333467
 30
0.0
 11
61.201284
 21
183.491499
 31
0.0
  0
LINE
  5
370
330
22C
100
AcDbEntity
 67
     1
  8
06___PRT_ALL_SURFS
  6
Continuous
 62
     9
100
AcDbLine
 10
150.501977
 20
272.792192
 30
0.0
 11
150.501977
 21
184.240471
 31
0.0
  0
LINE
  5
371
330
22C
100
AcDbEntity
 67
     1
  8
06___PRT_ALL_SURFS
  6
Continuous
 62
     9
100
AcDbLine
 10
150.660009
 20
272.950223
 30
0.0
 11
150.501977
 21
272.792192
 31
0.0
  0
LINE
  5
372
330
22C
100
AcDbEntity
 67
     1
  8
06___PRT_ALL_SURFS
  6
Continuous
 62
     9
100
AcDbLine
 10
150.660009
 20
272.950223
 30
0.0
 11
150.660009
 21
184.08244
 31
0.0
  0
LINE
  5
373
330
22C
100
AcDbEntity
 67
     1
  8
06___PRT_ALL_SURFS
  6
Continuous
 62
     9
100
AcDbLine
 10
150.660009
 20
184.08244
 30
0.0
 11
150.501977
 21
184.240471
 31
0.0
  0
LINE
  5
374
330
22C
100
AcDbEntity
 67
     1
  8
06___PRT_ALL_SURFS
  6
Continuous
 62
     9
100
AcDbLine
 10
61.201284
 20
273.541164
 30
0.0
 11
149.753005
 21
273.541164
 31
0.0
  0
LINE
  5
375
330
22C
100
AcDbEntity
 67
     1
  8
06___PRT_ALL_SURFS
  6
Continuous
 62
     9
100
AcDbLine
 10
61.043253
 20
273.699195
 30
0.0
 11
61.201284
 21
273.541164
 31
0.0
  0
LINE
  5
376
330
22C
100
AcDbEntity
 67
     1
  8
06___PRT_ALL_SURFS
  6
Continuous
 62
     9
100
AcDbLine
 10
61.043253
 20
273.699195
 30
0.0
 11
149.911037
 21
273.699195
 31
0.0
  0
LINE
  5
377
330
22C
100
AcDbEntity
 67
     1
  8
06___PRT_ALL_SURFS
  6
Continuous
 62
     9
100
AcDbLine
 10
149.911037
 20
273.699195
 30
0.0
 11
149.753005
 21
273.541164
 31
0.0
  0
SPLINE
  5
378
330
22C
100
AcDbEntity
 67
     1
  8
06___PRT_ALL_SURFS
  6
Continuous
 62
     9
100
AcDbSpline
 70
     0
 71
     3
 72
    11
 73
     7
 74
     0
 42
0.000000001
 43
0.0000001
 40
0.0
 40
0.0
 40
0.0
 40
0.0
 40
0.2498362902
 40
0.4998073102
 40
0.7499002402
 40
1.0
 40
1.0
 40
1.0
 40
1.0
 10
149.7530051317
 20
273.5411638317
 30
0.0
 10
149.8503031651
 20
273.5409854852
 30
0.0
 10
150.0469963128
 20
273.5017740812
 30
0.0
 10
150.2957003847
 20
273.3351527628
 30
0.0
 10
150.4625141089
 20
273.0864420676
 30
0.0
 10
150.5017988506
 20
272.8895923217
 30
0.0
 10
150.5019772828
 20
272.7921916806
 30
0.0
  0
SPLINE
  5
379
330
22C
100
AcDbEntity
 67
     1
  8
06___PRT_ALL_SURFS
  6
Continuous
 62
     9
100
AcDbSpline
 70
     0
 71
     3
 72
    11
 73
     7
 74
     0
 42
0.000000001
 43
0.0000001
 40
0.0
 40
0.0
 40
0.0
 40
0.0
 40
0.2499413643
 40
0.5000015297
 40
0.7500622384
 40
1.0
 40
1.0
 40
1.0
 40
1.0
 10
149.9110365946
 20
273.6991952946
 30
0.0
 10
150.0085292793
 20
273.6994549767
 30
0.0
 10
150.2058323478
 20
273.6611594547
 30
0.0
 10
150.4554736087
 20
273.4946557992
 30
0.0
 10
150.6219666507
 20
273.245016316
 30
0.0
 10
150.66028039
 20
273.0477143903
 30
0.0
 10
150.6600087457
 20
272.9502231435
 30
0.0
  0
SPLINE
  5
37A
330
22C
100
AcDbEntity
 67
     1
  8
06___PRT_ALL_SURFS
  6
Continuous
 62
     9
100
AcDbSpline
 70
     0
 71
     3
 72
    11
 73
     7
 74
     0
 42
0.000000001
 43
0.0000001
 40
0.0
 40
0.0
 40
0.0
 40
0.0
 40
0.2498362902
 40
0.4998073102
 40
0.7499002402
 40
1.0
 40
1.0
 40
1.0
 40
1.0
 10
60.4523123147
 20
272.7921916806
 30
0.0
 10
60.4524906612
 20
272.889489714
 30
0.0
 10
60.4917020652
 20
273.0861828617
 30
0.0
 10
60.6583233836
 20
273.3348869336
 30
0.0
 10
60.9070340788
 20
273.5017006578
 30
0.0
 10
61.1038838247
 20
273.5409853995
 30
0.0
 10
61.2012844658
 20
273.5411638317
 30
0.0
  0
SPLINE
  5
37B
330
22C
100
AcDbEntity
 67
     1
  8
06___PRT_ALL_SURFS
  6
Continuous
 62
     9
100
AcDbSpline
 70
     0
 71
     3
 72
    11
 73
     7
 74
     0
 42
0.000000001
 43
0.0000001
 40
0.0
 40
0.0
 40
0.0
 40
0.0
 40
0.2499413643
 40
0.5000015297
 40
0.7500622384
 40
1.0
 40
1.0
 40
1.0
 40
1.0
 10
60.2942808518
 20
272.9502231435
 30
0.0
 10
60.2940211697
 20
273.0477158282
 30
0.0
 10
60.3323166917
 20
273.2450188967
 30
0.0
 10
60.4988203472
 20
273.4946601576
 30
0.0
 10
60.7484598304
 20
273.6611531996
 30
0.0
 10
60.9457617561
 20
273.6994669389
 30
0.0
 10
61.0432530028
 20
273.6991952946
 30
0.0
  0
SPLINE
  5
37C
330
22C
100
AcDbEntity
 67
     1
  8
06___PRT_ALL_SURFS
  6
Continuous
 62
     9
100
AcDbSpline
 70
     0
 71
     3
 72
    11
 73
     7
 74
     0
 42
0.000000001
 43
0.0000001
 40
0.0
 40
0.0
 40
0.0
 40
0.0
 40
0.2498362902
 40
0.4998073102
 40
0.7499002402
 40
1.0
 40
1.0
 40
1.0
 40
1.0
 10
150.5019772828
 20
184.2404710147
 30
0.0
 10
150.5017989362
 20
184.1431729813
 30
0.0
 10
150.4625875323
 20
183.9464798336
 30
0.0
 10
150.2959662139
 20
183.6977757617
 30
0.0
 10
150.0472555187
 20
183.5309620375
 30
0.0
 10
149.8504057728
 20
183.4916772958
 30
0.0
 10
149.7530051317
 20
183.4914988636
 30
0.0
  0
SPLINE
  5
37D
330
22C
100
AcDbEntity
 67
     1
  8
06___PRT_ALL_SURFS
  6
Continuous
 62
     9
100
AcDbSpline
 70
     0
 71
     3
 72
    11
 73
     7
 74
     0
 42
0.000000001
 43
0.0000001
 40
0.0
 40
0.0
 40
0.0
 40
0.0
 40
0.2499413643
 40
0.5000015297
 40
0.7500622384
 40
1.0
 40
1.0
 40
1.0
 40
1.0
 10
150.6600087457
 20
184.0824395517
 30
0.0
 10
150.6602684278
 20
183.9849468671
 30
0.0
 10
150.6219729058
 20
183.7876437986
 30
0.0
 10
150.4554692503
 20
183.5380025377
 30
0.0
 10
150.2058297671
 20
183.3715094957
 30
0.0
 10
150.0085278414
 20
183.3331957563
 30
0.0
 10
149.9110365946
 20
183.3334674007
 30
0.0
  0
SPLINE
  5
37E
330
22C
100
AcDbEntity
 67
     1
  8
06___PRT_ALL_SURFS
  6
Continuous
 62
     9
100
AcDbSpline
 70
     0
 71
     3
 72
    11
 73
     7
 74
     0
 42
0.000000001
 43
0.0000001
 40
0.0
 40
0.0
 40
0.0
 40
0.0
 40
0.2498362902
 40
0.4998073102
 40
0.7499002402
 40
1.0
 40
1.0
 40
1.0
 40
1.0
 10
61.2012844658
 20
183.4914988636
 30
0.0
 10
61.1039864324
 20
183.4916772101
 30
0.0
 10
60.9072932847
 20
183.5308886141
 30
0.0
 10
60.6585892128
 20
183.6975099325
 30
0.0
 10
60.4917754886
 20
183.9462206277
 30
0.0
 10
60.4524907469
 20
184.1430703736
 30
0.0
 10
60.4523123147
 20
184.2404710147
 30
0.0
  0
SPLINE
  5
37F
330
22C
100
AcDbEntity
 67
     1
  8
06___PRT_ALL_SURFS
  6
Continuous
 62
     9
100
AcDbSpline
 70
     0
 71
     3
 72
    11
 73
     7
 74
     0
 42
0.000000001
 43
0.0000001
 40
0.0
 40
0.0
 40
0.0
 40
0.0
 40
0.2499413643
 40
0.5000015297
 40
0.7500622384
 40
1.0
 40
1.0
 40
1.0
 40
1.0
 10
61.0432530028
 20
183.3334674007
 30
0.0
 10
60.9457603182
 20
183.3332077186
 30
0.0
 10
60.7484572497
 20
183.3715032406
 30
0.0
 10
60.4988159888
 20
183.5380068961
 30
0.0
 10
60.3323229468
 20
183.7876463793
 30
0.0
 10
60.2940092074
 20
183.984948305
 30
0.0
 10
60.2942808518
 20
184.0824395517
 30
0.0
  0
LINE
  5
380
330
22C
100
AcDbEntity
 67
     1
  8
06___PRT_ALL_SURFS
  6
Continuous
 62
     9
100
AcDbLine
 10
59.545309
 20
184.08244
 30
0.0
 11
60.294281
 21
184.08244
 31
0.0
  0
LINE
  5
381
330
22C
100
AcDbEntity
 67
     1
  8
06___PRT_ALL_SURFS
  6
Continuous
 62
     9
100
AcDbLine
 10
61.043253
 20
182.584495
 30
0.0
 11
61.043253
 21
183.333467
 31
0.0
  0
LINE
  5
382
330
22C
100
AcDbEntity
 67
     1
  8
06___PRT_ALL_SURFS
  6
Continuous
 62
     9
100
AcDbLine
 10
149.911037
 20
182.584495
 30
0.0
 11
149.911037
 21
183.333467
 31
0.0
  0
LINE
  5
383
330
22C
100
AcDbEntity
 67
     1
  8
06___PRT_ALL_SURFS
  6
Continuous
 62
     9
100
AcDbLine
 10
151.408981
 20
184.08244
 30
0.0
 11
150.660009
 21
184.08244
 31
0.0
  0
LINE
  5
384
330
22C
100
AcDbEntity
 67
     1
  8
06___PRT_ALL_SURFS
  6
Continuous
 62
     9
100
AcDbLine
 10
151.408981
 20
272.950223
 30
0.0
 11
150.660009
 21
272.950223
 31
0.0
  0
LINE
  5
385
330
22C
100
AcDbEntity
 67
     1
  8
06___PRT_ALL_SURFS
  6
Continuous
 62
     9
100
AcDbLine
 10
149.911037
 20
274.448167
 30
0.0
 11
149.911037
 21
273.699195
 31
0.0
  0
LINE
  5
386
330
22C
100
AcDbEntity
 67
     1
  8
06___PRT_ALL_SURFS
  6
Continuous
 62
     9
100
AcDbLine
 10
61.043253
 20
274.448167
 30
0.0
 11
61.043253
 21
273.699195
 31
0.0
  0
LINE
  5
387
330
22C
100
AcDbEntity
 67
     1
  8
06___PRT_ALL_SURFS
  6
Continuous
 62
     9
100
AcDbLine
 10
59.545309
 20
272.950223
 30
0.0
 11
60.294281
 21
272.950223
 31
0.0
  0
LINE
  5
388
330
22C
100
AcDbEntity
 67
     1
  8
06___PRT_ALL_SURFS
  6
Continuous
 62
     9
100
AcDbLine
 10
61.201284
 20
273.041849
 30
0.0
 11
61.201284
 21
273.541164
 31
0.0
  0
LINE
  5
389
330
22C
100
AcDbEntity
 67
     1
  8
06___PRT_ALL_SURFS
  6
Continuous
 62
     9
100
AcDbLine
 10
60.951627
 20
272.792192
 30
0.0
 11
60.452312
 21
272.792192
 31
0.0
  0
LINE
  5
38A
330
22C
100
AcDbEntity
 67
     1
  8
06___PRT_ALL_SURFS
  6
Continuous
 62
     9
100
AcDbLine
 10
60.951627
 20
184.240471
 30
0.0
 11
60.452312
 21
184.240471
 31
0.0
  0
LINE
  5
38B
330
22C
100
AcDbEntity
 67
     1
  8
06___PRT_ALL_SURFS
  6
Continuous
 62
     9
100
AcDbLine
 10
61.201284
 20
183.990814
 30
0.0
 11
61.201284
 21
183.491499
 31
0.0
  0
LINE
  5
38C
330
22C
100
AcDbEntity
 67
     1
  8
06___PRT_ALL_SURFS
  6
Continuous
 62
     9
100
AcDbLine
 10
149.753005
 20
183.990814
 30
0.0
 11
149.753005
 21
183.491499
 31
0.0
  0
LINE
  5
38D
330
22C
100
AcDbEntity
 67
     1
  8
06___PRT_ALL_SURFS
  6
Continuous
 62
     9
100
AcDbLine
 10
150.002663
 20
184.240471
 30
0.0
 11
150.501977
 21
184.240471
 31
0.0
  0
LINE
  5
38E
330
22C
100
AcDbEntity
 67
     1
  8
06___PRT_ALL_SURFS
  6
Continuous
 62
     9
100
AcDbLine
 10
150.002663
 20
272.792192
 30
0.0
 11
150.501977
 21
272.792192
 31
0.0
  0
LINE
  5
38F
330
22C
100
AcDbEntity
 67
     1
  8
06___PRT_ALL_SURFS
  6
Continuous
 62
     9
100
AcDbLine
 10
149.753005
 20
273.041849
 30
0.0
 11
149.753005
 21
273.541164
 31
0.0
  0
LINE
  5
390
330
22C
100
AcDbEntity
 67
     1
  8
06___PRT_ALL_SURFS
  6
Continuous
 62
     9
100
AcDbLine
 10
65.734121
 20
157.695397
 30
0.0
 11
65.177145
 21
157.695397
 31
0.0
  0
SPLINE
  5
391
330
22C
100
AcDbEntity
 67
     1
  8
06___PRT_ALL_SURFS
  6
Continuous
 62
     9
100
AcDbSpline
 70
     0
 71
     3
 72
    11
 73
     7
 74
     0
 42
0.000000001
 43
0.0000001
 40
0.0
 40
0.0
 40
0.0
 40
0.0
 40
0.2500209498
 40
0.4999951766
 40
0.7499715065
 40
1.0
 40
1.0
 40
1.0
 40
1.0
 10
151.4089808968
 20
184.0824395516
 30
0.0
 10
151.4089639693
 20
183.8875805686
 30
0.0
 10
151.3312235402
 20
183.4936087989
 30
0.0
 10
150.9978787918
 20
182.9956075768
 30
0.0
 10
150.4998812305
 20
182.6622784018
 30
0.0
 10
150.1059014574
 20
182.5844767548
 30
0.0
 10
149.9110365952
 20
182.5844952496
 30
0.0
  0
LINE
  5
392
330
22C
100
AcDbEntity
 67
     1
  8
06___PRT_ALL_SURFS
  6
Continuous
 62
     9
100
AcDbLine
 10
151.408981
 20
272.950223
 30
0.0
 11
151.408981
 21
184.08244
 31
0.0
  0
SPLINE
  5
393
330
22C
100
AcDbEntity
 67
     1
  8
06___PRT_ALL_SURFS
  6
Continuous
 62
     9
100
AcDbSpline
 70
     0
 71
     3
 72
    11
 73
     7
 74
     0
 42
0.000000001
 43
0.0000001
 40
0.0
 40
0.0
 40
0.0
 40
0.0
 40
0.2500209498
 40
0.4999951766
 40
0.7499715065
 40
1.0
 40
1.0
 40
1.0
 40
1.0
 10
149.9110365947
 20
274.4481674457
 30
0.0
 10
150.1058955778
 20
274.4481505182
 30
0.0
 10
150.4998673475
 20
274.3704100891
 30
0.0
 10
150.9978685696
 20
274.0370653407
 30
0.0
 10
151.3311977446
 20
273.5390677794
 30
0.0
 10
151.4089993916
 20
273.1450880063
 30
0.0
 10
151.4089808968
 20
272.9502231441
 30
0.0
  0
LINE
  5
394
330
22C
100
AcDbEntity
 67
     1
  8
06___PRT_ALL_SURFS
  6
Continuous
 62
     9
100
AcDbLine
 10
61.043253
 20
274.448167
 30
0.0
 11
149.911037
 21
274.448167
 31
0.0
  0
LINE
  5
395
330
22C
100
AcDbEntity
 67
     1
  8
06___PRT_ALL_SURFS
  6
Continuous
 62
     9
100
AcDbLine
 10
145.777145
 20
157.316331
 30
0.0
 11
145.777145
 21
157.426182
 31
0.0
  0
LINE
  5
396
330
22C
100
AcDbEntity
 67
     1
  8
06___PRT_ALL_SURFS
  6
Continuous
 62
     9
100
AcDbLine
 10
145.777145
 20
157.426182
 30
0.0
 11
145.777145
 21
157.548867
 31
0.0
  0
LINE
  5
397
330
22C
100
AcDbEntity
 67
     1
  8
06___PRT_ALL_SURFS
  6
Continuous
 62
     9
100
AcDbLine
 10
145.777145
 20
157.548867
 30
0.0
 11
145.777145
 21
157.695397
 31
0.0
  0
LINE
  5
398
330
22C
100
AcDbEntity
 67
     1
  8
06___PRT_ALL_SURFS
  6
Continuous
 62
     9
100
AcDbLine
 10
151.177145
 20
157.316331
 30
0.0
 11
151.177145
 21
157.695397
 31
0.0
  0
SPLINE
  5
399
330
22C
100
AcDbEntity
 67
     1
  8
06___PRT_ALL_SURFS
  6
Continuous
 62
     9
100
AcDbSpline
 70
     0
 71
     3
 72
    11
 73
     7
 74
     0
 42
0.000000001
 43
0.0000001
 40
0.0
 40
0.0
 40
0.0
 40
0.0
 40
0.2500209498
 40
0.4999951766
 40
0.7499715065
 40
1.0
 40
1.0
 40
1.0
 40
1.0
 10
59.5453087007
 20
272.9502231436
 30
0.0
 10
59.5453256282
 20
273.1450821267
 30
0.0
 10
59.6230660572
 20
273.5390538964
 30
0.0
 10
59.9564108056
 20
274.0370551185
 30
0.0
 10
60.4544083669
 20
274.3703842935
 30
0.0
 10
60.8483881401
 20
274.4481859405
 30
0.0
 10
61.0432530023
 20
274.4481674457
 30
0.0
  0
ARC
  5
39A
330
22C
100
AcDbEntity
 67
     1
  8
06___PRT_ALL_SURFS
  6
Continuous
 62
     7
100
AcDbCircle
 10
64.977145
 20
165.766331
 30
0.0
 40
3.0
100
AcDbArc
 50
0.0
 51
180.0
  0
ARC
  5
39B
330
22C
100
AcDbEntity
 67
     1
  8
06___PRT_ALL_SURFS
  6
Continuous
 62
     7
100
AcDbCircle
 10
64.977145
 20
165.766331
 30
0.0
 40
3.0
100
AcDbArc
 50
180.0
 51
360.0
  0
LINE
  5
39C
330
22C
100
AcDbEntity
 67
     1
  8
06___PRT_ALL_SURFS
  6
Continuous
 62
     9
100
AcDbLine
 10
65.177145
 20
157.316331
 30
0.0
 11
65.177145
 21
157.426182
 31
0.0
  0
LINE
  5
39D
330
22C
100
AcDbEntity
 67
     1
  8
06___PRT_ALL_SURFS
  6
Continuous
 62
     9
100
AcDbLine
 10
65.177145
 20
157.426182
 30
0.0
 11
65.177145
 21
157.548867
 31
0.0
  0
LINE
  5
39E
330
22C
100
AcDbEntity
 67
     1
  8
06___PRT_ALL_SURFS
  6
Continuous
 62
     9
100
AcDbLine
 10
65.177145
 20
157.548867
 30
0.0
 11
65.177145
 21
157.695397
 31
0.0
  0
ARC
  5
39F
330
22C
100
AcDbEntity
 67
     1
  8
06___PRT_ALL_SURFS
  6
Continuous
 62
     7
100
AcDbCircle
 10
64.977145
 20
165.766331
 30
0.0
 40
2.9125113365
100
AcDbArc
 50
180.0
 51
360.0
  0
ARC
  5
3A0
330
22C
100
AcDbEntity
 67
     1
  8
06___PRT_ALL_SURFS
  6
Continuous
 62
     7
100
AcDbCircle
 10
64.977145
 20
165.766331
 30
0.0
 40
2.9125113365
100
AcDbArc
 50
0.0
 51
180.0
  0
LINE
  5
3A1
330
22C
100
AcDbEntity
 67
     1
  8
06___PRT_ALL_SURFS
  6
Continuous
 62
     9
100
AcDbLine
 10
59.777145
 20
157.316331
 30
0.0
 11
59.777145
 21
157.695397
 31
0.0
  0
LINE
  5
3A2
330
22C
100
AcDbEntity
 67
     1
  8
06___PRT_ALL_SURFS
  6
Continuous
 62
     9
100
AcDbLine
 10
59.545309
 20
184.08244
 30
0.0
 11
59.545309
 21
272.950223
 31
0.0
  0
LINE
  5
3A3
330
22C
100
AcDbEntity
 67
     1
  8
06___PRT_ALL_SURFS
  6
Continuous
 62
     9
100
AcDbLine
 10
65.177145
 20
157.695397
 30
0.0
 11
65.177145
 21
158.516331
 31
0.0
  0
LINE
  5
3A4
330
22C
100
AcDbEntity
 67
     1
  8
06___PRT_ALL_SURFS
  6
Continuous
 62
     9
100
AcDbLine
 10
65.177145
 20
157.695397
 30
0.0
 11
59.777145
 21
157.695397
 31
0.0
  0
LINE
  5
3A5
330
22C
100
AcDbEntity
 67
     1
  8
06___PRT_ALL_SURFS
  6
Continuous
 62
     9
100
AcDbLine
 10
59.777145
 20
157.695397
 30
0.0
 11
59.777145
 21
158.516331
 31
0.0
  0
LINE
  5
3A6
330
22C
100
AcDbEntity
 67
     1
  8
06___PRT_ALL_SURFS
  6
Continuous
 62
     9
100
AcDbLine
 10
59.777145
 20
157.695397
 30
0.0
 11
58.934121
 21
157.695397
 31
0.0
  0
LINE
  5
3A7
330
22C
100
AcDbEntity
 67
     1
  8
06___PRT_ALL_SURFS
  6
Continuous
 62
     9
100
AcDbLine
 10
58.934121
 20
157.695397
 30
0.0
 11
58.626863
 21
157.695397
 31
0.0
  0
LINE
  5
3A8
330
22C
100
AcDbEntity
 67
     1
  8
06___PRT_ALL_SURFS
  6
Continuous
 62
     9
100
AcDbLine
 10
58.626863
 20
157.695397
 30
0.0
 11
57.820168
 21
157.695397
 31
0.0
  0
SPLINE
  5
3A9
330
22C
100
AcDbEntity
 67
     1
  8
06___PRT_ALL_SURFS
  6
Continuous
 62
     9
100
AcDbSpline
 70
     0
 71
     3
 72
    11
 73
     7
 74
     0
 42
0.000000001
 43
0.0000001
 40
0.0
 40
0.0
 40
0.0
 40
0.0
 40
0.2500209498
 40
0.4999951766
 40
0.7499715065
 40
1.0
 40
1.0
 40
1.0
 40
1.0
 10
61.0432530027
 20
182.5844952496
 30
0.0
 10
60.8483940197
 20
182.5845121771
 30
0.0
 10
60.45442225
 20
182.6622526062
 30
0.0
 10
59.9564210279
 20
182.9955973546
 30
0.0
 10
59.6230918529
 20
183.4935949158
 30
0.0
 10
59.5452902059
 20
183.887574689
 30
0.0
 10
59.5453087007
 20
184.0824395512
 30
0.0
  0
LINE
  5
3AA
330
22C
100
AcDbEntity
 67
     1
  8
06___PRT_ALL_SURFS
  6
Continuous
 62
     9
100
AcDbLine
 10
149.911037
 20
182.584495
 30
0.0
 11
61.043253
 21
182.584495
 31
0.0
  0
LINE
  5
3AB
330
22C
100
AcDbEntity
 67
     1
  8
06___PRT_ALL_SURFS
  6
Continuous
 62
     9
100
AcDbLine
 10
151.177145
 20
157.695397
 30
0.0
 11
151.177145
 21
158.516331
 31
0.0
  0
LINE
  5
3AC
330
22C
100
AcDbEntity
 67
     1
  8
06___PRT_ALL_SURFS
  6
Continuous
 62
     9
100
AcDbLine
 10
151.177145
 20
157.695397
 30
0.0
 11
145.777145
 21
157.695397
 31
0.0
  0
LINE
  5
3AD
330
22C
100
AcDbEntity
 67
     1
  8
06___PRT_ALL_SURFS
  6
Continuous
 62
     9
100
AcDbLine
 10
145.777145
 20
157.695397
 30
0.0
 11
145.777145
 21
158.516331
 31
0.0
  0
LINE
  5
3AE
330
22C
100
AcDbEntity
 67
     1
  8
06___PRT_ALL_SURFS
  6
Continuous
 62
     9
100
AcDbLine
 10
145.777145
 20
157.695397
 30
0.0
 11
145.220168
 21
157.695397
 31
0.0
  0
LINE
  5
3AF
330
22C
100
AcDbEntity
 67
     1
  8
06___PRT_ALL_SURFS
  6
Continuous
 62
     9
100
AcDbLine
 10
153.134121
 20
157.695397
 30
0.0
 11
152.327426
 21
157.695397
 31
0.0
  0
LINE
  5
3B0
330
22C
100
AcDbEntity
 67
     1
  8
06___PRT_ALL_SURFS
  6
Continuous
 62
     9
100
AcDbLine
 10
152.327426
 20
157.695397
 30
0.0
 11
152.020168
 21
157.695397
 31
0.0
  0
LINE
  5
3B1
330
22C
100
AcDbEntity
 67
     1
  8
06___PRT_ALL_SURFS
  6
Continuous
 62
     9
100
AcDbLine
 10
152.020168
 20
157.695397
 30
0.0
 11
151.177145
 21
157.695397
 31
0.0
  0
LINE
  5
3B2
330
22C
100
AcDbEntity
 67
     1
  8
06___PRT_ALL_SURFS
  6
Continuous
 62
     9
100
AcDbLine
 10
150.658951
 20
177.881808
 30
0.0
 11
145.04986
 21
177.881808
 31
0.0
  0
LINE
  5
3B3
330
22C
100
AcDbEntity
 67
     1
  8
06___PRT_ALL_SURFS
  6
Continuous
 62
     9
100
AcDbLine
 10
151.021475
 20
177.881808
 30
0.0
 11
144.793517
 21
177.881808
 31
0.0
  0
LINE
  5
3B4
330
22C
100
AcDbEntity
 67
     1
  8
06___PRT_ALL_SURFS
  6
Continuous
 62
     6
100
AcDbLine
 10
151.317358
 20
178.516331
 30
0.0
 11
144.584296
 21
178.516331
 31
0.0
  0
LINE
  5
3B5
330
22C
100
AcDbEntity
 67
     1
  8
06___PRT_ALL_SURFS
  6
Continuous
 62
     9
100
AcDbLine
 10
149.696583
 20
177.881808
 30
0.0
 11
144.087492
 21
177.881808
 31
0.0
  0
LINE
  5
3B6
330
22C
100
AcDbEntity
 67
     1
  8
06___PRT_ALL_SURFS
  6
Continuous
 62
     9
100
AcDbLine
 10
149.952926
 20
177.881808
 30
0.0
 11
143.724969
 21
177.881808
 31
0.0
  0
LINE
  5
3B7
330
22C
100
AcDbEntity
 67
     1
  8
06___PRT_ALL_SURFS
  6
Continuous
 62
     6
100
AcDbLine
 10
150.162147
 20
178.516331
 30
0.0
 11
143.429085
 21
178.516331
 31
0.0
  0
LINE
  5
3B8
330
22C
100
AcDbEntity
 67
     1
  8
06___PRT_ALL_SURFS
  6
Continuous
 62
     6
100
AcDbLine
 10
149.487362
 20
178.516331
 30
0.0
 11
144.383375
 21
178.516331
 31
0.0
  0
LINE
  5
3B9
330
22C
100
AcDbEntity
 67
     1
  8
06___PRT_ALL_SURFS
  6
Continuous
 62
     6
100
AcDbLine
 10
150.363068
 20
178.516331
 30
0.0
 11
145.259081
 21
178.516331
 31
0.0
  0
LINE
  5
3BA
330
22C
100
AcDbEntity
 67
     1
  8
06___PRT_ALL_SURFS
  6
Continuous
 62
     6
100
AcDbLine
 10
150.363068
 20
178.516331
 30
0.0
 11
150.658951
 21
177.881808
 31
0.0
  0
LINE
  5
3BB
330
22C
100
AcDbEntity
 67
     1
  8
06___PRT_ALL_SURFS
  6
Continuous
 62
     6
100
AcDbLine
 10
144.921688
 20
177.766331
 30
0.0
 11
150.840213
 21
177.766331
 31
0.0
  0
ARC
  5
3BC
330
22C
100
AcDbEntity
 67
     1
  8
06___PRT_ALL_SURFS
  6
Continuous
 62
     6
100
AcDbCircle
 10
150.840213
 20
177.966331
 30
0.0
 40
0.2
100
AcDbArc
 50
270.0
 51
335.0
  0
ARC
  5
3BD
330
22C
100
AcDbEntity
 67
     1
  8
06___PRT_ALL_SURFS
  6
Continuous
 62
     6
100
AcDbCircle
 10
150.840213
 20
177.966331
 30
0.0
 40
0.2
100
AcDbArc
 50
205.0
 51
270.0
  0
LINE
  5
3BE
330
22C
100
AcDbEntity
 67
     1
  8
06___PRT_ALL_SURFS
  6
Continuous
 62
     6
100
AcDbLine
 10
151.317358
 20
178.516331
 30
0.0
 11
151.021475
 21
177.881808
 31
0.0
  0
LINE
  5
3BF
330
22C
100
AcDbEntity
 67
     1
  8
06___PRT_ALL_SURFS
  6
Continuous
 62
     6
100
AcDbLine
 10
144.383375
 20
178.516331
 30
0.0
 11
144.087492
 21
177.881808
 31
0.0
  0
LINE
  5
3C0
330
22C
100
AcDbEntity
 67
     1
  8
06___PRT_ALL_SURFS
  6
Continuous
 62
     6
100
AcDbLine
 10
149.824755
 20
177.766331
 30
0.0
 11
143.90623
 21
177.766331
 31
0.0
  0
ARC
  5
3C1
330
22C
100
AcDbEntity
 67
     1
  8
06___PRT_ALL_SURFS
  6
Continuous
 62
     6
100
AcDbCircle
 10
143.90623
 20
177.966331
 30
0.0
 40
0.2
100
AcDbArc
 50
205.0
 51
270.0
  0
ARC
  5
3C2
330
22C
100
AcDbEntity
 67
     1
  8
06___PRT_ALL_SURFS
  6
Continuous
 62
     6
100
AcDbCircle
 10
143.90623
 20
177.966331
 30
0.0
 40
0.2
100
AcDbArc
 50
270.0
 51
335.0
  0
LINE
  5
3C3
330
22C
100
AcDbEntity
 67
     1
  8
06___PRT_ALL_SURFS
  6
Continuous
 62
     6
100
AcDbLine
 10
143.429085
 20
178.516331
 30
0.0
 11
143.724969
 21
177.881808
 31
0.0
  0
LINE
  5
3C4
330
22C
100
AcDbEntity
 67
     1
  8
06___PRT_ALL_SURFS
  6
Continuous
 62
     7
100
AcDbLine
 10
155.477145
 20
31.75391
 30
0.0
 11
155.477145
 21
131.75391
 31
0.0
  0
LINE
  5
3C5
330
22C
100
AcDbEntity
 67
     1
  8
06___PRT_ALL_SURFS
  6
Continuous
 62
     7
100
AcDbLine
 10
55.477145
 20
31.75391
 30
0.0
 11
155.477145
 21
31.75391
 31
0.0
  0
LINE
  5
3C6
330
22C
100
AcDbEntity
 67
     1
  8
06___PRT_ALL_SURFS
  6
Continuous
 62
     7
100
AcDbLine
 10
55.477145
 20
131.75391
 30
0.0
 11
55.477145
 21
31.75391
 31
0.0
  0
LINE
  5
3C7
330
22C
100
AcDbEntity
 67
     1
  8
06___PRT_ALL_SURFS
  6
Continuous
 62
     7
100
AcDbLine
 10
155.477145
 20
131.75391
 30
0.0
 11
55.477145
 21
131.75391
 31
0.0
  0
ARC
  5
3C8
330
22C
100
AcDbEntity
 67
     1
  8
06___PRT_ALL_SURFS
  6
Continuous
 62
     9
100
AcDbCircle
 10
147.373222
 20
39.857833
 30
0.0
 40
3.2857298536
100
AcDbArc
 50
315.0
 51
135.0
  0
ARC
  5
3C9
330
22C
100
AcDbEntity
 67
     1
  8
06___PRT_ALL_SURFS
  6
Continuous
 62
     9
100
AcDbCircle
 10
147.373222
 20
39.857833
 30
0.0
 40
3.6482529684
100
AcDbArc
 50
315.0
 51
135.0
  0
ARC
  5
3CA
330
22C
100
AcDbEntity
 67
     1
  8
06___PRT_ALL_SURFS
  6
Continuous
 62
     6
100
AcDbCircle
 10
147.373222
 20
39.857833
 30
0.0
 40
3.9441362068
100
AcDbArc
 50
315.0
 51
135.0
  0
ARC
  5
3CB
330
22C
100
AcDbEntity
 67
     1
  8
06___PRT_ALL_SURFS
  6
Continuous
 62
     9
100
AcDbCircle
 10
147.373222
 20
39.857833
 30
0.0
 40
3.2857298536
100
AcDbArc
 50
135.0
 51
315.0
  0
ARC
  5
3CC
330
22C
100
AcDbEntity
 67
     1
  8
06___PRT_ALL_SURFS
  6
Continuous
 62
     9
100
AcDbCircle
 10
147.373222
 20
39.857833
 30
0.0
 40
3.6482529684
100
AcDbArc
 50
135.0
 51
315.0
  0
ARC
  5
3CD
330
22C
100
AcDbEntity
 67
     1
  8
06___PRT_ALL_SURFS
  6
Continuous
 62
     6
100
AcDbCircle
 10
147.373222
 20
39.857833
 30
0.0
 40
3.9441362068
100
AcDbArc
 50
135.0
 51
315.0
  0
ARC
  5
3CE
330
22C
100
AcDbEntity
 67
     1
  8
06___PRT_ALL_SURFS
  6
Continuous
 62
     6
100
AcDbCircle
 10
147.373222
 20
39.857833
 30
0.0
 40
2.9898466152
100
AcDbArc
 50
135.0
 51
315.0
  0
ARC
  5
3CF
330
22C
100
AcDbEntity
 67
     1
  8
06___PRT_ALL_SURFS
  6
Continuous
 62
     6
100
AcDbCircle
 10
147.373222
 20
39.857833
 30
0.0
 40
2.9898466152
100
AcDbArc
 50
315.0
 51
135.0
  0
LINE
  5
3D0
330
22C
100
AcDbEntity
 67
     1
  8
06___PRT_ALL_SURFS
  6
Continuous
 62
     7
100
AcDbLine
 10
282.167256
 20
158.516331
 30
0.0
 11
382.167256
 21
158.516331
 31
0.0
  0
LINE
  5
3D1
330
22C
100
AcDbEntity
 67
     1
  8
06___PRT_ALL_SURFS
  6
Continuous
 62
     7
100
AcDbLine
 10
282.167256
 20
278.516331
 30
0.0
 11
382.167256
 21
278.516331
 31
0.0
  0
LINE
  5
3D2
330
22C
100
AcDbEntity
 67
     1
  8
06___PRT_ALL_SURFS
  6
Continuous
 62
     7
100
AcDbLine
 10
282.167256
 20
158.516331
 30
0.0
 11
282.167256
 21
278.516331
 31
0.0
  0
LINE
  5
3D3
330
22C
100
AcDbEntity
 67
     1
  8
06___PRT_ALL_SURFS
  6
Continuous
 62
     7
100
AcDbLine
 10
382.167256
 20
158.516331
 30
0.0
 11
382.167256
 21
278.516331
 31
0.0
  0
ARC
  5
3D4
330
22C
100
AcDbEntity
 67
     1
  8
06___PRT_ALL_SURFS
  6
Continuous
 62
     7
100
AcDbCircle
 10
379.424781
 20
157.716331
 30
0.0
 40
0.4
100
AcDbArc
 50
270.0
 51
357.0
  0
LINE
  5
3D5
330
22C
100
AcDbEntity
 67
     1
  8
06___PRT_ALL_SURFS
  6
Continuous
 62
     7
100
AcDbLine
 10
377.867256
 20
157.316331
 30
0.0
 11
378.348558
 21
157.316331
 31
0.0
  0
LINE
  5
3D6
330
22C
100
AcDbEntity
 67
     1
  8
06___PRT_ALL_SURFS
  6
Continuous
 62
     7
100
AcDbLine
 10
378.348558
 20
157.316331
 30
0.0
 11
378.782746
 21
157.316331
 31
0.0
  0
LINE
  5
3D7
330
22C
100
AcDbEntity
 67
     1
  8
06___PRT_ALL_SURFS
  6
Continuous
 62
     7
100
AcDbLine
 10
378.782746
 20
157.316331
 30
0.0
 11
379.424781
 21
157.316331
 31
0.0
  0
LINE
  5
3D8
330
22C
100
AcDbEntity
 67
     1
  8
06___PRT_ALL_SURFS
  6
Continuous
 62
     7
100
AcDbLine
 10
377.867256
 20
157.316331
 30
0.0
 11
372.467256
 21
157.316331
 31
0.0
  0
ARC
  5
3D9
330
22C
100
AcDbEntity
 67
     1
  8
06___PRT_ALL_SURFS
  6
Continuous
 62
     7
100
AcDbCircle
 10
372.309731
 20
157.716331
 30
0.0
 40
0.4
100
AcDbArc
 50
248.25
 51
270.0
  0
ARC
  5
3DA
330
22C
100
AcDbEntity
 67
     1
  8
06___PRT_ALL_SURFS
  6
Continuous
 62
     7
100
AcDbCircle
 10
372.309731
 20
157.716331
 30
0.0
 40
0.4
100
AcDbArc
 50
183.0
 51
248.25
  0
LINE
  5
3DB
330
22C
100
AcDbEntity
 67
     1
  8
06___PRT_ALL_SURFS
  6
Continuous
 62
     7
100
AcDbLine
 10
372.467256
 20
157.316331
 30
0.0
 11
372.309732
 21
157.316331
 31
0.0
  0
LINE
  5
3DC
330
22C
100
AcDbEntity
 67
     1
  8
06___PRT_ALL_SURFS
  6
Continuous
 62
     7
100
AcDbLine
 10
372.313681
 20
157.316331
 30
0.0
 11
372.467256
 21
157.316331
 31
0.0
  0
LINE
  5
3DD
330
22C
100
AcDbEntity
 67
     1
  8
06___PRT_ALL_SURFS
  6
Continuous
 62
     7
100
AcDbLine
 10
372.467256
 20
157.316331
 30
0.0
 11
372.313681
 21
157.316331
 31
0.0
  0
LINE
  5
3DE
330
22C
100
AcDbEntity
 67
     1
  8
06___PRT_ALL_SURFS
  6
Continuous
 62
     7
100
AcDbLine
 10
371.910279
 20
157.695397
 30
0.0
 11
371.867256
 21
158.516331
 31
0.0
  0
LINE
  5
3DF
330
22C
100
AcDbEntity
 67
     1
  8
06___PRT_ALL_SURFS
  6
Continuous
 62
     7
100
AcDbLine
 10
292.02478
 20
157.316331
 30
0.0
 11
291.867256
 21
157.316331
 31
0.0
  0
ARC
  5
3E0
330
22C
100
AcDbEntity
 67
     1
  8
06___PRT_ALL_SURFS
  6
Continuous
 62
     7
100
AcDbCircle
 10
292.024781
 20
157.716331
 30
0.0
 40
0.4
100
AcDbArc
 50
270.0
 51
291.75
  0
ARC
  5
3E1
330
22C
100
AcDbEntity
 67
     1
  8
06___PRT_ALL_SURFS
  6
Continuous
 62
     7
100
AcDbCircle
 10
292.024781
 20
157.716331
 30
0.0
 40
0.4
100
AcDbArc
 50
291.75
 51
313.5
  0
ARC
  5
3E2
330
22C
100
AcDbEntity
 67
     1
  8
06___PRT_ALL_SURFS
  6
Continuous
 62
     7
100
AcDbCircle
 10
292.024781
 20
157.716331
 30
0.0
 40
0.4
100
AcDbArc
 50
313.5
 51
357.0
  0
LINE
  5
3E3
330
22C
100
AcDbEntity
 67
     1
  8
06___PRT_ALL_SURFS
  6
Continuous
 62
     7
100
AcDbLine
 10
292.020831
 20
157.316331
 30
0.0
 11
292.024781
 21
157.316331
 31
0.0
  0
LINE
  5
3E4
330
22C
100
AcDbEntity
 67
     1
  8
06___PRT_ALL_SURFS
  6
Continuous
 62
     7
100
AcDbLine
 10
292.024781
 20
157.316331
 30
0.0
 11
291.867256
 21
157.316331
 31
0.0
  0
LINE
  5
3E5
330
22C
100
AcDbEntity
 67
     1
  8
06___PRT_ALL_SURFS
  6
Continuous
 62
     7
100
AcDbLine
 10
291.867256
 20
157.316331
 30
0.0
 11
292.020831
 21
157.316331
 31
0.0
  0
LINE
  5
3E6
330
22C
100
AcDbEntity
 67
     1
  8
06___PRT_ALL_SURFS
  6
Continuous
 62
     7
100
AcDbLine
 10
291.867256
 20
157.316331
 30
0.0
 11
286.467256
 21
157.316331
 31
0.0
  0
ARC
  5
3E7
330
22C
100
AcDbEntity
 67
     1
  8
06___PRT_ALL_SURFS
  6
Continuous
 62
     7
100
AcDbCircle
 10
284.909731
 20
157.716331
 30
0.0
 40
0.4
100
AcDbArc
 50
183.0
 51
270.0
  0
LINE
  5
3E8
330
22C
100
AcDbEntity
 67
     1
  8
06___PRT_ALL_SURFS
  6
Continuous
 62
     7
100
AcDbLine
 10
284.909731
 20
157.316331
 30
0.0
 11
285.551766
 21
157.316331
 31
0.0
  0
LINE
  5
3E9
330
22C
100
AcDbEntity
 67
     1
  8
06___PRT_ALL_SURFS
  6
Continuous
 62
     7
100
AcDbLine
 10
285.551766
 20
157.316331
 30
0.0
 11
285.985954
 21
157.316331
 31
0.0
  0
LINE
  5
3EA
330
22C
100
AcDbEntity
 67
     1
  8
06___PRT_ALL_SURFS
  6
Continuous
 62
     7
100
AcDbLine
 10
285.985954
 20
157.316331
 30
0.0
 11
286.467256
 21
157.316331
 31
0.0
  0
LINE
  5
3EB
330
22C
100
AcDbEntity
 67
     1
  8
06___PRT_ALL_SURFS
  6
Continuous
 62
     7
100
AcDbLine
 10
284.510279
 20
157.695397
 30
0.0
 11
284.467256
 21
158.516331
 31
0.0
  0
LINE
  5
3EC
330
22C
100
AcDbEntity
 67
     1
  8
06___PRT_ALL_SURFS
  6
Continuous
 62
     7
100
AcDbLine
 10
292.424233
 20
157.695397
 30
0.0
 11
292.467256
 21
158.516331
 31
0.0
  0
LINE
  5
3ED
330
22C
100
AcDbEntity
 67
     1
  8
06___PRT_ALL_SURFS
  6
Continuous
 62
     7
100
AcDbLine
 10
379.824233
 20
157.695397
 30
0.0
 11
379.867256
 21
158.516331
 31
0.0
  0
LINE
  5
3EE
330
22C
100
AcDbEntity
 67
     1
  8
06___PRT_ALL_SURFS
  6
Continuous
 62
     7
100
AcDbLine
 10
379.424781
 20
157.316331
 30
0.0
 11
378.781811
 21
157.316331
 31
0.0
  0
LINE
  5
3EF
330
22C
100
AcDbEntity
 67
     1
  8
06___PRT_ALL_SURFS
  6
Continuous
 62
     7
100
AcDbLine
 10
378.781811
 20
157.316331
 30
0.0
 11
378.343286
 21
157.316331
 31
0.0
  0
LINE
  5
3F0
330
22C
100
AcDbEntity
 67
     1
  8
06___PRT_ALL_SURFS
  6
Continuous
 62
     7
100
AcDbLine
 10
378.343286
 20
157.316331
 30
0.0
 11
377.867256
 21
157.316331
 31
0.0
  0
LINE
  5
3F1
330
22C
100
AcDbEntity
 67
     1
  8
06___PRT_ALL_SURFS
  6
Continuous
 62
     7
100
AcDbLine
 10
377.867256
 20
157.316331
 30
0.0
 11
372.467256
 21
157.316331
 31
0.0
  0
LINE
  5
3F2
330
22C
100
AcDbEntity
 67
     1
  8
06___PRT_ALL_SURFS
  6
Continuous
 62
     7
100
AcDbLine
 10
284.510279
 20
157.695397
 30
0.0
 11
284.467256
 21
158.516331
 31
0.0
  0
LINE
  5
3F3
330
22C
100
AcDbEntity
 67
     1
  8
06___PRT_ALL_SURFS
  6
Continuous
 62
     7
100
AcDbLine
 10
291.867256
 20
157.316331
 30
0.0
 11
286.467256
 21
157.316331
 31
0.0
  0
LINE
  5
3F4
330
22C
100
AcDbEntity
 67
     1
  8
06___PRT_ALL_SURFS
  6
Continuous
 62
     7
100
AcDbLine
 10
286.467256
 20
157.316331
 30
0.0
 11
285.991222
 21
157.316331
 31
0.0
  0
LINE
  5
3F5
330
22C
100
AcDbEntity
 67
     1
  8
06___PRT_ALL_SURFS
  6
Continuous
 62
     7
100
AcDbLine
 10
285.991222
 20
157.316331
 30
0.0
 11
285.552732
 21
157.316331
 31
0.0
  0
LINE
  5
3F6
330
22C
100
AcDbEntity
 67
     1
  8
06___PRT_ALL_SURFS
  6
Continuous
 62
     7
100
AcDbLine
 10
285.552732
 20
157.316331
 30
0.0
 11
284.909731
 21
157.316331
 31
0.0
  0
LINE
  5
3F7
330
22C
100
AcDbEntity
 67
     1
  8
06___PRT_ALL_SURFS
  6
Continuous
 62
     9
100
AcDbLine
 10
291.867256
 20
157.316331
 30
0.0
 11
291.867256
 21
157.426182
 31
0.0
  0
LINE
  5
3F8
330
22C
100
AcDbEntity
 67
     1
  8
06___PRT_ALL_SURFS
  6
Continuous
 62
     9
100
AcDbLine
 10
291.867256
 20
157.426182
 30
0.0
 11
291.867256
 21
157.548867
 31
0.0
  0
LINE
  5
3F9
330
22C
100
AcDbEntity
 67
     1
  8
06___PRT_ALL_SURFS
  6
Continuous
 62
     9
100
AcDbLine
 10
291.867256
 20
157.548867
 30
0.0
 11
291.867256
 21
157.695397
 31
0.0
  0
LINE
  5
3FA
330
22C
100
AcDbEntity
 67
     1
  8
06___PRT_ALL_SURFS
  6
Continuous
 62
     9
100
AcDbLine
 10
286.467256
 20
157.316331
 30
0.0
 11
286.467256
 21
157.695397
 31
0.0
  0
LINE
  5
3FB
330
22C
100
AcDbEntity
 67
     1
  8
06___PRT_ALL_SURFS
  6
Continuous
 62
     9
100
AcDbLine
 10
292.424233
 20
157.695397
 30
0.0
 11
291.867256
 21
157.695397
 31
0.0
  0
LINE
  5
3FC
330
22C
100
AcDbEntity
 67
     1
  8
06___PRT_ALL_SURFS
  6
Continuous
 62
     9
100
AcDbLine
 10
379.824233
 20
157.695397
 30
0.0
 11
379.017538
 21
157.695397
 31
0.0
  0
LINE
  5
3FD
330
22C
100
AcDbEntity
 67
     1
  8
06___PRT_ALL_SURFS
  6
Continuous
 62
     9
100
AcDbLine
 10
379.017538
 20
157.695397
 30
0.0
 11
378.710279
 21
157.695397
 31
0.0
  0
LINE
  5
3FE
330
22C
100
AcDbEntity
 67
     1
  8
06___PRT_ALL_SURFS
  6
Continuous
 62
     9
100
AcDbLine
 10
378.710279
 20
157.695397
 30
0.0
 11
377.867256
 21
157.695397
 31
0.0
  0
LINE
  5
3FF
330
22C
100
AcDbEntity
 67
     1
  8
06___PRT_ALL_SURFS
  6
Continuous
 62
     9
100
AcDbLine
 10
372.467256
 20
157.695397
 30
0.0
 11
371.910279
 21
157.695397
 31
0.0
  0
LINE
  5
400
330
22C
100
AcDbEntity
 67
     1
  8
06___PRT_ALL_SURFS
  6
Continuous
 62
     9
100
AcDbLine
 10
372.467256
 20
157.695397
 30
0.0
 11
372.467256
 21
158.516331
 31
0.0
  0
LINE
  5
401
330
22C
100
AcDbEntity
 67
     1
  8
06___PRT_ALL_SURFS
  6
Continuous
 62
     9
100
AcDbLine
 10
377.867256
 20
157.695397
 30
0.0
 11
372.467256
 21
157.695397
 31
0.0
  0
LINE
  5
402
330
22C
100
AcDbEntity
 67
     1
  8
06___PRT_ALL_SURFS
  6
Continuous
 62
     9
100
AcDbLine
 10
377.867256
 20
157.695397
 30
0.0
 11
377.867256
 21
158.516331
 31
0.0
  0
LINE
  5
403
330
22C
100
AcDbEntity
 67
     1
  8
06___PRT_ALL_SURFS
  6
Continuous
 62
     9
100
AcDbLine
 10
286.467256
 20
157.695397
 30
0.0
 11
285.624233
 21
157.695397
 31
0.0
  0
LINE
  5
404
330
22C
100
AcDbEntity
 67
     1
  8
06___PRT_ALL_SURFS
  6
Continuous
 62
     9
100
AcDbLine
 10
285.624233
 20
157.695397
 30
0.0
 11
285.316974
 21
157.695397
 31
0.0
  0
LINE
  5
405
330
22C
100
AcDbEntity
 67
     1
  8
06___PRT_ALL_SURFS
  6
Continuous
 62
     9
100
AcDbLine
 10
285.316974
 20
157.695397
 30
0.0
 11
284.510279
 21
157.695397
 31
0.0
  0
LINE
  5
406
330
22C
100
AcDbEntity
 67
     1
  8
06___PRT_ALL_SURFS
  6
Continuous
 62
     9
100
AcDbLine
 10
286.467256
 20
157.695397
 30
0.0
 11
286.467256
 21
158.516331
 31
0.0
  0
LINE
  5
407
330
22C
100
AcDbEntity
 67
     1
  8
06___PRT_ALL_SURFS
  6
Continuous
 62
     9
100
AcDbLine
 10
291.867256
 20
157.695397
 30
0.0
 11
286.467256
 21
157.695397
 31
0.0
  0
LINE
  5
408
330
22C
100
AcDbEntity
 67
     1
  8
06___PRT_ALL_SURFS
  6
Continuous
 62
     9
100
AcDbLine
 10
291.867256
 20
157.695397
 30
0.0
 11
291.867256
 21
158.516331
 31
0.0
  0
LINE
  5
409
330
22C
100
AcDbEntity
 67
     1
  8
06___PRT_ALL_SURFS
  6
Continuous
 62
     9
100
AcDbLine
 10
372.467256
 20
157.316331
 30
0.0
 11
372.467256
 21
157.426182
 31
0.0
  0
LINE
  5
40A
330
22C
100
AcDbEntity
 67
     1
  8
06___PRT_ALL_SURFS
  6
Continuous
 62
     9
100
AcDbLine
 10
372.467256
 20
157.426182
 30
0.0
 11
372.467256
 21
157.548867
 31
0.0
  0
LINE
  5
40B
330
22C
100
AcDbEntity
 67
     1
  8
06___PRT_ALL_SURFS
  6
Continuous
 62
     9
100
AcDbLine
 10
372.467256
 20
157.548867
 30
0.0
 11
372.467256
 21
157.695397
 31
0.0
  0
LINE
  5
40C
330
22C
100
AcDbEntity
 67
     1
  8
06___PRT_ALL_SURFS
  6
Continuous
 62
     9
100
AcDbLine
 10
377.867256
 20
157.316331
 30
0.0
 11
377.867256
 21
157.695397
 31
0.0
  0
LINE
  5
40D
330
22C
100
AcDbEntity
 67
     1
  8
06___PRT_ALL_SURFS
  6
Continuous
 62
     9
100
AcDbLine
 10
376.386695
 20
177.881808
 30
0.0
 11
370.777603
 21
177.881808
 31
0.0
  0
LINE
  5
40E
330
22C
100
AcDbEntity
 67
     1
  8
06___PRT_ALL_SURFS
  6
Continuous
 62
     9
100
AcDbLine
 10
376.643037
 20
177.881808
 30
0.0
 11
370.41508
 21
177.881808
 31
0.0
  0
LINE
  5
40F
330
22C
100
AcDbEntity
 67
     1
  8
06___PRT_ALL_SURFS
  6
Continuous
 62
     6
100
AcDbLine
 10
376.852258
 20
178.516331
 30
0.0
 11
370.119197
 21
178.516331
 31
0.0
  0
LINE
  5
410
330
22C
100
AcDbEntity
 67
     1
  8
06___PRT_ALL_SURFS
  6
Continuous
 62
     9
100
AcDbLine
 10
377.349063
 20
177.881808
 30
0.0
 11
371.739971
 21
177.881808
 31
0.0
  0
LINE
  5
411
330
22C
100
AcDbEntity
 67
     1
  8
06___PRT_ALL_SURFS
  6
Continuous
 62
     9
100
AcDbLine
 10
377.711586
 20
177.881808
 30
0.0
 11
371.483628
 21
177.881808
 31
0.0
  0
LINE
  5
412
330
22C
100
AcDbEntity
 67
     1
  8
06___PRT_ALL_SURFS
  6
Continuous
 62
     6
100
AcDbLine
 10
378.007469
 20
178.516331
 30
0.0
 11
371.274407
 21
178.516331
 31
0.0
  0
LINE
  5
413
330
22C
100
AcDbEntity
 67
     1
  8
06___PRT_ALL_SURFS
  6
Continuous
 62
     6
100
AcDbLine
 10
377.053179
 20
178.516331
 30
0.0
 11
371.949192
 21
178.516331
 31
0.0
  0
LINE
  5
414
330
22C
100
AcDbEntity
 67
     1
  8
06___PRT_ALL_SURFS
  6
Continuous
 62
     6
100
AcDbLine
 10
376.177474
 20
178.516331
 30
0.0
 11
371.073486
 21
178.516331
 31
0.0
  0
LINE
  5
415
330
22C
100
AcDbEntity
 67
     1
  8
06___PRT_ALL_SURFS
  6
Continuous
 62
     6
100
AcDbLine
 10
371.073486
 20
178.516331
 30
0.0
 11
370.777603
 21
177.881808
 31
0.0
  0
LINE
  5
416
330
22C
100
AcDbEntity
 67
     1
  8
06___PRT_ALL_SURFS
  6
Continuous
 62
     6
100
AcDbLine
 10
370.596341
 20
177.766331
 30
0.0
 11
376.514866
 21
177.766331
 31
0.0
  0
ARC
  5
417
330
22C
100
AcDbEntity
 67
     1
  8
06___PRT_ALL_SURFS
  6
Continuous
 62
     6
100
AcDbCircle
 10
370.596341
 20
177.966331
 30
0.0
 40
0.2
100
AcDbArc
 50
205.0
 51
270.0
  0
ARC
  5
418
330
22C
100
AcDbEntity
 67
     1
  8
06___PRT_ALL_SURFS
  6
Continuous
 62
     6
100
AcDbCircle
 10
370.596341
 20
177.966331
 30
0.0
 40
0.2
100
AcDbArc
 50
270.0
 51
335.0
  0
LINE
  5
419
330
22C
100
AcDbEntity
 67
     1
  8
06___PRT_ALL_SURFS
  6
Continuous
 62
     6
100
AcDbLine
 10
370.119197
 20
178.516331
 30
0.0
 11
370.41508
 21
177.881808
 31
0.0
  0
LINE
  5
41A
330
22C
100
AcDbEntity
 67
     1
  8
06___PRT_ALL_SURFS
  6
Continuous
 62
     6
100
AcDbLine
 10
377.053179
 20
178.516331
 30
0.0
 11
377.349063
 21
177.881808
 31
0.0
  0
LINE
  5
41B
330
22C
100
AcDbEntity
 67
     1
  8
06___PRT_ALL_SURFS
  6
Continuous
 62
     6
100
AcDbLine
 10
377.530324
 20
177.766331
 30
0.0
 11
371.6118
 21
177.766331
 31
0.0
  0
ARC
  5
41C
330
22C
100
AcDbEntity
 67
     1
  8
06___PRT_ALL_SURFS
  6
Continuous
 62
     6
100
AcDbCircle
 10
377.530324
 20
177.966331
 30
0.0
 40
0.2
100
AcDbArc
 50
270.0
 51
335.0
  0
ARC
  5
41D
330
22C
100
AcDbEntity
 67
     1
  8
06___PRT_ALL_SURFS
  6
Continuous
 62
     6
100
AcDbCircle
 10
377.530324
 20
177.966331
 30
0.0
 40
0.2
100
AcDbArc
 50
205.0
 51
270.0
  0
LINE
  5
41E
330
22C
100
AcDbEntity
 67
     1
  8
06___PRT_ALL_SURFS
  6
Continuous
 62
     6
100
AcDbLine
 10
378.007469
 20
178.516331
 30
0.0
 11
377.711586
 21
177.881808
 31
0.0
  0
ARC
  5
41F
330
22C
100
AcDbEntity
 67
     1
  8
3_ALL_AXES
  6
Continuous
 62
     7
100
AcDbCircle
 10
214.952574
 20
122.235773
 30
0.0
 40
4.7
100
AcDbArc
 50
0.0
 51
180.0
  0
ARC
  5
420
330
22C
100
AcDbEntity
 67
     1
  8
3_ALL_AXES
  6
Continuous
 62
     7
100
AcDbCircle
 10
214.952574
 20
122.235773
 30
0.0
 40
4.7
100
AcDbArc
 50
180.0
 51
360.0
  0
ARC
  5
421
330
22C
100
AcDbEntity
 67
     1
  8
3_ALL_AXES
  6
Continuous
 62
     7
100
AcDbCircle
 10
214.952574
 20
122.235773
 30
0.0
 40
3.256624327
100
AcDbArc
 50
180.0
 51
360.0
  0
ARC
  5
422
330
22C
100
AcDbEntity
 67
     1
  8
3_ALL_AXES
  6
Continuous
 62
     7
100
AcDbCircle
 10
214.952574
 20
122.235773
 30
0.0
 40
3.256624327
100
AcDbArc
 50
0.0
 51
180.0
  0
ARC
  5
423
330
22C
100
AcDbEntity
 67
     1
  8
3_ALL_AXES
  6
Continuous
 62
     7
100
AcDbCircle
 10
295.9163
 20
41.272046
 30
0.0
 40
4.7
100
AcDbArc
 50
180.0
 51
360.0
  0
ARC
  5
424
330
22C
100
AcDbEntity
 67
     1
  8
3_ALL_AXES
  6
Continuous
 62
     7
100
AcDbCircle
 10
295.9163
 20
41.272046
 30
0.0
 40
4.7
100
AcDbArc
 50
0.0
 51
180.0
  0
ARC
  5
425
330
22C
100
AcDbEntity
 67
     1
  8
3_ALL_AXES
  6
Continuous
 62
     7
100
AcDbCircle
 10
295.9163
 20
41.272046
 30
0.0
 40
3.256624327
100
AcDbArc
 50
0.0
 51
180.0
  0
ARC
  5
426
330
22C
100
AcDbEntity
 67
     1
  8
3_ALL_AXES
  6
Continuous
 62
     7
100
AcDbCircle
 10
295.9163
 20
41.272046
 30
0.0
 40
3.256624327
100
AcDbArc
 50
180.0
 51
360.0
  0
ARC
  5
427
330
22C
100
AcDbEntity
 67
     1
  8
02___PRT_ALL_AXES
  6
Continuous
 62
     7
100
AcDbCircle
 10
223.614632
 20
113.573715
 30
0.0
 40
2.5
100
AcDbArc
 50
0.0
 51
180.0
  0
ARC
  5
428
330
22C
100
AcDbEntity
 67
     1
  8
02___PRT_ALL_AXES
  6
Continuous
 62
     7
100
AcDbCircle
 10
223.614632
 20
113.573715
 30
0.0
 40
2.5
100
AcDbArc
 50
180.0
 51
360.0
  0
ARC
  5
429
330
22C
100
AcDbEntity
 67
     1
  8
02___PRT_ALL_AXES
  6
Continuous
 62
     7
100
AcDbCircle
 10
287.254242
 20
113.573715
 30
0.0
 40
2.5
100
AcDbArc
 50
0.0
 51
180.0
  0
ARC
  5
42A
330
22C
100
AcDbEntity
 67
     1
  8
02___PRT_ALL_AXES
  6
Continuous
 62
     7
100
AcDbCircle
 10
287.254242
 20
113.573715
 30
0.0
 40
2.5
100
AcDbArc
 50
180.0
 51
360.0
  0
ARC
  5
42B
330
22C
100
AcDbEntity
 67
     1
  8
02___PRT_ALL_AXES
  6
Continuous
 62
     7
100
AcDbCircle
 10
287.254242
 20
49.934104
 30
0.0
 40
2.5
100
AcDbArc
 50
0.0
 51
180.0
  0
ARC
  5
42C
330
22C
100
AcDbEntity
 67
     1
  8
02___PRT_ALL_AXES
  6
Continuous
 62
     7
100
AcDbCircle
 10
287.254242
 20
49.934104
 30
0.0
 40
2.5
100
AcDbArc
 50
180.0
 51
360.0
  0
ARC
  5
42D
330
22C
100
AcDbEntity
 67
     1
  8
02___PRT_ALL_AXES
  6
Continuous
 62
     7
100
AcDbCircle
 10
223.614632
 20
49.934104
 30
0.0
 40
2.5
100
AcDbArc
 50
0.0
 51
180.0
  0
ARC
  5
42E
330
22C
100
AcDbEntity
 67
     1
  8
02___PRT_ALL_AXES
  6
Continuous
 62
     7
100
AcDbCircle
 10
223.614632
 20
49.934104
 30
0.0
 40
2.5
100
AcDbArc
 50
180.0
 51
360.0
  0
LINE
  5
42F
330
22C
100
AcDbEntity
 67
     1
  8
02___PRT_ALL_AXES
  6
Continuous
 62
     7
100
AcDbLine
 10
285.434437
 20
56.75391
 30
0.0
 11
285.434437
 21
61.75391
 31
0.0
  0
ARC
  5
430
330
22C
100
AcDbEntity
 67
     1
  8
02___PRT_ALL_AXES
  6
Continuous
 62
     7
100
AcDbCircle
 10
282.934437
 20
56.75391
 30
0.0
 40
2.5
100
AcDbArc
 50
180.0
 51
360.0
  0
LINE
  5
431
330
22C
100
AcDbEntity
 67
     1
  8
02___PRT_ALL_AXES
  6
Continuous
 62
     7
100
AcDbLine
 10
280.434437
 20
61.75391
 30
0.0
 11
280.434437
 21
56.75391
 31
0.0
  0
ARC
  5
432
330
22C
100
AcDbEntity
 67
     1
  8
02___PRT_ALL_AXES
  6
Continuous
 62
     7
100
AcDbCircle
 10
282.934437
 20
61.75391
 30
0.0
 40
2.5
100
AcDbArc
 50
0.0
 51
180.0
  0
ARC
  5
433
330
22C
100
AcDbEntity
 67
     1
  8
02___PRT_ALL_AXES
  6
Continuous
 62
     7
100
AcDbCircle
 10
280.434437
 20
104.25391
 30
0.0
 40
2.5
100
AcDbArc
 50
90.0
 51
270.0
  0
LINE
  5
434
330
22C
100
AcDbEntity
 67
     1
  8
02___PRT_ALL_AXES
  6
Continuous
 62
     7
100
AcDbLine
 10
285.434437
 20
106.75391
 30
0.0
 11
280.434437
 21
106.75391
 31
0.0
  0
ARC
  5
435
330
22C
100
AcDbEntity
 67
     1
  8
02___PRT_ALL_AXES
  6
Continuous
 62
     7
100
AcDbCircle
 10
285.434437
 20
104.25391
 30
0.0
 40
2.5
100
AcDbArc
 50
270.0
 51
90.0
  0
LINE
  5
436
330
22C
100
AcDbEntity
 67
     1
  8
02___PRT_ALL_AXES
  6
Continuous
 62
     7
100
AcDbLine
 10
280.434437
 20
101.75391
 30
0.0
 11
285.434437
 21
101.75391
 31
0.0
  0
ARC
  5
437
330
22C
100
AcDbEntity
 67
     1
  8
02___PRT_ALL_AXES
  6
Continuous
 62
     7
100
AcDbCircle
 10
227.934437
 20
56.75391
 30
0.0
 40
2.5
100
AcDbArc
 50
180.0
 51
360.0
  0
LINE
  5
438
330
22C
100
AcDbEntity
 67
     1
  8
02___PRT_ALL_AXES
  6
Continuous
 62
     7
100
AcDbLine
 10
225.434437
 20
61.75391
 30
0.0
 11
225.434437
 21
56.75391
 31
0.0
  0
ARC
  5
439
330
22C
100
AcDbEntity
 67
     1
  8
02___PRT_ALL_AXES
  6
Continuous
 62
     7
100
AcDbCircle
 10
227.934437
 20
61.75391
 30
0.0
 40
2.5
100
AcDbArc
 50
0.0
 51
180.0
  0
LINE
  5
43A
330
22C
100
AcDbEntity
 67
     1
  8
02___PRT_ALL_AXES
  6
Continuous
 62
     7
100
AcDbLine
 10
230.434437
 20
56.75391
 30
0.0
 11
230.434437
 21
61.75391
 31
0.0
  0
LINE
  5
43B
330
22C
100
AcDbEntity
 67
     1
  8
02___PRT_ALL_AXES
  6
Continuous
 62
     7
100
AcDbLine
 10
230.434437
 20
106.75391
 30
0.0
 11
225.434437
 21
106.75391
 31
0.0
  0
ARC
  5
43C
330
22C
100
AcDbEntity
 67
     1
  8
02___PRT_ALL_AXES
  6
Continuous
 62
     7
100
AcDbCircle
 10
230.434437
 20
104.25391
 30
0.0
 40
2.5
100
AcDbArc
 50
270.0
 51
90.0
  0
LINE
  5
43D
330
22C
100
AcDbEntity
 67
     1
  8
02___PRT_ALL_AXES
  6
Continuous
 62
     7
100
AcDbLine
 10
225.434437
 20
101.75391
 30
0.0
 11
230.434437
 21
101.75391
 31
0.0
  0
ARC
  5
43E
330
22C
100
AcDbEntity
 67
     1
  8
02___PRT_ALL_AXES
  6
Continuous
 62
     7
100
AcDbCircle
 10
225.434437
 20
104.25391
 30
0.0
 40
2.5
100
AcDbArc
 50
90.0
 51
270.0
  0
LINE
  5
43F
330
22C
100
AcDbEntity
 67
     1
  8
7_ALL_FEATURES
  6
Continuous
 62
     7
100
AcDbLine
 10
298.434437
 20
127.50391
 30
0.0
 11
212.434437
 21
127.50391
 31
0.0
  0
LINE
  5
440
330
22C
100
AcDbEntity
 67
     1
  8
7_ALL_FEATURES
  6
Continuous
 62
     7
100
AcDbLine
 10
212.434437
 20
127.50391
 30
0.0
 11
209.684437
 21
124.75391
 31
0.0
  0
LINE
  5
441
330
22C
100
AcDbEntity
 67
     1
  8
7_ALL_FEATURES
  6
Continuous
 62
     7
100
AcDbLine
 10
209.684437
 20
124.75391
 30
0.0
 11
209.684437
 21
38.75391
 31
0.0
  0
LINE
  5
442
330
22C
100
AcDbEntity
 67
     1
  8
7_ALL_FEATURES
  6
Continuous
 62
     7
100
AcDbLine
 10
209.684437
 20
38.75391
 30
0.0
 11
212.434437
 21
36.00391
 31
0.0
  0
LINE
  5
443
330
22C
100
AcDbEntity
 67
     1
  8
7_ALL_FEATURES
  6
Continuous
 62
     7
100
AcDbLine
 10
212.434437
 20
36.00391
 30
0.0
 11
298.434437
 21
36.00391
 31
0.0
  0
LINE
  5
444
330
22C
100
AcDbEntity
 67
     1
  8
7_ALL_FEATURES
  6
Continuous
 62
     7
100
AcDbLine
 10
298.434437
 20
36.00391
 30
0.0
 11
301.184437
 21
38.75391
 31
0.0
  0
LINE
  5
445
330
22C
100
AcDbEntity
 67
     1
  8
7_ALL_FEATURES
  6
Continuous
 62
     7
100
AcDbLine
 10
301.184437
 20
38.75391
 30
0.0
 11
301.184437
 21
124.75391
 31
0.0
  0
LINE
  5
446
330
22C
100
AcDbEntity
 67
     1
  8
7_ALL_FEATURES
  6
Continuous
 62
     7
100
AcDbLine
 10
301.184437
 20
124.75391
 30
0.0
 11
298.434437
 21
127.50391
 31
0.0
  0
ARC
  5
447
330
22C
100
AcDbEntity
 67
     1
  8
7_ALL_FEATURES
  6
Continuous
 62
     7
100
AcDbCircle
 10
255.434437
 20
81.75391
 30
0.0
 40
25.0
100
AcDbArc
 50
180.0
 51
360.0
  0
ARC
  5
448
330
22C
100
AcDbEntity
 67
     1
  8
7_ALL_FEATURES
  6
Continuous
 62
     7
100
AcDbCircle
 10
255.434437
 20
81.75391
 30
0.0
 40
25.0
100
AcDbArc
 50
0.0
 51
180.0
  0
DIMENSION
  5
449
330
22C
100
AcDbEntity
 67
     1
  8
0
  6
Continuous
 62
     2
100
AcDbDimension
280
     0
  2
*D1
 10
170.477146
 20
158.516331
 30
0.0
 11
170.477146
 21
217.659188
 31
0.0
 70
   160
 71
     2
 42
120.0
 73
     0
 74
     0
 75
     0
  3
DIMSTYLE_1
100
AcDbAlignedDimension
 13
157.444436
 23
278.516331
 33
0.0
 14
157.128579
 24
158.516331
 34
0.0
 50
270.0
100
AcDbRotatedDimension
  0
DIMENSION
  5
44A
330
22C
100
AcDbEntity
 67
     1
  8
0
  6
Continuous
 62
     2
100
AcDbDimension
280
     0
  2
*D2
 10
170.477146
 20
31.75391
 30
0.0
 11
170.477146
 21
80.896766
 31
0.0
 70
   160
 71
     2
 42
100.0
 73
     0
 74
     0
 75
     0
  3
DIMSTYLE_1
100
AcDbAlignedDimension
 13
157.031277
 23
131.75391
 33
0.0
 14
158.062226
 24
31.75391
 34
0.0
 50
270.0
100
AcDbRotatedDimension
  0
DIMENSION
  5
44B
330
22C
100
AcDbEntity
 67
     1
  8
0
  6
Continuous
 62
     2
100
AcDbDimension
280
     0
  2
*D3
 10
155.477145
 20
16.753908
 30
0.0
 11
104.62
 21
16.753908
 31
0.0
 70
   160
 71
     2
 42
100.0
 73
     0
 74
     0
 75
     0
  3
DIMSTYLE_1
100
AcDbAlignedDimension
 13
55.477145
 23
29.78144
 33
0.0
 14
155.477145
 24
29.446313
 34
0.0
100
AcDbRotatedDimension
  0
DIMENSION
  5
44C
330
22C
100
AcDbEntity
 67
     1
  8
0
  6
Continuous
 62
     2
100
AcDbDimension
280
     0
  2
*D4
 10
282.934437
 20
138.245394
 30
0.0
 11
254.577294
 21
138.245394
 31
0.0
 70
   160
 71
     2
 42
55.0
 73
     0
 74
     0
 75
     0
  3
DIMSTYLE_1
100
AcDbAlignedDimension
 13
227.934437
 23
104.682896
 33
0.0
 14
282.934437
 24
104.682896
 34
0.0
100
AcDbRotatedDimension
  0
DIMENSION
  5
44D
330
22C
100
AcDbEntity
 67
     1
  8
0
  6
Continuous
 62
     2
100
AcDbDimension
280
     0
  2
*D5
 10
314.332182
 20
59.25391
 30
0.0
 11
314.332182
 21
80.896765
 31
0.0
 70
   160
 71
     2
 42
45.0
 73
     0
 74
     0
 75
     0
  3
DIMSTYLE_1
100
AcDbAlignedDimension
 13
285.524836
 23
104.25391
 33
0.0
 14
285.938262
 24
59.25391
 34
0.0
 50
270.0
100
AcDbRotatedDimension
  0
INSERT
  5
44E
330
22C
100
AcDbEntity
 67
     1
  8
0
  6
Continuous
 62
     2
100
AcDbBlockReference
  2
LOGO2_BL0
 10
332.572555
 20
37.515934
 30
0.0
  0
ACAD_TABLE
  5
44F
102
{ACAD_XDICTIONARY
360
4A6
102
}
330
22C
100
AcDbEntity
 67
     1
  8
0
  6
Continuous
 62
     2
160
              3300
310
E40C000017000000880000001D000000000000000000F03F00000000000000000000000000000000D520EBB1F1EB73400000000000000000000000000000F03F00000000000000005B59F9210A82494000000000000000000000000000000000000000000000F03F0000000000000000000000000000000000000000000000
310
000000000000000000000000000000F03F54000000200000000200000000000000000000000000000000000000000000000000000000000000008056400000000000000000000000000000000000000000000000000000000000000000000000000000F03F5400000020000000020000000000000000000000000000000000
310
00000000000000000000000000000000000000000000000044C0000000000000000000000000000000000000000000000000000000000000F03F5400000020000000020000000000000000003E4000000000000018C00000000000000000000000000080564000000000000018C00000000000000000000000000000000000
310
00000000000000000000000000F03F5400000020000000020000000000000000003E4000000000000028C00000000000000000000000000080564000000000000028C0000000000000000000000000000000000000000000000000000000000000F03F5400000020000000020000000000000000003E4000000000000036C0
310
0000000000000000000000000080564000000000000036C0000000000000000000000000000000000000000000000000000000000000F03F54000000200000000200000000000000000000000000000000003BC0000000000000000000000000008056400000000000003BC000000000000000000000000000000000000000
310
0000000000000000000000F03F540000002000000002000000000000000000000000000000000044C00000000000000000000000000080564000000000000044C0000000000000000000000000000000000000000000000000000000000000F03F5400000020000000020000000000000000003E4000000000000000000000
310
0000000000000000000000003E400000000000003BC0000000000000000000000000000000000000000000000000000000000000F03F540000002000000002000000000000000080514000000000000000000000000000000000000000000080514000000000000028C0000000000000000000000000000000000000000000
310
000000000000000000F03F540000002000000002000000000000000080564000000000000000000000000000000000000000000080564000000000000044C0000000000000000000000000000000000000000000000000000000000000F03F0C000000100000002A000000CC00000026000000736891ED7C4F3F404E621058
310
393412C0000000000000000000000000000000000000000000000000000000000000F03F000000000000F03F000000000000000000000000000000003300440031005F0043005F00300038003100000012000000010000000000000000000840000000000000F03F0000000000000000000000000000F03F00000000000000
310
00000000000000000000000000000000000000000000000000000000000000000061007200690061006C002E00740074006600000000000000C800000026000000C2F5285C8FC6514075931804560E13C0000000000000000000000000000000000000000000000000000000000000F03F000000000000F03F000000000000
310
000000000000000000005200650076003A0030003000000000000C000000010000000000000000000C40000000000000F03F0000000000000000000000000000F03F0000000000000000000000000000000000000000000000000000000000000000000000000000000061007200690061006C002E00740074006600000000
310
000000CC00000026000000FA7E6ABC74433F405839B4C8769E26C0000000000000000000000000000000000000000000000000000000000000F03F000000000000F03F000000000000000000000000000000005300630061006C0065003A0031003A003100000012000000010000000000000000000C40000000000000F03F
310
0000000000000000000000000000F03F0000000000000000000000000000000000000000000000000000000000000000000000000000000061007200690061006C002E00740074006600000000000000C0000000260000003333333333DF5140BA490C022B8725C00000000000000000000000000000000000000000000000
310
00000000000000F03F000000000000F03F00000000000000000000000000000000410033000000000004000000010000000000000000000C40000000000000F03F0000000000000000000000000000F03F00000000000000000000000000000000000000000000000000000000000000000000000000000000610072006900
310
61006C002E00740074006600000000000000CC00000026000000C520B07268213F40AC1C5A643BCF32C0000000000000000000000000000000000000000000000000000000000000F03F000000000000F03F000000000000000000000000000000004B004F00430043004100200031002E0031000000120000000100000000
310
00000000000C40000000000000F03F0000000000000000000000000000F03F0000000000000000000000000000000000000000000000000000000000000000000000000000000061007200690061006C002E00740074006600000000000000D40000002600000048E17A14AE373F40C3F5285C8FC239C00000000000000000
310
00000000000000000000000000000000000000000000F03F000000000000F03F0000000000000000000000000000000044004100540045003A00320037002E00300033002E003100340000001A000000010000000000000000000440000000000000F03F0000000000000000000000000000F03F0000000000000000000000
310
000000000000000000000000000000000000000000000000000000000061007200690061006C002E007400740066000000000000002401000026000000CDCCCCCCCCCCF73F0000000000903DC0000000000000000000000000000000000000000000000000000000000000F03F000000000000F03F00000000000000000000
310
00000000000041006E007900200069006E00740065006700720061006C0020006F00720020007000610072007400690061006C00200072006500700072006F00640075006300740069006F006E00730020006100720065002000700072006F0068006900620069007400650064000000000068000000010000000000000000
310
000240000000000000F03F0000000000000000000000000000F03F0000000000000000000000000000000000000000000000000000000000000000000000000000000061007200690061006C002E007400740066000000000000002C01000026000000FED478E926B1F73F37894160E57C40C0000000000000000000000000
310
000000000000000000000000000000000000F03F000000000000F03F0000000000000000000000000000000077006900740068006F007500740020007000720069006F007200200061007500740068006F007200690073006100740069006F006E0020006F00660020004C002000260020004C0020004C0075006300650020
310
00260020004C006900670068007400200073002E0072002E006C002E002C00000072000000010000000000000000000240000000000000F03F0000000000000000000000000000F03F0000000000000000000000000000000000000000000000000000000000000000000000000000000061007200690061006C002E007400
310
740066000000000000000401000026000000C1CAA145B673F43F4F1E166A4D3142C0000000000000000000000000000000000000000000000000000000000000F03F000000000000F03F0000000000000000000000000000000069006E0020006100630063006F007200640061006E00630065002000770069007400680020
310
0074006800650020006C0061007700200069006E00200066006F007200630065002E000000000048000000010000000000000000000240000000000000F03F0000000000000000000000000000F03F000000000000000000000000000000000000000000000000000000000000000000000000000000006100720069006100
310
6C002E00740074006600000000000000E400000026000000CDCCCCCCCCCCF73F302AA913D0E043C0000000000000000000000000000000000000000000000000000000000000F03F000000000000F03F0000000000000000000000000000000041006C006C0020007200690067006800740073002000720065007300650072
310
007600650064002E000000000028000000010000000000000000000240000000000000F03F0000000000000000000000000000F03F0000000000000000000000000000000000000000000000000000000000000000000000000000000061007200690061006C002E00740074006600000000000000080000001F000000
100
AcDbBlockReference
  2
*T7
 10
318.746508
 20
51.015934
 30
0.0
100
AcDbTable
342
491
343
234
 11
1.0
 21
0.0
 31
0.0
 90
       22
 91
        5
 92
        5
 93
        0
 94
        0
 95
        0
 96
        0
141
6.0
141
6.0
141
10.0
141
5.0
141
13.0
142
10.0
142
10.0
142
10.0
142
40.0
142
20.0
171
     1
172
     0
173
     0
174
     0
175
     3
176
     4
 91
       32
178
     0
145
0.0
140
3.5
 92
        0
301
CELL_VALUE
 93
        2
 90
        4
  1
 
 94
        0
300

302
 
304
ACVALUE_END
171
     1
172
     0
173
     1
174
     0
175
     1
176
     1
 91
        0
178
     0
145
0.0
 92
        0
301
CELL_VALUE
 93
        3
 90
        0
 91
        0
 94
        0
300

302

304
ACVALUE_END
171
     1
172
     0
173
     1
174
     0
175
     1
176
     1
 91
        0
178
     0
145
0.0
 92
        0
301
CELL_VALUE
 93
        3
 90
        0
 91
        0
 94
        0
300

302

304
ACVALUE_END
171
     1
172
     0
173
     0
174
     0
175
     1
176
     1
 91
       49
178
     0
145
0.0
170
     4
  7
TEXTSTYLE_4
140
3.0
 92
        0
301
CELL_VALUE
 93
        2
 90
        4
  1
3D1_C_081
 94
        0
300

302
3D1_C_081
304
ACVALUE_END
171
     1
172
     0
173
     0
174
     0
175
     1
176
     1
 91
       49
178
     0
145
0.0
170
     4
  7
TEXTSTYLE_4
140
3.5
 92
        0
301
CELL_VALUE
 93
        2
 90
        4
  1
Rev:00
 94
        0
300

302
Rev:00
304
ACVALUE_END
171
     1
172
     0
173
     1
174
     0
175
     1
176
     1
 91
        0
178
     0
145
0.0
 92
        0
301
CELL_VALUE
 93
        3
 90
        0
 91
        0
 94
        0
300

302

304
ACVALUE_END
171
     1
172
     0
173
     1
174
     0
175
     1
176
     1
 91
        0
178
     0
145
0.0
 92
        0
301
CELL_VALUE
 93
        3
 90
        0
 91
        0
 94
        0
300

302

304
ACVALUE_END
171
     1
172
     0
173
     1
174
     0
175
     1
176
     1
 91
        0
178
     0
145
0.0
 92
        0
301
CELL_VALUE
 93
        3
 90
        0
 91
        0
 94
        0
300

302

304
ACVALUE_END
171
     1
172
     0
173
     0
174
     0
175
     1
176
     1
 91
       49
178
     0
145
0.0
170
     1
  7
TEXTSTYLE_4
140
3.5
 92
        0
301
CELL_VALUE
 93
        2
 90
        4
  1
Scale:1:1
 94
        0
300

302
Scale:1:1
304
ACVALUE_END
171
     1
172
     0
173
     0
174
     0
175
     1
176
     1
 91
       49
178
     0
145
0.0
170
     4
  7
TEXTSTYLE_4
140
3.5
 92
        0
301
CELL_VALUE
 93
        2
 90
        4
  1
A3
 94
        0
300

302
A3
304
ACVALUE_END
171
     1
172
     0
173
     1
174
     0
175
     1
176
     1
 91
        0
178
     0
145
0.0
 92
        0
301
CELL_VALUE
 93
        3
 90
        0
 91
        0
 94
        0
300

302

304
ACVALUE_END
171
     1
172
     0
173
     1
174
     0
175
     1
176
     1
 91
        0
178
     0
145
0.0
 92
        0
301
CELL_VALUE
 93
        3
 90
        0
 91
        0
 94
        0
300

302

304
ACVALUE_END
171
     1
172
     0
173
     1
174
     0
175
     1
176
     1
 91
        0
178
     0
145
0.0
 92
        0
301
CELL_VALUE
 93
        3
 90
        0
 91
        0
 94
        0
300

302

304
ACVALUE_END
171
     1
172
     0
173
     0
174
     0
175
     2
176
     1
 91
       49
178
     0
145
0.0
170
     4
  7
TEXTSTYLE_4
140
3.5
 92
        0
301
CELL_VALUE
 93
        2
 90
        4
  1
KOCCA 1.1
 94
        0
300

302
KOCCA 1.1
304
ACVALUE_END
171
     1
172
     0
173
     1
174
     0
175
     1
176
     1
 91
        0
178
     0
145
0.0
 92
        0
301
CELL_VALUE
 93
        3
 90
        0
 91
        0
 94
        0
300

302

304
ACVALUE_END
171
     1
172
     0
173
     1
174
     0
175
     1
176
     1
 91
        0
178
     0
145
0.0
 92
        0
301
CELL_VALUE
 93
        3
 90
        0
 91
        0
 94
        0
300

302

304
ACVALUE_END
171
     1
172
     0
173
     1
174
     0
175
     1
176
     1
 91
        0
178
     0
145
0.0
 92
        0
301
CELL_VALUE
 93
        3
 90
        0
 91
        0
 94
        0
300

302

304
ACVALUE_END
171
     1
172
     0
173
     1
174
     0
175
     1
176
     1
 91
        0
178
     0
145
0.0
 92
        0
301
CELL_VALUE
 93
        3
 90
        0
 91
        0
 94
        0
300

302

304
ACVALUE_END
171
     1
172
     0
173
     0
174
     0
175
     2
176
     1
 91
       49
178
     0
145
0.0
170
     4
  7
TEXTSTYLE_4
140
2.5
 92
        0
301
CELL_VALUE
 93
        2
 90
        4
  1
DATE:27.03.14
 94
        0
300

302
DATE:27.03.14
304
ACVALUE_END
171
     1
172
     0
173
     1
174
     0
175
     1
176
     1
 91
        0
178
     0
145
0.0
 92
        0
301
CELL_VALUE
 93
        3
 90
        0
 91
        0
 94
        0
300

302

304
ACVALUE_END
171
     1
172
     0
173
     0
174
     0
175
     5
176
     1
 91
       49
178
     0
145
0.0
170
     4
  7
TEXTSTYLE_4
140
2.25
 92
        0
301
CELL_VALUE
 93
        2
 90
        4
  1
Any integral or partial reproductions are prohibited \Pwithout prior authorisation of L & L Luce & Light s.r.l., \Pin accordance with the law in force. \PAll rights reserved.
 94
        0
300

302
Any integral or partial reproductions are prohibited \Pwithout prior authorisation of L & L Luce & Light s.r.l., \Pin accordance with the law in force. \PAll rights reserved.
304
ACVALUE_END
171
     1
172
     0
173
     1
174
     0
175
     1
176
     1
 91
        0
178
     0
145
0.0
 92
        0
301
CELL_VALUE
 93
        3
 90
        0
 91
        0
 94
        0
300

302

304
ACVALUE_END
171
     1
172
     0
173
     1
174
     0
175
     1
176
     1
 91
        0
178
     0
145
0.0
 92
        0
301
CELL_VALUE
 93
        3
 90
        0
 91
        0
 94
        0
300

302

304
ACVALUE_END
171
     1
172
     0
173
     1
174
     0
175
     1
176
     1
 91
        0
178
     0
145
0.0
 92
        0
301
CELL_VALUE
 93
        3
 90
        0
 91
        0
 94
        0
300

302

304
ACVALUE_END
171
     1
172
     0
173
     1
174
     0
175
     1
176
     1
 91
        0
178
     0
145
0.0
 92
        0
301
CELL_VALUE
 93
        3
 90
        0
 91
        0
 94
        0
300

302

304
ACVALUE_END
  0
ENDSEC
  0
SECTION
  2
OBJECTS
  0
DICTIONARY
  5
C
330
0
100
AcDbDictionary
281
     1
  3
ACAD_DETAILVIEWSTYLE
350
4AF
  3
ACAD_GROUP
350
D
  3
ACAD_IMAGE_DICT
350
49F
  3
ACAD_LAYOUT
350
1A
  3
ACAD_MATERIAL
350
493
  3
ACAD_MLEADERSTYLE
350
4AE
  3
ACAD_MLINESTYLE
350
17
  3
ACAD_PLOTSETTINGS
350
19
  3
ACAD_PLOTSTYLENAME
350
E
  3
ACAD_SCALELIST
350
455
  3
ACAD_SECTIONVIEWSTYLE
350
4B0
  3
ACAD_TABLESTYLE
350
490
  3
ACAD_VISUALSTYLE
350
477
  3
ACDB_RECOMPOSE_DATA
350
4AC
  3
AcDbVariableDictionary
350
4A8
  3
HOST_DOC_SETTINGS
350
49D
  3
MCS_STREAM_DICT
350
499
  0
SUN
  5
49C
330
2E4
100
AcDbSun
 90
        1
290
     0
 63
     7
421
 16777215
 40
1.0
291
     1
 91
  2455826
 92
 54000000
292
     0
 70
     2
 71
   256
280
     1
  0
DICTIONARY
  5
4A6
330
44F
100
AcDbDictionary
280
     1
281
     1
  3
ACAD_XREC_ROUNDTRIP
360
4A7
  0
DICTIONARY
  5
4AF
102
{ACAD_REACTORS
330
C
102
}
330
C
100
AcDbDictionary
281
     1
  0
DICTIONARY
  5
D
102
{ACAD_REACTORS
330
C
102
}
330
C
100
AcDbDictionary
281
     1
  0
DICTIONARY
  5
49F
102
{ACAD_REACTORS
330
C
102
}
330
C
100
AcDbDictionary
281
     1
  0
DICTIONARY
  5
1A
102
{ACAD_REACTORS
330
C
102
}
330
C
100
AcDbDictionary
281
     1
  3
3D1_C_081_1
350
452
  3
Model
350
451
  0
DICTIONARY
  5
493
102
{ACAD_REACTORS
330
C
102
}
330
C
100
AcDbDictionary
281
     1
  3
ByBlock
350
495
  3
ByLayer
350
494
  3
Global
350
496
  0
DICTIONARY
  5
4AE
102
{ACAD_REACTORS
330
C
102
}
330
C
100
AcDbDictionary
281
     1
  0
DICTIONARY
  5
17
102
{ACAD_REACTORS
330
C
102
}
330
C
100
AcDbDictionary
281
     1
  3
Standard
350
18
  0
DICTIONARY
  5
19
102
{ACAD_REACTORS
330
C
102
}
330
C
100
AcDbDictionary
281
     1
  0
ACDBDICTIONARYWDFLT
  5
E
102
{ACAD_REACTORS
330
C
102
}
330
C
100
AcDbDictionary
281
     1
  3
Normal
350
F
100
AcDbDictionaryWithDefault
340
F
  0
DICTIONARY
  5
455
102
{ACAD_REACTORS
330
C
102
}
330
C
100
AcDbDictionary
281
     1
  3
A0
350
456
  3
A1
350
457
  3
A2
350
458
  3
A3
350
459
  3
A4
350
45A
  3
A5
350
45B
  3
A6
350
45C
  3
A7
350
45D
  3
A8
350
45E
  3
A9
350
45F
  3
B0
350
460
  3
B1
350
461
  3
B2
350
462
  3
B3
350
463
  3
B4
350
464
  3
B5
350
465
  3
B6
350
466
  3
B7
350
467
  3
B8
350
468
  3
B9
350
469
  3
C0
350
46A
  3
C1
350
46B
  3
C2
350
46C
  3
C3
350
46D
  3
C4
350
46E
  3
C5
350
46F
  3
C6
350
470
  3
C7
350
471
  3
C8
350
472
  3
C9
350
473
  3
D0
350
474
  3
D1
350
475
  3
D2
350
476
  0
DICTIONARY
  5
4B0
102
{ACAD_REACTORS
330
C
102
}
330
C
100
AcDbDictionary
281
     1
  0
DICTIONARY
  5
490
102
{ACAD_REACTORS
330
C
102
}
330
C
100
AcDbDictionary
281
     1
  3
Standard
350
491
  0
DICTIONARY
  5
477
102
{ACAD_REACTORS
330
C
102
}
330
C
100
AcDbDictionary
281
     1
  3
2dWireframe
350
47C
  3
Basic
350
47F
  3
Brighten
350
483
  3
ColorChange
350
487
  3
Conceptual
350
481
  3
Dim
350
482
  3
EdgeColorOff
350
48A
  3
Facepattern
350
486
  3
Flat
350
478
  3
FlatWithEdges
350
479
  3
Gouraud
350
47A
  3
GouraudWithEdges
350
47B
  3
Hidden
350
47E
  3
JitterOff
350
488
  3
Linepattern
350
485
  3
OverhangOff
350
489
  3
Realistic
350
480
  3
Shaded
350
48F
  3
Shaded with edges
350
48E
  3
Shades of Gray
350
48B
  3
Sketchy
350
48C
  3
Thicken
350
484
  3
Wireframe
350
47D
  3
X-Ray
350
48D
  0
XRECORD
  5
4AC
102
{ACAD_REACTORS
330
C
102
}
330
C
100
AcDbXrecord
280
     1
 90
        1
330
44F
330
491
  0
DICTIONARY
  5
4A8
102
{ACAD_REACTORS
330
C
102
}
330
C
100
AcDbDictionary
281
     1
  3
CANNOSCALE
350
4A9
  3
CTABLESTYLE
350
4AD
  0
DICTIONARY
  5
49D
102
{ACAD_REACTORS
330
C
102
}
330
C
100
AcDbDictionary
281
     1
  3
NCDocParameters
350
49E
  0
DICTIONARY
  5
499
102
{ACAD_REACTORS
330
C
102
}
330
C
100
AcDbDictionary
281
     1
  3
MC_VERSION_DATA
350
4A2
  3
MCS_DOCUMENT_ID
350
49A
  3
MCS_PARAMS_DATA
350
4A0
  0
XRECORD
  5
4A7
102
{ACAD_REACTORS
330
4A6
102
}
330
4A6
100
AcDbXrecord
280
     1
102
ACAD_ROUNDTRIP_2008_TABLE_ENTITY
360
4A4
 70
     2
 90
        1
 10
0.0
 20
0.0
 30
0.0
 90
        0
 90
        4
361
4A5
  0
LAYOUT
  5
452
102
{ACAD_REACTORS
330
1A
102
}
330
1A
100
AcDbPlotSettings
  1

  2
none_device
  4
ISO_A3_(420.00_x_297.00_MM)
  6

 40
0.0
 41
0.0
 42
0.0
 43
0.0
 44
420.0
 45
297.0
 46
0.0
 47
0.0
 48
0.0
 49
0.0
140
0.0
141
0.0
142
1.0
143
1.0
 70
     0
 72
     1
 73
     0
 74
     0
  7

 75
     0
 76
     0
 77
     2
 78
   300
147
1.0
148
0.0
149
0.0
100
AcDbLayout
  1
3D1_C_081_1
 70
     0
 71
     1
 10
0.0
 20
0.0
 11
420.0
 21
297.0
 12
0.0
 22
0.0
 32
0.0
 14
0.0
 24
0.0
 34
0.0
 15
0.0
 25
0.0
 35
0.0
146
0.0
 13
0.0
 23
0.0
 33
0.0
 16
1.0
 26
0.0
 36
0.0
 17
0.0
 27
1.0
 37
0.0
 76
     0
330
22C
331
2E4
  0
LAYOUT
  5
451
102
{ACAD_REACTORS
330
1A
102
}
330
1A
100
AcDbPlotSettings
  1

  2
none_device
  4

  6

 40
0.0
 41
0.0
 42
0.0
 43
0.0
 44
420.0
 45
297.0
 46
0.0
 47
0.0
 48
0.0
 49
0.0
140
0.0
141
0.0
142
1.0
143
1.0
 70
  1024
 72
     1
 73
     0
 74
     0
  7

 75
     0
 76
     0
 77
     2
 78
   300
147
1.0
148
0.0
149
0.0
100
AcDbLayout
  1
Model
 70
     0
 71
     0
 10
0.0
 20
0.0
 11
420.0
 21
297.0
 12
0.0
 22
0.0
 32
0.0
 14
0.0
 24
0.0
 34
0.0
 15
0.0
 25
0.0
 35
0.0
146
0.0
 13
0.0
 23
0.0
 33
0.0
 16
1.0
 26
0.0
 36
0.0
 17
0.0
 27
1.0
 37
0.0
 76
     0
330
22B
331
1F4
  0
MATERIAL
  5
495
102
{ACAD_REACTORS
330
493
102
}
330
493
100
AcDbMaterial
  1
ByBlock
 72
     1
 94
      127
  0
MATERIAL
  5
494
102
{ACAD_REACTORS
330
493
102
}
330
493
100
AcDbMaterial
  1
ByLayer
 72
     1
 94
      127
  0
MATERIAL
  5
496
102
{ACAD_REACTORS
330
493
102
}
330
493
100
AcDbMaterial
  1
Global
 72
     1
 94
      127
  0
MLINESTYLE
  5
18
102
{ACAD_REACTORS
330
17
102
}
330
17
100
AcDbMlineStyle
  2
STANDARD
 70
     0
  3

 62
   256
 51
90.0
 52
90.0
 71
     2
 49
0.5
 62
   256
  6
BYLAYER
 49
-0.5
 62
   256
  6
BYLAYER
  0
ACDBPLACEHOLDER
  5
F
102
{ACAD_REACTORS
330
E
102
}
330
E
  0
SCALE
  5
456
102
{ACAD_REACTORS
330
455
102
}
330
455
100
AcDbScale
 70
     0
300
1:1
140
1.0
141
1.0
290
     1
  0
SCALE
  5
457
102
{ACAD_REACTORS
330
455
102
}
330
455
100
AcDbScale
 70
     0
300
1:2
140
1.0
141
2.0
290
     0
  0
SCALE
  5
458
102
{ACAD_REACTORS
330
455
102
}
330
455
100
AcDbScale
 70
     0
300
1:4
140
1.0
141
4.0
290
     0
  0
SCALE
  5
459
102
{ACAD_REACTORS
330
455
102
}
330
455
100
AcDbScale
 70
     0
300
1:5
140
1.0
141
5.0
290
     0
  0
SCALE
  5
45A
102
{ACAD_REACTORS
330
455
102
}
330
455
100
AcDbScale
 70
     0
300
1:8
140
1.0
141
8.0
290
     0
  0
SCALE
  5
45B
102
{ACAD_REACTORS
330
455
102
}
330
455
100
AcDbScale
 70
     0
300
1:10
140
1.0
141
10.0
290
     0
  0
SCALE
  5
45C
102
{ACAD_REACTORS
330
455
102
}
330
455
100
AcDbScale
 70
     0
300
1:16
140
1.0
141
16.0
290
     0
  0
SCALE
  5
45D
102
{ACAD_REACTORS
330
455
102
}
330
455
100
AcDbScale
 70
     0
300
1:20
140
1.0
141
20.0
290
     0
  0
SCALE
  5
45E
102
{ACAD_REACTORS
330
455
102
}
330
455
100
AcDbScale
 70
     0
300
1:30
140
1.0
141
30.0
290
     0
  0
SCALE
  5
45F
102
{ACAD_REACTORS
330
455
102
}
330
455
100
AcDbScale
 70
     0
300
1:40
140
1.0
141
40.0
290
     0
  0
SCALE
  5
460
102
{ACAD_REACTORS
330
455
102
}
330
455
100
AcDbScale
 70
     0
300
1:50
140
1.0
141
50.0
290
     0
  0
SCALE
  5
461
102
{ACAD_REACTORS
330
455
102
}
330
455
100
AcDbScale
 70
     0
300
1:100
140
1.0
141
100.0
290
     0
  0
SCALE
  5
462
102
{ACAD_REACTORS
330
455
102
}
330
455
100
AcDbScale
 70
     0
300
2:1
140
2.0
141
1.0
290
     0
  0
SCALE
  5
463
102
{ACAD_REACTORS
330
455
102
}
330
455
100
AcDbScale
 70
     0
300
4:1
140
4.0
141
1.0
290
     0
  0
SCALE
  5
464
102
{ACAD_REACTORS
330
455
102
}
330
455
100
AcDbScale
 70
     0
300
8:1
140
8.0
141
1.0
290
     0
  0
SCALE
  5
465
102
{ACAD_REACTORS
330
455
102
}
330
455
100
AcDbScale
 70
     0
300
10:1
140
10.0
141
1.0
290
     0
  0
SCALE
  5
466
102
{ACAD_REACTORS
330
455
102
}
330
455
100
AcDbScale
 70
     0
300
100:1
140
100.0
141
1.0
290
     0
  0
SCALE
  5
467
102
{ACAD_REACTORS
330
455
102
}
330
455
100
AcDbScale
 70
     0
300
1/128" = 1'-0"
140
0.007812
141
12.0
290
     0
  0
SCALE
  5
468
102
{ACAD_REACTORS
330
455
102
}
330
455
100
AcDbScale
 70
     0
300
1/64" = 1'-0"
140
0.015625
141
12.0
290
     0
  0
SCALE
  5
469
102
{ACAD_REACTORS
330
455
102
}
330
455
100
AcDbScale
 70
     0
300
1/32" = 1'-0"
140
0.03125
141
12.0
290
     0
  0
SCALE
  5
46A
102
{ACAD_REACTORS
330
455
102
}
330
455
100
AcDbScale
 70
     0
300
1/16" = 1'-0"
140
0.0625
141
12.0
290
     0
  0
SCALE
  5
46B
102
{ACAD_REACTORS
330
455
102
}
330
455
100
AcDbScale
 70
     0
300
3/32" = 1'-0"
140
0.09375
141
12.0
290
     0
  0
SCALE
  5
46C
102
{ACAD_REACTORS
330
455
102
}
330
455
100
AcDbScale
 70
     0
300
1/8" = 1'-0"
140
0.125
141
12.0
290
     0
  0
SCALE
  5
46D
102
{ACAD_REACTORS
330
455
102
}
330
455
100
AcDbScale
 70
     0
300
3/16" = 1'-0"
140
0.1875
141
12.0
290
     0
  0
SCALE
  5
46E
102
{ACAD_REACTORS
330
455
102
}
330
455
100
AcDbScale
 70
     0
300
1/4" = 1'-0"
140
0.25
141
12.0
290
     0
  0
SCALE
  5
46F
102
{ACAD_REACTORS
330
455
102
}
330
455
100
AcDbScale
 70
     0
300
3/8" = 1'-0"
140
0.375
141
12.0
290
     0
  0
SCALE
  5
470
102
{ACAD_REACTORS
330
455
102
}
330
455
100
AcDbScale
 70
     0
300
1/2" = 1'-0"
140
0.5
141
12.0
290
     0
  0
SCALE
  5
471
102
{ACAD_REACTORS
330
455
102
}
330
455
100
AcDbScale
 70
     0
300
3/4" = 1'-0"
140
0.75
141
12.0
290
     0
  0
SCALE
  5
472
102
{ACAD_REACTORS
330
455
102
}
330
455
100
AcDbScale
 70
     0
300
1" = 1'-0"
140
1.0
141
12.0
290
     0
  0
SCALE
  5
473
102
{ACAD_REACTORS
330
455
102
}
330
455
100
AcDbScale
 70
     0
300
1-1/2" = 1'-0"
140
1.5
141
12.0
290
     0
  0
SCALE
  5
474
102
{ACAD_REACTORS
330
455
102
}
330
455
100
AcDbScale
 70
     0
300
3" = 1'-0"
140
3.0
141
12.0
290
     0
  0
SCALE
  5
475
102
{ACAD_REACTORS
330
455
102
}
330
455
100
AcDbScale
 70
     0
300
6" = 1'-0"
140
6.0
141
12.0
290
     0
  0
SCALE
  5
476
102
{ACAD_REACTORS
330
455
102
}
330
455
100
AcDbScale
 70
     0
300
1'-0" = 1'-0"
140
12.0
141
12.0
290
     0
  0
TABLESTYLE
  5
491
102
{ACAD_REACTORS
330
490
102
}
102
{ACAD_XDICTIONARY
360
4AA
102
}
330
490
100
AcDbTableStyle
  3
Standard
 70
     0
 71
     0
 40
0.06
 41
0.06
280
     0
281
     0
  7
STANDARD
140
4.5
170
     2
 62
     0
 63
   257
283
     0
 90
        4
 91
        0
  1

274
    -2
284
     1
 64
     0
275
    -2
285
     1
 65
     0
276
    -2
286
     1
 66
     0
277
    -2
287
     1
 67
     0
278
    -2
288
     1
 68
     0
279
    -2
289
     1
 69
     0
  7
STANDARD
140
6.0
170
     5
 62
     0
 63
   257
283
     0
 90
        4
 91
        0
  1

274
    -2
284
     1
 64
     0
275
    -2
285
     1
 65
     0
276
    -2
286
     1
 66
     0
277
    -2
287
     1
 67
     0
278
    -2
288
     1
 68
     0
279
    -2
289
     1
 69
     0
  7
STANDARD
140
4.5
170
     5
 62
     0
 63
   257
283
     0
 90
        4
 91
        0
  1

274
    -2
284
     1
 64
     0
275
    -2
285
     1
 65
     0
276
    -2
286
     1
 66
     0
277
    -2
287
     1
 67
     0
278
    -2
288
     1
 68
     0
279
    -2
289
     1
 69
     0
  0
VISUALSTYLE
  5
47C
102
{ACAD_REACTORS
330
477
102
}
330
477
100
AcDbVisualStyle
  2
2dWireframe
 70
     4
177
     3
291
     0
 70
    58
 90
        0
176
     1
 90
        2
176
     1
 90
        0
176
     1
 90
        0
176
     1
 40
0.6
176
     1
 40
30.0
176
     1
 62
     7
420
 16777215
176
     1
 90
        1
176
     1
 90
        4
176
     1
 62
     7
176
     1
 62
   257
176
     1
 90
        1
176
     1
 90
        1
176
     1
 40
1.0
176
     1
 90
        0
176
     1
 62
   257
176
     1
 40
1.0
176
     1
 90
        1
176
     1
 90
        6
176
     1
 90
        2
176
     1
 62
     7
176
     1
 90
        5
176
     1
 90
        0
176
     1
 90
        0
176
     1
290
     0
176
     1
 90
        1
176
     1
 40
0.0
176
     1
 90
        0
176
     1
290
     1
176
     1
290
     1
176
     1
290
     0
176
     1
290
     0
176
     1
290
     0
176
     1
290
     0
176
     1
290
     0
176
     1
290
     0
176
     1
290
     0
176
     1
 90
       50
176
     1
 40
0.0
176
     1
 40
1.0
176
     1
 90
        0
176
     1
 62
    18
420
        0
176
     1
 90
       50
176
     1
 90
        3
176
     1
 62
     5
420
      255
176
     1
290
     0
176
     1
 90
       50
176
     1
 90
       50
176
     1
 90
       50
176
     1
290
     0
176
     1
 90
       50
176
     1
 62
   256
176
     0
 40
1.0
176
     0
 90
        2
176
     1
  1
strokes_ogs.tif
176
     1
290
     0
176
     1
 40
1.0
176
     1
 40
1.0
176
     1
  0
VISUALSTYLE
  5
47F
102
{ACAD_REACTORS
330
477
102
}
330
477
100
AcDbVisualStyle
  2
Basic
 70
     7
177
     3
291
     1
 70
    58
 90
        1
176
     1
 90
        0
176
     1
 90
        1
176
     1
 90
        0
176
     1
 40
0.6
176
     1
 40
30.0
176
     1
 62
     7
420
 16777215
176
     1
 90
        0
176
     1
 90
        4
176
     1
 62
     7
176
     1
 62
   257
176
     1
 90
        1
176
     1
 90
        1
176
     1
 40
1.0
176
     1
 90
        8
176
     1
 62
     7
176
     1
 40
1.0
176
     1
 90
        1
176
     1
 90
        6
176
     1
 90
        2
176
     1
 62
     7
176
     1
 90
        5
176
     1
 90
        0
176
     1
 90
        0
176
     1
290
     0
176
     1
 90
        1
176
     1
 40
0.0
176
     1
 90
        0
176
     1
290
     0
176
     1
290
     1
176
     1
290
     1
176
     1
290
     0
176
     1
290
     0
176
     1
290
     0
176
     1
290
     0
176
     1
290
     0
176
     1
290
     0
176
     1
 90
       50
176
     1
 40
0.0
176
     1
 40
1.0
176
     1
 90
        0
176
     1
 62
    18
420
        0
176
     1
 90
       50
176
     1
 90
        3
176
     1
 62
     5
420
      255
176
     1
290
     0
176
     1
 90
       50
176
     1
 90
       50
176
     1
 90
       50
176
     1
290
     0
176
     1
 90
       50
176
     1
 62
   256
176
     0
 40
1.0
176
     0
 90
        2
176
     1
  1
strokes_ogs.tif
176
     1
290
     0
176
     1
 40
1.0
176
     1
 40
1.0
176
     1
  0
VISUALSTYLE
  5
483
102
{ACAD_REACTORS
330
477
102
}
330
477
100
AcDbVisualStyle
  2
Brighten
 70
    12
177
     3
291
     1
 70
    58
 90
        2
176
     1
 90
        2
176
     1
 90
        0
176
     1
 90
        0
176
     1
 40
0.6
176
     1
 40
30.0
176
     1
 62
     7
420
 16777215
176
     1
 90
        1
176
     1
 90
        4
176
     1
 62
     7
176
     1
 62
   257
176
     1
 90
        1
176
     1
 90
        1
176
     1
 40
1.0
176
     1
 90
        8
176
     1
 62
     7
176
     1
 40
1.0
176
     1
 90
        1
176
     1
 90
        6
176
     1
 90
        2
176
     1
 62
     7
176
     1
 90
        5
176
     1
 90
        0
176
     1
 90
        0
176
     1
290
     0
176
     1
 90
        1
176
     1
 40
50.0
176
     1
 90
        0
176
     1
290
     0
176
     1
290
     1
176
     1
290
     1
176
     1
290
     0
176
     1
290
     0
176
     1
290
     0
176
     1
290
     0
176
     1
290
     0
176
     1
290
     0
176
     1
 90
       50
176
     1
 40
0.0
176
     1
 40
1.0
176
     1
 90
        0
176
     1
 62
    18
420
        0
176
     1
 90
       50
176
     1
 90
        3
176
     1
 62
     5
420
      255
176
     1
290
     0
176
     1
 90
       50
176
     1
 90
       50
176
     1
 90
       50
176
     1
290
     0
176
     1
 90
       50
176
     1
 62
   256
176
     0
 40
1.0
176
     0
 90
        2
176
     1
  1
strokes_ogs.tif
176
     1
290
     0
176
     1
 40
1.0
176
     1
 40
1.0
176
     1
  0
VISUALSTYLE
  5
487
102
{ACAD_REACTORS
330
477
102
}
330
477
100
AcDbVisualStyle
  2
ColorChange
 70
    16
177
     3
291
     1
 70
    58
 90
        2
176
     1
 90
        2
176
     1
 90
        3
176
     1
 90
        0
176
     1
 40
0.6
176
     1
 40
30.0
176
     1
 62
     8
420
  8421504
176
     1
 90
        1
176
     1
 90
        4
176
     1
 62
     7
176
     1
 62
   257
176
     1
 90
        1
176
     1
 90
        1
176
     1
 40
1.0
176
     1
 90
        8
176
     1
 62
     8
420
  8421504
176
     1
 40
1.0
176
     1
 90
        1
176
     1
 90
        6
176
     1
 90
        2
176
     1
 62
     7
176
     1
 90
        5
176
     1
 90
        0
176
     1
 90
        0
176
     1
290
     0
176
     1
 90
        1
176
     1
 40
0.0
176
     1
 90
        0
176
     1
290
     0
176
     1
290
     1
176
     1
290
     1
176
     1
290
     0
176
     1
290
     0
176
     1
290
     0
176
     1
290
     0
176
     1
290
     0
176
     1
290
     0
176
     1
 90
       50
176
     1
 40
0.0
176
     1
 40
1.0
176
     1
 90
        0
176
     1
 62
    18
420
        0
176
     1
 90
       50
176
     1
 90
        3
176
     1
 62
     5
420
      255
176
     1
290
     0
176
     1
 90
       50
176
     1
 90
       50
176
     1
 90
       50
176
     1
290
     0
176
     1
 90
       50
176
     1
 62
   256
176
     0
 40
1.0
176
     0
 90
        2
176
     1
  1
strokes_ogs.tif
176
     1
290
     0
176
     1
 40
1.0
176
     1
 40
1.0
176
     1
  0
VISUALSTYLE
  5
481
102
{ACAD_REACTORS
330
477
102
}
330
477
100
AcDbVisualStyle
  2
Conceptual
 70
     9
177
     3
291
     0
 70
    58
 90
        3
176
     1
 90
        2
176
     1
 90
        0
176
     1
 90
        0
176
     1
 40
0.6
176
     1
 40
30.0
176
     1
 62
     7
420
 16777215
176
     1
 90
        2
176
     1
 90
        2
176
     1
 62
     7
176
     1
 62
   257
176
     1
 90
        1
176
     1
 90
        1
176
     1
 40
179.0
176
     1
 90
        8
176
     1
 62
     7
176
     1
 40
1.0
176
     1
 90
        1
176
     1
 90
        6
176
     1
 90
        2
176
     1
 62
     7
176
     1
 90
        3
176
     1
 90
        0
176
     1
 90
        0
176
     1
290
     0
176
     1
 90
        1
176
     1
 40
0.0
176
     1
 90
        0
176
     1
290
     0
176
     1
290
     1
176
     1
290
     1
176
     1
290
     0
176
     1
290
     0
176
     1
290
     0
176
     1
290
     0
176
     1
290
     0
176
     1
290
     0
176
     1
 90
       50
176
     1
 40
0.0
176
     1
 40
1.0
176
     1
 90
        0
176
     1
 62
    18
420
        0
176
     1
 90
       50
176
     1
 90
        3
176
     1
 62
     5
420
      255
176
     1
290
     0
176
     1
 90
       50
176
     1
 90
       50
176
     1
 90
       50
176
     1
290
     0
176
     1
 90
       50
176
     1
 62
   256
176
     0
 40
1.0
176
     0
 90
        2
176
     1
  1
strokes_ogs.tif
176
     1
290
     0
176
     1
 40
1.0
176
     1
 40
1.0
176
     1
  0
VISUALSTYLE
  5
482
102
{ACAD_REACTORS
330
477
102
}
330
477
100
AcDbVisualStyle
  2
Dim
 70
    11
177
     3
291
     1
 70
    58
 90
        2
176
     1
 90
        2
176
     1
 90
        0
176
     1
 90
        0
176
     1
 40
0.6
176
     1
 40
30.0
176
     1
 62
     7
420
 16777215
176
     1
 90
        1
176
     1
 90
        4
176
     1
 62
     7
176
     1
 62
   257
176
     1
 90
        1
176
     1
 90
        1
176
     1
 40
1.0
176
     1
 90
        8
176
     1
 62
     7
176
     1
 40
1.0
176
     1
 90
        1
176
     1
 90
        6
176
     1
 90
        2
176
     1
 62
     7
176
     1
 90
        5
176
     1
 90
        0
176
     1
 90
        0
176
     1
290
     0
176
     1
 90
        1
176
     1
 40
-50.0
176
     1
 90
        0
176
     1
290
     0
176
     1
290
     1
176
     1
290
     1
176
     1
290
     0
176
     1
290
     0
176
     1
290
     0
176
     1
290
     0
176
     1
290
     0
176
     1
290
     0
176
     1
 90
       50
176
     1
 40
0.0
176
     1
 40
1.0
176
     1
 90
        0
176
     1
 62
    18
420
        0
176
     1
 90
       50
176
     1
 90
        3
176
     1
 62
     5
420
      255
176
     1
290
     0
176
     1
 90
       50
176
     1
 90
       50
176
     1
 90
       50
176
     1
290
     0
176
     1
 90
       50
176
     1
 62
   256
176
     0
 40
1.0
176
     0
 90
        2
176
     1
  1
strokes_ogs.tif
176
     1
290
     0
176
     1
 40
1.0
176
     1
 40
1.0
176
     1
  0
VISUALSTYLE
  5
48A
102
{ACAD_REACTORS
330
477
102
}
330
477
100
AcDbVisualStyle
  2
EdgeColorOff
 70
    22
177
     3
291
     1
 70
    58
 90
        2
176
     0
 90
        2
176
     0
 90
        0
176
     0
 90
        0
176
     0
 40
0.6
176
     0
 40
30.0
176
     0
 62
     7
420
 16777215
176
     0
 90
        1
176
     0
 90
        4
176
     0
 62
     7
176
     0
 62
   257
176
     0
 90
        1
176
     0
 90
        1
176
     0
 40
1.0
176
     0
 90
        8
176
     2
 62
     7
176
     0
 40
1.0
176
     0
 90
        1
176
     0
 90
        6
176
     0
 90
        2
176
     0
 62
     7
176
     0
 90
        5
176
     0
 90
        0
176
     0
 90
        0
176
     0
290
     0
176
     0
 90
        1
176
     0
 40
0.0
176
     0
 90
        0
176
     0
290
     0
176
     0
290
     1
176
     0
290
     1
176
     0
290
     0
176
     0
290
     0
176
     0
290
     0
176
     0
290
     0
176
     0
290
     0
176
     0
290
     0
176
     0
 90
       50
176
     0
 40
0.0
176
     0
 40
1.0
176
     0
 90
        0
176
     0
 62
    18
420
        0
176
     0
 90
       50
176
     0
 90
        3
176
     0
 62
     5
420
      255
176
     0
290
     0
176
     0
 90
       50
176
     0
 90
       50
176
     0
 90
       50
176
     0
290
     0
176
     0
 90
       50
176
     0
 62
   256
176
     0
 40
1.0
176
     0
 90
        2
176
     0
  1
strokes_ogs.tif
176
     0
290
     0
176
     0
 40
1.0
176
     0
 40
1.0
176
     0
  0
VISUALSTYLE
  5
486
102
{ACAD_REACTORS
330
477
102
}
330
477
100
AcDbVisualStyle
  2
Facepattern
 70
    15
177
     3
291
     1
 70
    58
 90
        2
176
     1
 90
        2
176
     1
 90
        0
176
     1
 90
        0
176
     1
 40
0.6
176
     1
 40
30.0
176
     1
 62
     7
420
 16777215
176
     1
 90
        1
176
     1
 90
        4
176
     1
 62
     7
176
     1
 62
   257
176
     1
 90
        1
176
     1
 90
        1
176
     1
 40
1.0
176
     1
 90
        8
176
     1
 62
     7
176
     1
 40
1.0
176
     1
 90
        1
176
     1
 90
        6
176
     1
 90
        2
176
     1
 62
     7
176
     1
 90
        5
176
     1
 90
        0
176
     1
 90
        0
176
     1
290
     0
176
     1
 90
        1
176
     1
 40
0.0
176
     1
 90
        0
176
     1
290
     0
176
     1
290
     1
176
     1
290
     1
176
     1
290
     0
176
     1
290
     0
176
     1
290
     0
176
     1
290
     0
176
     1
290
     0
176
     1
290
     0
176
     1
 90
       50
176
     1
 40
0.0
176
     1
 40
1.0
176
     1
 90
        0
176
     1
 62
    18
420
        0
176
     1
 90
       50
176
     1
 90
        3
176
     1
 62
     5
420
      255
176
     1
290
     0
176
     1
 90
       50
176
     1
 90
       50
176
     1
 90
       50
176
     1
290
     0
176
     1
 90
       50
176
     1
 62
   256
176
     0
 40
1.0
176
     0
 90
        2
176
     1
  1
strokes_ogs.tif
176
     1
290
     0
176
     1
 40
1.0
176
     1
 40
1.0
176
     1
  0
VISUALSTYLE
  5
478
102
{ACAD_REACTORS
330
477
102
}
330
477
100
AcDbVisualStyle
  2
Flat
 70
     0
177
     3
291
     1
 70
    58
 90
        2
176
     1
 90
        1
176
     1
 90
        1
176
     1
 90
        2
176
     1
 40
0.6
176
     1
 40
30.0
176
     1
 62
     7
420
 16777215
176
     1
 90
        0
176
     1
 90
        0
176
     1
 62
     7
176
     1
 62
   257
176
     1
 90
        1
176
     1
 90
        1
176
     1
 40
1.0
176
     1
 90
        8
176
     1
 62
     7
176
     1
 40
1.0
176
     1
 90
        1
176
     1
 90
        6
176
     1
 90
        2
176
     1
 62
     7
176
     1
 90
        5
176
     1
 90
        0
176
     1
 90
        0
176
     1
290
     0
176
     1
 90
       13
176
     1
 40
0.0
176
     1
 90
        0
176
     1
290
     0
176
     1
290
     1
176
     1
290
     1
176
     1
290
     0
176
     1
290
     0
176
     1
290
     0
176
     1
290
     0
176
     1
290
     0
176
     1
290
     0
176
     1
 90
       50
176
     1
 40
0.0
176
     1
 40
1.0
176
     1
 90
        0
176
     1
 62
    18
420
        0
176
     1
 90
       50
176
     1
 90
        3
176
     1
 62
     5
420
      255
176
     1
290
     0
176
     1
 90
       50
176
     1
 90
       50
176
     1
 90
       50
176
     1
290
     0
176
     1
 90
       50
176
     1
 62
   256
176
     0
 40
1.0
176
     0
 90
        2
176
     1
  1
strokes_ogs.tif
176
     1
290
     0
176
     1
 40
1.0
176
     1
 40
1.0
176
     1
  0
VISUALSTYLE
  5
479
102
{ACAD_REACTORS
330
477
102
}
330
477
100
AcDbVisualStyle
  2
FlatWithEdges
 70
     1
177
     3
291
     1
 70
    58
 90
        2
176
     1
 90
        1
176
     1
 90
        1
176
     1
 90
        2
176
     1
 40
0.6
176
     1
 40
30.0
176
     1
 62
     7
420
 16777215
176
     1
 90
        1
176
     1
 90
        0
176
     1
 62
     7
176
     1
 62
   257
176
     1
 90
        1
176
     1
 90
        1
176
     1
 40
1.0
176
     1
 90
        0
176
     1
 62
   257
176
     1
 40
1.0
176
     1
 90
        1
176
     1
 90
        6
176
     1
 90
        2
176
     1
 62
     7
176
     1
 90
        5
176
     1
 90
        0
176
     1
 90
        0
176
     1
290
     0
176
     1
 90
       13
176
     1
 40
0.0
176
     1
 90
        0
176
     1
290
     0
176
     1
290
     1
176
     1
290
     1
176
     1
290
     0
176
     1
290
     0
176
     1
290
     0
176
     1
290
     0
176
     1
290
     0
176
     1
290
     0
176
     1
 90
       50
176
     1
 40
0.0
176
     1
 40
1.0
176
     1
 90
        0
176
     1
 62
    18
420
        0
176
     1
 90
       50
176
     1
 90
        3
176
     1
 62
     5
420
      255
176
     1
290
     0
176
     1
 90
       50
176
     1
 90
       50
176
     1
 90
       50
176
     1
290
     0
176
     1
 90
       50
176
     1
 62
   256
176
     0
 40
1.0
176
     0
 90
        2
176
     1
  1
strokes_ogs.tif
176
     1
290
     0
176
     1
 40
1.0
176
     1
 40
1.0
176
     1
  0
VISUALSTYLE
  5
47A
102
{ACAD_REACTORS
330
477
102
}
330
477
100
AcDbVisualStyle
  2
Gouraud
 70
     2
177
     3
291
     1
 70
    58
 90
        2
176
     1
 90
        2
176
     1
 90
        1
176
     1
 90
        2
176
     1
 40
0.6
176
     1
 40
30.0
176
     1
 62
     7
420
 16777215
176
     1
 90
        0
176
     1
 90
        0
176
     1
 62
     7
176
     1
 62
   257
176
     1
 90
        1
176
     1
 90
        1
176
     1
 40
1.0
176
     1
 90
        0
176
     1
 62
     7
176
     1
 40
1.0
176
     1
 90
        1
176
     1
 90
        6
176
     1
 90
        2
176
     1
 62
     7
176
     1
 90
        5
176
     1
 90
        0
176
     1
 90
        0
176
     1
290
     0
176
     1
 90
       13
176
     1
 40
0.0
176
     1
 90
        0
176
     1
290
     0
176
     1
290
     1
176
     1
290
     1
176
     1
290
     0
176
     1
290
     0
176
     1
290
     0
176
     1
290
     0
176
     1
290
     0
176
     1
290
     0
176
     1
 90
       50
176
     1
 40
0.0
176
     1
 40
1.0
176
     1
 90
        0
176
     1
 62
    18
420
        0
176
     1
 90
       50
176
     1
 90
        3
176
     1
 62
     5
420
      255
176
     1
290
     0
176
     1
 90
       50
176
     1
 90
       50
176
     1
 90
       50
176
     1
290
     0
176
     1
 90
       50
176
     1
 62
   256
176
     0
 40
1.0
176
     0
 90
        2
176
     1
  1
strokes_ogs.tif
176
     1
290
     0
176
     1
 40
1.0
176
     1
 40
1.0
176
     1
  0
VISUALSTYLE
  5
47B
102
{ACAD_REACTORS
330
477
102
}
330
477
100
AcDbVisualStyle
  2
GouraudWithEdges
 70
     3
177
     3
291
     1
 70
    58
 90
        2
176
     1
 90
        2
176
     1
 90
        1
176
     1
 90
        2
176
     1
 40
0.6
176
     1
 40
30.0
176
     1
 62
     7
420
 16777215
176
     1
 90
        1
176
     1
 90
        0
176
     1
 62
     7
176
     1
 62
   257
176
     1
 90
        1
176
     1
 90
        1
176
     1
 40
1.0
176
     1
 90
        0
176
     1
 62
   257
176
     1
 40
1.0
176
     1
 90
        1
176
     1
 90
        6
176
     1
 90
        2
176
     1
 62
     7
176
     1
 90
        5
176
     1
 90
        0
176
     1
 90
        0
176
     1
290
     0
176
     1
 90
       13
176
     1
 40
0.0
176
     1
 90
        0
176
     1
290
     0
176
     1
290
     1
176
     1
290
     1
176
     1
290
     0
176
     1
290
     0
176
     1
290
     0
176
     1
290
     0
176
     1
290
     0
176
     1
290
     0
176
     1
 90
       50
176
     1
 40
0.0
176
     1
 40
1.0
176
     1
 90
        0
176
     1
 62
    18
420
        0
176
     1
 90
       50
176
     1
 90
        3
176
     1
 62
     5
420
      255
176
     1
290
     0
176
     1
 90
       50
176
     1
 90
       50
176
     1
 90
       50
176
     1
290
     0
176
     1
 90
       50
176
     1
 62
   256
176
     0
 40
1.0
176
     0
 90
        2
176
     1
  1
strokes_ogs.tif
176
     1
290
     0
176
     1
 40
1.0
176
     1
 40
1.0
176
     1
  0
VISUALSTYLE
  5
47E
102
{ACAD_REACTORS
330
477
102
}
330
477
100
AcDbVisualStyle
  2
Hidden
 70
     6
177
     3
291
     0
 70
    58
 90
        1
176
     1
 90
        2
176
     1
 90
        2
176
     1
 90
        0
176
     1
 40
0.6
176
     1
 40
30.0
176
     1
 62
     7
420
 16777215
176
     1
 90
        2
176
     1
 90
        2
176
     1
 62
     7
176
     1
 62
   257
176
     1
 90
        2
176
     1
 90
        1
176
     1
 40
40.0
176
     1
 90
        0
176
     1
 62
   257
176
     1
 40
1.0
176
     1
 90
        1
176
     1
 90
        6
176
     1
 90
        2
176
     1
 62
     7
176
     1
 90
        3
176
     1
 90
        0
176
     1
 90
        0
176
     1
290
     0
176
     1
 90
        1
176
     1
 40
0.0
176
     1
 90
        0
176
     1
290
     0
176
     1
290
     1
176
     1
290
     1
176
     1
290
     0
176
     1
290
     0
176
     1
290
     0
176
     1
290
     0
176
     1
290
     0
176
     1
290
     0
176
     1
 90
       50
176
     1
 40
0.0
176
     1
 40
1.0
176
     1
 90
        0
176
     1
 62
    18
420
        0
176
     1
 90
       50
176
     1
 90
        3
176
     1
 62
     5
420
      255
176
     1
290
     0
176
     1
 90
       50
176
     1
 90
       50
176
     1
 90
       50
176
     1
290
     0
176
     1
 90
       50
176
     1
 62
   256
176
     0
 40
1.0
176
     0
 90
        2
176
     1
  1
strokes_ogs.tif
176
     1
290
     0
176
     1
 40
1.0
176
     1
 40
1.0
176
     1
  0
VISUALSTYLE
  5
488
102
{ACAD_REACTORS
330
477
102
}
330
477
100
AcDbVisualStyle
  2
JitterOff
 70
    20
177
     3
291
     1
 70
    58
 90
        2
176
     0
 90
        2
176
     0
 90
        0
176
     0
 90
        0
176
     0
 40
0.6
176
     0
 40
30.0
176
     0
 62
     7
420
 16777215
176
     0
 90
        1
176
     0
 90
        4
176
     0
 62
     7
176
     0
 62
   257
176
     0
 90
        1
176
     0
 90
        1
176
     0
 40
1.0
176
     0
 90
       10
176
     2
 62
     7
176
     0
 40
1.0
176
     0
 90
        1
176
     0
 90
        6
176
     0
 90
        2
176
     0
 62
     7
176
     0
 90
        5
176
     0
 90
        0
176
     0
 90
        0
176
     0
290
     0
176
     0
 90
        1
176
     0
 40
0.0
176
     0
 90
        0
176
     0
290
     0
176
     0
290
     1
176
     0
290
     1
176
     0
290
     0
176
     0
290
     0
176
     0
290
     0
176
     0
290
     0
176
     0
290
     0
176
     0
290
     0
176
     0
 90
       50
176
     0
 40
0.0
176
     0
 40
1.0
176
     0
 90
        0
176
     0
 62
    18
420
        0
176
     0
 90
       50
176
     0
 90
        3
176
     0
 62
     5
420
      255
176
     0
290
     0
176
     0
 90
       50
176
     0
 90
       50
176
     0
 90
       50
176
     0
290
     0
176
     0
 90
       50
176
     0
 62
   256
176
     0
 40
1.0
176
     0
 90
        2
176
     0
  1
strokes_ogs.tif
176
     0
290
     0
176
     0
 40
1.0
176
     0
 40
1.0
176
     0
  0
VISUALSTYLE
  5
485
102
{ACAD_REACTORS
330
477
102
}
330
477
100
AcDbVisualStyle
  2
Linepattern
 70
    14
177
     3
291
     1
 70
    58
 90
        2
176
     1
 90
        2
176
     1
 90
        0
176
     1
 90
        0
176
     1
 40
0.6
176
     1
 40
30.0
176
     1
 62
     7
420
 16777215
176
     1
 90
        1
176
     1
 90
        4
176
     1
 62
     7
176
     1
 62
   257
176
     1
 90
        7
176
     1
 90
        7
176
     1
 40
1.0
176
     1
 90
        8
176
     1
 62
     7
176
     1
 40
1.0
176
     1
 90
        1
176
     1
 90
        6
176
     1
 90
        2
176
     1
 62
     7
176
     1
 90
        5
176
     1
 90
        0
176
     1
 90
        0
176
     1
290
     0
176
     1
 90
        1
176
     1
 40
0.0
176
     1
 90
        0
176
     1
290
     0
176
     1
290
     1
176
     1
290
     1
176
     1
290
     0
176
     1
290
     0
176
     1
290
     0
176
     1
290
     0
176
     1
290
     0
176
     1
290
     0
176
     1
 90
       50
176
     1
 40
0.0
176
     1
 40
1.0
176
     1
 90
        0
176
     1
 62
    18
420
        0
176
     1
 90
       50
176
     1
 90
        3
176
     1
 62
     5
420
      255
176
     1
290
     0
176
     1
 90
       50
176
     1
 90
       50
176
     1
 90
       50
176
     1
290
     0
176
     1
 90
       50
176
     1
 62
   256
176
     0
 40
1.0
176
     0
 90
        2
176
     1
  1
strokes_ogs.tif
176
     1
290
     0
176
     1
 40
1.0
176
     1
 40
1.0
176
     1
  0
VISUALSTYLE
  5
489
102
{ACAD_REACTORS
330
477
102
}
330
477
100
AcDbVisualStyle
  2
OverhangOff
 70
    21
177
     3
291
     1
 70
    58
 90
        2
176
     0
 90
        2
176
     0
 90
        0
176
     0
 90
        0
176
     0
 40
0.6
176
     0
 40
30.0
176
     0
 62
     7
420
 16777215
176
     0
 90
        1
176
     0
 90
        4
176
     0
 62
     7
176
     0
 62
   257
176
     0
 90
        1
176
     0
 90
        1
176
     0
 40
1.0
176
     0
 90
        9
176
     2
 62
     7
176
     0
 40
1.0
176
     0
 90
        1
176
     0
 90
        6
176
     0
 90
        2
176
     0
 62
     7
176
     0
 90
        5
176
     0
 90
        0
176
     0
 90
        0
176
     0
290
     0
176
     0
 90
        1
176
     0
 40
0.0
176
     0
 90
        0
176
     0
290
     0
176
     0
290
     1
176
     0
290
     1
176
     0
290
     0
176
     0
290
     0
176
     0
290
     0
176
     0
290
     0
176
     0
290
     0
176
     0
290
     0
176
     0
 90
       50
176
     0
 40
0.0
176
     0
 40
1.0
176
     0
 90
        0
176
     0
 62
    18
420
        0
176
     0
 90
       50
176
     0
 90
        3
176
     0
 62
     5
420
      255
176
     0
290
     0
176
     0
 90
       50
176
     0
 90
       50
176
     0
 90
       50
176
     0
290
     0
176
     0
 90
       50
176
     0
 62
   256
176
     0
 40
1.0
176
     0
 90
        2
176
     0
  1
strokes_ogs.tif
176
     0
290
     0
176
     0
 40
1.0
176
     0
 40
1.0
176
     0
  0
VISUALSTYLE
  5
480
102
{ACAD_REACTORS
330
477
102
}
330
477
100
AcDbVisualStyle
  2
Realistic
 70
     8
177
     3
291
     0
 70
    58
 90
        2
176
     1
 90
        3
176
     1
 90
        0
176
     1
 90
        2
176
     1
 40
0.6
176
     1
 40
30.0
176
     1
 62
     7
420
 16777215
176
     1
 90
        0
176
     1
 90
        0
176
     1
 62
     7
176
     1
 62
   257
176
     1
 90
        1
176
     1
 90
        1
176
     1
 40
1.0
176
     1
 90
        8
176
     1
 62
   257
176
     1
 40
1.0
176
     1
 90
        1
176
     1
 90
        6
176
     1
 90
        2
176
     1
 62
     7
176
     1
 90
        3
176
     1
 90
        0
176
     1
 90
        0
176
     1
290
     0
176
     1
 90
       13
176
     1
 40
0.0
176
     1
 90
        0
176
     1
290
     0
176
     1
290
     1
176
     1
290
     1
176
     1
290
     0
176
     1
290
     0
176
     1
290
     0
176
     1
290
     0
176
     1
290
     0
176
     1
290
     0
176
     1
 90
       50
176
     1
 40
0.0
176
     1
 40
1.0
176
     1
 90
        0
176
     1
 62
    18
420
        0
176
     1
 90
       50
176
     1
 90
        3
176
     1
 62
     5
420
      255
176
     1
290
     0
176
     1
 90
       50
176
     1
 90
       50
176
     1
 90
       50
176
     1
290
     0
176
     1
 90
       50
176
     1
 62
   256
176
     0
 40
1.0
176
     0
 90
        2
176
     1
  1
strokes_ogs.tif
176
     1
290
     0
176
     1
 40
1.0
176
     1
 40
1.0
176
     1
  0
VISUALSTYLE
  5
48F
102
{ACAD_REACTORS
330
477
102
}
330
477
100
AcDbVisualStyle
  2
Shaded
 70
    27
177
     3
291
     0
 70
    58
 90
        2
176
     1
 90
        2
176
     1
 90
        1
176
     1
 90
        2
176
     1
 40
0.6
176
     1
 40
30.0
176
     1
 62
     7
420
 16777215
176
     1
 90
        0
176
     1
 90
        4
176
     1
 62
     7
176
     1
 62
   257
176
     1
 90
        1
176
     1
 90
        1
176
     1
 40
1.0
176
     1
 90
        8
176
     1
 62
   257
176
     1
 40
1.0
176
     1
 90
        1
176
     1
 90
        6
176
     1
 90
        2
176
     1
 62
     8
420
  7895160
176
     1
 90
        3
176
     1
 90
        0
176
     1
 90
        0
176
     1
290
     0
176
     1
 90
        5
176
     1
 40
0.0
176
     1
 90
        0
176
     1
290
     0
176
     1
290
     1
176
     1
290
     1
176
     1
290
     0
176
     1
290
     0
176
     1
290
     0
176
     1
290
     0
176
     1
290
     0
176
     1
290
     0
176
     1
 90
       50
176
     1
 40
0.0
176
     1
 40
1.0
176
     1
 90
        0
176
     1
 62
    18
420
        0
176
     1
 90
       50
176
     1
 90
        3
176
     1
 62
     5
420
      255
176
     1
290
     0
176
     1
 90
       50
176
     1
 90
       50
176
     1
 90
       50
176
     1
290
     0
176
     1
 90
       50
176
     1
 62
   256
176
     0
 40
1.0
176
     0
 90
        2
176
     1
  1
strokes_ogs.tif
176
     1
290
     0
176
     1
 40
1.0
176
     1
 40
1.0
176
     1
  0
VISUALSTYLE
  5
48E
102
{ACAD_REACTORS
330
477
102
}
330
477
100
AcDbVisualStyle
  2
Shaded with edges
 70
    26
177
     3
291
     0
 70
    58
 90
        2
176
     1
 90
        2
176
     1
 90
        1
176
     1
 90
        2
176
     1
 40
0.6
176
     1
 40
30.0
176
     1
 62
     7
420
 16777215
176
     1
 90
        1
176
     1
 90
       10
176
     1
 62
     7
176
     1
 62
   257
176
     1
 90
        2
176
     1
 90
        1
176
     1
 40
1.0
176
     1
 90
        8
176
     1
 62
   257
176
     1
 40
1.0
176
     1
 90
        1
176
     1
 90
        6
176
     1
 90
        2
176
     1
 62
     7
176
     1
 90
        3
176
     1
 90
        0
176
     1
 90
        0
176
     1
290
     0
176
     1
 90
        5
176
     1
 40
0.0
176
     1
 90
        0
176
     1
290
     0
176
     1
290
     1
176
     1
290
     1
176
     1
290
     0
176
     1
290
     0
176
     1
290
     0
176
     1
290
     0
176
     1
290
     0
176
     1
290
     0
176
     1
 90
       50
176
     1
 40
0.0
176
     1
 40
1.0
176
     1
 90
        0
176
     1
 62
    18
420
        0
176
     1
 90
       50
176
     1
 90
        3
176
     1
 62
     5
420
      255
176
     1
290
     0
176
     1
 90
       50
176
     1
 90
       50
176
     1
 90
       50
176
     1
290
     0
176
     1
 90
       50
176
     1
 62
   256
176
     0
 40
1.0
176
     0
 90
        2
176
     1
  1
strokes_ogs.tif
176
     1
290
     0
176
     1
 40
1.0
176
     1
 40
1.0
176
     1
  0
VISUALSTYLE
  5
48B
102
{ACAD_REACTORS
330
477
102
}
330
477
100
AcDbVisualStyle
  2
Shades of Gray
 70
    23
177
     3
291
     0
 70
    58
 90
        2
176
     1
 90
        2
176
     1
 90
        3
176
     1
 90
        0
176
     1
 40
0.6
176
     1
 40
30.0
176
     1
 62
     7
420
 16777215
176
     1
 90
        2
176
     1
 90
        2
176
     1
 62
     7
176
     1
 62
     7
176
     1
 90
        1
176
     1
 90
        1
176
     1
 40
40.0
176
     1
 90
        8
176
     1
 62
     7
176
     1
 40
1.0
176
     1
 90
        1
176
     1
 90
        6
176
     1
 90
        2
176
     1
 62
     7
176
     1
 90
        3
176
     1
 90
        0
176
     1
 90
        0
176
     1
290
     0
176
     1
 90
        1
176
     1
 40
0.0
176
     1
 90
        0
176
     1
290
     0
176
     1
290
     1
176
     1
290
     1
176
     1
290
     0
176
     1
290
     0
176
     1
290
     0
176
     1
290
     0
176
     1
290
     0
176
     1
290
     0
176
     1
 90
       50
176
     1
 40
0.0
176
     1
 40
1.0
176
     1
 90
        0
176
     1
 62
    18
420
        0
176
     1
 90
       50
176
     1
 90
        3
176
     1
 62
     5
420
      255
176
     1
290
     0
176
     1
 90
       50
176
     1
 90
       50
176
     1
 90
       50
176
     1
290
     0
176
     1
 90
       50
176
     1
 62
   256
176
     0
 40
1.0
176
     0
 90
        2
176
     1
  1
strokes_ogs.tif
176
     1
290
     0
176
     1
 40
1.0
176
     1
 40
1.0
176
     1
  0
VISUALSTYLE
  5
48C
102
{ACAD_REACTORS
330
477
102
}
330
477
100
AcDbVisualStyle
  2
Sketchy
 70
    24
177
     3
291
     0
 70
    58
 90
        1
176
     1
 90
        2
176
     1
 90
        2
176
     1
 90
        0
176
     1
 40
0.6
176
     1
 40
30.0
176
     1
 62
     7
420
 16777215
176
     1
 90
        2
176
     1
 90
        2
176
     1
 62
     7
176
     1
 62
     7
176
     1
 90
        1
176
     1
 90
        1
176
     1
 40
40.0
176
     1
 90
       11
176
     1
 62
     7
176
     1
 40
1.0
176
     1
 90
        1
176
     1
 90
        6
176
     1
 90
        2
176
     1
 62
     7
176
     1
 90
        6
176
     1
 90
        0
176
     1
 90
        0
176
     1
290
     0
176
     1
 90
        1
176
     1
 40
0.0
176
     1
 90
        0
176
     1
290
     0
176
     1
290
     1
176
     1
290
     1
176
     1
290
     0
176
     1
290
     0
176
     1
290
     0
176
     1
290
     0
176
     1
290
     0
176
     1
290
     0
176
     1
 90
       50
176
     1
 40
0.0
176
     1
 40
1.0
176
     1
 90
        0
176
     1
 62
    18
420
        0
176
     1
 90
       50
176
     1
 90
        3
176
     1
 62
     5
420
      255
176
     1
290
     0
176
     1
 90
       50
176
     1
 90
       50
176
     1
 90
       50
176
     1
290
     0
176
     1
 90
       50
176
     1
 62
   256
176
     0
 40
1.0
176
     0
 90
        2
176
     1
  1
strokes_ogs.tif
176
     1
290
     0
176
     1
 40
1.0
176
     1
 40
1.0
176
     1
  0
VISUALSTYLE
  5
484
102
{ACAD_REACTORS
330
477
102
}
330
477
100
AcDbVisualStyle
  2
Thicken
 70
    13
177
     3
291
     1
 70
    58
 90
        2
176
     1
 90
        2
176
     1
 90
        0
176
     1
 90
        0
176
     1
 40
0.6
176
     1
 40
30.0
176
     1
 62
     7
420
 16777215
176
     1
 90
        1
176
     1
 90
        4
176
     1
 62
     7
176
     1
 62
   257
176
     1
 90
        1
176
     1
 90
        1
176
     1
 40
1.0
176
     1
 90
       12
176
     1
 62
     7
176
     1
 40
1.0
176
     1
 90
        1
176
     1
 90
        6
176
     1
 90
        2
176
     1
 62
     7
176
     1
 90
        5
176
     1
 90
        0
176
     1
 90
        0
176
     1
290
     0
176
     1
 90
        1
176
     1
 40
0.0
176
     1
 90
        0
176
     1
290
     0
176
     1
290
     1
176
     1
290
     1
176
     1
290
     0
176
     1
290
     0
176
     1
290
     0
176
     1
290
     0
176
     1
290
     0
176
     1
290
     0
176
     1
 90
       50
176
     1
 40
0.0
176
     1
 40
1.0
176
     1
 90
        0
176
     1
 62
    18
420
        0
176
     1
 90
       50
176
     1
 90
        3
176
     1
 62
     5
420
      255
176
     1
290
     0
176
     1
 90
       50
176
     1
 90
       50
176
     1
 90
       50
176
     1
290
     0
176
     1
 90
       50
176
     1
 62
   256
176
     0
 40
1.0
176
     0
 90
        2
176
     1
  1
strokes_ogs.tif
176
     1
290
     0
176
     1
 40
1.0
176
     1
 40
1.0
176
     1
  0
VISUALSTYLE
  5
47D
102
{ACAD_REACTORS
330
477
102
}
330
477
100
AcDbVisualStyle
  2
Wireframe
 70
     5
177
     3
291
     0
 70
    58
 90
        0
176
     1
 90
        2
176
     1
 90
        0
176
     1
 90
        0
176
     1
 40
0.6
176
     1
 40
30.0
176
     1
 62
     7
420
 16777215
176
     1
 90
        1
176
     1
 90
        4
176
     1
 62
     7
176
     1
 62
   257
176
     1
 90
        1
176
     1
 90
        1
176
     1
 40
1.0
176
     1
 90
        0
176
     1
 62
   257
176
     1
 40
1.0
176
     1
 90
        1
176
     1
 90
        6
176
     1
 90
        2
176
     1
 62
     7
176
     1
 90
        3
176
     1
 90
        0
176
     1
 90
        0
176
     1
290
     0
176
     1
 90
        1
176
     1
 40
0.0
176
     1
 90
        0
176
     1
290
     0
176
     1
290
     1
176
     1
290
     1
176
     1
290
     0
176
     1
290
     0
176
     1
290
     0
176
     1
290
     0
176
     1
290
     0
176
     1
290
     0
176
     1
 90
       50
176
     1
 40
0.0
176
     1
 40
1.0
176
     1
 90
        0
176
     1
 62
    18
420
        0
176
     1
 90
       50
176
     1
 90
        3
176
     1
 62
     5
420
      255
176
     1
290
     0
176
     1
 90
       50
176
     1
 90
       50
176
     1
 90
       50
176
     1
290
     0
176
     1
 90
       50
176
     1
 62
   256
176
     0
 40
1.0
176
     0
 90
        2
176
     1
  1
strokes_ogs.tif
176
     1
290
     0
176
     1
 40
1.0
176
     1
 40
1.0
176
     1
  0
VISUALSTYLE
  5
48D
102
{ACAD_REACTORS
330
477
102
}
330
477
100
AcDbVisualStyle
  2
X-Ray
 70
    25
177
     3
291
     0
 70
    58
 90
        2
176
     1
 90
        2
176
     1
 90
        1
176
     1
 90
        1
176
     1
 40
0.5
176
     1
 40
30.0
176
     1
 62
     7
420
 16777215
176
     1
 90
        1
176
     1
 90
        0
176
     1
 62
     7
176
     1
 62
   257
176
     1
 90
        1
176
     1
 90
        1
176
     1
 40
1.0
176
     1
 90
        8
176
     1
 62
     7
176
     1
 40
1.0
176
     1
 90
        1
176
     1
 90
        6
176
     1
 90
        2
176
     1
 62
     7
176
     1
 90
        3
176
     1
 90
        0
176
     1
 90
        0
176
     1
290
     0
176
     1
 90
       13
176
     1
 40
0.0
176
     1
 90
        0
176
     1
290
     0
176
     1
290
     1
176
     1
290
     1
176
     1
290
     0
176
     1
290
     0
176
     1
290
     0
176
     1
290
     0
176
     1
290
     0
176
     1
290
     0
176
     1
 90
       50
176
     1
 40
0.0
176
     1
 40
1.0
176
     1
 90
        0
176
     1
 62
    18
420
        0
176
     1
 90
       50
176
     1
 90
        3
176
     1
 62
     5
420
      255
176
     1
290
     0
176
     1
 90
       50
176
     1
 90
       50
176
     1
 90
       50
176
     1
290
     0
176
     1
 90
       50
176
     1
 62
   256
176
     0
 40
1.0
176
     0
 90
        2
176
     1
  1
strokes_ogs.tif
176
     1
290
     0
176
     1
 40
1.0
176
     1
 40
1.0
176
     1
  0
DICTIONARYVAR
  5
4A9
102
{ACAD_REACTORS
330
4A8
102
}
330
4A8
100
DictionaryVariables
280
     0
  1
1:1
  0
DICTIONARYVAR
  5
4AD
102
{ACAD_REACTORS
330
4A8
102
}
330
4A8
100
DictionaryVariables
280
     0
  1
Standard
  0
CSACDOCUMENTOPTIONS
  5
49E
102
{ACAD_REACTORS
330
49D
102
}
330
49D
  0
XRECORD
  5
4A2
102
{ACAD_REACTORS
330
499
102
}
330
499
100
AcDbXrecord
280
     1
300
MC_VERSION_DATA
 90
       95
310
0600000002000000570000001C000000E404000000000000000000007801936764E5D8CF7A8393818115C460606066E0646662626666706006F214793899F8DE3171E725E6E53B3BBA2878E6951050AF75FEFFFFFF520032DE0F3057000000
  0
XRECORD
  5
49A
102
{ACAD_REACTORS
330
499
102
}
330
499
100
AcDbXrecord
280
     1
300
MCS_DOCUMENT_ID
 90
       60
310
0600000002000000150000001C000000E404000000000000000000007801E37D972933FFE80C0DAF9632C665AF7C14BDFF03010069F30B2E15000000
  0
XRECORD
  5
4A0
102
{ACAD_REACTORS
330
499
102
}
330
499
100
AcDbXrecord
280
     1
300
MCS_PARAMS_DATA
 90
     3313
310
0600000002000000F64B00001C000000E404000000000000000000007801C55C5B905C45199EE99EBDCCE67E5DA218172C303B91307B4B8C459531245054850D55591F78B236BB49B9BAC9E6B22A082A9655BE5865596569A965F9209288CF16503EC8834088C10B092404211702988430422E9084CDAEFFD7A7FBF4DFA7CF
310
D9D99D9D39930798FF3F7DCEF7DFFAFBBBFBCC6CDBFC46297252EECB48F9CDF5ED5234493921A5206D76815820B252E4F3225F128D7D5F59BF69E3162948D9A2D485B3131313747328BF06593E960915079422437734AA3BDAA5CCD053F5ED4FD2557D257BAB94DF007A03479F859BB2B22193C9108EC1CDCADC0464C27506
310
28605703E48886E0B986E10F03BF91E33707F8E3140E7A9091C8268236920C1C662240B94888A1C8E07600AE99C32D5131CA8B3925D172EFE62D7D6D9DABBA8ADDD6F17CE16D13F0457AE8AC9268DE32DABF73B07FCFA013F9BF8491D7C17E2550D8E8FFCA8DFE4E98B3929B331718B291824FFF72EB941D9E8E2211D5A93C
310
784A44C557923911258BD0C8640531AEEC61A924855B11378280384364A422680C0A928DB9C10CD89D581114199665B722B26E4590C82B0222AB08FAA8A60626C028E0044F81BA246F5360E167F2D27C56A10E05C058C13C59DEC6207679103AFC5DEADF992F2B284F67B31C8EE359B64A9665A62453228F64269D98455E3B
310
A4B35817F7EC92C86FB8EFFE8DBD5BEEDBDCAB0CD3B5FC8E99065A7E55D536E39DE7826237F1C8BBBCB3CFADFC93302087C80397EE69C2FF69CA32234F0763E41851010DA578E8294D435524988818E84710A7B2643B4F7C034F6CE5C9368F203BE8094C6268541D70D35EE4B585DAE170F4942EB8D2D422560A9917F34B62
310
CE86919D9F1F6DDBB36DD770FFC0B6BC682E898607BEB5737424F8D83B323AF07529CFC0B69BB96D9FD3CFF9B410ED79B1A42416161FEA29AEEDEEEC5ADF532C76DEF3C5AEEEB5CAECF97A60330D2C1C3579EAD0DA7621F20269BD6768746FDBF0D0DE51F3B0EE356B3ABBD6F474F7740D76770EACED08FCFC92BEAF13F701
310
B5AF7FEBF0B6B691ED6D7D23C3DBF6F4EF840FDA9AD583C58E81E240FFEAADDD5BD70EAC0E669D2A25F27FB610851F9335859F059541B9E5971EC7A5A7E83F2CE53DB9A4040555A2661A4DDBF2C560B2E54E7D5483931EF871F7C88E5DFDA3435B878687461F6EDB313248FE3596847C70DBDEBC682809D13B22E56A5856E4
310
E9998738519B6E2A89DCE6EDDBDB542AF4E4380F8F61A4965F57116093E5A052A06AF588670205D9A715FB49B140D81A90855F902680EBB8B3A3187EEA96F2B224E392BAF898328CB1AD47DA34C1601A1B421AD816D190715CC3F276A5DE067C546F03AED6DB808FEB6DC0B57A1BB00853B49EB3E0937A47E07ABD0D188301
310
71CB797197D3603B1D06BFCB6DB024827C0C834324E60945463B3712E196397079076E990B47228783C8E09631B8F129C211385B3E540C97413DC70673C524DEAD70BD23917B079179B782793791AE77D944EFDCDC5529988B13E1069D6092C472A7F777A6F648E4C184C88239C8822913E16AE29D48176E29E0727C316496
310
EF2A967C95165E504B0C2B218EEE82DD5C63513CD614C5091F6D6FA7551865CC5C5030A1E0A3E84BEC86CFD04EC5DD01AA74CBDB05AB8C403295A124BB2908C4B032B4682A032283FB103E391B4E03172C7199C4E0F88E871E8855ADA1482D3238FA1846E0B807A77785BFF935FE1D74369F5647D0D171CA5F4F09337C2559
310
105132935A503D6DBC7A94B54D2B6DF1E0339960F436A97441791E5EC104D40283580888C4FDED577B1FD8B4B9AF6FE30605D8AAD7F1F34A62F6DD5BBEC62E92057A31FEA25A9DB3F5FBD3C1729D9CD723B0BF0DE8402BB05A67160DDE4416E59079C0D9EAA575B7321F67115FC018C76AB5B3A33D06B68CBD9BFBDC93C073
310
800CC384FD360C544F539B6F02B1820953BE9D01DE01C0D85A6C50369A5AC4065C7760793B965800321749E4B50891C0C2AB0CAE9808178444974C70F875952A9381563C01BE9D08EAFA481283ABD8C7EF7870DAABE068E68833DFAC8EA0A3E3F87C0B07AA507B2311F0889285BDC333294C4E2DB27C67BA70ABD2857B688A
310
70552AA7873DB8489E55063D5D2DCBE9BB9E49F1E554A5083C922EDCA3E9C27D2F5DB8EF7B705EE9D87E1E920E88313AAE6AECF4FBD668D3D30DB4E51ADA9BEDB0D7AFCEB4DDED85F7C4ECF6551B3BCE2AFF6E835E49458EC94883D6E73C45753FAE614C3C0A0362777435D915EC025C33F7578776011DE6F3D066954C59D6
310
D76F86AC9CD58A53F4122CF0552BAE070AEA3B5AF15752304F1F47569D50AB71F41A31FA5A51C904CD43C6B0F51D2ACEFC112ACC4CC1B0FF086CE7AD5A4D096A005126387AAD451EE384D9C035A925859E39C1AA865EE9A9B8DA21CEE289167F7CF1D4C4BC7A125EC5AED5D8BB0B5A9D9144D134CFA71BF85A8D44BE568348
310
F6AA55A2F3CAEA4F6982FD21118CC249D3CBF852A586F244BA70FBD285DB9F085793EDE56E143F0AD06C6B4CB2242BDD3DD1419166C2865E81F9CE1648F3CBD84597B22E28992A3DDCE24C77F3F311A01C8A722828EC3CF15F7D987933F818F8E59BC138E5CD4CE8AC24C94E68BA32F5C3CBAB808B6B06B9936E642F9F804C
310
903AF2F3709D37832318A078E4B37AEBDCFAA66859945B9EBB25776BAE2DD3995995E9CA1433DDFA4DAC7ECE6FE93696E96BB06712968ED2661884A9EE40230F60D0D73DE8C858453B9E8E4212D5A9B0784A762662599FEDD18C9299F4094C728A91F536658E91CDA6DFC8E89F363B15B4CB31404FD2581CF722BBF229B517
310
430944E56AB2E2A8E3461950730F2B7ECA7BC570E389706E8BA9D241C744225C40C29385944F707279EA277D998065D9EAD604B1263E66D38513E9C2490F4EE7CC6E8AA89C3D9DA588701CA708AB6414C194931EE3FC0D4515D71A4FBFE712F8CB4A26532A6E8DCF01CA61A3745BE3F3C09F6E6B442F0CD7BAD36A8D2F002E
310
AE359E3BE646F6B8926D6BBC0CD9926FBEF08C5220B9BAE91D0E14769FF44B52301E3C00E8FA74C117BD24F396E22C7F1005F2DA2902EB76053DE720B0D3EE397F2F036AE8B24A3DE750225C4DF8F8A544B81AF69C7F2482D6C4C77F067093EF36FE359541FF8E0E8A50399BA22F63681CEF0EBDEBB2C3834A9E09EF1E0654
310
1D79F708F0A7CBBB956F495E015C1CEFEE3EEC46B65FC996771F856C09285F58A7148C77872F6104D6DC9A8897D30896D457015D1FDE3DEA25B91CEFF2EBD6EB0A68F718A0D3A6DDD7CA805699768F27C2D584925E4F84AB9476A39B03E744D09CD6610FF59F44E89A78FA46BA70DDDE0ADC144A4DBCEBF1E0221D416DC23D
310
1D715254A766A8A7AC60C1FF26021ED7783E889CD89C52F24C1ACF0940D5B1F19C047E7A8DE714E0E21ACFD5436EE339AB64DB78E44B91C6730003ECCB897CE1D28548E3798246B0C6731AD0536D3CB3E90740046E0B5FD5161351555C247A084506FA9607AAEBD39C44F1E2B63A5BDCA18E17B755B2E2664A322602C34C3A
310
0393625B51C09BC60D77315EF1E1C8DB80730A9C37D5B8CD0EBF3EA3A6FB4EA2A7C18B1B2746D53A5F7BB70C687C78291FE10E3A386EE3054657F9CB297E9CF703B0E71DFC4DA3397B4068C3CF33A1A81F02C2C920DB8E7ABF712005813923946BAE06DE453454B45CC32AF6311810C751E3F85A979E7874424F9299B34AB2
310
210DC430A45A3473162283FB2F3218C7FE178FBB1CF59692CDAD957C0DECAC3739580882F7E26636C4FC0874E66F42CE013F2EB274A4C323CBB88082C5B980AE4CFD4DC879C0C5B1FFF5E7DDC89E57324556799F2F34BC006EC70CD18A8318C0D9FF0AB6807CDBB19F46B0A4BE07E8B4D9FF8207EA504E3D7E65FA3E4C7226
310
B329B0E8D703AAFEBAA304E869379E693123CD68457958A4FF2F11AE86ECFF4119D078F6E7138AD87FF2370F86D6E1E38789702D76FED2134932CCA824CB8C811832A3160D33426421BD980847AF6F0C11D33DEECB1CFE9B7175D1F926045DE5BD8DBFBDBE94081764D0049324E6DDB40A8607F372225C4D16463974B5B836
310
F393232E193EA2E499B49986C93A780A6DA631A981D7A6CD34012EAECDFCFC5937B23F52B26D33BF83CCDBCC56A5C0ECD07DE7A7A7226D661D8D6033A419D0536D33E07F56B8C4CA7C0D48229F9610695A461A0883CE7B494E8DD95B004DF38E8247AB09FE45AC1A52EDAC32A0861DD8DA85D8A76276989D08579353913989
310
700119397510D9BB4CAB9DF096393711B4263ECE4B176E7EBA700B3C389DB3F0B5335AA6A7234288EA142D784A9083AFB414616018456CF24C3293C4CD2F49D3E5A5F0410CEE7E0F2E6A6FEA11580893E29AEE529C2FC11C4DF48D4AA628982DB44A422820F8563073C8F989CF2240392BED74F7768B819FDEDE6E09E0E29A
310
EE72FA030B3CB273954C91D5916E87CC9BEEFB4FAB1E6B73B10CFB6CBEB73B4423589D2D05F4CC9AAE2E4C768646F0614DBB4BD40606DDEA2539B5A67B13A0D36EBACBCA809A9055A7E9E24B8E0D79912B896C91FE0C1655C17843E129FA335B3277F4E8510807513CB9CC44868E210AF7FE19028691B0917E39482B125CF8
310
D4FF01F0B312DAF64B0000
  0
TABLECONTENT
  5
4A4
330
4A7
100
AcDbLinkedData
  1

300

100
AcDbLinkedTableData
 90
        5
300
COLUMN
  1
LINKEDTABLEDATACOLUMN_BEGIN
300

 91
        0
301
CUSTOMDATA
  1
DATAMAP_BEGIN
 90
        0
309
DATAMAP_END
309
LINKEDTABLEDATACOLUMN_END
  1
FORMATTEDTABLEDATACOLUMN_BEGIN
300
COLUMNTABLEFORMAT
  1
TABLEFORMAT_BEGIN
 90
        3
170
     0
309
TABLEFORMAT_END
309
FORMATTEDTABLEDATACOLUMN_END
  1
TABLECOLUMN_BEGIN
 90
        0
 40
10.0
309
TABLECOLUMN_END
300
COLUMN
  1
LINKEDTABLEDATACOLUMN_BEGIN
300

 91
        0
301
CUSTOMDATA
  1
DATAMAP_BEGIN
 90
        0
309
DATAMAP_END
309
LINKEDTABLEDATACOLUMN_END
  1
FORMATTEDTABLEDATACOLUMN_BEGIN
300
COLUMNTABLEFORMAT
  1
TABLEFORMAT_BEGIN
 90
        3
170
     0
309
TABLEFORMAT_END
309
FORMATTEDTABLEDATACOLUMN_END
  1
TABLECOLUMN_BEGIN
 90
        0
 40
10.0
309
TABLECOLUMN_END
300
COLUMN
  1
LINKEDTABLEDATACOLUMN_BEGIN
300

 91
        0
301
CUSTOMDATA
  1
DATAMAP_BEGIN
 90
        0
309
DATAMAP_END
309
LINKEDTABLEDATACOLUMN_END
  1
FORMATTEDTABLEDATACOLUMN_BEGIN
300
COLUMNTABLEFORMAT
  1
TABLEFORMAT_BEGIN
 90
        3
170
     0
309
TABLEFORMAT_END
309
FORMATTEDTABLEDATACOLUMN_END
  1
TABLECOLUMN_BEGIN
 90
        0
 40
10.0
309
TABLECOLUMN_END
300
COLUMN
  1
LINKEDTABLEDATACOLUMN_BEGIN
300

 91
        0
301
CUSTOMDATA
  1
DATAMAP_BEGIN
 90
        0
309
DATAMAP_END
309
LINKEDTABLEDATACOLUMN_END
  1
FORMATTEDTABLEDATACOLUMN_BEGIN
300
COLUMNTABLEFORMAT
  1
TABLEFORMAT_BEGIN
 90
        3
170
     0
309
TABLEFORMAT_END
309
FORMATTEDTABLEDATACOLUMN_END
  1
TABLECOLUMN_BEGIN
 90
        0
 40
40.0
309
TABLECOLUMN_END
300
COLUMN
  1
LINKEDTABLEDATACOLUMN_BEGIN
300

 91
        0
301
CUSTOMDATA
  1
DATAMAP_BEGIN
 90
        0
309
DATAMAP_END
309
LINKEDTABLEDATACOLUMN_END
  1
FORMATTEDTABLEDATACOLUMN_BEGIN
300
COLUMNTABLEFORMAT
  1
TABLEFORMAT_BEGIN
 90
        3
170
     0
309
TABLEFORMAT_END
309
FORMATTEDTABLEDATACOLUMN_END
  1
TABLECOLUMN_BEGIN
 90
        0
 40
20.0
309
TABLECOLUMN_END
 91
        5
301
ROW
  1
LINKEDTABLEDATAROW_BEGIN
 90
        5
300
CELL
  1
LINKEDTABLEDATACELL_BEGIN
 90
        0
300

 91
        0
301
CUSTOMDATA
  1
DATAMAP_BEGIN
 90
        1
300
ACAD_ROUNDTRIP_2008_CELL_CHECKSUM
301
DATAMAP_VALUE
 93
        2
 90
        2
140
32.0
 94
        0
300

302

304
ACVALUE_END
309
DATAMAP_END
 92
        0
 95
        1
302
CONTENT
  1
CELLCONTENT_BEGIN
 90
        1
300
VALUE
 93
        2
 90
        4
  1
 
 94
        0
300

302
 
304
ACVALUE_END
 91
        0
309
CELLCONTENT_END
  1
FORMATTEDCELLCONTENT_BEGIN
170
     1
300
CONTENTFORMAT
  1
CONTENTFORMAT_BEGIN
 90
      132
 91
        0
 92
      512
 93
        0
300

 40
0.0
140
1.0
 94
        1
 62
     0
340
0
144
3.5
309
CONTENTFORMAT_END
309
FORMATTEDCELLCONTENT_END
309
LINKEDTABLEDATACELL_END
  1
FORMATTEDTABLEDATACELL_BEGIN
300
CELLTABLEFORMAT
  1
TABLEFORMAT_BEGIN
 90
        1
170
     1
 91
        0
 92
        0
 62
   257
 93
        1
300
CONTENTFORMAT
  1
CONTENTFORMAT_BEGIN
 90
        0
 91
        0
 92
      512
 93
        0
300

 40
0.0
140
1.0
 94
        1
 62
     0
340
0
144
0.18
309
CONTENTFORMAT_END
171
     0
 94
        0
309
TABLEFORMAT_END
309
FORMATTEDTABLEDATACELL_END
  1
TABLECELL_BEGIN
 90
        0
 91
        0
309
TABLECELL_END
300
CELL
  1
LINKEDTABLEDATACELL_BEGIN
 90
        0
300

 91
        0
301
CUSTOMDATA
  1
DATAMAP_BEGIN
 90
        0
309
DATAMAP_END
 92
        0
 95
        0
309
LINKEDTABLEDATACELL_END
  1
FORMATTEDTABLEDATACELL_BEGIN
300
CELLTABLEFORMAT
  1
TABLEFORMAT_BEGIN
 90
        1
170
     1
 91
        0
 92
        0
 62
   257
 93
        1
300
CONTENTFORMAT
  1
CONTENTFORMAT_BEGIN
 90
        0
 91
        0
 92
      512
 93
        0
300

 40
0.0
140
1.0
 94
        1
 62
     0
340
0
144
0.18
309
CONTENTFORMAT_END
171
     0
 94
        0
309
TABLEFORMAT_END
309
FORMATTEDTABLEDATACELL_END
  1
TABLECELL_BEGIN
 90
        0
 91
        0
309
TABLECELL_END
300
CELL
  1
LINKEDTABLEDATACELL_BEGIN
 90
        0
300

 91
        0
301
CUSTOMDATA
  1
DATAMAP_BEGIN
 90
        0
309
DATAMAP_END
 92
        0
 95
        0
309
LINKEDTABLEDATACELL_END
  1
FORMATTEDTABLEDATACELL_BEGIN
300
CELLTABLEFORMAT
  1
TABLEFORMAT_BEGIN
 90
        1
170
     1
 91
        0
 92
        0
 62
   257
 93
        1
300
CONTENTFORMAT
  1
CONTENTFORMAT_BEGIN
 90
        0
 91
        0
 92
      512
 93
        0
300

 40
0.0
140
1.0
 94
        1
 62
     0
340
0
144
0.18
309
CONTENTFORMAT_END
171
     0
 94
        0
309
TABLEFORMAT_END
309
FORMATTEDTABLEDATACELL_END
  1
TABLECELL_BEGIN
 90
        0
 91
        0
309
TABLECELL_END
300
CELL
  1
LINKEDTABLEDATACELL_BEGIN
 90
        0
300

 91
        0
301
CUSTOMDATA
  1
DATAMAP_BEGIN
 90
        1
300
ACAD_ROUNDTRIP_2008_CELL_CHECKSUM
301
DATAMAP_VALUE
 93
        2
 90
        2
140
2844.0
 94
        0
300

302

304
ACVALUE_END
309
DATAMAP_END
 92
        0
 95
        1
302
CONTENT
  1
CELLCONTENT_BEGIN
 90
        1
300
VALUE
 93
        2
 90
        4
  1
3D1_C_081
 94
        0
300

302
3D1_C_081
304
ACVALUE_END
 91
        0
309
CELLCONTENT_END
  1
FORMATTEDCELLCONTENT_BEGIN
170
     1
300
CONTENTFORMAT
  1
CONTENTFORMAT_BEGIN
 90
      196
 91
        0
 92
      512
 93
        0
300

 40
0.0
140
1.0
 94
        1
 62
     0
340
229
144
3.0
309
CONTENTFORMAT_END
309
FORMATTEDCELLCONTENT_END
309
LINKEDTABLEDATACELL_END
  1
FORMATTEDTABLEDATACELL_BEGIN
300
CELLTABLEFORMAT
  1
TABLEFORMAT_BEGIN
 90
        1
170
     1
 91
       16
 92
        0
 62
   257
 93
        1
300
CONTENTFORMAT
  1
CONTENTFORMAT_BEGIN
 90
       16
 91
        0
 92
      512
 93
        0
300

 40
0.0
140
1.0
 94
        4
 62
     0
340
0
144
0.18
309
CONTENTFORMAT_END
171
     0
 94
        4
 95
        1
302
GRIDFORMAT
  1
GRIDFORMAT_BEGIN
 90
       26
 91
        1
 62
     0
 92
       -2
340
0
 93
        0
 40
0.045
309
GRIDFORMAT_END
 95
        4
302
GRIDFORMAT
  1
GRIDFORMAT_BEGIN
 90
       26
 91
        1
 62
     0
 92
       -2
340
0
 93
        0
 40
0.045
309
GRIDFORMAT_END
 95
        8
302
GRIDFORMAT
  1
GRIDFORMAT_BEGIN
 90
       26
 91
        1
 62
     0
 92
       -2
340
0
 93
        0
 40
0.045
309
GRIDFORMAT_END
 95
       32
302
GRIDFORMAT
  1
GRIDFORMAT_BEGIN
 90
       26
 91
        1
 62
     0
 92
       -2
340
0
 93
        0
 40
0.045
309
GRIDFORMAT_END
309
TABLEFORMAT_END
309
FORMATTEDTABLEDATACELL_END
  1
TABLECELL_BEGIN
 90
        0
 91
        0
309
TABLECELL_END
300
CELL
  1
LINKEDTABLEDATACELL_BEGIN
 90
        0
300

 91
        0
301
CUSTOMDATA
  1
DATAMAP_BEGIN
 90
        1
300
ACAD_ROUNDTRIP_2008_CELL_CHECKSUM
301
DATAMAP_VALUE
 93
        2
 90
        2
140
1398.0
 94
        0
300

302

304
ACVALUE_END
309
DATAMAP_END
 92
        0
 95
        1
302
CONTENT
  1
CELLCONTENT_BEGIN
 90
        1
300
VALUE
 93
        2
 90
        4
  1
Rev:00
 94
        0
300

302
Rev:00
304
ACVALUE_END
 91
        0
309
CELLCONTENT_END
  1
FORMATTEDCELLCONTENT_BEGIN
170
     1
300
CONTENTFORMAT
  1
CONTENTFORMAT_BEGIN
 90
      196
 91
        0
 92
      512
 93
        0
300

 40
0.0
140
1.0
 94
        1
 62
     0
340
229
144
3.5
309
CONTENTFORMAT_END
309
FORMATTEDCELLCONTENT_END
309
LINKEDTABLEDATACELL_END
  1
FORMATTEDTABLEDATACELL_BEGIN
300
CELLTABLEFORMAT
  1
TABLEFORMAT_BEGIN
 90
        1
170
     1
 91
       16
 92
        0
 62
   257
 93
        1
300
CONTENTFORMAT
  1
CONTENTFORMAT_BEGIN
 90
       16
 91
        0
 92
      512
 93
        0
300

 40
0.0
140
1.0
 94
        4
 62
     0
340
0
144
0.18
309
CONTENTFORMAT_END
171
     0
 94
        4
 95
        1
302
GRIDFORMAT
  1
GRIDFORMAT_BEGIN
 90
       26
 91
        1
 62
     0
 92
       -2
340
0
 93
        0
 40
0.045
309
GRIDFORMAT_END
 95
        4
302
GRIDFORMAT
  1
GRIDFORMAT_BEGIN
 90
       26
 91
        1
 62
     0
 92
       -2
340
0
 93
        0
 40
0.045
309
GRIDFORMAT_END
 95
        8
302
GRIDFORMAT
  1
GRIDFORMAT_BEGIN
 90
       26
 91
        1
 62
     0
 92
       -2
340
0
 93
        0
 40
0.045
309
GRIDFORMAT_END
 95
       32
302
GRIDFORMAT
  1
GRIDFORMAT_BEGIN
 90
       26
 91
        1
 62
     0
 92
       -2
340
0
 93
        0
 40
0.045
309
GRIDFORMAT_END
309
TABLEFORMAT_END
309
FORMATTEDTABLEDATACELL_END
  1
TABLECELL_BEGIN
 90
        0
 91
        0
309
TABLECELL_END
 91
        0
301
CUSTOMDATA
  1
DATAMAP_BEGIN
 90
        0
309
DATAMAP_END
309
LINKEDTABLEDATAROW_END
  1
FORMATTEDTABLEDATAROW_BEGIN
300
ROWTABLEFORMAT
  1
TABLEFORMAT_BEGIN
 90
        2
170
     0
309
TABLEFORMAT_END
309
FORMATTEDTABLEDATAROW_END
  1
TABLEROW_BEGIN
 90
        1
 40
6.0
309
TABLEROW_END
301
ROW
  1
LINKEDTABLEDATAROW_BEGIN
 90
        5
300
CELL
  1
LINKEDTABLEDATACELL_BEGIN
 90
        0
300

 91
        0
301
CUSTOMDATA
  1
DATAMAP_BEGIN
 90
        0
309
DATAMAP_END
 92
        0
 95
        0
309
LINKEDTABLEDATACELL_END
  1
FORMATTEDTABLEDATACELL_BEGIN
300
CELLTABLEFORMAT
  1
TABLEFORMAT_BEGIN
 90
        1
170
     1
 91
        0
 92
        0
 62
   257
 93
        1
300
CONTENTFORMAT
  1
CONTENTFORMAT_BEGIN
 90
        0
 91
        0
 92
      512
 93
        0
300

 40
0.0
140
1.0
 94
        1
 62
     0
340
0
144
0.18
309
CONTENTFORMAT_END
171
     0
 94
        0
309
TABLEFORMAT_END
309
FORMATTEDTABLEDATACELL_END
  1
TABLECELL_BEGIN
 90
        0
 91
        0
309
TABLECELL_END
300
CELL
  1
LINKEDTABLEDATACELL_BEGIN
 90
        0
300

 91
        0
301
CUSTOMDATA
  1
DATAMAP_BEGIN
 90
        0
309
DATAMAP_END
 92
        0
 95
        0
309
LINKEDTABLEDATACELL_END
  1
FORMATTEDTABLEDATACELL_BEGIN
300
CELLTABLEFORMAT
  1
TABLEFORMAT_BEGIN
 90
        1
170
     1
 91
        0
 92
        0
 62
   257
 93
        1
300
CONTENTFORMAT
  1
CONTENTFORMAT_BEGIN
 90
        0
 91
        0
 92
      512
 93
        0
300

 40
0.0
140
1.0
 94
        1
 62
     0
340
0
144
0.18
309
CONTENTFORMAT_END
171
     0
 94
        0
309
TABLEFORMAT_END
309
FORMATTEDTABLEDATACELL_END
  1
TABLECELL_BEGIN
 90
        0
 91
        0
309
TABLECELL_END
300
CELL
  1
LINKEDTABLEDATACELL_BEGIN
 90
        0
300

 91
        0
301
CUSTOMDATA
  1
DATAMAP_BEGIN
 90
        0
309
DATAMAP_END
 92
        0
 95
        0
309
LINKEDTABLEDATACELL_END
  1
FORMATTEDTABLEDATACELL_BEGIN
300
CELLTABLEFORMAT
  1
TABLEFORMAT_BEGIN
 90
        1
170
     1
 91
        0
 92
        0
 62
   257
 93
        1
300
CONTENTFORMAT
  1
CONTENTFORMAT_BEGIN
 90
        0
 91
        0
 92
      512
 93
        0
300

 40
0.0
140
1.0
 94
        1
 62
     0
340
0
144
0.18
309
CONTENTFORMAT_END
171
     0
 94
        0
309
TABLEFORMAT_END
309
FORMATTEDTABLEDATACELL_END
  1
TABLECELL_BEGIN
 90
        0
 91
        0
309
TABLECELL_END
300
CELL
  1
LINKEDTABLEDATACELL_BEGIN
 90
        0
300

 91
        0
301
CUSTOMDATA
  1
DATAMAP_BEGIN
 90
        1
300
ACAD_ROUNDTRIP_2008_CELL_CHECKSUM
301
DATAMAP_VALUE
 93
        2
 90
        2
140
3105.0
 94
        0
300

302

304
ACVALUE_END
309
DATAMAP_END
 92
        0
 95
        1
302
CONTENT
  1
CELLCONTENT_BEGIN
 90
        1
300
VALUE
 93
        2
 90
        4
  1
Scale:1:1
 94
        0
300

302
Scale:1:1
304
ACVALUE_END
 91
        0
309
CELLCONTENT_END
  1
FORMATTEDCELLCONTENT_BEGIN
170
     1
300
CONTENTFORMAT
  1
CONTENTFORMAT_BEGIN
 90
      196
 91
        0
 92
      512
 93
        0
300

 40
0.0
140
1.0
 94
        1
 62
     0
340
229
144
3.5
309
CONTENTFORMAT_END
309
FORMATTEDCELLCONTENT_END
309
LINKEDTABLEDATACELL_END
  1
FORMATTEDTABLEDATACELL_BEGIN
300
CELLTABLEFORMAT
  1
TABLEFORMAT_BEGIN
 90
        1
170
     1
 91
       16
 92
        0
 62
   257
 93
        1
300
CONTENTFORMAT
  1
CONTENTFORMAT_BEGIN
 90
       16
 91
        0
 92
      512
 93
        0
300

 40
0.0
140
1.0
 94
        1
 62
     0
340
0
144
0.18
309
CONTENTFORMAT_END
171
     0
 94
        4
 95
        1
302
GRIDFORMAT
  1
GRIDFORMAT_BEGIN
 90
       26
 91
        1
 62
     0
 92
       -2
340
0
 93
        0
 40
0.045
309
GRIDFORMAT_END
 95
        4
302
GRIDFORMAT
  1
GRIDFORMAT_BEGIN
 90
       26
 91
        1
 62
     0
 92
       -2
340
0
 93
        0
 40
0.045
309
GRIDFORMAT_END
 95
        8
302
GRIDFORMAT
  1
GRIDFORMAT_BEGIN
 90
       26
 91
        1
 62
     0
 92
       -2
340
0
 93
        0
 40
0.045
309
GRIDFORMAT_END
 95
       32
302
GRIDFORMAT
  1
GRIDFORMAT_BEGIN
 90
       26
 91
        1
 62
     0
 92
       -2
340
0
 93
        0
 40
0.045
309
GRIDFORMAT_END
309
TABLEFORMAT_END
309
FORMATTEDTABLEDATACELL_END
  1
TABLECELL_BEGIN
 90
        0
 91
        0
309
TABLECELL_END
300
CELL
  1
LINKEDTABLEDATACELL_BEGIN
 90
        0
300

 91
        0
301
CUSTOMDATA
  1
DATAMAP_BEGIN
 90
        1
300
ACAD_ROUNDTRIP_2008_CELL_CHECKSUM
301
DATAMAP_VALUE
 93
        2
 90
        2
140
167.0
 94
        0
300

302

304
ACVALUE_END
309
DATAMAP_END
 92
        0
 95
        1
302
CONTENT
  1
CELLCONTENT_BEGIN
 90
        1
300
VALUE
 93
        2
 90
        4
  1
A3
 94
        0
300

302
A3
304
ACVALUE_END
 91
        0
309
CELLCONTENT_END
  1
FORMATTEDCELLCONTENT_BEGIN
170
     1
300
CONTENTFORMAT
  1
CONTENTFORMAT_BEGIN
 90
      196
 91
        0
 92
      512
 93
        0
300

 40
0.0
140
1.0
 94
        1
 62
     0
340
229
144
3.5
309
CONTENTFORMAT_END
309
FORMATTEDCELLCONTENT_END
309
LINKEDTABLEDATACELL_END
  1
FORMATTEDTABLEDATACELL_BEGIN
300
CELLTABLEFORMAT
  1
TABLEFORMAT_BEGIN
 90
        1
170
     1
 91
       16
 92
        0
 62
   257
 93
        1
300
CONTENTFORMAT
  1
CONTENTFORMAT_BEGIN
 90
       16
 91
        0
 92
      512
 93
        0
300

 40
0.0
140
1.0
 94
        4
 62
     0
340
0
144
0.18
309
CONTENTFORMAT_END
171
     0
 94
        4
 95
        1
302
GRIDFORMAT
  1
GRIDFORMAT_BEGIN
 90
       26
 91
        1
 62
     0
 92
       -2
340
0
 93
        0
 40
0.045
309
GRIDFORMAT_END
 95
        4
302
GRIDFORMAT
  1
GRIDFORMAT_BEGIN
 90
       26
 91
        1
 62
     0
 92
       -2
340
0
 93
        0
 40
0.045
309
GRIDFORMAT_END
 95
        8
302
GRIDFORMAT
  1
GRIDFORMAT_BEGIN
 90
       26
 91
        1
 62
     0
 92
       -2
340
0
 93
        0
 40
0.045
309
GRIDFORMAT_END
 95
       32
302
GRIDFORMAT
  1
GRIDFORMAT_BEGIN
 90
       26
 91
        1
 62
     0
 92
       -2
340
0
 93
        0
 40
0.045
309
GRIDFORMAT_END
309
TABLEFORMAT_END
309
FORMATTEDTABLEDATACELL_END
  1
TABLECELL_BEGIN
 90
        0
 91
        0
309
TABLECELL_END
 91
        0
301
CUSTOMDATA
  1
DATAMAP_BEGIN
 90
        0
309
DATAMAP_END
309
LINKEDTABLEDATAROW_END
  1
FORMATTEDTABLEDATAROW_BEGIN
300
ROWTABLEFORMAT
  1
TABLEFORMAT_BEGIN
 90
        2
170
     0
309
TABLEFORMAT_END
309
FORMATTEDTABLEDATAROW_END
  1
TABLEROW_BEGIN
 90
        2
 40
6.0
309
TABLEROW_END
301
ROW
  1
LINKEDTABLEDATAROW_BEGIN
 90
        5
300
CELL
  1
LINKEDTABLEDATACELL_BEGIN
 90
        0
300

 91
        0
301
CUSTOMDATA
  1
DATAMAP_BEGIN
 90
        0
309
DATAMAP_END
 92
        0
 95
        0
309
LINKEDTABLEDATACELL_END
  1
FORMATTEDTABLEDATACELL_BEGIN
300
CELLTABLEFORMAT
  1
TABLEFORMAT_BEGIN
 90
        1
170
     1
 91
        0
 92
        0
 62
   257
 93
        1
300
CONTENTFORMAT
  1
CONTENTFORMAT_BEGIN
 90
        0
 91
        0
 92
      512
 93
        0
300

 40
0.0
140
1.0
 94
        1
 62
     0
340
0
144
0.18
309
CONTENTFORMAT_END
171
     0
 94
        0
309
TABLEFORMAT_END
309
FORMATTEDTABLEDATACELL_END
  1
TABLECELL_BEGIN
 90
        0
 91
        0
309
TABLECELL_END
300
CELL
  1
LINKEDTABLEDATACELL_BEGIN
 90
        0
300

 91
        0
301
CUSTOMDATA
  1
DATAMAP_BEGIN
 90
        0
309
DATAMAP_END
 92
        0
 95
        0
309
LINKEDTABLEDATACELL_END
  1
FORMATTEDTABLEDATACELL_BEGIN
300
CELLTABLEFORMAT
  1
TABLEFORMAT_BEGIN
 90
        1
170
     1
 91
        0
 92
        0
 62
   257
 93
        1
300
CONTENTFORMAT
  1
CONTENTFORMAT_BEGIN
 90
        0
 91
        0
 92
      512
 93
        0
300

 40
0.0
140
1.0
 94
        1
 62
     0
340
0
144
0.18
309
CONTENTFORMAT_END
171
     0
 94
        0
309
TABLEFORMAT_END
309
FORMATTEDTABLEDATACELL_END
  1
TABLECELL_BEGIN
 90
        0
 91
        0
309
TABLECELL_END
300
CELL
  1
LINKEDTABLEDATACELL_BEGIN
 90
        0
300

 91
        0
301
CUSTOMDATA
  1
DATAMAP_BEGIN
 90
        0
309
DATAMAP_END
 92
        0
 95
        0
309
LINKEDTABLEDATACELL_END
  1
FORMATTEDTABLEDATACELL_BEGIN
300
CELLTABLEFORMAT
  1
TABLEFORMAT_BEGIN
 90
        1
170
     1
 91
        0
 92
        0
 62
   257
 93
        1
300
CONTENTFORMAT
  1
CONTENTFORMAT_BEGIN
 90
        0
 91
        0
 92
      512
 93
        0
300

 40
0.0
140
1.0
 94
        1
 62
     0
340
0
144
0.18
309
CONTENTFORMAT_END
171
     0
 94
        0
309
TABLEFORMAT_END
309
FORMATTEDTABLEDATACELL_END
  1
TABLECELL_BEGIN
 90
        0
 91
        0
309
TABLECELL_END
300
CELL
  1
LINKEDTABLEDATACELL_BEGIN
 90
        0
300

 91
        0
301
CUSTOMDATA
  1
DATAMAP_BEGIN
 90
        1
300
ACAD_ROUNDTRIP_2008_CELL_CHECKSUM
301
DATAMAP_VALUE
 93
        2
 90
        2
140
2371.0
 94
        0
300

302

304
ACVALUE_END
309
DATAMAP_END
 92
        0
 95
        1
302
CONTENT
  1
CELLCONTENT_BEGIN
 90
        1
300
VALUE
 93
        2
 90
        4
  1
KOCCA 1.1
 94
        0
300

302
KOCCA 1.1
304
ACVALUE_END
 91
        0
309
CELLCONTENT_END
  1
FORMATTEDCELLCONTENT_BEGIN
170
     1
300
CONTENTFORMAT
  1
CONTENTFORMAT_BEGIN
 90
      196
 91
        0
 92
      512
 93
        0
300

 40
0.0
140
1.0
 94
        1
 62
     0
340
229
144
3.5
309
CONTENTFORMAT_END
309
FORMATTEDCELLCONTENT_END
309
LINKEDTABLEDATACELL_END
  1
FORMATTEDTABLEDATACELL_BEGIN
300
CELLTABLEFORMAT
  1
TABLEFORMAT_BEGIN
 90
        1
170
     1
 91
       16
 92
        0
 62
   257
 93
        1
300
CONTENTFORMAT
  1
CONTENTFORMAT_BEGIN
 90
       16
 91
        0
 92
      512
 93
        0
300

 40
0.0
140
1.0
 94
        4
 62
     0
340
0
144
0.18
309
CONTENTFORMAT_END
171
     0
 94
        4
 95
        1
302
GRIDFORMAT
  1
GRIDFORMAT_BEGIN
 90
       26
 91
        1
 62
     0
 92
       -2
340
0
 93
        0
 40
0.045
309
GRIDFORMAT_END
 95
        4
302
GRIDFORMAT
  1
GRIDFORMAT_BEGIN
 90
       26
 91
        1
 62
     0
 92
       -2
340
0
 93
        0
 40
0.045
309
GRIDFORMAT_END
 95
        8
302
GRIDFORMAT
  1
GRIDFORMAT_BEGIN
 90
       26
 91
        1
 62
     0
 92
       -2
340
0
 93
        0
 40
0.045
309
GRIDFORMAT_END
 95
       32
302
GRIDFORMAT
  1
GRIDFORMAT_BEGIN
 90
       26
 91
        1
 62
     0
 92
       -2
340
0
 93
        0
 40
0.045
309
GRIDFORMAT_END
309
TABLEFORMAT_END
309
FORMATTEDTABLEDATACELL_END
  1
TABLECELL_BEGIN
 90
        0
 91
        0
309
TABLECELL_END
300
CELL
  1
LINKEDTABLEDATACELL_BEGIN
 90
        0
300

 91
        0
301
CUSTOMDATA
  1
DATAMAP_BEGIN
 90
        0
309
DATAMAP_END
 92
        0
 95
        0
309
LINKEDTABLEDATACELL_END
  1
FORMATTEDTABLEDATACELL_BEGIN
300
CELLTABLEFORMAT
  1
TABLEFORMAT_BEGIN
 90
        1
170
     1
 91
        0
 92
        0
 62
   257
 93
        1
300
CONTENTFORMAT
  1
CONTENTFORMAT_BEGIN
 90
        0
 91
        0
 92
      512
 93
        0
300

 40
0.0
140
1.0
 94
        1
 62
     0
340
0
144
0.18
309
CONTENTFORMAT_END
171
     0
 94
        0
309
TABLEFORMAT_END
309
FORMATTEDTABLEDATACELL_END
  1
TABLECELL_BEGIN
 90
        0
 91
        0
309
TABLECELL_END
 91
        0
301
CUSTOMDATA
  1
DATAMAP_BEGIN
 90
        0
309
DATAMAP_END
309
LINKEDTABLEDATAROW_END
  1
FORMATTEDTABLEDATAROW_BEGIN
300
ROWTABLEFORMAT
  1
TABLEFORMAT_BEGIN
 90
        2
170
     0
309
TABLEFORMAT_END
309
FORMATTEDTABLEDATAROW_END
  1
TABLEROW_BEGIN
 90
        3
 40
10.0
309
TABLEROW_END
301
ROW
  1
LINKEDTABLEDATAROW_BEGIN
 90
        5
300
CELL
  1
LINKEDTABLEDATACELL_BEGIN
 90
        0
300

 91
        0
301
CUSTOMDATA
  1
DATAMAP_BEGIN
 90
        0
309
DATAMAP_END
 92
        0
 95
        0
309
LINKEDTABLEDATACELL_END
  1
FORMATTEDTABLEDATACELL_BEGIN
300
CELLTABLEFORMAT
  1
TABLEFORMAT_BEGIN
 90
        1
170
     1
 91
        0
 92
        0
 62
   257
 93
        1
300
CONTENTFORMAT
  1
CONTENTFORMAT_BEGIN
 90
        0
 91
        0
 92
      512
 93
        0
300

 40
0.0
140
1.0
 94
        1
 62
     0
340
0
144
0.18
309
CONTENTFORMAT_END
171
     0
 94
        0
309
TABLEFORMAT_END
309
FORMATTEDTABLEDATACELL_END
  1
TABLECELL_BEGIN
 90
        0
 91
        0
309
TABLECELL_END
300
CELL
  1
LINKEDTABLEDATACELL_BEGIN
 90
        0
300

 91
        0
301
CUSTOMDATA
  1
DATAMAP_BEGIN
 90
        0
309
DATAMAP_END
 92
        0
 95
        0
309
LINKEDTABLEDATACELL_END
  1
FORMATTEDTABLEDATACELL_BEGIN
300
CELLTABLEFORMAT
  1
TABLEFORMAT_BEGIN
 90
        1
170
     1
 91
        0
 92
        0
 62
   257
 93
        1
300
CONTENTFORMAT
  1
CONTENTFORMAT_BEGIN
 90
        0
 91
        0
 92
      512
 93
        0
300

 40
0.0
140
1.0
 94
        1
 62
     0
340
0
144
0.18
309
CONTENTFORMAT_END
171
     0
 94
        0
309
TABLEFORMAT_END
309
FORMATTEDTABLEDATACELL_END
  1
TABLECELL_BEGIN
 90
        0
 91
        0
309
TABLECELL_END
300
CELL
  1
LINKEDTABLEDATACELL_BEGIN
 90
        0
300

 91
        0
301
CUSTOMDATA
  1
DATAMAP_BEGIN
 90
        0
309
DATAMAP_END
 92
        0
 95
        0
309
LINKEDTABLEDATACELL_END
  1
FORMATTEDTABLEDATACELL_BEGIN
300
CELLTABLEFORMAT
  1
TABLEFORMAT_BEGIN
 90
        1
170
     1
 91
        0
 92
        0
 62
   257
 93
        1
300
CONTENTFORMAT
  1
CONTENTFORMAT_BEGIN
 90
        0
 91
        0
 92
      512
 93
        0
300

 40
0.0
140
1.0
 94
        1
 62
     0
340
0
144
0.18
309
CONTENTFORMAT_END
171
     0
 94
        0
309
TABLEFORMAT_END
309
FORMATTEDTABLEDATACELL_END
  1
TABLECELL_BEGIN
 90
        0
 91
        0
309
TABLECELL_END
300
CELL
  1
LINKEDTABLEDATACELL_BEGIN
 90
        0
300

 91
        0
301
CUSTOMDATA
  1
DATAMAP_BEGIN
 90
        1
300
ACAD_ROUNDTRIP_2008_CELL_CHECKSUM
301
DATAMAP_VALUE
 93
        2
 90
        2
140
4781.0
 94
        0
300

302

304
ACVALUE_END
309
DATAMAP_END
 92
        0
 95
        1
302
CONTENT
  1
CELLCONTENT_BEGIN
 90
        1
300
VALUE
 93
        2
 90
        4
  1
DATE:27.03.14
 94
        0
300

302
DATE:27.03.14
304
ACVALUE_END
 91
        0
309
CELLCONTENT_END
  1
FORMATTEDCELLCONTENT_BEGIN
170
     1
300
CONTENTFORMAT
  1
CONTENTFORMAT_BEGIN
 90
      196
 91
        0
 92
      512
 93
        0
300

 40
0.0
140
1.0
 94
        1
 62
     0
340
229
144
2.5
309
CONTENTFORMAT_END
309
FORMATTEDCELLCONTENT_END
309
LINKEDTABLEDATACELL_END
  1
FORMATTEDTABLEDATACELL_BEGIN
300
CELLTABLEFORMAT
  1
TABLEFORMAT_BEGIN
 90
        1
170
     1
 91
       16
 92
        0
 62
   257
 93
        1
300
CONTENTFORMAT
  1
CONTENTFORMAT_BEGIN
 90
       16
 91
        0
 92
      512
 93
        0
300

 40
0.0
140
1.0
 94
        4
 62
     0
340
0
144
0.18
309
CONTENTFORMAT_END
171
     0
 94
        4
 95
        1
302
GRIDFORMAT
  1
GRIDFORMAT_BEGIN
 90
       26
 91
        1
 62
     0
 92
       -2
340
0
 93
        0
 40
0.045
309
GRIDFORMAT_END
 95
        4
302
GRIDFORMAT
  1
GRIDFORMAT_BEGIN
 90
       26
 91
        1
 62
     0
 92
       -2
340
0
 93
        0
 40
0.045
309
GRIDFORMAT_END
 95
        8
302
GRIDFORMAT
  1
GRIDFORMAT_BEGIN
 90
       26
 91
        1
 62
     0
 92
       -2
340
0
 93
        0
 40
0.045
309
GRIDFORMAT_END
 95
       32
302
GRIDFORMAT
  1
GRIDFORMAT_BEGIN
 90
       26
 91
        1
 62
     0
 92
       -2
340
0
 93
        0
 40
0.045
309
GRIDFORMAT_END
309
TABLEFORMAT_END
309
FORMATTEDTABLEDATACELL_END
  1
TABLECELL_BEGIN
 90
        0
 91
        0
309
TABLECELL_END
300
CELL
  1
LINKEDTABLEDATACELL_BEGIN
 90
        0
300

 91
        0
301
CUSTOMDATA
  1
DATAMAP_BEGIN
 90
        0
309
DATAMAP_END
 92
        0
 95
        0
309
LINKEDTABLEDATACELL_END
  1
FORMATTEDTABLEDATACELL_BEGIN
300
CELLTABLEFORMAT
  1
TABLEFORMAT_BEGIN
 90
        1
170
     1
 91
        0
 92
        0
 62
   257
 93
        1
300
CONTENTFORMAT
  1
CONTENTFORMAT_BEGIN
 90
        0
 91
        0
 92
      512
 93
        0
300

 40
0.0
140
1.0
 94
        1
 62
     0
340
0
144
0.18
309
CONTENTFORMAT_END
171
     0
 94
        0
309
TABLEFORMAT_END
309
FORMATTEDTABLEDATACELL_END
  1
TABLECELL_BEGIN
 90
        0
 91
        0
309
TABLECELL_END
 91
        0
301
CUSTOMDATA
  1
DATAMAP_BEGIN
 90
        0
309
DATAMAP_END
309
LINKEDTABLEDATAROW_END
  1
FORMATTEDTABLEDATAROW_BEGIN
300
ROWTABLEFORMAT
  1
TABLEFORMAT_BEGIN
 90
        2
170
     0
309
TABLEFORMAT_END
309
FORMATTEDTABLEDATAROW_END
  1
TABLEROW_BEGIN
 90
        3
 40
5.0
309
TABLEROW_END
301
ROW
  1
LINKEDTABLEDATAROW_BEGIN
 90
        5
300
CELL
  1
LINKEDTABLEDATACELL_BEGIN
 90
        0
300

 91
        0
301
CUSTOMDATA
  1
DATAMAP_BEGIN
 90
        1
300
ACAD_ROUNDTRIP_2008_CELL_CHECKSUM
301
DATAMAP_VALUE
 93
        2
 90
        2
140
1361482.0
 94
        0
300

302

304
ACVALUE_END
309
DATAMAP_END
 92
        0
 95
        1
302
CONTENT
  1
CELLCONTENT_BEGIN
 90
        1
300
VALUE
 93
        2
 90
        4
  1
Any integral or partial reproductions are prohibited \Pwithout prior authorisation of L & L Luce & Light s.r.l., \Pin accordance with the law in force. \PAll rights reserved.
 94
        0
300

302
Any integral or partial reproductions are prohibited \Pwithout prior authorisation of L & L Luce & Light s.r.l., \Pin accordance with the law in force. \PAll rights reserved.
304
ACVALUE_END
 91
        0
309
CELLCONTENT_END
  1
FORMATTEDCELLCONTENT_BEGIN
170
     1
300
CONTENTFORMAT
  1
CONTENTFORMAT_BEGIN
 90
      196
 91
        0
 92
      512
 93
        0
300

 40
0.0
140
1.0
 94
        1
 62
     0
340
229
144
2.25
309
CONTENTFORMAT_END
309
FORMATTEDCELLCONTENT_END
309
LINKEDTABLEDATACELL_END
  1
FORMATTEDTABLEDATACELL_BEGIN
300
CELLTABLEFORMAT
  1
TABLEFORMAT_BEGIN
 90
        1
170
     1
 91
       16
 92
        0
 62
   257
 93
        1
300
CONTENTFORMAT
  1
CONTENTFORMAT_BEGIN
 90
       16
 91
        0
 92
      512
 93
        0
300

 40
0.0
140
1.0
 94
        4
 62
     0
340
0
144
0.18
309
CONTENTFORMAT_END
171
     0
 94
        4
 95
        1
302
GRIDFORMAT
  1
GRIDFORMAT_BEGIN
 90
       26
 91
        1
 62
     0
 92
       -2
340
0
 93
        0
 40
0.045
309
GRIDFORMAT_END
 95
        4
302
GRIDFORMAT
  1
GRIDFORMAT_BEGIN
 90
       26
 91
        1
 62
     0
 92
       -2
340
0
 93
        0
 40
0.045
309
GRIDFORMAT_END
 95
        8
302
GRIDFORMAT
  1
GRIDFORMAT_BEGIN
 90
       26
 91
        1
 62
     0
 92
       -2
340
0
 93
        0
 40
0.045
309
GRIDFORMAT_END
 95
       32
302
GRIDFORMAT
  1
GRIDFORMAT_BEGIN
 90
       26
 91
        1
 62
     0
 92
       -2
340
0
 93
        0
 40
0.045
309
GRIDFORMAT_END
309
TABLEFORMAT_END
309
FORMATTEDTABLEDATACELL_END
  1
TABLECELL_BEGIN
 90
        0
 91
        0
309
TABLECELL_END
300
CELL
  1
LINKEDTABLEDATACELL_BEGIN
 90
        0
300

 91
        0
301
CUSTOMDATA
  1
DATAMAP_BEGIN
 90
        0
309
DATAMAP_END
 92
        0
 95
        0
309
LINKEDTABLEDATACELL_END
  1
FORMATTEDTABLEDATACELL_BEGIN
300
CELLTABLEFORMAT
  1
TABLEFORMAT_BEGIN
 90
        1
170
     1
 91
        0
 92
        0
 62
   257
 93
        1
300
CONTENTFORMAT
  1
CONTENTFORMAT_BEGIN
 90
        0
 91
        0
 92
      512
 93
        0
300

 40
0.0
140
1.0
 94
        1
 62
     0
340
0
144
0.18
309
CONTENTFORMAT_END
171
     0
 94
        0
309
TABLEFORMAT_END
309
FORMATTEDTABLEDATACELL_END
  1
TABLECELL_BEGIN
 90
        0
 91
        0
309
TABLECELL_END
300
CELL
  1
LINKEDTABLEDATACELL_BEGIN
 90
        0
300

 91
        0
301
CUSTOMDATA
  1
DATAMAP_BEGIN
 90
        0
309
DATAMAP_END
 92
        0
 95
        0
309
LINKEDTABLEDATACELL_END
  1
FORMATTEDTABLEDATACELL_BEGIN
300
CELLTABLEFORMAT
  1
TABLEFORMAT_BEGIN
 90
        1
170
     1
 91
        0
 92
        0
 62
   257
 93
        1
300
CONTENTFORMAT
  1
CONTENTFORMAT_BEGIN
 90
        0
 91
        0
 92
      512
 93
        0
300

 40
0.0
140
1.0
 94
        1
 62
     0
340
0
144
0.18
309
CONTENTFORMAT_END
171
     0
 94
        0
309
TABLEFORMAT_END
309
FORMATTEDTABLEDATACELL_END
  1
TABLECELL_BEGIN
 90
        0
 91
        0
309
TABLECELL_END
300
CELL
  1
LINKEDTABLEDATACELL_BEGIN
 90
        0
300

 91
        0
301
CUSTOMDATA
  1
DATAMAP_BEGIN
 90
        0
309
DATAMAP_END
 92
        0
 95
        0
309
LINKEDTABLEDATACELL_END
  1
FORMATTEDTABLEDATACELL_BEGIN
300
CELLTABLEFORMAT
  1
TABLEFORMAT_BEGIN
 90
        1
170
     1
 91
        0
 92
        0
 62
   257
 93
        1
300
CONTENTFORMAT
  1
CONTENTFORMAT_BEGIN
 90
        0
 91
        0
 92
      512
 93
        0
300

 40
0.0
140
1.0
 94
        1
 62
     0
340
0
144
0.18
309
CONTENTFORMAT_END
171
     0
 94
        0
309
TABLEFORMAT_END
309
FORMATTEDTABLEDATACELL_END
  1
TABLECELL_BEGIN
 90
        0
 91
        0
309
TABLECELL_END
300
CELL
  1
LINKEDTABLEDATACELL_BEGIN
 90
        0
300

 91
        0
301
CUSTOMDATA
  1
DATAMAP_BEGIN
 90
        0
309
DATAMAP_END
 92
        0
 95
        0
309
LINKEDTABLEDATACELL_END
  1
FORMATTEDTABLEDATACELL_BEGIN
300
CELLTABLEFORMAT
  1
TABLEFORMAT_BEGIN
 90
        1
170
     1
 91
        0
 92
        0
 62
   257
 93
        1
300
CONTENTFORMAT
  1
CONTENTFORMAT_BEGIN
 90
        0
 91
        0
 92
      512
 93
        0
300

 40
0.0
140
1.0
 94
        1
 62
     0
340
0
144
0.18
309
CONTENTFORMAT_END
171
     0
 94
        0
309
TABLEFORMAT_END
309
FORMATTEDTABLEDATACELL_END
  1
TABLECELL_BEGIN
 90
        0
 91
        0
309
TABLECELL_END
 91
        0
301
CUSTOMDATA
  1
DATAMAP_BEGIN
 90
        0
309
DATAMAP_END
309
LINKEDTABLEDATAROW_END
  1
FORMATTEDTABLEDATAROW_BEGIN
300
ROWTABLEFORMAT
  1
TABLEFORMAT_BEGIN
 90
        2
170
     0
309
TABLEFORMAT_END
309
FORMATTEDTABLEDATAROW_END
  1
TABLEROW_BEGIN
 90
        3
 40
13.0
309
TABLEROW_END
100
AcDbFormattedTableData
300
TABLEFORMAT
  1
TABLEFORMAT_BEGIN
 90
        4
170
     1
 91
    15360
 92
        0
 62
   257
 93
        1
300
CONTENTFORMAT
  1
CONTENTFORMAT_BEGIN
 90
        0
 91
        0
 92
      512
 93
        0
300

 40
0.0
140
1.0
 94
        1
 62
     0
340
0
144
0.18
309
CONTENTFORMAT_END
171
     1
301
MARGIN
  1
CELLMARGIN_BEGIN
 40
0.06
 40
0.06
 40
0.06
 40
0.06
 40
0.06
 40
0.06
309
CELLMARGIN_END
 94
        0
309
TABLEFORMAT_END
 90
        4
 91
        0
 92
        0
 93
        3
 94
        2
 91
        2
 92
        3
 93
        2
 94
        4
 91
        3
 92
        3
 93
        3
 94
        4
 91
        4
 92
        0
 93
        4
 94
        4
100
AcDbTableContent
340
491
  0
TABLEGEOMETRY
  5
4A5
330
4A7
100
AcDbTableGeometry
 90
        5
 91
        5
 92
       25
 93
        0
 40
0.0
 41
0.0
330
0
 94
        0
 93
        0
 40
0.0
 41
0.0
330
0
 94
        0
 93
        0
 40
0.0
 41
0.0
330
0
 94
        0
 93
        0
 40
0.0
 41
0.0
330
0
 94
        0
 93
        0
 40
0.0
 41
0.0
330
0
 94
        0
 93
        0
 40
0.0
 41
0.0
330
0
 94
        0
 93
        0
 40
0.0
 41
0.0
330
0
 94
        0
 93
        0
 40
0.0
 41
0.0
330
0
 94
        0
 93
        0
 40
0.0
 41
0.0
330
0
 94
        0
 93
        0
 40
0.0
 41
0.0
330
0
 94
        0
 93
        0
 40
0.0
 41
0.0
330
0
 94
        0
 93
        0
 40
0.0
 41
0.0
330
0
 94
        0
 93
        0
 40
0.0
 41
0.0
330
0
 94
        0
 93
        0
 40
0.0
 41
0.0
330
0
 94
        0
 93
        0
 40
0.0
 41
0.0
330
0
 94
        0
 93
        0
 40
0.0
 41
0.0
330
0
 94
        0
 93
        0
 40
0.0
 41
0.0
330
0
 94
        0
 93
        0
 40
0.0
 41
0.0
330
0
 94
        0
 93
        0
 40
0.0
 41
0.0
330
0
 94
        0
 93
        0
 40
0.0
 41
0.0
330
0
 94
        0
 93
        0
 40
0.0
 41
0.0
330
0
 94
        0
 93
        0
 40
0.0
 41
0.0
330
0
 94
        0
 93
        0
 40
0.0
 41
0.0
330
0
 94
        0
 93
        0
 40
0.0
 41
0.0
330
0
 94
        0
 93
        0
 40
0.0
 41
0.0
330
0
 94
        0
  0
DICTIONARY
  5
4AA
330
491
100
AcDbDictionary
280
     1
281
     1
  3
ACAD_ROUNDTRIP_2008_TABLESTYLE_CELLSTYLEMAP
360
4AB
  0
CELLSTYLEMAP
  5
4AB
102
{ACAD_REACTORS
330
4AA
102
}
330
4AA
100
AcDbCellStyleMap
 90
        3
300
CELLSTYLE
  1
TABLEFORMAT_BEGIN
 90
        5
170
     1
 91
        0
 92
        0
 62
   257
 93
        1
300
CONTENTFORMAT
  1
CONTENTFORMAT_BEGIN
 90
        0
 91
        0
 92
        4
 93
        0
300

 40
0.0
140
1.0
 94
        5
 62
     0
340
11
144
6.0
309
CONTENTFORMAT_END
171
     1
301
MARGIN
  1
CELLMARGIN_BEGIN
 40
1.5
 40
1.5
 40
1.5
 40
1.5
 40
1.5
 40
1.5
309
CELLMARGIN_END
 94
        6
 95
        1
302
GRIDFORMAT
  1
GRIDFORMAT_BEGIN
 90
        0
 91
        1
 62
     0
 92
       -2
340
14
 93
        0
 40
0.045
309
GRIDFORMAT_END
 95
        2
302
GRIDFORMAT
  1
GRIDFORMAT_BEGIN
 90
        0
 91
        1
 62
     0
 92
       -2
340
14
 93
        0
 40
0.045
309
GRIDFORMAT_END
 95
        4
302
GRIDFORMAT
  1
GRIDFORMAT_BEGIN
 90
        0
 91
        1
 62
     0
 92
       -2
340
14
 93
        0
 40
0.045
309
GRIDFORMAT_END
 95
        8
302
GRIDFORMAT
  1
GRIDFORMAT_BEGIN
 90
        0
 91
        1
 62
     0
 92
       -2
340
14
 93
        0
 40
0.045
309
GRIDFORMAT_END
 95
       16
302
GRIDFORMAT
  1
GRIDFORMAT_BEGIN
 90
        0
 91
        1
 62
     0
 92
       -2
340
14
 93
        0
 40
0.045
309
GRIDFORMAT_END
 95
       32
302
GRIDFORMAT
  1
GRIDFORMAT_BEGIN
 90
        0
 91
        1
 62
     0
 92
       -2
340
14
 93
        0
 40
0.045
309
GRIDFORMAT_END
309
TABLEFORMAT_END
  1
CELLSTYLE_BEGIN
 90
        1
 91
        1
300
_TITLE
309
CELLSTYLE_END
300
CELLSTYLE
  1
TABLEFORMAT_BEGIN
 90
        5
170
     1
 91
        0
 92
        0
 62
   257
 93
        1
300
CONTENTFORMAT
  1
CONTENTFORMAT_BEGIN
 90
        0
 91
        0
 92
        4
 93
        0
300

 40
0.0
140
1.0
 94
        5
 62
     0
340
11
144
4.5
309
CONTENTFORMAT_END
171
     1
301
MARGIN
  1
CELLMARGIN_BEGIN
 40
1.5
 40
1.5
 40
1.5
 40
1.5
 40
1.5
 40
1.5
309
CELLMARGIN_END
 94
        6
 95
        1
302
GRIDFORMAT
  1
GRIDFORMAT_BEGIN
 90
        0
 91
        1
 62
     0
 92
       -2
340
14
 93
        0
 40
0.045
309
GRIDFORMAT_END
 95
        2
302
GRIDFORMAT
  1
GRIDFORMAT_BEGIN
 90
        0
 91
        1
 62
     0
 92
       -2
340
14
 93
        0
 40
0.045
309
GRIDFORMAT_END
 95
        4
302
GRIDFORMAT
  1
GRIDFORMAT_BEGIN
 90
        0
 91
        1
 62
     0
 92
       -2
340
14
 93
        0
 40
0.045
309
GRIDFORMAT_END
 95
        8
302
GRIDFORMAT
  1
GRIDFORMAT_BEGIN
 90
        0
 91
        1
 62
     0
 92
       -2
340
14
 93
        0
 40
0.045
309
GRIDFORMAT_END
 95
       16
302
GRIDFORMAT
  1
GRIDFORMAT_BEGIN
 90
        0
 91
        1
 62
     0
 92
       -2
340
14
 93
        0
 40
0.045
309
GRIDFORMAT_END
 95
       32
302
GRIDFORMAT
  1
GRIDFORMAT_BEGIN
 90
        0
 91
        1
 62
     0
 92
       -2
340
14
 93
        0
 40
0.045
309
GRIDFORMAT_END
309
TABLEFORMAT_END
  1
CELLSTYLE_BEGIN
 90
        2
 91
        1
300
_HEADER
309
CELLSTYLE_END
300
CELLSTYLE
  1
TABLEFORMAT_BEGIN
 90
        5
170
     1
 91
        0
 92
        0
 62
   257
 93
        1
300
CONTENTFORMAT
  1
CONTENTFORMAT_BEGIN
 90
        0
 91
        0
 92
        4
 93
        0
300

 40
0.0
140
1.0
 94
        2
 62
     0
340
11
144
4.5
309
CONTENTFORMAT_END
171
     1
301
MARGIN
  1
CELLMARGIN_BEGIN
 40
1.5
 40
1.5
 40
1.5
 40
1.5
 40
1.5
 40
1.5
309
CELLMARGIN_END
 94
        6
 95
        1
302
GRIDFORMAT
  1
GRIDFORMAT_BEGIN
 90
        0
 91
        1
 62
     0
 92
       -2
340
14
 93
        0
 40
0.045
309
GRIDFORMAT_END
 95
        2
302
GRIDFORMAT
  1
GRIDFORMAT_BEGIN
 90
        0
 91
        1
 62
     0
 92
       -2
340
14
 93
        0
 40
0.045
309
GRIDFORMAT_END
 95
        4
302
GRIDFORMAT
  1
GRIDFORMAT_BEGIN
 90
        0
 91
        1
 62
     0
 92
       -2
340
14
 93
        0
 40
0.045
309
GRIDFORMAT_END
 95
        8
302
GRIDFORMAT
  1
GRIDFORMAT_BEGIN
 90
        0
 91
        1
 62
     0
 92
       -2
340
14
 93
        0
 40
0.045
309
GRIDFORMAT_END
 95
       16
302
GRIDFORMAT
  1
GRIDFORMAT_BEGIN
 90
        0
 91
        1
 62
     0
 92
       -2
340
14
 93
        0
 40
0.045
309
GRIDFORMAT_END
 95
       32
302
GRIDFORMAT
  1
GRIDFORMAT_BEGIN
 90
        0
 91
        1
 62
     0
 92
       -2
340
14
 93
        0
 40
0.045
309
GRIDFORMAT_END
309
TABLEFORMAT_END
  1
CELLSTYLE_BEGIN
 90
        3
 91
        2
300
_DATA
309
CELLSTYLE_END
  0
ENDSEC
  0
EOF
