  0
SECTION
  2
HEADER
  9
$ACADVER
  1
AC1027
  9
$ACADMAINTVER
 70
     8
  9
$DWGCODEPAGE
  3
ANSI_1252
  9
$REQUIREDVERSIONS
160
                 0
  9
$INSBASE
 10
0.0
 20
0.0
 30
0.0
  9
$EXTMIN
 10
0.0
 20
0.0
 30
0.0
  9
$EXTMAX
 10
594.0
 20
420.0
 30
0.0
  9
$LIMMIN
 10
0.0
 20
0.0
  9
$LIMMAX
 10
594.0
 20
420.0
  9
$ORTHOMODE
 70
     0
  9
$REGENMODE
 70
     1
  9
$FILLMODE
 70
     1
  9
$QTEXTMODE
 70
     0
  9
$MIRRTEXT
 70
     1
  9
$LTSCALE
 40
32.67
  9
$ATTMODE
 70
     1
  9
$TEXTSIZE
 40
0.2
  9
$TRACEWID
 40
0.05
  9
$TEXTSTYLE
  7
STANDARD
  9
$CLAYER
  8
0
  9
$CELTYPE
  6
BYLAYER
  9
$CECOLOR
 62
   256
  9
$CELTSCALE
 40
1.0
  9
$DISPSILH
 70
     0
  9
$DIMSCALE
 40
1.0
  9
$DIMASZ
 40
2.5
  9
$DIMEXO
 40
0.75
  9
$DIMDLI
 40
22.572
  9
$DIMRND
 40
0.0
  9
$DIMDLE
 40
0.0
  9
$DIMEXE
 40
0.75
  9
$DIMTP
 40
0.01
  9
$DIMTM
 40
0.01
  9
$DIMTXT
 40
3.0
  9
$DIMCEN
 40
5.346
  9
$DIMTSZ
 40
0.0
  9
$DIMTOL
 70
     1
  9
$DIMLIM
 70
     0
  9
$DIMTIH
 70
     1
  9
$DIMTOH
 70
     1
  9
$DIMSE1
 70
     0
  9
$DIMSE2
 70
     0
  9
$DIMTAD
 70
     0
  9
$DIMZIN
 70
     0
  9
$DIMBLK
  1
CLOSED
  9
$DIMASO
 70
     1
  9
$DIMSHO
 70
     1
  9
$DIMPOST
  1

  9
$DIMAPOST
  1

  9
$DIMALT
 70
     0
  9
$DIMALTD
 70
     2
  9
$DIMALTF
 40
25.4
  9
$DIMLFAC
 40
1.0
  9
$DIMTOFL
 70
     0
  9
$DIMTVP
 40
0.0
  9
$DIMTIX
 70
     0
  9
$DIMSOXD
 70
     0
  9
$DIMSAH
 70
     0
  9
$DIMBLK1
  1

  9
$DIMBLK2
  1

  9
$DIMSTYLE
  2
STANDARD
  9
$DIMCLRD
 70
     0
  9
$DIMCLRE
 70
     0
  9
$DIMCLRT
 70
     0
  9
$DIMTFAC
 40
1.0
  9
$DIMGAP
 40
0.625
  9
$DIMJUST
 70
     0
  9
$DIMSD1
 70
     0
  9
$DIMSD2
 70
     0
  9
$DIMTOLJ
 70
     1
  9
$DIMTZIN
 70
     0
  9
$DIMALTZ
 70
     0
  9
$DIMALTTZ
 70
     0
  9
$DIMUPT
 70
     0
  9
$DIMDEC
 70
     4
  9
$DIMTDEC
 70
     4
  9
$DIMALTU
 70
     2
  9
$DIMALTTD
 70
     2
  9
$DIMTXSTY
  7
STANDARD
  9
$DIMAUNIT
 70
     0
  9
$DIMADEC
 70
     0
  9
$DIMALTRND
 40
0.0
  9
$DIMAZIN
 70
     0
  9
$DIMDSEP
 70
    44
  9
$DIMATFIT
 70
     3
  9
$DIMFRAC
 70
     0
  9
$DIMLDRBLK
  1

  9
$DIMLUNIT
 70
     2
  9
$DIMLWD
 70
    -2
  9
$DIMLWE
 70
    -2
  9
$DIMTMOVE
 70
     0
  9
$DIMFXL
 40
1.0
  9
$DIMFXLON
 70
     0
  9
$DIMJOGANG
 40
0.785398
  9
$DIMTFILL
 70
     0
  9
$DIMTFILLCLR
 70
     0
  9
$DIMARCSYM
 70
     0
  9
$DIMLTYPE
  6

  9
$DIMLTEX1
  6

  9
$DIMLTEX2
  6

  9
$DIMTXTDIRECTION
 70
     0
  9
$LUNITS
 70
     2
  9
$LUPREC
 70
     4
  9
$SKETCHINC
 40
0.1
  9
$FILLETRAD
 40
0.5
  9
$AUNITS
 70
     0
  9
$AUPREC
 70
     0
  9
$MENU
  1
.
  9
$ELEVATION
 40
0.0
  9
$PELEVATION
 40
0.0
  9
$THICKNESS
 40
0.0
  9
$LIMCHECK
 70
     0
  9
$CHAMFERA
 40
0.0
  9
$CHAMFERB
 40
0.0
  9
$CHAMFERC
 40
0.0
  9
$CHAMFERD
 40
0.0
  9
$SKPOLY
 70
     0
  9
$TDCREATE
 40
2447893.041666667
  9
$TDUCREATE
 40
0.0
  9
$TDUPDATE
 40
2458858.708266053
  9
$TDUUPDATE
 40
2458858.666599386
  9
$TDINDWG
 40
0.0
  9
$TDUSRTIMER
 40
0.0
  9
$USRTIMER
 70
     1
  9
$ANGBASE
 50
0.0
  9
$ANGDIR
 70
     0
  9
$PDMODE
 70
     3
  9
$PDSIZE
 40
0.3125
  9
$PLINEWID
 40
0.0
  9
$SPLFRAME
 70
     0
  9
$SPLINETYPE
 70
     6
  9
$SPLINESEGS
 70
     8
  9
$HANDSEED
  5
539
  9
$SURFTAB1
 70
     6
  9
$SURFTAB2
 70
     6
  9
$SURFTYPE
 70
     6
  9
$SURFU
 70
     6
  9
$SURFV
 70
     6
  9
$UCSBASE
  2

  9
$UCSNAME
  2

  9
$UCSORG
 10
0.0
 20
0.0
 30
0.0
  9
$UCSXDIR
 10
1.0
 20
0.0
 30
0.0
  9
$UCSYDIR
 10
0.0
 20
1.0
 30
0.0
  9
$UCSORTHOREF
  2

  9
$UCSORTHOVIEW
 70
     0
  9
$UCSORGTOP
 10
0.0
 20
0.0
 30
0.0
  9
$UCSORGBOTTOM
 10
0.0
 20
0.0
 30
0.0
  9
$UCSORGLEFT
 10
0.0
 20
0.0
 30
0.0
  9
$UCSORGRIGHT
 10
0.0
 20
0.0
 30
0.0
  9
$UCSORGFRONT
 10
0.0
 20
0.0
 30
0.0
  9
$UCSORGBACK
 10
0.0
 20
0.0
 30
0.0
  9
$PUCSBASE
  2

  9
$PUCSNAME
  2

  9
$PUCSORG
 10
0.0
 20
0.0
 30
0.0
  9
$PUCSXDIR
 10
1.0
 20
0.0
 30
0.0
  9
$PUCSYDIR
 10
0.0
 20
1.0
 30
0.0
  9
$PUCSORTHOREF
  2

  9
$PUCSORTHOVIEW
 70
     0
  9
$PUCSORGTOP
 10
0.0
 20
0.0
 30
0.0
  9
$PUCSORGBOTTOM
 10
0.0
 20
0.0
 30
0.0
  9
$PUCSORGLEFT
 10
0.0
 20
0.0
 30
0.0
  9
$PUCSORGRIGHT
 10
0.0
 20
0.0
 30
0.0
  9
$PUCSORGFRONT
 10
0.0
 20
0.0
 30
0.0
  9
$PUCSORGBACK
 10
0.0
 20
0.0
 30
0.0
  9
$USERI1
 70
     0
  9
$USERI2
 70
     0
  9
$USERI3
 70
     0
  9
$USERI4
 70
     0
  9
$USERI5
 70
     0
  9
$USERR1
 40
0.0
  9
$USERR2
 40
0.0
  9
$USERR3
 40
0.0
  9
$USERR4
 40
0.0
  9
$USERR5
 40
0.0
  9
$WORLDVIEW
 70
     1
  9
$SHADEDGE
 70
     3
  9
$SHADEDIF
 70
    70
  9
$TILEMODE
 70
     1
  9
$MAXACTVP
 70
    64
  9
$PINSBASE
 10
0.0
 20
0.0
 30
0.0
  9
$PLIMCHECK
 70
     0
  9
$PEXTMIN
 10
1.000000E+20
 20
1.000000E+20
 30
1.000000E+20
  9
$PEXTMAX
 10
-1.000000E+20
 20
-1.000000E+20
 30
-1.000000E+20
  9
$PLIMMIN
 10
0.0
 20
0.0
  9
$PLIMMAX
 10
12.0
 20
9.0
  9
$UNITMODE
 70
     0
  9
$VISRETAIN
 70
     1
  9
$PLINEGEN
 70
     0
  9
$PSLTSCALE
 70
     0
  9
$TREEDEPTH
 70
  3020
  9
$CMLSTYLE
  2

  9
$CMLJUST
 70
     0
  9
$CMLSCALE
 40
1.0
  9
$PROXYGRAPHICS
 70
     1
  9
$MEASUREMENT
 70
     1
  9
$CELWEIGHT
370
    -1
  9
$ENDCAPS
280
     0
  9
$JOINSTYLE
280
     0
  9
$LWDISPLAY
290
     0
  9
$INSUNITS
 70
     4
  9
$HYPERLINKBASE
  1

  9
$STYLESHEET
  1

  9
$XEDIT
290
     1
  9
$CEPSNTYPE
380
     0
  9
$PSTYLEMODE
290
     1
  9
$FINGERPRINTGUID
  2
{13ED5D4F-620A-40FF-BAFA-453877733893}
  9
$VERSIONGUID
  2
{FAEB1C32-E019-11D5-929B-00C0DF256EC4}
  9
$EXTNAMES
290
     1
  9
$PSVPSCALE
 40
0.0
  9
$OLESTARTUP
290
     0
  9
$SORTENTS
280
   127
  9
$INDEXCTL
280
     0
  9
$HIDETEXT
280
     1
  9
$XCLIPFRAME
280
     2
  9
$HALOGAP
280
     0
  9
$OBSCOLOR
 70
   257
  9
$OBSLTYPE
280
     0
  9
$INTERSECTIONDISPLAY
280
     0
  9
$INTERSECTIONCOLOR
 70
   257
  9
$DIMASSOC
280
     2
  9
$PROJECTNAME
  1

  9
$CAMERADISPLAY
290
     0
  9
$LENSLENGTH
 40
50.0
  9
$CAMERAHEIGHT
 40
0.0
  9
$STEPSPERSEC
 40
2.0
  9
$STEPSIZE
 40
6.0
  9
$3DDWFPREC
 40
2.0
  9
$PSOLWIDTH
 40
0.25
  9
$PSOLHEIGHT
 40
4.0
  9
$LOFTANG1
 40
1.570796
  9
$LOFTANG2
 40
1.570796
  9
$LOFTMAG1
 40
0.0
  9
$LOFTMAG2
 40
0.0
  9
$LOFTPARAM
 70
     7
  9
$LOFTNORMALS
280
     1
  9
$LATITUDE
 40
37.795
  9
$LONGITUDE
 40
-122.394
  9
$NORTHDIRECTION
 40
0.0
  9
$TIMEZONE
 70
 -8000
  9
$LIGHTGLYPHDISPLAY
280
     1
  9
$TILEMODELIGHTSYNCH
280
     1
  9
$SOLIDHIST
280
     1
  9
$SHOWHIST
280
     1
  9
$DWFFRAME
280
     2
  9
$DGNFRAME
280
     2
  9
$REALWORLDSCALE
290
     1
  9
$INTERFERECOLOR
 62
   256
  9
$CSHADOW
280
     0
  9
$SHADOWPLANELOCATION
 40
0.0
  0
ENDSEC
  0
SECTION
  2
CLASSES
  0
CLASS
  1
ACDBDICTIONARYWDFLT
  2
AcDbDictionaryWithDefault
  3
ObjectDBX Classes
 90
        0
 91
        6
280
     0
281
     0
  0
CLASS
  1
ACDBPLACEHOLDER
  2
AcDbPlaceHolder
  3
ObjectDBX Classes
 90
        0
 91
        1
280
     0
281
     0
  0
CLASS
  1
LAYOUT
  2
AcDbLayout
  3
ObjectDBX Classes
 90
        0
 91
        1
280
     0
281
     0
  0
CLASS
  1
TABLESTYLE
  2
AcDbTableStyle
  3
ObjectDBX Classes
 90
     4095
 91
        5
280
     0
281
     0
  0
CLASS
  1
ACAD_TABLE
  2
AcDbTable
  3
ObjectDBX Classes
 90
     1025
 91
        5
280
     0
281
     1
  0
CLASS
  1
SCALE
  2
AcDbScale
  3
ObjectDBX Classes
 90
     1153
 91
        5
280
     0
281
     0
  0
CLASS
  1
TABLEGEOMETRY
  2
AcDbTableGeometry
  3
ObjectDBX Classes
 90
     1152
 91
        4
280
     0
281
     0
  0
CLASS
  1
VISUALSTYLE
  2
AcDbVisualStyle
  3
ObjectDBX Classes
 90
     4095
 91
        5
280
     0
281
     0
  0
CLASS
  1
MATERIAL
  2
AcDbMaterial
  3
ObjectDBX Classes
 90
     1153
 91
        5
280
     0
281
     0
  0
CLASS
  1
SUN
  2
AcDbSun
  3
SCENEOE
 90
     1153
 91
        5
280
     0
281
     0
  0
CLASS
  1
CSACDOCUMENTOPTIONS
  2
CDocDataContainer
  3
"DERU003_CSAPP"
 90
     4095
 91
        4
280
     0
281
     0
  0
CLASS
  1
TABLECONTENT
  2
AcDbTableContent
  3
ObjectDBX Classes
 90
     1152
 91
        4
280
     0
281
     0
  0
CLASS
  1
DICTIONARYVAR
  2
AcDbDictionaryVar
  3
ObjectDBX Classes
 90
        0
 91
        4
280
     0
281
     0
  0
CLASS
  1
CELLSTYLEMAP
  2
AcDbCellStyleMap
  3
ObjectDBX Classes
 90
     1152
 91
        4
280
     0
281
     0
  0
ENDSEC
  0
SECTION
  2
TABLES
  0
TABLE
  2
VPORT
  5
8
330
0
100
AcDbSymbolTable
 70
     1
  0
VPORT
  5
1F4
330
8
100
AcDbSymbolTableRecord
100
AcDbViewportTableRecord
  2
*ACTIVE
 70
     0
 10
0.0
 20
0.0
 11
1.0
 21
1.0
 12
297.0
 22
210.0
 13
0.0
 23
0.0
 14
1.0
 24
1.0
 15
0.0
 25
0.0
 16
0.0
 26
0.0
 36
1.0
 17
0.0
 27
0.0
 37
0.0
 40
420.0
 41
2.107285
 42
50.0
 43
0.0
 44
0.0
 50
0.0
 51
0.0
 71
    16
 72
   100
 73
     1
 74
     1
 75
     0
 76
     0
 77
     0
 78
     0
281
     0
 65
     1
110
0.0
120
0.0
130
0.0
111
1.0
121
0.0
131
0.0
112
0.0
122
1.0
132
0.0
 79
     0
146
0.0
 60
     3
 61
     5
292
     1
282
     1
141
0.0
142
0.0
 63
   256
361
524
  0
ENDTAB
  0
TABLE
  2
LTYPE
  5
5
330
0
100
AcDbSymbolTable
 70
     6
  0
LTYPE
  5
14
330
5
100
AcDbSymbolTableRecord
100
AcDbLinetypeTableRecord
  2
BYBLOCK
 70
     0
  3

 72
    65
 73
     0
 40
0.0
  0
LTYPE
  5
15
330
5
100
AcDbSymbolTableRecord
100
AcDbLinetypeTableRecord
  2
BYLAYER
 70
     0
  3

 72
    65
 73
     0
 40
0.0
  0
LTYPE
  5
16
330
5
100
AcDbSymbolTableRecord
100
AcDbLinetypeTableRecord
  2
CONTINUOUS
 70
     0
  3
Solid line
 72
    65
 73
     0
 40
0.0
  0
LTYPE
  5
1F5
330
5
100
AcDbSymbolTableRecord
100
AcDbLinetypeTableRecord
  2
CENTER
 70
     0
  3
____ _ ____ _ ____ _ ____ _ ____ _ ____ _ ____
 72
    65
 73
     4
 40
0.6
 49
0.375
 74
     0
 49
-0.075
 74
     0
 49
0.075
 74
     0
 49
-0.075
 74
     0
  0
LTYPE
  5
1F6
330
5
100
AcDbSymbolTableRecord
100
AcDbLinetypeTableRecord
  2
HIDDEN
 70
     0
  3
- - - - - - - - - - - - - - - - - - - -
 72
    65
 73
     2
 40
0.2
 49
0.1
 74
     0
 49
-0.1
 74
     0
  0
LTYPE
  5
1F7
330
5
100
AcDbSymbolTableRecord
100
AcDbLinetypeTableRecord
  2
PHANTOM
 70
     0
  3
_____ _ _ _____ _ _ _____ _ _ _____
 72
    65
 73
     6
 40
0.8
 49
0.45
 74
     0
 49
-0.05
 74
     0
 49
0.1
 74
     0
 49
-0.05
 74
     0
 49
0.1
 74
     0
 49
-0.05
 74
     0
  0
LTYPE
  5
1F8
330
5
100
AcDbSymbolTableRecord
100
AcDbLinetypeTableRecord
  2
DOT
 70
     0
  3
. . . . . . . . . . . . . . . . . . . .
 72
    65
 73
     2
 40
0.2
 49
0.1
 74
     0
 49
-0.1
 74
     0
  0
LTYPE
  5
1F9
330
5
100
AcDbSymbolTableRecord
100
AcDbLinetypeTableRecord
  2
DASHED
 70
     0
  3
- - - - - - - - - - - - - - - - - - - -
 72
    65
 73
     2
 40
0.2
 49
0.1
 74
     0
 49
-0.1
 74
     0
  0
ENDTAB
  0
TABLE
  2
LAYER
  5
2
330
0
100
AcDbSymbolTable
 70
    13
  0
LAYER
  5
10
330
2
100
AcDbSymbolTableRecord
100
AcDbLayerTableRecord
  2
0
 70
     0
 62
     7
  6
CONTINUOUS
370
    -3
390
F
347
51E
348
0
  0
LAYER
  5
1FA
330
2
100
AcDbSymbolTableRecord
100
AcDbLayerTableRecord
  2
DEFAULT_1
 70
     0
 62
     7
  6
CENTER
370
    -3
390
F
347
51E
348
0
  0
LAYER
  5
1FB
330
2
100
AcDbSymbolTableRecord
100
AcDbLayerTableRecord
  2
DEFAULT_2
 70
     0
 62
     8
  6
HIDDEN
370
    -3
390
F
347
51E
348
0
  0
LAYER
  5
1FC
330
2
100
AcDbSymbolTableRecord
100
AcDbLayerTableRecord
  2
DEFAULT_3
 70
     0
 62
     7
  6
PHANTOM
370
    -3
390
F
347
51E
348
0
  0
LAYER
  5
1FD
330
2
100
AcDbSymbolTableRecord
100
AcDbLayerTableRecord
  2
1_ALL_PLANES
 70
     0
 62
     7
  6
CONTINUOUS
370
    -3
390
F
347
51E
348
0
  0
LAYER
  5
1FE
330
2
100
AcDbSymbolTableRecord
100
AcDbLayerTableRecord
  2
2_ALL_CSYS
 70
     0
 62
     7
  6
CONTINUOUS
370
    -3
390
F
347
51E
348
0
  0
LAYER
  5
1FF
330
2
100
AcDbSymbolTableRecord
100
AcDbLayerTableRecord
  2
3_ALL_AXES
 70
     0
 62
     7
  6
CONTINUOUS
370
    -3
390
F
347
51E
348
0
  0
LAYER
  5
200
330
2
100
AcDbSymbolTableRecord
100
AcDbLayerTableRecord
  2
4_ALL_POINTS
 70
     0
 62
     7
  6
CONTINUOUS
370
    -3
390
F
347
51E
348
0
  0
LAYER
  5
201
330
2
100
AcDbSymbolTableRecord
100
AcDbLayerTableRecord
  2
5_ALL_CURVES
 70
     0
 62
     7
  6
CONTINUOUS
370
    -3
390
F
347
51E
348
0
  0
LAYER
  5
202
330
2
100
AcDbSymbolTableRecord
100
AcDbLayerTableRecord
  2
6_ALL_SURFS
 70
     0
 62
     7
  6
CONTINUOUS
370
    -3
390
F
347
51E
348
0
  0
LAYER
  5
203
330
2
100
AcDbSymbolTableRecord
100
AcDbLayerTableRecord
  2
7_ALL_FEATURES
 70
     0
 62
     7
  6
CONTINUOUS
370
    -3
390
F
347
51E
348
0
  0
LAYER
  5
204
330
2
100
AcDbSymbolTableRecord
100
AcDbLayerTableRecord
  2
9_SOLID
 70
     0
 62
     7
  6
CONTINUOUS
370
    -3
390
F
347
51E
348
0
  0
LAYER
  5
205
330
2
100
AcDbSymbolTableRecord
100
AcDbLayerTableRecord
  2
NO_CAVO
 70
     0
 62
     7
  6
CONTINUOUS
370
    -3
390
F
347
51E
348
0
  0
ENDTAB
  0
TABLE
  2
STYLE
  5
3
330
0
100
AcDbSymbolTable
 70
     5
  0
STYLE
  5
11
330
3
100
AcDbSymbolTableRecord
100
AcDbTextStyleTableRecord
  2
STANDARD
 70
     0
 40
0.0
 41
1.0
 50
0.0
 71
     0
 42
0.2
  3
arial.ttf
  4

  0
STYLE
  5
206
330
3
100
AcDbSymbolTableRecord
100
AcDbTextStyleTableRecord
  2
TEXTSTYLE_1
 70
     0
 40
0.0
 41
0.8
 50
0.0
 71
     0
 42
0.2
  3
gdt
  4

  0
STYLE
  5
207
330
3
100
AcDbSymbolTableRecord
100
AcDbTextStyleTableRecord
  2
TEXTSTYLE_2
 70
     0
 40
0.0
 41
0.9
 50
0.0
 71
     0
 42
0.2
  3
txt
  4

  0
STYLE
  5
208
330
3
100
AcDbSymbolTableRecord
100
AcDbTextStyleTableRecord
  2
TEXTSTYLE_3
 70
     0
 40
0.0
 41
0.9
 50
0.0
 71
     0
 42
0.2
  3
txt
  4

  0
STYLE
  5
209
330
3
100
AcDbSymbolTableRecord
100
AcDbTextStyleTableRecord
  2
TEXTSTYLE_4
 70
     0
 40
0.0
 41
0.85
 50
0.0
 71
     0
 42
0.2
  3
txt
  4

  0
ENDTAB
  0
TABLE
  2
VIEW
  5
6
330
0
100
AcDbSymbolTable
 70
     0
  0
ENDTAB
  0
TABLE
  2
UCS
  5
7
330
0
100
AcDbSymbolTable
 70
     0
  0
ENDTAB
  0
TABLE
  2
APPID
  5
9
330
0
100
AcDbSymbolTable
 70
     6
  0
APPID
  5
20A
330
9
100
AcDbSymbolTableRecord
100
AcDbRegAppTableRecord
  2
ACAD
 70
     0
  0
APPID
  5
51F
330
9
100
AcDbSymbolTableRecord
100
AcDbRegAppTableRecord
  2
MCS_DIM1
 70
     0
  0
APPID
  5
520
330
9
100
AcDbSymbolTableRecord
100
AcDbRegAppTableRecord
  2
McsXdata5
 70
     0
  0
APPID
  5
523
330
9
100
AcDbSymbolTableRecord
100
AcDbRegAppTableRecord
  2
MCS_DOCUMENT_ID
 70
     0
  0
APPID
  5
529
330
9
100
AcDbSymbolTableRecord
100
AcDbRegAppTableRecord
  2
MCS_PARAMS_DATA
 70
     0
  0
APPID
  5
52B
330
9
100
AcDbSymbolTableRecord
100
AcDbRegAppTableRecord
  2
MC_VERSION_DATA
 70
     0
  0
ENDTAB
  0
TABLE
  2
DIMSTYLE
  5
A
330
0
100
AcDbSymbolTable
 70
     4
100
AcDbDimStyleTable
  0
DIMSTYLE
105
215
330
A
100
AcDbSymbolTableRecord
100
AcDbDimStyleTableRecord
  2
STANDARD
 70
     0
 41
2.5
 42
0.75
 44
0.75
 47
0.01
 48
0.01
 71
     1
 73
     0
 74
     0
 77
     1
 78
     8
 79
     2
140
3.0
147
0.625
171
     1
178
     0
179
     2
271
     2
272
     2
278
    44
284
     8
340
11
341
20D
342
20D
343
20D
344
20D
  0
DIMSTYLE
105
216
330
A
100
AcDbSymbolTableRecord
100
AcDbDimStyleTableRecord
  2
DIMSTYLE_1
 70
     0
 41
2.5
 42
0.75
 44
0.75
 47
0.5
 48
0.5
 73
     0
 74
     0
 77
     1
 78
     8
 79
     2
140
3.0
147
0.75
171
     1
178
     0
179
     2
271
     2
272
     2
278
    44
284
     8
340
11
341
20D
342
20D
343
20D
344
20D
  0
DIMSTYLE
105
217
330
A
100
AcDbSymbolTableRecord
100
AcDbDimStyleTableRecord
  2
DIMSTYLE_2
 70
     0
 41
2.5
 42
0.75
 44
0.75
 47
0.3
 48
0.3
 73
     0
 74
     0
 77
     1
 78
     8
 79
     2
140
3.0
147
0.75
171
     1
178
     0
179
     2
271
     2
272
     2
278
    44
284
     8
340
11
341
20D
342
20D
343
20D
344
20D
  0
DIMSTYLE
105
218
330
A
100
AcDbSymbolTableRecord
100
AcDbDimStyleTableRecord
  2
DIMSTYLE_3
 70
     0
 41
2.5
 42
0.75
 44
0.75
 47
0.2
 48
0.2
 73
     0
 74
     0
 77
     1
 78
     8
 79
     2
140
3.0
147
0.75
171
     1
178
     0
179
     2
271
     2
272
     2
278
    44
284
     8
340
11
341
20D
342
20D
343
20D
344
20D
  0
ENDTAB
  0
TABLE
  2
BLOCK_RECORD
  5
1
330
0
100
AcDbSymbolTable
 70
     8
  0
BLOCK_RECORD
  5
20B
330
1
100
AcDbSymbolTableRecord
100
AcDbBlockTableRecord
  2
*Model_Space
340
4D9
 70
     0
280
     1
281
     0
  0
BLOCK_RECORD
  5
20C
330
1
100
AcDbSymbolTableRecord
100
AcDbBlockTableRecord
  2
*Paper_Space
340
4DA
 70
     0
280
     1
281
     0
  0
BLOCK_RECORD
  5
20D
330
1
100
AcDbSymbolTableRecord
100
AcDbBlockTableRecord
  2
_CLOSED
340
0
102
{BLKREFS
331
261
331
262
331
26A
331
26B
331
273
331
274
331
27C
331
27D
331
287
331
288
102
}
 70
     0
280
     1
281
     0
  0
BLOCK_RECORD
  5
20E
330
1
100
AcDbSymbolTableRecord
100
AcDbBlockTableRecord
  2
*D1
340
0
 70
     0
280
     1
281
     0
  0
BLOCK_RECORD
  5
20F
330
1
100
AcDbSymbolTableRecord
100
AcDbBlockTableRecord
  2
*D2
340
0
 70
     0
280
     1
281
     0
  0
BLOCK_RECORD
  5
210
330
1
100
AcDbSymbolTableRecord
100
AcDbBlockTableRecord
  2
*D3
340
0
 70
     0
280
     1
281
     0
  0
BLOCK_RECORD
  5
211
330
1
100
AcDbSymbolTableRecord
100
AcDbBlockTableRecord
  2
*D4
340
0
 70
     0
280
     1
281
     0
  0
BLOCK_RECORD
  5
212
330
1
100
AcDbSymbolTableRecord
100
AcDbBlockTableRecord
  2
*D5
340
0
 70
     0
280
     1
281
     0
  0
BLOCK_RECORD
  5
213
330
1
100
AcDbSymbolTableRecord
100
AcDbBlockTableRecord
  2
LOGO2_BL0
340
0
102
{BLKREFS
331
4D6
102
}
 70
     0
280
     1
281
     0
  0
BLOCK_RECORD
  5
214
330
1
100
AcDbSymbolTableRecord
100
AcDbBlockTableRecord
  2
*T7
340
0
102
{BLKREFS
331
4D7
102
}
 70
     0
280
     1
281
     0
  0
ENDTAB
  0
ENDSEC
  0
SECTION
  2
BLOCKS
  0
BLOCK
  5
20
330
20B
100
AcDbEntity
  8
0
100
AcDbBlockBegin
  2
*Model_Space
 70
     0
 10
0.0
 20
0.0
 30
0.0
  3
*Model_Space
  1
*Model_Space
  0
ENDBLK
  5
21
330
20B
100
AcDbEntity
  8
0
100
AcDbBlockEnd
  0
BLOCK
  5
1C
330
20C
100
AcDbEntity
 67
     1
  8
0
100
AcDbBlockBegin
  2
*Paper_Space
 70
     0
 10
0.0
 20
0.0
 30
0.0
  3
*Paper_Space
  1
*Paper_Space
  0
ENDBLK
  5
1D
330
20C
100
AcDbEntity
 67
     1
  8
0
100
AcDbBlockEnd
  0
BLOCK
  5
255
330
20D
100
AcDbEntity
  8
0
100
AcDbBlockBegin
  2
_CLOSED
 70
     0
 10
0.0
 20
0.0
 30
0.0
  3
_CLOSED
  1
_CLOSED
  0
LINE
  5
256
330
20D
100
AcDbEntity
  8
0
  6
ByBlock
 62
     0
100
AcDbLine
 10
0.0
 20
0.0
 30
0.0
 11
-1.0
 21
0.2
 31
0.0
  0
LINE
  5
257
330
20D
100
AcDbEntity
  8
0
  6
ByBlock
 62
     0
100
AcDbLine
 10
-1.0
 20
0.2
 30
0.0
 11
-1.0
 21
-0.2
 31
0.0
  0
LINE
  5
258
330
20D
100
AcDbEntity
  8
0
  6
ByBlock
 62
     0
100
AcDbLine
 10
-1.0
 20
-0.2
 30
0.0
 11
0.0
 21
0.0
 31
0.0
  0
LINE
  5
259
330
20D
100
AcDbEntity
  8
0
  6
ByBlock
 62
     0
100
AcDbLine
 10
-1.0
 20
0.0
 30
0.0
 11
0.0
 21
0.0
 31
0.0
  0
ENDBLK
  5
25A
330
20D
100
AcDbEntity
  8
0
  6
ByBlock
 62
     0
100
AcDbBlockEnd
  0
BLOCK
  5
25B
330
20E
100
AcDbEntity
  8
0
100
AcDbBlockBegin
  2
*D1
 70
     1
 10
0.0
 20
0.0
 30
0.0
  3
*D1
  1
*D1
  0
MTEXT
  5
25C
330
20E
100
AcDbEntity
  8
0
  6
Continuous
 62
     2
100
AcDbMText
 10
143.639196
 20
395.519059
 30
0.0
 40
3.0
 41
6.992565
 46
0.0
 71
     2
 72
     1
  1
200
 73
     1
 44
0.9
  0
LINE
  5
25D
330
20E
100
AcDbEntity
  8
0
  6
Continuous
 62
     2
100
AcDbLine
 10
44.002046
 20
381.343562
 30
0.0
 11
44.002046
 21
392.519059
 31
0.0
  0
LINE
  5
25E
330
20E
100
AcDbEntity
  8
0
  6
Continuous
 62
     2
100
AcDbLine
 10
244.002046
 20
381.343562
 30
0.0
 11
244.002046
 21
392.519059
 31
0.0
  0
LINE
  5
25F
330
20E
100
AcDbEntity
  8
0
  6
Continuous
 62
     2
100
AcDbLine
 10
44.002046
 20
391.769059
 30
0.0
 11
144.002046
 21
391.769059
 31
0.0
  0
LINE
  5
260
330
20E
100
AcDbEntity
  8
0
  6
Continuous
 62
     2
100
AcDbLine
 10
244.002046
 20
391.769059
 30
0.0
 11
144.002046
 21
391.769059
 31
0.0
  0
INSERT
  5
261
330
20E
100
AcDbEntity
  8
0
  6
Continuous
 62
     2
100
AcDbBlockReference
  2
_CLOSED
 10
44.002046
 20
391.769059
 30
0.0
 41
2.5
 42
2.5
 43
2.5
 50
180.0
  0
INSERT
  5
262
330
20E
100
AcDbEntity
  8
0
  6
Continuous
 62
     2
100
AcDbBlockReference
  2
_CLOSED
 10
244.002046
 20
391.769059
 30
0.0
 41
2.5
 42
2.5
 43
2.5
  0
ENDBLK
  5
263
330
20E
100
AcDbEntity
  8
0
  6
ByBlock
 62
     0
100
AcDbBlockEnd
  0
BLOCK
  5
264
330
20F
100
AcDbEntity
  8
0
100
AcDbBlockBegin
  2
*D2
 70
     1
 10
0.0
 20
0.0
 30
0.0
  3
*D2
  1
*D2
  0
MTEXT
  5
265
330
20F
100
AcDbEntity
  8
0
  6
Continuous
 62
     2
100
AcDbMText
 10
15.923431
 20
271.122638
 30
0.0
 40
3.0
 41
6.992565
 46
0.0
 71
     2
 72
     1
  1
200
 11
0.0
 21
1.0
 31
0.0
 73
     1
 44
0.9
  0
LINE
  5
266
330
20F
100
AcDbEntity
  8
0
  6
Continuous
 62
     2
100
AcDbLine
 10
33.961069
 20
370.034086
 30
0.0
 11
18.923431
 21
370.034086
 31
0.0
  0
LINE
  5
267
330
20F
100
AcDbEntity
  8
0
  6
Continuous
 62
     2
100
AcDbLine
 10
33.961069
 20
170.034086
 30
0.0
 11
18.923431
 21
170.034086
 31
0.0
  0
LINE
  5
268
330
20F
100
AcDbEntity
  8
0
  6
Continuous
 62
     2
100
AcDbLine
 10
19.673431
 20
370.034086
 30
0.0
 11
19.673431
 21
270.034086
 31
0.0
  0
LINE
  5
269
330
20F
100
AcDbEntity
  8
0
  6
Continuous
 62
     2
100
AcDbLine
 10
19.673431
 20
170.034086
 30
0.0
 11
19.673431
 21
270.034086
 31
0.0
  0
INSERT
  5
26A
330
20F
100
AcDbEntity
  8
0
  6
Continuous
 62
     2
100
AcDbBlockReference
  2
_CLOSED
 10
19.673431
 20
370.034086
 30
0.0
 41
2.5
 42
2.5
 43
2.5
 50
90.0
  0
INSERT
  5
26B
330
20F
100
AcDbEntity
  8
0
  6
Continuous
 62
     2
100
AcDbBlockReference
  2
_CLOSED
 10
19.673431
 20
170.034086
 30
0.0
 41
2.5
 42
2.5
 43
2.5
 50
270.0
  0
ENDBLK
  5
26C
330
20F
100
AcDbEntity
  8
0
  6
ByBlock
 62
     0
100
AcDbBlockEnd
  0
BLOCK
  5
26D
330
210
100
AcDbEntity
  8
0
100
AcDbBlockBegin
  2
*D3
 70
     1
 10
0.0
 20
0.0
 30
0.0
  3
*D3
  1
*D3
  0
MTEXT
  5
26E
330
210
100
AcDbEntity
  8
0
  6
Continuous
 62
     2
100
AcDbMText
 10
144.002046
 20
384.770347
 30
0.0
 40
3.0
 41
4.66171
 46
0.0
 71
     2
 72
     1
  1
80
 73
     1
 44
0.9
  0
LINE
  5
26F
330
210
100
AcDbEntity
  8
0
  6
Continuous
 62
     2
100
AcDbLine
 10
104.002046
 20
380.270347
 30
0.0
 11
104.002046
 21
381.124288
 31
0.0
  0
LINE
  5
270
330
210
100
AcDbEntity
  8
0
  6
Continuous
 62
     2
100
AcDbLine
 10
184.002046
 20
380.270347
 30
0.0
 11
184.002046
 21
381.343562
 31
0.0
  0
LINE
  5
271
330
210
100
AcDbEntity
  8
0
  6
Continuous
 62
     2
100
AcDbLine
 10
104.002046
 20
381.020347
 30
0.0
 11
144.002046
 21
381.020347
 31
0.0
  0
LINE
  5
272
330
210
100
AcDbEntity
  8
0
  6
Continuous
 62
     2
100
AcDbLine
 10
184.002046
 20
381.020347
 30
0.0
 11
144.002046
 21
381.020347
 31
0.0
  0
INSERT
  5
273
330
210
100
AcDbEntity
  8
0
  6
Continuous
 62
     2
100
AcDbBlockReference
  2
_CLOSED
 10
104.002046
 20
381.020347
 30
0.0
 41
2.5
 42
2.5
 43
2.5
 50
180.0
  0
INSERT
  5
274
330
210
100
AcDbEntity
  8
0
  6
Continuous
 62
     2
100
AcDbBlockReference
  2
_CLOSED
 10
184.002046
 20
381.020347
 30
0.0
 41
2.5
 42
2.5
 43
2.5
  0
ENDBLK
  5
275
330
210
100
AcDbEntity
  8
0
  6
ByBlock
 62
     0
100
AcDbBlockEnd
  0
BLOCK
  5
276
330
211
100
AcDbEntity
  8
0
100
AcDbBlockBegin
  2
*D4
 70
     1
 10
0.0
 20
0.0
 30
0.0
  3
*D4
  1
*D4
  0
MTEXT
  5
277
330
211
100
AcDbEntity
  8
0
  6
Continuous
 62
     2
100
AcDbMText
 10
28.084634
 20
270.034086
 30
0.0
 40
3.0
 41
4.66171
 46
0.0
 71
     2
 72
     1
  1
80
 11
0.0
 21
1.0
 31
0.0
 73
     1
 44
0.9
  0
LINE
  5
278
330
211
100
AcDbEntity
  8
0
  6
Continuous
 62
     2
100
AcDbLine
 10
33.961069
 20
310.034086
 30
0.0
 11
31.084634
 21
310.034086
 31
0.0
  0
LINE
  5
279
330
211
100
AcDbEntity
  8
0
  6
Continuous
 62
     2
100
AcDbLine
 10
34.537317
 20
230.034086
 30
0.0
 11
31.084634
 21
230.034086
 31
0.0
  0
LINE
  5
27A
330
211
100
AcDbEntity
  8
0
  6
Continuous
 62
     2
100
AcDbLine
 10
31.834634
 20
310.034086
 30
0.0
 11
31.834634
 21
270.034086
 31
0.0
  0
LINE
  5
27B
330
211
100
AcDbEntity
  8
0
  6
Continuous
 62
     2
100
AcDbLine
 10
31.834634
 20
230.034086
 30
0.0
 11
31.834634
 21
270.034086
 31
0.0
  0
INSERT
  5
27C
330
211
100
AcDbEntity
  8
0
  6
Continuous
 62
     2
100
AcDbBlockReference
  2
_CLOSED
 10
31.834634
 20
310.034086
 30
0.0
 41
2.5
 42
2.5
 43
2.5
 50
90.0
  0
INSERT
  5
27D
330
211
100
AcDbEntity
  8
0
  6
Continuous
 62
     2
100
AcDbBlockReference
  2
_CLOSED
 10
31.834634
 20
230.034086
 30
0.0
 41
2.5
 42
2.5
 43
2.5
 50
270.0
  0
ENDBLK
  5
27E
330
211
100
AcDbEntity
  8
0
  6
ByBlock
 62
     0
100
AcDbBlockEnd
  0
BLOCK
  5
27F
330
212
100
AcDbEntity
  8
0
100
AcDbBlockBegin
  2
*D5
 70
     1
 10
0.0
 20
0.0
 30
0.0
  3
*D5
  1
*D5
  0
MTEXT
  5
280
330
212
100
AcDbEntity
  8
0
  6
Continuous
 62
     2
100
AcDbMText
 10
265.971903
 20
119.28733
 30
0.0
 40
3.0
 41
8.152416
 46
0.0
 71
     2
 72
     1
  1
11,8
 11
0.0
 21
1.0
 31
0.0
 73
     1
 44
0.9
  0
LINE
  5
281
330
212
100
AcDbEntity
  8
0
  6
Continuous
 62
     2
100
AcDbLine
 10
260.25459
 20
113.38733
 30
0.0
 11
270.471903
 21
113.38733
 31
0.0
  0
LINE
  5
282
330
212
100
AcDbEntity
  8
0
  6
Continuous
 62
     2
100
AcDbLine
 10
260.472814
 20
125.18733
 30
0.0
 11
270.471903
 21
125.18733
 31
0.0
  0
LINE
  5
283
330
212
100
AcDbEntity
  8
0
  6
Continuous
 62
     2
100
AcDbLine
 10
269.721903
 20
113.38733
 30
0.0
 11
269.721903
 21
112.38733
 31
0.0
  0
LINE
  5
284
330
212
100
AcDbEntity
  8
0
  6
Continuous
 62
     2
100
AcDbLine
 10
269.721903
 20
112.38733
 30
0.0
 11
269.721903
 21
119.28733
 31
0.0
  0
LINE
  5
285
330
212
100
AcDbEntity
  8
0
  6
Continuous
 62
     2
100
AcDbLine
 10
269.721903
 20
125.18733
 30
0.0
 11
269.721903
 21
126.18733
 31
0.0
  0
LINE
  5
286
330
212
100
AcDbEntity
  8
0
  6
Continuous
 62
     2
100
AcDbLine
 10
269.721903
 20
126.18733
 30
0.0
 11
269.721903
 21
119.28733
 31
0.0
  0
INSERT
  5
287
330
212
100
AcDbEntity
  8
0
  6
Continuous
 62
     2
100
AcDbBlockReference
  2
_CLOSED
 10
269.721903
 20
113.38733
 30
0.0
 41
2.5
 42
2.5
 43
2.5
 50
90.0
  0
INSERT
  5
288
330
212
100
AcDbEntity
  8
0
  6
Continuous
 62
     2
100
AcDbBlockReference
  2
_CLOSED
 10
269.721903
 20
125.18733
 30
0.0
 41
2.5
 42
2.5
 43
2.5
 50
270.0
  0
ENDBLK
  5
289
330
212
100
AcDbEntity
  8
0
  6
ByBlock
 62
     0
100
AcDbBlockEnd
  0
BLOCK
  5
219
330
213
100
AcDbEntity
  8
0
100
AcDbBlockBegin
  2
LOGO2_BL0
 70
     0
 10
507.711643
 20
36.783161
 30
0.0
  3
LOGO2_BL0
  1
LOGO2_BL0
  0
LINE
  5
21A
330
213
100
AcDbEntity
  8
0
  6
Continuous
 62
     7
100
AcDbLine
 10
499.454568
 20
39.978652
 30
0.0
 11
498.150227
 21
39.978652
 31
0.0
  0
LINE
  5
21B
330
213
100
AcDbEntity
  8
0
  6
Continuous
 62
     7
100
AcDbLine
 10
498.150227
 20
39.978652
 30
0.0
 11
498.150227
 21
29.519586
 31
0.0
  0
LINE
  5
21C
330
213
100
AcDbEntity
  8
0
  6
Continuous
 62
     7
100
AcDbLine
 10
498.150227
 20
29.519586
 30
0.0
 11
502.631282
 21
29.519586
 31
0.0
  0
LINE
  5
21D
330
213
100
AcDbEntity
  8
0
  6
Continuous
 62
     7
100
AcDbLine
 10
502.631282
 20
29.519586
 30
0.0
 11
502.631282
 21
30.71244
 31
0.0
  0
LINE
  5
21E
330
213
100
AcDbEntity
  8
0
  6
Continuous
 62
     7
100
AcDbLine
 10
502.631282
 20
30.71244
 30
0.0
 11
499.454568
 21
30.71244
 31
0.0
  0
LINE
  5
21F
330
213
100
AcDbEntity
  8
0
  6
Continuous
 62
     7
100
AcDbLine
 10
499.454568
 20
30.71244
 30
0.0
 11
499.454568
 21
39.978652
 31
0.0
  0
LINE
  5
220
330
213
100
AcDbEntity
  8
0
  6
Continuous
 62
     7
100
AcDbLine
 10
514.390895
 20
39.978652
 30
0.0
 11
513.087077
 21
39.978652
 31
0.0
  0
LINE
  5
221
330
213
100
AcDbEntity
  8
0
  6
Continuous
 62
     7
100
AcDbLine
 10
513.087077
 20
39.978652
 30
0.0
 11
513.087077
 21
29.519586
 31
0.0
  0
LINE
  5
222
330
213
100
AcDbEntity
  8
0
  6
Continuous
 62
     7
100
AcDbLine
 10
513.087077
 20
29.519586
 30
0.0
 11
517.568263
 21
29.519586
 31
0.0
  0
LINE
  5
223
330
213
100
AcDbEntity
  8
0
  6
Continuous
 62
     7
100
AcDbLine
 10
517.568263
 20
29.519586
 30
0.0
 11
517.568263
 21
30.71244
 31
0.0
  0
LINE
  5
224
330
213
100
AcDbEntity
  8
0
  6
Continuous
 62
     7
100
AcDbLine
 10
517.568263
 20
30.71244
 30
0.0
 11
514.390895
 21
30.71244
 31
0.0
  0
LINE
  5
225
330
213
100
AcDbEntity
  8
0
  6
Continuous
 62
     7
100
AcDbLine
 10
514.390895
 20
30.71244
 30
0.0
 11
514.390895
 21
39.978652
 31
0.0
  0
LWPOLYLINE
  5
226
330
213
100
AcDbEntity
  8
0
  6
Continuous
 62
     7
100
AcDbPolyline
 90
        2
 70
     0
 43
0.2
 10
496.504622
 20
26.176035
 10
496.504622
 20
24.318972
  0
LWPOLYLINE
  5
227
330
213
100
AcDbEntity
  8
0
  6
Continuous
 62
     7
100
AcDbPolyline
 90
        2
 70
     0
 43
0.2
 10
496.504622
 20
24.318972
 10
497.300338
 20
24.318972
  0
LWPOLYLINE
  5
228
330
213
100
AcDbEntity
  8
0
  6
Continuous
 62
     7
100
AcDbPolyline
 90
        2
 70
     0
 43
0.2
 10
497.300338
 20
24.318972
 10
497.300338
 20
24.530953
  0
LWPOLYLINE
  5
229
330
213
100
AcDbEntity
  8
0
  6
Continuous
 62
     7
100
AcDbPolyline
 90
        2
 70
     0
 43
0.2
 10
497.300338
 20
24.530953
 10
496.736232
 20
24.530953
  0
LWPOLYLINE
  5
22A
330
213
100
AcDbEntity
  8
0
  6
Continuous
 62
     7
100
AcDbPolyline
 90
        2
 70
     0
 43
0.2
 10
496.736232
 20
24.530953
 10
496.736232
 20
26.176035
  0
LWPOLYLINE
  5
22B
330
213
100
AcDbEntity
  8
0
  6
Continuous
 62
     7
100
AcDbPolyline
 90
        2
 70
     0
 43
0.2
 10
496.736232
 20
26.176035
 10
496.504622
 20
26.176035
  0
SPLINE
  5
22C
330
213
100
AcDbEntity
  8
0
  6
Continuous
 62
     7
100
AcDbSpline
 70
     3
 71
     3
 72
    35
 73
    31
 74
     0
 42
0.000000001
 43
0.0000001
 40
0.0
 40
0.0
 40
0.0
 40
0.0
 40
1.0
 40
1.0
 40
1.0
 40
2.0
 40
2.0
 40
2.0
 40
3.0
 40
3.0
 40
3.0
 40
4.0
 40
4.0
 40
4.0
 40
5.0
 40
5.0
 40
5.0
 40
6.0
 40
6.0
 40
6.0
 40
7.0
 40
7.0
 40
7.0
 40
8.0
 40
8.0
 40
8.0
 40
9.0
 40
9.0
 40
9.0
 40
10.0
 40
10.0
 40
10.0
 40
10.0
 10
498.6986315507
 20
25.4715232718
 30
0.0
 10
498.6986315507
 20
25.4715232718
 30
0.0
 10
498.6986315507
 20
24.8094079926
 30
0.0
 10
498.6986315507
 20
24.8094079926
 30
0.0
 10
498.6986315507
 20
24.4943143973
 30
0.0
 10
498.8464952396
 20
24.2797157693
 30
0.0
 10
499.1865817239
 20
24.2797157693
 30
0.0
 10
499.5261447969
 20
24.2797157693
 30
0.0
 10
499.6742701913
 20
24.4943143973
 30
0.0
 10
499.6742701913
 20
24.8094079926
 30
0.0
 10
499.6742701913
 20
24.8094079926
 30
0.0
 10
499.6742701913
 20
25.4715232718
 30
0.0
 10
499.6742701913
 20
25.4715232718
 30
0.0
 10
499.6742701913
 20
25.4715232718
 30
0.0
 10
499.4522129524
 20
25.4715232718
 30
0.0
 10
499.4522129524
 20
25.4715232718
 30
0.0
 10
499.4522129524
 20
25.4715232718
 30
0.0
 10
499.4522129524
 20
24.8345317344
 30
0.0
 10
499.4522129524
 20
24.8345317344
 30
0.0
 10
499.4522129524
 20
24.6487207272
 30
0.0
 10
499.405498495
 20
24.4859398167
 30
0.0
 10
499.1865817239
 20
24.4859398167
 30
0.0
 10
498.9671415414
 20
24.4859398167
 30
0.0
 10
498.920427084
 20
24.6487207272
 30
0.0
 10
498.920427084
 20
24.8345317344
 30
0.0
 10
498.920427084
 20
24.8345317344
 30
0.0
 10
498.920427084
 20
25.4715232718
 30
0.0
 10
498.920427084
 20
25.4715232718
 30
0.0
 10
498.920427084
 20
25.4715232718
 30
0.0
 10
498.6986315507
 20
25.4715232718
 30
0.0
 10
498.6986315507
 20
25.4715232718
 30
0.0
  0
SPLINE
  5
22D
330
213
100
AcDbEntity
  8
0
  6
Continuous
 62
     7
100
AcDbSpline
 70
     3
 71
     3
 72
    35
 73
    31
 74
     0
 42
0.000000001
 43
0.0000001
 40
0.0
 40
0.0
 40
0.0
 40
0.0
 40
1.0
 40
1.0
 40
1.0
 40
2.0
 40
2.0
 40
2.0
 40
3.0
 40
3.0
 40
3.0
 40
4.0
 40
4.0
 40
4.0
 40
5.0
 40
5.0
 40
5.0
 40
6.0
 40
6.0
 40
6.0
 40
7.0
 40
7.0
 40
7.0
 40
8.0
 40
8.0
 40
8.0
 40
9.0
 40
9.0
 40
9.0
 40
10.0
 40
10.0
 40
10.0
 40
10.0
 10
502.0974027485
 20
25.43017378
 30
0.0
 10
502.0089462409
 20
25.4814680862
 30
0.0
 10
501.8954968442
 20
25.5065918281
 30
0.0
 10
501.7918614092
 20
25.5065918281
 30
0.0
 10
501.436988556
 20
25.5065918281
 30
0.0
 10
501.1615433658
 20
25.242792539
 30
0.0
 10
501.1615433658
 20
24.8853026294
 30
0.0
 10
501.1615433658
 20
24.5403745907
 30
0.0
 10
501.439998171
 20
24.2802391806
 30
0.0
 10
501.779561244
 20
24.2802391806
 30
0.0
 10
501.8954968442
 20
24.2802391806
 30
0.0
 10
501.9962535171
 20
24.3022224547
 30
0.0
 10
502.0974027485
 20
24.3561338173
 30
0.0
 10
502.0974027485
 20
24.3561338173
 30
0.0
 10
502.0974027485
 20
24.6387759128
 30
0.0
 10
502.0974027485
 20
24.6387759128
 30
0.0
 10
502.0135260896
 20
24.5456087035
 30
0.0
 10
501.9100215075
 20
24.486463228
 30
0.0
 10
501.7819165948
 20
24.486463228
 30
0.0
 10
501.5482134547
 20
24.486463228
 30
0.0
 10
501.3829463406
 20
24.6586655417
 30
0.0
 10
501.3829463406
 20
24.8952474438
 30
0.0
 10
501.3829463406
 20
25.1072290154
 30
0.0
 10
501.5506996583
 20
25.2993209581
 30
0.0
 10
501.7675227843
 20
25.2993209581
 30
0.0
 10
501.9003383986
 20
25.2993209581
 30
0.0
 10
502.0089462409
 20
25.2454095954
 30
0.0
 10
502.0974027485
 20
25.1443912169
 30
0.0
 10
502.0974027485
 20
25.1443912169
 30
0.0
 10
502.0974027485
 20
25.43017378
 30
0.0
 10
502.0974027485
 20
25.43017378
 30
0.0
  0
SPLINE
  5
22E
330
213
100
AcDbEntity
  8
0
  6
Continuous
 62
     7
100
AcDbSpline
 70
     3
 71
     3
 72
    32
 73
    28
 74
     0
 42
0.000000001
 43
0.0000001
 40
0.0
 40
0.0
 40
0.0
 40
0.0
 40
1.0
 40
1.0
 40
1.0
 40
2.0
 40
2.0
 40
2.0
 40
3.0
 40
3.0
 40
3.0
 40
4.0
 40
4.0
 40
4.0
 40
5.0
 40
5.0
 40
5.0
 40
6.0
 40
6.0
 40
6.0
 40
7.0
 40
7.0
 40
7.0
 40
8.0
 40
8.0
 40
8.0
 40
9.0
 40
9.0
 40
9.0
 40
9.0
 10
504.6292740008
 20
24.8586086537
 30
0.0
 10
504.6292740008
 20
24.8586086537
 30
0.0
 10
504.6292740008
 20
24.8926303874
 30
0.0
 10
504.6292740008
 20
24.8926303874
 30
0.0
 10
504.6292740008
 20
25.2349413697
 30
0.0
 10
504.4564174229
 20
25.5065918281
 30
0.0
 10
504.0897678158
 20
25.5065918281
 30
0.0
 10
503.7181458014
 20
25.5065918281
 30
0.0
 10
503.5284092096
 20
25.2401754825
 30
0.0
 10
503.5284092096
 20
24.8853026294
 30
0.0
 10
503.5284092096
 20
24.5456087035
 30
0.0
 10
503.7424844263
 20
24.2797157693
 30
0.0
 10
504.0946093702
 20
24.2797157693
 30
0.0
 10
504.3186294014
 20
24.2797157693
 30
0.0
 10
504.5207970114
 20
24.3953896639
 30
0.0
 10
504.6292740008
 20
24.5948093646
 30
0.0
 10
504.6292740008
 20
24.5948093646
 30
0.0
 10
504.4416310541
 20
24.7015852673
 30
0.0
 10
504.4416310541
 20
24.7015852673
 30
0.0
 10
504.3581469537
 20
24.562881276
 30
0.0
 10
504.2669425367
 20
24.4770418248
 30
0.0
 10
504.0973572795
 20
24.4770418248
 30
0.0
 10
503.8853757079
 20
24.4770418248
 30
0.0
 10
503.7524292408
 20
24.6618060094
 30
0.0
 10
503.75007389
 20
24.8586086537
 30
0.0
 10
503.75007389
 20
24.8586086537
 30
0.0
 10
504.6292740008
 20
24.8586086537
 30
0.0
 10
504.6292740008
 20
24.8586086537
 30
0.0
  0
SPLINE
  5
22F
330
213
100
AcDbEntity
  8
0
  6
Continuous
 62
     7
100
AcDbSpline
 70
     3
 71
     3
 72
    14
 73
    10
 74
     0
 42
0.000000001
 43
0.0000001
 40
0.0
 40
0.0
 40
0.0
 40
0.0
 40
1.0
 40
1.0
 40
1.0
 40
2.0
 40
2.0
 40
2.0
 40
3.0
 40
3.0
 40
3.0
 40
3.0
 10
503.7621123496
 20
25.0261002658
 30
0.0
 10
503.789722295
 20
25.1909748215
 30
0.0
 10
503.9175655021
 20
25.3139764741
 30
0.0
 10
504.0897678158
 20
25.3139764741
 30
0.0
 10
504.2669425367
 20
25.3139764741
 30
0.0
 10
504.3803919334
 20
25.1983025795
 30
0.0
 10
504.4076093204
 20
25.0261002658
 30
0.0
 10
504.4076093204
 20
25.0261002658
 30
0.0
 10
503.7621123496
 20
25.0261002658
 30
0.0
 10
503.7621123496
 20
25.0261002658
 30
0.0
  0
SPLINE
  5
230
330
213
100
AcDbEntity
  8
0
  6
Continuous
 62
     7
100
AcDbSpline
 70
     3
 71
     3
 72
    20
 73
    16
 74
     0
 42
0.000000001
 43
0.0000001
 40
0.0
 40
0.0
 40
0.0
 40
0.0
 40
1.0
 40
1.0
 40
1.0
 40
2.0
 40
2.0
 40
2.0
 40
3.0
 40
3.0
 40
3.0
 40
4.0
 40
4.0
 40
4.0
 40
5.0
 40
5.0
 40
5.0
 40
5.0
 10
506.653305451
 20
25.2354647809
 30
0.0
 10
506.653305451
 20
25.2354647809
 30
0.0
 10
507.0644450176
 20
24.7329899446
 30
0.0
 10
507.0644450176
 20
24.7329899446
 30
0.0
 10
506.9483785645
 20
24.61731605
 30
0.0
 10
506.810590543
 20
24.4869866393
 30
0.0
 10
506.6386499349
 20
24.4869866393
 30
0.0
 10
506.4612135083
 20
24.4869866393
 30
0.0
 10
506.2937218962
 20
24.6513377837
 30
0.0
 10
506.2937218962
 20
24.828250799
 30
0.0
 10
506.2937218962
 20
25.0062106369
 30
0.0
 10
506.5034789698
 20
25.1323527572
 30
0.0
 10
506.6310604712
 20
25.2202858536
 30
0.0
 10
506.6310604712
 20
25.2202858536
 30
0.0
 10
506.653305451
 20
25.2354647809
 30
0.0
 10
506.653305451
 20
25.2354647809
 30
0.0
  0
SPLINE
  5
231
330
213
100
AcDbEntity
  8
0
  6
Continuous
 62
     7
100
AcDbSpline
 70
     3
 71
     3
 72
    23
 73
    19
 74
     0
 42
0.000000001
 43
0.0000001
 40
0.0
 40
0.0
 40
0.0
 40
0.0
 40
1.0
 40
1.0
 40
1.0
 40
2.0
 40
2.0
 40
2.0
 40
3.0
 40
3.0
 40
3.0
 40
4.0
 40
4.0
 40
4.0
 40
5.0
 40
5.0
 40
5.0
 40
6.0
 40
6.0
 40
6.0
 40
6.0
 10
506.7026369648
 20
25.526481457
 30
0.0
 10
506.7026369648
 20
25.526481457
 30
0.0
 10
506.6410052857
 20
25.6049931502
 30
0.0
 10
506.6410052857
 20
25.6049931502
 30
0.0
 10
506.587093923
 20
25.6735600289
 30
0.0
 10
506.5303037983
 20
25.7426503189
 30
0.0
 10
506.5303037983
 20
25.8363409394
 30
0.0
 10
506.5303037983
 20
25.9551553018
 30
0.0
 10
506.6262189168
 20
26.0326201724
 30
0.0
 10
506.7371821098
 20
26.0326201724
 30
0.0
 10
506.8604454681
 20
26.0326201724
 30
0.0
 10
506.9537435302
 20
25.9614362372
 30
0.0
 10
506.9537435302
 20
25.8311068265
 30
0.0
 10
506.9537435302
 20
25.6960667143
 30
0.0
 10
506.8256386175
 20
25.6196486662
 30
0.0
 10
506.7320788498
 20
25.5458476746
 30
0.0
 10
506.7320788498
 20
25.5458476746
 30
0.0
 10
506.7026369648
 20
25.526481457
 30
0.0
 10
506.7026369648
 20
25.526481457
 30
0.0
  0
SPLINE
  5
232
330
213
100
AcDbEntity
  8
0
  6
Continuous
 62
     7
100
AcDbSpline
 70
     3
 71
     3
 72
    50
 73
    46
 74
     0
 42
0.000000001
 43
0.0000001
 40
0.0
 40
0.0
 40
0.0
 40
0.0
 40
1.0
 40
1.0
 40
1.0
 40
2.0
 40
2.0
 40
2.0
 40
3.0
 40
3.0
 40
3.0
 40
4.0
 40
4.0
 40
4.0
 40
5.0
 40
5.0
 40
5.0
 40
6.0
 40
6.0
 40
6.0
 40
7.0
 40
7.0
 40
7.0
 40
8.0
 40
8.0
 40
8.0
 40
9.0
 40
9.0
 40
9.0
 40
10.0
 40
10.0
 40
10.0
 40
11.0
 40
11.0
 40
11.0
 40
12.0
 40
12.0
 40
12.0
 40
13.0
 40
13.0
 40
13.0
 40
14.0
 40
14.0
 40
14.0
 40
15.0
 40
15.0
 40
15.0
 40
15.0
 10
507.4047932075
 20
24.3194950272
 30
0.0
 10
507.4047932075
 20
24.3194950272
 30
0.0
 10
507.6901832122
 20
24.3194950272
 30
0.0
 10
507.6901832122
 20
24.3194950272
 30
0.0
 10
507.6901832122
 20
24.3194950272
 30
0.0
 10
507.3578170444
 20
24.7303728881
 30
0.0
 10
507.3578170444
 20
24.7303728881
 30
0.0
 10
507.3578170444
 20
24.7303728881
 30
0.0
 10
507.5843232793
 20
24.9962658224
 30
0.0
 10
507.5843232793
 20
24.9962658224
 30
0.0
 10
507.5843232793
 20
24.9962658224
 30
0.0
 10
507.436067032
 20
25.1491019184
 30
0.0
 10
507.436067032
 20
25.1491019184
 30
0.0
 10
507.436067032
 20
25.1491019184
 30
0.0
 10
507.2201598757
 20
24.8978645003
 30
0.0
 10
507.2201598757
 20
24.8978645003
 30
0.0
 10
507.2201598757
 20
24.8978645003
 30
0.0
 10
506.8330972283
 20
25.3657941916
 30
0.0
 10
506.8330972283
 20
25.3657941916
 30
0.0
 10
506.9885503808
 20
25.4798978524
 30
0.0
 10
507.1708283618
 20
25.6196486662
 30
0.0
 10
507.1708283618
 20
25.8290131814
 30
0.0
 10
507.1708283618
 20
26.0729228415
 30
0.0
 10
506.9687916047
 20
26.2163375344
 30
0.0
 10
506.7422853699
 20
26.2163375344
 30
0.0
 10
506.4981140041
 20
26.2163375344
 30
0.0
 10
506.313742378
 20
26.0655950835
 30
0.0
 10
506.313742378
 20
25.8091235524
 30
0.0
 10
506.313742378
 20
25.6515767548
 30
0.0
 10
506.4124054057
 20
25.5139195861
 30
0.0
 10
506.5177419274
 20
25.4029563931
 30
0.0
 10
506.5177419274
 20
25.4029563931
 30
0.0
 10
506.4021988856
 20
25.319210587
 30
0.0
 10
506.4021988856
 20
25.319210587
 30
0.0
 10
506.2245007534
 20
25.1909748215
 30
0.0
 10
506.0771604758
 20
25.0632624672
 30
0.0
 10
506.0771604758
 20
24.8261571538
 30
0.0
 10
506.0771604758
 20
24.5058294457
 30
0.0
 10
506.335725652
 20
24.2797157693
 30
0.0
 10
506.6461085458
 20
24.2797157693
 30
0.0
 10
506.8650253169
 20
24.2797157693
 30
0.0
 10
507.0622205196
 20
24.4048110671
 30
0.0
 10
507.2024947448
 20
24.5707324453
 30
0.0
 10
507.2024947448
 20
24.5707324453
 30
0.0
 10
507.4047932075
 20
24.3194950272
 30
0.0
 10
507.4047932075
 20
24.3194950272
 30
0.0
  0
LWPOLYLINE
  5
233
330
213
100
AcDbEntity
  8
0
  6
Continuous
 62
     7
100
AcDbPolyline
 90
        2
 70
     0
 43
0.2
 10
509.340237
 20
26.176035
 10
509.10889
 20
26.176035
  0
LWPOLYLINE
  5
234
330
213
100
AcDbEntity
  8
0
  6
Continuous
 62
     7
100
AcDbPolyline
 90
        2
 70
     0
 43
0.2
 10
509.10889
 20
26.176035
 10
509.10889
 20
24.318972
  0
LWPOLYLINE
  5
235
330
213
100
AcDbEntity
  8
0
  6
Continuous
 62
     7
100
AcDbPolyline
 90
        2
 70
     0
 43
0.2
 10
509.10889
 20
24.318972
 10
509.904213
 20
24.318972
  0
LWPOLYLINE
  5
236
330
213
100
AcDbEntity
  8
0
  6
Continuous
 62
     7
100
AcDbPolyline
 90
        2
 70
     0
 43
0.2
 10
509.904213
 20
24.318972
 10
509.904213
 20
24.530953
  0
LWPOLYLINE
  5
237
330
213
100
AcDbEntity
  8
0
  6
Continuous
 62
     7
100
AcDbPolyline
 90
        2
 70
     0
 43
0.2
 10
509.904213
 20
24.530953
 10
509.340237
 20
24.530953
  0
LWPOLYLINE
  5
238
330
213
100
AcDbEntity
  8
0
  6
Continuous
 62
     7
100
AcDbPolyline
 90
        2
 70
     0
 43
0.2
 10
509.340237
 20
24.530953
 10
509.340237
 20
26.176035
  0
LWPOLYLINE
  5
239
330
213
100
AcDbEntity
  8
0
  6
Continuous
 62
     7
100
AcDbPolyline
 90
        2
 70
     0
 43
0.2
 10
511.583316
 20
25.471523
 10
511.362175
 20
25.471523
  0
LWPOLYLINE
  5
23A
330
213
100
AcDbEntity
  8
0
  6
Continuous
 62
     7
100
AcDbPolyline
 90
        2
 70
     0
 43
0.2
 10
511.362175
 20
25.471523
 10
511.362175
 20
24.319495
  0
LWPOLYLINE
  5
23B
330
213
100
AcDbEntity
  8
0
  6
Continuous
 62
     7
100
AcDbPolyline
 90
        2
 70
     0
 43
0.2
 10
511.362175
 20
24.319495
 10
511.583316
 20
24.319495
  0
LWPOLYLINE
  5
23C
330
213
100
AcDbEntity
  8
0
  6
Continuous
 62
     7
100
AcDbPolyline
 90
        2
 70
     0
 43
0.2
 10
511.583316
 20
24.319495
 10
511.583316
 20
25.471523
  0
LWPOLYLINE
  5
23D
330
213
100
AcDbEntity
  8
0
  6
Continuous
 62
     7
100
AcDbPolyline
 90
        2
 70
     1
 43
0.2
 10
511.320293
 20
26.001477
 42
1.0
 10
511.62546
 20
26.001477
 42
1.0
  0
SPLINE
  5
23E
330
213
100
AcDbEntity
  8
0
  6
Continuous
 62
     7
100
AcDbSpline
 70
     3
 71
     3
 72
    17
 73
    13
 74
     0
 42
0.000000001
 43
0.0000001
 40
0.0
 40
0.0
 40
0.0
 40
0.0
 40
1.0
 40
1.0
 40
1.0
 40
2.0
 40
2.0
 40
2.0
 40
3.0
 40
3.0
 40
3.0
 40
4.0
 40
4.0
 40
4.0
 40
4.0
 10
513.713600313
 20
24.4770418248
 30
0.0
 10
513.4796354674
 20
24.4770418248
 30
0.0
 10
513.3493060567
 20
24.6790785819
 30
0.0
 10
513.3493060567
 20
24.8952474438
 30
0.0
 10
513.3493060567
 20
25.1098460719
 30
0.0
 10
513.4851312859
 20
25.3087423612
 30
0.0
 10
513.713600313
 20
25.3087423612
 30
0.0
 10
513.9530609772
 20
25.3087423612
 30
0.0
 10
514.0886245008
 20
25.1197908863
 30
0.0
 10
514.0886245008
 20
24.8952474438
 30
0.0
 10
514.0886245008
 20
24.6691337675
 30
0.0
 10
513.955416328
 20
24.4770418248
 30
0.0
 10
513.713600313
 20
24.4770418248
 30
0.0
  0
SPLINE
  5
23F
330
213
100
AcDbEntity
  8
0
  6
Continuous
 62
     7
100
AcDbSpline
 70
     3
 71
     3
 72
    50
 73
    46
 74
     0
 42
0.000000001
 43
0.0000001
 40
0.0
 40
0.0
 40
0.0
 40
0.0
 40
1.0
 40
1.0
 40
1.0
 40
2.0
 40
2.0
 40
2.0
 40
3.0
 40
3.0
 40
3.0
 40
4.0
 40
4.0
 40
4.0
 40
5.0
 40
5.0
 40
5.0
 40
6.0
 40
6.0
 40
6.0
 40
7.0
 40
7.0
 40
7.0
 40
8.0
 40
8.0
 40
8.0
 40
9.0
 40
9.0
 40
9.0
 40
10.0
 40
10.0
 40
10.0
 40
11.0
 40
11.0
 40
11.0
 40
12.0
 40
12.0
 40
12.0
 40
13.0
 40
13.0
 40
13.0
 40
14.0
 40
14.0
 40
14.0
 40
15.0
 40
15.0
 40
15.0
 40
15.0
 10
514.2977273103
 20
25.4720466831
 30
0.0
 10
514.2977273103
 20
25.4720466831
 30
0.0
 10
514.0760626299
 20
25.4720466831
 30
0.0
 10
514.0760626299
 20
25.4720466831
 30
0.0
 10
514.0760626299
 20
25.4720466831
 30
0.0
 10
514.0760626299
 20
25.2747206275
 30
0.0
 10
514.0760626299
 20
25.2747206275
 30
0.0
 10
514.0760626299
 20
25.2747206275
 30
0.0
 10
514.0713519283
 20
25.2747206275
 30
0.0
 10
514.0713519283
 20
25.2747206275
 30
0.0
 10
513.9800166586
 20
25.4176119091
 30
0.0
 10
513.8420977842
 20
25.5060684168
 30
0.0
 10
513.6693720592
 20
25.5060684168
 30
0.0
 10
513.3370058914
 20
25.5060684168
 30
0.0
 10
513.1279030819
 20
25.2181922084
 30
0.0
 10
513.1279030819
 20
24.9025752019
 30
0.0
 10
513.1279030819
 20
24.5728260905
 30
0.0
 10
513.3249674318
 20
24.2797157693
 30
0.0
 10
513.679840285
 20
24.2797157693
 30
0.0
 10
513.8420977842
 20
24.2797157693
 30
0.0
 10
513.9821103037
 20
24.3681722769
 30
0.0
 10
514.0713519283
 20
24.4990250989
 30
0.0
 10
514.0713519283
 20
24.4990250989
 30
0.0
 10
514.0760626299
 20
24.4990250989
 30
0.0
 10
514.0760626299
 20
24.4990250989
 30
0.0
 10
514.0760626299
 20
24.4990250989
 30
0.0
 10
514.0760626299
 20
24.2797157693
 30
0.0
 10
514.0760626299
 20
24.2797157693
 30
0.0
 10
514.0760626299
 20
24.0431338672
 30
0.0
 10
514.0195342108
 20
23.8562760374
 30
0.0
 10
513.7463135185
 20
23.8562760374
 30
0.0
 10
513.5440150558
 20
23.8562760374
 30
0.0
 10
513.4013854798
 20
23.9745669885
 30
0.0
 10
513.4013854798
 20
24.1807910359
 30
0.0
 10
513.4013854798
 20
24.1807910359
 30
0.0
 10
513.1797207994
 20
24.1807910359
 30
0.0
 10
513.1797207994
 20
24.1807910359
 30
0.0
 10
513.1846932066
 20
23.8562760374
 30
0.0
 10
513.4157792902
 20
23.6594733932
 30
0.0
 10
513.7361069984
 20
23.6594733932
 30
0.0
 10
514.1841470608
 20
23.6594733932
 30
0.0
 10
514.2977273103
 20
23.9447325451
 30
0.0
 10
514.2977273103
 20
24.3414783013
 30
0.0
 10
514.2977273103
 20
24.3414783013
 30
0.0
 10
514.2977273103
 20
25.4720466831
 30
0.0
 10
514.2977273103
 20
25.4720466831
 30
0.0
  0
SPLINE
  5
240
330
213
100
AcDbEntity
  8
0
  6
Continuous
 62
     7
100
AcDbSpline
 70
     3
 71
     3
 72
    44
 73
    40
 74
     0
 42
0.000000001
 43
0.0000001
 40
0.0
 40
0.0
 40
0.0
 40
0.0
 40
1.0
 40
1.0
 40
1.0
 40
2.0
 40
2.0
 40
2.0
 40
3.0
 40
3.0
 40
3.0
 40
4.0
 40
4.0
 40
4.0
 40
5.0
 40
5.0
 40
5.0
 40
6.0
 40
6.0
 40
6.0
 40
7.0
 40
7.0
 40
7.0
 40
8.0
 40
8.0
 40
8.0
 40
9.0
 40
9.0
 40
9.0
 40
10.0
 40
10.0
 40
10.0
 40
11.0
 40
11.0
 40
11.0
 40
12.0
 40
12.0
 40
12.0
 40
13.0
 40
13.0
 40
13.0
 40
13.0
 10
515.8666526457
 20
26.4571067268
 30
0.0
 10
515.8666526457
 20
26.4571067268
 30
0.0
 10
515.8666526457
 20
24.3189716159
 30
0.0
 10
515.8666526457
 20
24.3189716159
 30
0.0
 10
515.8666526457
 20
24.3189716159
 30
0.0
 10
516.0880556205
 20
24.3189716159
 30
0.0
 10
516.0880556205
 20
24.3189716159
 30
0.0
 10
516.0880556205
 20
24.3189716159
 30
0.0
 10
516.0880556205
 20
24.8486638392
 30
0.0
 10
516.0880556205
 20
24.8486638392
 30
0.0
 10
516.0880556205
 20
25.0585517656
 30
0.0
 10
516.0880556205
 20
25.3092657725
 30
0.0
 10
516.3733147724
 20
25.3092657725
 30
0.0
 10
516.6002135656
 20
25.3092657725
 30
0.0
 10
516.627169247
 20
25.1763193054
 30
0.0
 10
516.627169247
 20
24.9800400725
 30
0.0
 10
516.627169247
 20
24.9800400725
 30
0.0
 10
516.627169247
 20
24.3189716159
 30
0.0
 10
516.627169247
 20
24.3189716159
 30
0.0
 10
516.627169247
 20
24.3189716159
 30
0.0
 10
516.849095633
 20
24.3189716159
 30
0.0
 10
516.849095633
 20
24.3189716159
 30
0.0
 10
516.849095633
 20
24.3189716159
 30
0.0
 10
516.849095633
 20
25.0062106369
 30
0.0
 10
516.849095633
 20
25.0062106369
 30
0.0
 10
516.849095633
 20
25.2867590872
 30
0.0
 10
516.7650881213
 20
25.5065918281
 30
0.0
 10
516.4400497116
 20
25.5065918281
 30
0.0
 10
516.3002988977
 20
25.5065918281
 30
0.0
 10
516.1621183177
 20
25.4401185945
 30
0.0
 10
516.0927663221
 20
25.3171169419
 30
0.0
 10
516.0927663221
 20
25.3171169419
 30
0.0
 10
516.0880556205
 20
25.3171169419
 30
0.0
 10
516.0880556205
 20
25.3171169419
 30
0.0
 10
516.0880556205
 20
25.3171169419
 30
0.0
 10
516.0880556205
 20
26.4571067268
 30
0.0
 10
516.0880556205
 20
26.4571067268
 30
0.0
 10
516.0880556205
 20
26.4571067268
 30
0.0
 10
515.8666526457
 20
26.4571067268
 30
0.0
 10
515.8666526457
 20
26.4571067268
 30
0.0
  0
LWPOLYLINE
  5
241
330
213
100
AcDbEntity
  8
0
  6
Continuous
 62
     7
100
AcDbPolyline
 90
        2
 70
     0
 43
0.2
 10
518.688886
 20
25.264776
 10
518.905317
 20
25.264776
  0
LWPOLYLINE
  5
242
330
213
100
AcDbEntity
  8
0
  6
Continuous
 62
     7
100
AcDbPolyline
 90
        2
 70
     0
 43
0.2
 10
518.905317
 20
25.264776
 10
518.905317
 20
25.471523
  0
LWPOLYLINE
  5
243
330
213
100
AcDbEntity
  8
0
  6
Continuous
 62
     7
100
AcDbPolyline
 90
        2
 70
     0
 43
0.2
 10
518.905317
 20
25.471523
 10
518.688886
 20
25.471523
  0
LWPOLYLINE
  5
244
330
213
100
AcDbEntity
  8
0
  6
Continuous
 62
     7
100
AcDbPolyline
 90
        2
 70
     0
 43
0.2
 10
518.688886
 20
25.471523
 10
518.688886
 20
25.912236
  0
LWPOLYLINE
  5
245
330
213
100
AcDbEntity
  8
0
  6
Continuous
 62
     7
100
AcDbPolyline
 90
        2
 70
     0
 43
0.2
 10
518.688886
 20
25.912236
 10
518.467222
 20
25.912236
  0
LWPOLYLINE
  5
246
330
213
100
AcDbEntity
  8
0
  6
Continuous
 62
     7
100
AcDbPolyline
 90
        2
 70
     0
 43
0.2
 10
518.467222
 20
25.912236
 10
518.467222
 20
25.471523
  0
LWPOLYLINE
  5
247
330
213
100
AcDbEntity
  8
0
  6
Continuous
 62
     7
100
AcDbPolyline
 90
        2
 70
     0
 43
0.2
 10
518.467222
 20
25.471523
 10
518.346575
 20
25.471523
  0
LWPOLYLINE
  5
248
330
213
100
AcDbEntity
  8
0
  6
Continuous
 62
     7
100
AcDbPolyline
 90
        2
 70
     0
 43
0.2
 10
518.346575
 20
25.471523
 10
518.346575
 20
25.264776
  0
LWPOLYLINE
  5
249
330
213
100
AcDbEntity
  8
0
  6
Continuous
 62
     7
100
AcDbPolyline
 90
        2
 70
     0
 43
0.2
 10
518.346575
 20
25.264776
 10
518.467222
 20
25.264776
  0
LWPOLYLINE
  5
24A
330
213
100
AcDbEntity
  8
0
  6
Continuous
 62
     7
100
AcDbPolyline
 90
        2
 70
     0
 43
0.2
 10
518.467222
 20
25.264776
 10
518.467222
 20
24.318972
  0
LWPOLYLINE
  5
24B
330
213
100
AcDbEntity
  8
0
  6
Continuous
 62
     7
100
AcDbPolyline
 90
        2
 70
     0
 43
0.2
 10
518.467222
 20
24.318972
 10
518.688886
 20
24.318972
  0
LWPOLYLINE
  5
24C
330
213
100
AcDbEntity
  8
0
  6
Continuous
 62
     7
100
AcDbPolyline
 90
        2
 70
     0
 43
0.2
 10
518.688886
 20
24.318972
 10
518.688886
 20
25.264776
  0
SPLINE
  5
24D
330
213
100
AcDbEntity
  8
0
  6
Continuous
 62
     7
100
AcDbSpline
 70
     3
 71
     3
 72
    20
 73
    16
 74
     0
 42
0.000000001
 43
0.0000001
 40
0.0
 40
0.0
 40
0.0
 40
0.0
 40
1.0
 40
1.0
 40
1.0
 40
2.0
 40
2.0
 40
2.0
 40
3.0
 40
3.0
 40
3.0
 40
4.0
 40
4.0
 40
4.0
 40
5.0
 40
5.0
 40
5.0
 40
5.0
 10
506.4708966171
 20
34.6798980593
 30
0.0
 10
506.4708966171
 20
34.6798980593
 30
0.0
 10
508.7872532716
 20
31.850336637
 30
0.0
 10
508.7872532716
 20
31.850336637
 30
0.0
 10
508.1356062182
 20
31.1981661724
 30
0.0
 10
507.3587330142
 20
30.4622499016
 30
0.0
 10
506.3875433695
 20
30.4622499016
 30
0.0
 10
505.3890054851
 20
30.4622499016
 30
0.0
 10
504.4456874915
 20
31.3918283489
 30
0.0
 10
504.4456874915
 20
32.3910204974
 30
0.0
 10
504.4456874915
 20
33.390212646
 30
0.0
 10
505.6245405647
 20
34.0968178846
 30
0.0
 10
506.346063025
 20
34.5966756645
 30
0.0
 10
506.346063025
 20
34.5966756645
 30
0.0
 10
506.4708966171
 20
34.6798980593
 30
0.0
 10
506.4708966171
 20
34.6798980593
 30
0.0
  0
SPLINE
  5
24E
330
213
100
AcDbEntity
  8
0
  6
Continuous
 62
     7
100
AcDbSpline
 70
     3
 71
     3
 72
    23
 73
    19
 74
     0
 42
0.000000001
 43
0.0000001
 40
0.0
 40
0.0
 40
0.0
 40
0.0
 40
1.0
 40
1.0
 40
1.0
 40
2.0
 40
2.0
 40
2.0
 40
3.0
 40
3.0
 40
3.0
 40
4.0
 40
4.0
 40
4.0
 40
5.0
 40
5.0
 40
5.0
 40
6.0
 40
6.0
 40
6.0
 40
6.0
 10
506.7483045997
 20
36.317651979
 30
0.0
 10
506.7483045997
 20
36.317651979
 30
0.0
 10
506.4018063271
 20
36.7609813398
 30
0.0
 10
506.4018063271
 20
36.7609813398
 30
0.0
 10
506.0960032822
 20
37.1490908098
 30
0.0
 10
505.7771149551
 20
37.5375928382
 30
0.0
 10
505.7771149551
 20
38.0645371523
 30
0.0
 10
505.7771149551
 20
38.7307088689
 30
0.0
 10
506.3184530795
 20
39.1744307882
 30
0.0
 10
506.9423593347
 20
39.1744307882
 30
0.0
 10
507.6361409968
 20
39.1744307882
 30
0.0
 10
508.1633470165
 20
38.7721892135
 30
0.0
 10
508.1633470165
 20
38.0371889125
 30
0.0
 10
508.1633470165
 20
37.273924402
 30
0.0
 10
507.4420862618
 20
36.8438111761
 30
0.0
 10
506.9150110949
 20
36.4280917608
 30
0.0
 10
506.9150110949
 20
36.4280917608
 30
0.0
 10
506.7483045997
 20
36.317651979
 30
0.0
 10
506.7483045997
 20
36.317651979
 30
0.0
  0
SPLINE
  5
24F
330
213
100
AcDbEntity
  8
0
  6
Continuous
 62
     7
100
AcDbSpline
 70
     3
 71
     3
 72
    50
 73
    46
 74
     0
 42
0.000000001
 43
0.0000001
 40
0.0
 40
0.0
 40
0.0
 40
0.0
 40
1.0
 40
1.0
 40
1.0
 40
2.0
 40
2.0
 40
2.0
 40
3.0
 40
3.0
 40
3.0
 40
4.0
 40
4.0
 40
4.0
 40
5.0
 40
5.0
 40
5.0
 40
6.0
 40
6.0
 40
6.0
 40
7.0
 40
7.0
 40
7.0
 40
8.0
 40
8.0
 40
8.0
 40
9.0
 40
9.0
 40
9.0
 40
10.0
 40
10.0
 40
10.0
 40
11.0
 40
11.0
 40
11.0
 40
12.0
 40
12.0
 40
12.0
 40
13.0
 40
13.0
 40
13.0
 40
14.0
 40
14.0
 40
14.0
 40
15.0
 40
15.0
 40
15.0
 40
15.0
 10
510.7018917626
 20
29.5190627609
 30
0.0
 10
510.7018917626
 20
29.5190627609
 30
0.0
 10
512.3111197672
 20
29.5190627609
 30
0.0
 10
512.3111197672
 20
29.5190627609
 30
0.0
 10
512.3111197672
 20
29.5190627609
 30
0.0
 10
510.4380924736
 20
31.8362045323
 30
0.0
 10
510.4380924736
 20
31.8362045323
 30
0.0
 10
510.4380924736
 20
31.8362045323
 30
0.0
 10
511.714430899
 20
33.3336842269
 30
0.0
 10
511.714430899
 20
33.3336842269
 30
0.0
 10
511.714430899
 20
33.3336842269
 30
0.0
 10
510.8822069513
 20
34.1946957954
 30
0.0
 10
510.8822069513
 20
34.1946957954
 30
0.0
 10
510.8822069513
 20
34.1946957954
 30
0.0
 10
509.661611828
 20
32.779391673
 30
0.0
 10
509.661611828
 20
32.779391673
 30
0.0
 10
509.661611828
 20
32.779391673
 30
0.0
 10
507.4836974592
 20
35.4147675074
 30
0.0
 10
507.4836974592
 20
35.4147675074
 30
0.0
 10
508.3572708986
 20
36.0528058674
 30
0.0
 10
509.3839421398
 20
36.8438111761
 30
0.0
 10
509.3839421398
 20
38.0226642493
 30
0.0
 10
509.3839421398
 20
39.3963571743
 30
0.0
 10
508.246046
 20
40.2008403237
 30
0.0
 10
506.9707543971
 20
40.2008403237
 30
0.0
 10
505.5973231777
 20
40.2008403237
 30
0.0
 10
504.5563889789
 20
39.3546151241
 30
0.0
 10
504.5563889789
 20
37.9119627619
 30
0.0
 10
504.5563889789
 20
37.0243880705
 30
0.0
 10
505.1117283554
 20
36.2475148664
 30
0.0
 10
505.7078938122
 20
35.6230852
 30
0.0
 10
505.7078938122
 20
35.6230852
 30
0.0
 10
505.0559850532
 20
35.1514916296
 30
0.0
 10
505.0559850532
 20
35.1514916296
 30
0.0
 10
504.0574471688
 20
34.430230875
 30
0.0
 10
503.2245689569
 20
33.7089701203
 30
0.0
 10
503.2245689569
 20
32.3774118039
 30
0.0
 10
503.2245689569
 20
30.5737365059
 30
0.0
 10
504.6816151296
 20
29.2971363748
 30
0.0
 10
506.4291545669
 20
29.2971363748
 30
0.0
 10
507.6640126478
 20
29.2971363748
 30
0.0
 10
508.7733828725
 20
30.0053118473
 30
0.0
 10
509.5642573285
 20
30.933843472
 30
0.0
 10
509.5642573285
 20
30.933843472
 30
0.0
 10
510.7018917626
 20
29.5190627609
 30
0.0
 10
510.7018917626
 20
29.5190627609
 30
0.0
  0
LINE
  5
250
330
213
100
AcDbEntity
  8
0
  6
Continuous
 62
     7
100
AcDbLine
 10
496.504753
 20
27.492938
 30
0.0
 11
518.918664
 21
27.492938
 31
0.0
  0
LINE
  5
251
330
213
100
AcDbEntity
  8
0
  6
Continuous
 62
     7
100
AcDbLine
 10
518.918664
 20
27.492938
 30
0.0
 11
518.918664
 21
49.906848
 31
0.0
  0
LINE
  5
252
330
213
100
AcDbEntity
  8
0
  6
Continuous
 62
     7
100
AcDbLine
 10
518.918664
 20
49.906848
 30
0.0
 11
496.504753
 21
49.906848
 31
0.0
  0
LINE
  5
253
330
213
100
AcDbEntity
  8
0
  6
Continuous
 62
     7
100
AcDbLine
 10
496.504753
 20
49.906848
 30
0.0
 11
496.504753
 21
27.492938
 31
0.0
  0
ENDBLK
  5
254
330
213
100
AcDbEntity
  8
0
  6
ByBlock
 62
     0
100
AcDbBlockEnd
  0
BLOCK
  5
28A
330
214
100
AcDbEntity
  8
0
100
AcDbBlockBegin
  2
*T7
 70
     1
 10
0.0
 20
0.0
 30
0.0
  3
*T7
  1
*T7
  0
LINE
  5
28B
330
214
100
AcDbEntity
  8
0
  6
Continuous
 62
     2
100
AcDbLine
 10
0.0
 20
0.0
 30
0.0
 11
90.0
 21
0.0
 31
0.0
  0
LINE
  5
28C
330
214
100
AcDbEntity
  8
0
  6
Continuous
 62
     2
100
AcDbLine
 10
0.0
 20
0.0
 30
0.0
 11
0.0
 21
-40.0
 31
0.0
  0
LINE
  5
28D
330
214
100
AcDbEntity
  8
0
  6
Continuous
 62
     2
100
AcDbLine
 10
30.0
 20
-6.0
 30
0.0
 11
90.0
 21
-6.0
 31
0.0
  0
LINE
  5
28E
330
214
100
AcDbEntity
  8
0
  6
Continuous
 62
     2
100
AcDbLine
 10
30.0
 20
-12.0
 30
0.0
 11
90.0
 21
-12.0
 31
0.0
  0
LINE
  5
28F
330
214
100
AcDbEntity
  8
0
  6
Continuous
 62
     2
100
AcDbLine
 10
30.0
 20
-22.0
 30
0.0
 11
90.0
 21
-22.0
 31
0.0
  0
LINE
  5
290
330
214
100
AcDbEntity
  8
0
  6
Continuous
 62
     2
100
AcDbLine
 10
0.0
 20
-27.0
 30
0.0
 11
90.0
 21
-27.0
 31
0.0
  0
LINE
  5
291
330
214
100
AcDbEntity
  8
0
  6
Continuous
 62
     2
100
AcDbLine
 10
0.0
 20
-40.0
 30
0.0
 11
90.0
 21
-40.0
 31
0.0
  0
LINE
  5
292
330
214
100
AcDbEntity
  8
0
  6
Continuous
 62
     2
100
AcDbLine
 10
30.0
 20
0.0
 30
0.0
 11
30.0
 21
-27.0
 31
0.0
  0
LINE
  5
293
330
214
100
AcDbEntity
  8
0
  6
Continuous
 62
     2
100
AcDbLine
 10
70.0
 20
0.0
 30
0.0
 11
70.0
 21
-12.0
 31
0.0
  0
LINE
  5
294
330
214
100
AcDbEntity
  8
0
  6
Continuous
 62
     2
100
AcDbLine
 10
90.0
 20
0.0
 30
0.0
 11
90.0
 21
-40.0
 31
0.0
  0
MTEXT
  5
295
330
214
100
AcDbEntity
  8
9_SOLID
  6
Continuous
 62
     2
100
AcDbMText
 10
31.4875
 20
-1.5
 30
0.0
 40
3.0
 41
48.571429
 46
0.0
 71
     1
 72
     1
  1
A056_C_002
  7
TEXTSTYLE_4
 73
     1
 44
0.9
  0
MTEXT
  5
296
330
214
100
AcDbEntity
  8
9_SOLID
  6
Continuous
 62
     2
100
AcDbMText
 10
71.4875
 20
-1.25
 30
0.0
 40
3.5
 41
30.333333
 46
0.0
 71
     1
 72
     1
  1
Rev:00
  7
TEXTSTYLE_4
 73
     1
 44
0.9
  0
MTEXT
  5
297
330
214
100
AcDbEntity
  8
9_SOLID
  6
Continuous
 62
     2
100
AcDbMText
 10
31.4875
 20
-7.75
 30
0.0
 40
3.5
 41
36.5
 46
0.0
 71
     1
 72
     1
  1
Scale:1:1
  7
TEXTSTYLE_4
 73
     1
 44
0.9
  0
MTEXT
  5
298
330
214
100
AcDbEntity
  8
9_SOLID
  6
Continuous
 62
     2
100
AcDbMText
 10
71.4875
 20
-7.25
 30
0.0
 40
3.5
 41
11.5
 46
0.0
 71
     1
 72
     1
  1
A2
  7
TEXTSTYLE_4
 73
     1
 44
0.9
  0
MTEXT
  5
299
330
214
100
AcDbEntity
  8
9_SOLID
  6
Continuous
 62
     2
100
AcDbMText
 10
31.4875
 20
-15.675
 30
0.0
 40
2.65
 41
114.707143
 46
0.0
 71
     1
 72
     1
  1
FRONT. PIATTO QUADRO COMBO4
  7
TEXTSTYLE_4
 73
     1
 44
0.9
  0
MTEXT
  5
29A
330
214
100
AcDbEntity
  8
9_SOLID
  6
Continuous
 62
     2
100
AcDbMText
 10
31.4875
 20
-23.25
 30
0.0
 40
2.5
 41
45.47619
 46
0.0
 71
     1
 72
     1
  1
DATE:12.12.19
  7
TEXTSTYLE_4
 73
     1
 44
0.9
  0
MTEXT
  5
29B
330
214
100
AcDbEntity
  8
9_SOLID
  6
Continuous
 62
     2
100
AcDbMText
 10
1.4875
 20
-27.3125
 30
0.0
 40
2.25
 41
178.607143
 46
0.0
 71
     1
 72
     1
  1
Any integral or partial reproductions are prohibited \Pwithout prior authorisation of L & L Luce & Light s.r.l., \Pin accordance with the law in force. \PAll rights reserved.
  7
TEXTSTYLE_4
 73
     1
 44
0.9
  0
ENDBLK
  5
29C
330
214
100
AcDbEntity
  8
0
  6
ByBlock
 62
     0
100
AcDbBlockEnd
  0
ENDSEC
  0
SECTION
  2
ENTITIES
  0
LINE
  5
29D
330
20B
100
AcDbEntity
  8
0
  6
Continuous
 62
     7
100
AcDbLine
 10
0.0
 20
0.0
 30
0.0
 11
594.0
 21
0.0
 31
0.0
  0
LINE
  5
29E
330
20B
100
AcDbEntity
  8
0
  6
Continuous
 62
     7
100
AcDbLine
 10
594.0
 20
0.0
 30
0.0
 11
594.0
 21
420.0
 31
0.0
  0
LINE
  5
29F
330
20B
100
AcDbEntity
  8
0
  6
Continuous
 62
     7
100
AcDbLine
 10
0.0
 20
420.0
 30
0.0
 11
594.0
 21
420.0
 31
0.0
  0
LINE
  5
2A0
330
20B
100
AcDbEntity
  8
0
  6
Continuous
 62
     7
100
AcDbLine
 10
0.0
 20
0.0
 30
0.0
 11
0.0
 21
420.0
 31
0.0
  0
LWPOLYLINE
  5
2A1
330
20B
100
AcDbEntity
  8
0
  6
Continuous
 62
     7
100
AcDbPolyline
 90
        2
 70
     0
 43
0.5
 10
584.0
 20
10.031844
 10
584.0
 20
410.0
  0
LWPOLYLINE
  5
2A2
330
20B
100
AcDbEntity
  8
0
  6
Continuous
 62
     7
100
AcDbPolyline
 90
        2
 70
     0
 43
0.5
 10
10.053631
 20
10.031844
 10
10.053631
 20
410.0
  0
LWPOLYLINE
  5
2A3
330
20B
100
AcDbEntity
  8
0
  6
Continuous
 62
     7
100
AcDbPolyline
 90
        2
 70
     0
 43
0.5
 10
10.053631
 20
10.031844
 10
584.0
 20
10.031844
  0
LWPOLYLINE
  5
2A4
330
20B
100
AcDbEntity
  8
0
  6
Continuous
 62
     7
100
AcDbPolyline
 90
        2
 70
     0
 43
0.1
 10
297.0
 20
10.0
 10
297.0
 20
0.0
  0
LWPOLYLINE
  5
2A5
330
20B
100
AcDbEntity
  8
0
  6
Continuous
 62
     7
100
AcDbPolyline
 90
        2
 70
     0
 43
0.1
 10
297.0
 20
410.0
 10
297.0
 20
420.0
  0
LWPOLYLINE
  5
2A6
330
20B
100
AcDbEntity
  8
0
  6
Continuous
 62
     7
100
AcDbPolyline
 90
        2
 70
     0
 43
0.1
 10
584.0
 20
210.0
 10
594.0
 20
210.0
  0
LWPOLYLINE
  5
2A7
330
20B
100
AcDbEntity
  8
0
  6
Continuous
 62
     7
100
AcDbPolyline
 90
        2
 70
     0
 43
0.1
 10
10.0
 20
210.0
 10
0.0
 20
210.0
  0
LWPOLYLINE
  5
2A8
330
20B
100
AcDbEntity
  8
0
  6
Continuous
 62
     7
100
AcDbPolyline
 90
        2
 70
     0
 43
0.5
 10
10.053631
 20
410.0
 10
584.0
 20
410.0
  0
LWPOLYLINE
  5
2A9
330
20B
100
AcDbEntity
  8
0
  6
Continuous
 62
     7
100
AcDbPolyline
 90
        2
 70
     0
 43
0.1
 10
0.0
 20
413.0
 10
594.0
 20
413.0
  0
LWPOLYLINE
  5
2AA
330
20B
100
AcDbEntity
  8
0
  6
Continuous
 62
     7
100
AcDbPolyline
 90
        2
 70
     0
 43
0.1
 10
7.053631
 20
0.0
 10
7.053631
 20
420.0
  0
LWPOLYLINE
  5
2AB
330
20B
100
AcDbEntity
  8
0
  6
Continuous
 62
     7
100
AcDbPolyline
 90
        2
 70
     0
 43
0.1
 10
587.0
 20
0.0
 10
587.0
 20
420.0
  0
LWPOLYLINE
  5
2AC
330
20B
100
AcDbEntity
  8
0
  6
Continuous
 62
     7
100
AcDbPolyline
 90
        2
 70
     0
 43
0.1
 10
0.0
 20
7.031844
 10
594.0
 20
7.031844
  0
LINE
  5
2AD
330
20B
100
AcDbEntity
  8
0
  6
Continuous
 62
     7
100
AcDbLine
 10
384.0
 20
0.0
 30
0.0
 11
384.0
 21
10.0
 31
0.0
  0
LINE
  5
2AE
330
20B
100
AcDbEntity
  8
0
  6
Continuous
 62
     7
100
AcDbLine
 10
487.0
 20
7.0
 30
0.0
 11
487.0
 21
0.0
 31
0.0
  0
LINE
  5
2AF
330
20B
100
AcDbEntity
  8
0
  6
Continuous
 62
     7
100
AcDbLine
 10
287.0
 20
7.0
 30
0.0
 11
287.0
 21
0.0
 31
0.0
  0
LINE
  5
2B0
330
20B
100
AcDbEntity
  8
0
  6
Continuous
 62
     7
100
AcDbLine
 10
187.0
 20
7.0
 30
0.0
 11
187.0
 21
0.0
 31
0.0
  0
LINE
  5
2B1
330
20B
100
AcDbEntity
  8
0
  6
Continuous
 62
     7
100
AcDbLine
 10
87.0
 20
7.0
 30
0.0
 11
87.0
 21
0.0
 31
0.0
  0
LINE
  5
2B2
330
20B
100
AcDbEntity
  8
0
  6
Continuous
 62
     7
100
AcDbLine
 10
173.5
 20
420.0
 30
0.0
 11
173.5
 21
410.0
 31
0.0
  0
LINE
  5
2B3
330
20B
100
AcDbEntity
  8
0
  6
Continuous
 62
     7
100
AcDbLine
 10
384.0
 20
410.0
 30
0.0
 11
384.0
 21
420.0
 31
0.0
  0
LINE
  5
2B4
330
20B
100
AcDbEntity
  8
0
  6
Continuous
 62
     7
100
AcDbLine
 10
487.0
 20
420.0
 30
0.0
 11
487.0
 21
413.0
 31
0.0
  0
LINE
  5
2B5
330
20B
100
AcDbEntity
  8
0
  6
Continuous
 62
     7
100
AcDbLine
 10
287.0
 20
420.0
 30
0.0
 11
287.0
 21
413.0
 31
0.0
  0
LINE
  5
2B6
330
20B
100
AcDbEntity
  8
0
  6
Continuous
 62
     7
100
AcDbLine
 10
187.0
 20
420.0
 30
0.0
 11
187.0
 21
413.0
 31
0.0
  0
LINE
  5
2B7
330
20B
100
AcDbEntity
  8
0
  6
Continuous
 62
     7
100
AcDbLine
 10
87.0
 20
420.0
 30
0.0
 11
87.0
 21
413.0
 31
0.0
  0
LINE
  5
2B8
330
20B
100
AcDbEntity
  8
0
  6
Continuous
 62
     7
100
AcDbLine
 10
587.0
 20
307.0
 30
0.0
 11
594.0
 21
307.0
 31
0.0
  0
LINE
  5
2B9
330
20B
100
AcDbEntity
  8
0
  6
Continuous
 62
     7
100
AcDbLine
 10
0.0
 20
107.0
 30
0.0
 11
7.0
 21
107.0
 31
0.0
  0
LINE
  5
2BA
330
20B
100
AcDbEntity
  8
0
  6
Continuous
 62
     7
100
AcDbLine
 10
0.0
 20
207.0
 30
0.0
 11
7.0
 21
207.0
 31
0.0
  0
LINE
  5
2BB
330
20B
100
AcDbEntity
  8
0
  6
Continuous
 62
     7
100
AcDbLine
 10
0.0
 20
307.0
 30
0.0
 11
7.0
 21
307.0
 31
0.0
  0
MTEXT
  5
2BC
330
20B
100
AcDbEntity
  8
0
  6
Continuous
 62
     2
100
AcDbMText
 10
536.154891
 20
5.35876
 30
0.0
 40
4.0
 41
3.6
 46
0.0
 71
     1
 72
     1
  1
A
  7
TEXTSTYLE_2
 73
     1
 44
0.9
  0
MTEXT
  5
2BD
330
20B
100
AcDbEntity
  8
0
  6
Continuous
 62
     2
100
AcDbMText
 10
436.154891
 20
5.35876
 30
0.0
 40
4.0
 41
3.6
 46
0.0
 71
     1
 72
     1
  1
B
  7
TEXTSTYLE_2
 73
     1
 44
0.9
  0
MTEXT
  5
2BE
330
20B
100
AcDbEntity
  8
0
  6
Continuous
 62
     2
100
AcDbMText
 10
336.154891
 20
5.35876
 30
0.0
 40
4.0
 41
3.6
 46
0.0
 71
     1
 72
     1
  1
C
  7
TEXTSTYLE_2
 73
     1
 44
0.9
  0
MTEXT
  5
2BF
330
20B
100
AcDbEntity
  8
0
  6
Continuous
 62
     2
100
AcDbMText
 10
236.154891
 20
5.35876
 30
0.0
 40
4.0
 41
3.6
 46
0.0
 71
     1
 72
     1
  1
D
  7
TEXTSTYLE_2
 73
     1
 44
0.9
  0
MTEXT
  5
2C0
330
20B
100
AcDbEntity
  8
0
  6
Continuous
 62
     2
100
AcDbMText
 10
136.154891
 20
5.35876
 30
0.0
 40
4.0
 41
3.6
 46
0.0
 71
     1
 72
     1
  1
E
  7
TEXTSTYLE_2
 73
     1
 44
0.9
  0
MTEXT
  5
2C1
330
20B
100
AcDbEntity
  8
0
  6
Continuous
 62
     2
100
AcDbMText
 10
588.646722
 20
60.626871
 30
0.0
 40
4.0
 41
3.428571
 46
0.0
 71
     1
 72
     1
  1
1
  7
TEXTSTYLE_3
 73
     1
 44
0.9
  0
MTEXT
  5
2C2
330
20B
100
AcDbEntity
  8
0
  6
Continuous
 62
     2
100
AcDbMText
 10
588.646722
 20
260.626871
 30
0.0
 40
4.0
 41
4.285714
 46
0.0
 71
     1
 72
     1
  1
3
  7
TEXTSTYLE_3
 73
     1
 44
0.9
  0
MTEXT
  5
2C3
330
20B
100
AcDbEntity
  8
0
  6
Continuous
 62
     2
100
AcDbMText
 10
588.646722
 20
360.626871
 30
0.0
 40
4.0
 41
4.714286
 46
0.0
 71
     1
 72
     1
  1
4
  7
TEXTSTYLE_3
 73
     1
 44
0.9
  0
MTEXT
  5
2C4
330
20B
100
AcDbEntity
  8
0
  6
Continuous
 62
     2
100
AcDbMText
 10
36.154891
 20
5.35876
 30
0.0
 40
4.0
 41
3.6
 46
0.0
 71
     1
 72
     1
  1
F
  7
TEXTSTYLE_2
 73
     1
 44
0.9
  0
MTEXT
  5
2C5
330
20B
100
AcDbEntity
  8
0
  6
Continuous
 62
     2
100
AcDbMText
 10
536.154891
 20
418.35876
 30
0.0
 40
4.0
 41
3.6
 46
0.0
 71
     1
 72
     1
  1
A
  7
TEXTSTYLE_2
 73
     1
 44
0.9
  0
MTEXT
  5
2C6
330
20B
100
AcDbEntity
  8
0
  6
Continuous
 62
     2
100
AcDbMText
 10
436.154891
 20
418.35876
 30
0.0
 40
4.0
 41
3.6
 46
0.0
 71
     1
 72
     1
  1
B
  7
TEXTSTYLE_2
 73
     1
 44
0.9
  0
MTEXT
  5
2C7
330
20B
100
AcDbEntity
  8
0
  6
Continuous
 62
     2
100
AcDbMText
 10
336.154891
 20
418.35876
 30
0.0
 40
4.0
 41
3.6
 46
0.0
 71
     1
 72
     1
  1
C
  7
TEXTSTYLE_2
 73
     1
 44
0.9
  0
MTEXT
  5
2C8
330
20B
100
AcDbEntity
  8
0
  6
Continuous
 62
     2
100
AcDbMText
 10
236.154891
 20
418.35876
 30
0.0
 40
4.0
 41
3.6
 46
0.0
 71
     1
 72
     1
  1
D
  7
TEXTSTYLE_2
 73
     1
 44
0.9
  0
MTEXT
  5
2C9
330
20B
100
AcDbEntity
  8
0
  6
Continuous
 62
     2
100
AcDbMText
 10
136.154891
 20
418.35876
 30
0.0
 40
4.0
 41
3.6
 46
0.0
 71
     1
 72
     1
  1
E
  7
TEXTSTYLE_2
 73
     1
 44
0.9
  0
MTEXT
  5
2CA
330
20B
100
AcDbEntity
  8
0
  6
Continuous
 62
     2
100
AcDbMText
 10
36.154891
 20
418.35876
 30
0.0
 40
4.0
 41
3.6
 46
0.0
 71
     1
 72
     1
  1
F
  7
TEXTSTYLE_2
 73
     1
 44
0.9
  0
MTEXT
  5
2CB
330
20B
100
AcDbEntity
  8
0
  6
Continuous
 62
     2
100
AcDbMText
 10
1.646722
 20
60.626871
 30
0.0
 40
4.0
 41
3.428571
 46
0.0
 71
     1
 72
     1
  1
1
  7
TEXTSTYLE_3
 73
     1
 44
0.9
  0
MTEXT
  5
2CC
330
20B
100
AcDbEntity
  8
0
  6
Continuous
 62
     2
100
AcDbMText
 10
1.646722
 20
160.626871
 30
0.0
 40
4.0
 41
4.714286
 46
0.0
 71
     1
 72
     1
  1
2
  7
TEXTSTYLE_3
 73
     1
 44
0.9
  0
MTEXT
  5
2CD
330
20B
100
AcDbEntity
  8
0
  6
Continuous
 62
     2
100
AcDbMText
 10
1.646722
 20
260.626871
 30
0.0
 40
4.0
 41
4.285714
 46
0.0
 71
     1
 72
     1
  1
3
  7
TEXTSTYLE_3
 73
     1
 44
0.9
  0
MTEXT
  5
2CE
330
20B
100
AcDbEntity
  8
0
  6
Continuous
 62
     2
100
AcDbMText
 10
1.646722
 20
360.626871
 30
0.0
 40
4.0
 41
4.714286
 46
0.0
 71
     1
 72
     1
  1
4
  7
TEXTSTYLE_3
 73
     1
 44
0.9
  0
ARC
  5
2CF
330
20B
100
AcDbEntity
  8
7_ALL_FEATURES
  6
Continuous
 62
     7
100
AcDbCircle
 10
45.502046
 20
368.534086
 30
0.0
 40
1.5
100
AcDbArc
 50
90.0
 51
180.0
  0
LINE
  5
2D0
330
20B
100
AcDbEntity
  8
7_ALL_FEATURES
  6
Continuous
 62
     7
100
AcDbLine
 10
44.002046
 20
368.534086
 30
0.0
 11
44.002046
 21
171.534086
 31
0.0
  0
ARC
  5
2D1
330
20B
100
AcDbEntity
  8
7_ALL_FEATURES
  6
Continuous
 62
     7
100
AcDbCircle
 10
45.502046
 20
171.534086
 30
0.0
 40
1.5
100
AcDbArc
 50
180.0
 51
270.0
  0
LINE
  5
2D2
330
20B
100
AcDbEntity
  8
7_ALL_FEATURES
  6
Continuous
 62
     7
100
AcDbLine
 10
45.502046
 20
170.034086
 30
0.0
 11
242.502046
 21
170.034086
 31
0.0
  0
ARC
  5
2D3
330
20B
100
AcDbEntity
  8
7_ALL_FEATURES
  6
Continuous
 62
     7
100
AcDbCircle
 10
242.502046
 20
171.534086
 30
0.0
 40
1.5
100
AcDbArc
 50
270.0
 51
360.0
  0
LINE
  5
2D4
330
20B
100
AcDbEntity
  8
7_ALL_FEATURES
  6
Continuous
 62
     7
100
AcDbLine
 10
244.002046
 20
171.534086
 30
0.0
 11
244.002046
 21
368.534086
 31
0.0
  0
ARC
  5
2D5
330
20B
100
AcDbEntity
  8
7_ALL_FEATURES
  6
Continuous
 62
     7
100
AcDbCircle
 10
242.502046
 20
368.534086
 30
0.0
 40
1.5
100
AcDbArc
 50
0.0
 51
90.0
  0
LINE
  5
2D6
330
20B
100
AcDbEntity
  8
7_ALL_FEATURES
  6
Continuous
 62
     7
100
AcDbLine
 10
242.502046
 20
370.034086
 30
0.0
 11
45.502046
 21
370.034086
 31
0.0
  0
SPLINE
  5
2D7
330
20B
100
AcDbEntity
  8
7_ALL_FEATURES
  6
Continuous
 62
     7
100
AcDbSpline
 70
     0
 71
     3
 72
    11
 73
     7
 74
     0
 42
0.000000001
 43
0.0000001
 40
0.0
 40
0.0
 40
0.0
 40
0.0
 40
0.274029492
 40
0.5
 40
0.725970508
 40
1.0
 40
1.0
 40
1.0
 40
1.0
 10
104.0020462788
 20
231.0340856977
 30
0.0
 10
104.0020462788
 20
230.8867717849
 30
0.0
 10
104.0288423208
 20
230.6142046598
 30
0.0
 10
104.227886641
 20
230.2599260599
 30
0.0
 10
104.5821652409
 20
230.0608817397
 30
0.0
 10
104.8547323661
 20
230.0340856977
 30
0.0
 10
105.0020462788
 20
230.0340856977
 30
0.0
  0
SPLINE
  5
2D8
330
20B
100
AcDbEntity
  8
7_ALL_FEATURES
  6
Continuous
 62
     7
100
AcDbSpline
 70
     0
 71
     3
 72
    11
 73
     7
 74
     0
 42
0.000000001
 43
0.0000001
 40
0.0
 40
0.0
 40
0.0
 40
0.0
 40
0.274029492
 40
0.5
 40
0.725970508
 40
1.0
 40
1.0
 40
1.0
 40
1.0
 10
183.0020462788
 20
230.0340856977
 30
0.0
 10
183.1493601916
 20
230.0340856977
 30
0.0
 10
183.4219273167
 20
230.0608817397
 30
0.0
 10
183.7762059166
 20
230.2599260599
 30
0.0
 10
183.9752502368
 20
230.6142046598
 30
0.0
 10
184.0020462788
 20
230.8867717849
 30
0.0
 10
184.0020462788
 20
231.0340856977
 30
0.0
  0
SPLINE
  5
2D9
330
20B
100
AcDbEntity
  8
7_ALL_FEATURES
  6
Continuous
 62
     7
100
AcDbSpline
 70
     0
 71
     3
 72
    11
 73
     7
 74
     0
 42
0.000000001
 43
0.0000001
 40
0.0
 40
0.0
 40
0.0
 40
0.0
 40
0.274029492
 40
0.5
 40
0.725970508
 40
1.0
 40
1.0
 40
1.0
 40
1.0
 10
184.0020462788
 20
309.0340856977
 30
0.0
 10
184.0020462788
 20
309.1813996104
 30
0.0
 10
183.9752502368
 20
309.4539667356
 30
0.0
 10
183.7762059166
 20
309.8082453355
 30
0.0
 10
183.4219273167
 20
310.0072896557
 30
0.0
 10
183.1493601916
 20
310.0340856977
 30
0.0
 10
183.0020462788
 20
310.0340856977
 30
0.0
  0
SPLINE
  5
2DA
330
20B
100
AcDbEntity
  8
7_ALL_FEATURES
  6
Continuous
 62
     7
100
AcDbSpline
 70
     0
 71
     3
 72
    11
 73
     7
 74
     0
 42
0.000000001
 43
0.0000001
 40
0.0
 40
0.0
 40
0.0
 40
0.0
 40
0.274029492
 40
0.5
 40
0.725970508
 40
1.0
 40
1.0
 40
1.0
 40
1.0
 10
105.0020462788
 20
310.0340856977
 30
0.0
 10
104.8547323661
 20
310.0340856977
 30
0.0
 10
104.5821652409
 20
310.0072896557
 30
0.0
 10
104.227886641
 20
309.8082453355
 30
0.0
 10
104.0288423208
 20
309.4539667356
 30
0.0
 10
104.0020462788
 20
309.1813996104
 30
0.0
 10
104.0020462788
 20
309.0340856977
 30
0.0
  0
LINE
  5
2DB
330
20B
100
AcDbEntity
  8
7_ALL_FEATURES
  6
Continuous
 62
     7
100
AcDbLine
 10
183.002046
 20
310.034086
 30
0.0
 11
105.002046
 21
310.034086
 31
0.0
  0
LINE
  5
2DC
330
20B
100
AcDbEntity
  8
7_ALL_FEATURES
  6
Continuous
 62
     7
100
AcDbLine
 10
184.002046
 20
231.034086
 30
0.0
 11
184.002046
 21
309.034086
 31
0.0
  0
LINE
  5
2DD
330
20B
100
AcDbEntity
  8
7_ALL_FEATURES
  6
Continuous
 62
     7
100
AcDbLine
 10
105.002046
 20
230.034086
 30
0.0
 11
183.002046
 21
230.034086
 31
0.0
  0
LINE
  5
2DE
330
20B
100
AcDbEntity
  8
7_ALL_FEATURES
  6
Continuous
 62
     7
100
AcDbLine
 10
104.002046
 20
231.034086
 30
0.0
 11
104.002046
 21
309.034086
 31
0.0
  0
LINE
  5
2DF
330
20B
100
AcDbEntity
  8
7_ALL_FEATURES
  6
Continuous
 62
     9
100
AcDbLine
 10
103.219057
 20
231.034086
 30
0.0
 11
103.9688
 21
231.034086
 31
0.0
  0
LINE
  5
2E0
330
20B
100
AcDbEntity
  8
7_ALL_FEATURES
  6
Continuous
 62
     9
100
AcDbLine
 10
105.002046
 20
229.251096
 30
0.0
 11
105.002046
 21
230.000839
 31
0.0
  0
LINE
  5
2E1
330
20B
100
AcDbEntity
  8
7_ALL_FEATURES
  6
Continuous
 62
     9
100
AcDbLine
 10
183.002046
 20
229.251096
 30
0.0
 11
183.002046
 21
230.000839
 31
0.0
  0
LINE
  5
2E2
330
20B
100
AcDbEntity
  8
7_ALL_FEATURES
  6
Continuous
 62
     9
100
AcDbLine
 10
184.785036
 20
231.034086
 30
0.0
 11
184.035293
 21
231.034086
 31
0.0
  0
LINE
  5
2E3
330
20B
100
AcDbEntity
  8
7_ALL_FEATURES
  6
Continuous
 62
     9
100
AcDbLine
 10
44.116469
 20
368.534086
 30
0.0
 11
44.002046
 21
368.534086
 31
0.0
  0
SPLINE
  5
2E4
330
20B
100
AcDbEntity
  8
7_ALL_FEATURES
  6
Continuous
 62
     9
100
AcDbSpline
 70
     0
 71
     3
 72
    11
 73
     7
 74
     0
 42
0.000000001
 43
0.0000001
 40
0.0
 40
0.0
 40
0.0
 40
0.0
 40
0.2656724134
 40
0.4999759595
 40
0.7343404021
 40
1.0
 40
1.0
 40
1.0
 40
1.0
 10
105.0020462788
 20
230.0008391951
 30
0.0
 10
104.8550577494
 20
230.0008391951
 30
0.0
 10
104.5757105353
 20
230.0324126418
 30
0.0
 10
104.2047116781
 20
230.2367325007
 30
0.0
 10
104.0004684521
 20
230.6077471019
 30
0.0
 10
103.9687997762
 20
230.8871042588
 30
0.0
 10
103.9687997762
 20
231.0340856977
 30
0.0
  0
LINE
  5
2E5
330
20B
100
AcDbEntity
  8
7_ALL_FEATURES
  6
Continuous
 62
     9
100
AcDbLine
 10
44.116469
 20
171.534086
 30
0.0
 11
44.116469
 21
368.534086
 31
0.0
  0
SPLINE
  5
2E6
330
20B
100
AcDbEntity
  8
7_ALL_FEATURES
  6
Continuous
 62
     9
100
AcDbSpline
 70
     0
 71
     3
 72
    11
 73
     7
 74
     0
 42
0.000000001
 43
0.0000001
 40
0.0
 40
0.0
 40
0.0
 40
0.0
 40
0.2656724134
 40
0.4999759595
 40
0.7343404021
 40
1.0
 40
1.0
 40
1.0
 40
1.0
 10
184.0352927814
 20
231.0340856977
 30
0.0
 10
184.0352927814
 20
230.8870971683
 30
0.0
 10
184.0037193348
 20
230.6077499542
 30
0.0
 10
183.799399476
 20
230.2367510968
 30
0.0
 10
183.4283848746
 20
230.0325078709
 30
0.0
 10
183.1490277178
 20
230.0008391951
 30
0.0
 10
183.0020462788
 20
230.0008391951
 30
0.0
  0
LINE
  5
2E7
330
20B
100
AcDbEntity
  8
7_ALL_FEATURES
  6
Continuous
 62
     9
100
AcDbLine
 10
44.116469
 20
171.534086
 30
0.0
 11
44.002046
 21
171.534086
 31
0.0
  0
SPLINE
  5
2E8
330
20B
100
AcDbEntity
  8
7_ALL_FEATURES
  6
Continuous
 62
     9
100
AcDbSpline
 70
     0
 71
     3
 72
    11
 73
     7
 74
     0
 42
0.000000001
 43
0.0000001
 40
0.0
 40
0.0
 40
0.0
 40
0.0
 40
0.2656724134
 40
0.4999759595
 40
0.7343404021
 40
1.0
 40
1.0
 40
1.0
 40
1.0
 10
183.0020462788
 20
310.0673322003
 30
0.0
 10
183.1490348082
 20
310.0673322003
 30
0.0
 10
183.4283820223
 20
310.0357587536
 30
0.0
 10
183.7993808796
 20
309.8314388947
 30
0.0
 10
184.0036241056
 20
309.4604242934
 30
0.0
 10
184.0352927814
 20
309.1810671366
 30
0.0
 10
184.0352927814
 20
309.0340856977
 30
0.0
  0
SPLINE
  5
2E9
330
20B
100
AcDbEntity
  8
7_ALL_FEATURES
  6
Continuous
 62
     9
100
AcDbSpline
 70
     0
 71
     3
 72
    11
 73
     7
 74
     0
 42
0.000000001
 43
0.0000001
 40
0.0
 40
0.0
 40
0.0
 40
0.0
 40
0.2656724134
 40
0.4999759594
 40
0.7343404021
 40
1.0
 40
1.0
 40
1.0
 40
1.0
 10
103.9687997762
 20
309.0340856977
 30
0.0
 10
103.9687997762
 20
309.1810742271
 30
0.0
 10
104.0003732228
 20
309.4604214412
 30
0.0
 10
104.2046930817
 20
309.8314202985
 30
0.0
 10
104.575707683
 20
310.0356635245
 30
0.0
 10
104.8550648399
 20
310.0673322003
 30
0.0
 10
105.0020462788
 20
310.0673322003
 30
0.0
  0
ARC
  5
2EA
330
20B
100
AcDbEntity
  8
7_ALL_FEATURES
  6
Continuous
 62
     9
100
AcDbCircle
 10
242.502046
 20
171.534086
 30
0.0
 40
1.3855771405
100
AcDbArc
 50
270.0
 51
360.0
  0
ARC
  5
2EB
330
20B
100
AcDbEntity
  8
7_ALL_FEATURES
  6
Continuous
 62
     9
100
AcDbCircle
 10
45.502046
 20
171.534086
 30
0.0
 40
1.3855771405
100
AcDbArc
 50
180.0
 51
270.0
  0
ARC
  5
2EC
330
20B
100
AcDbEntity
  8
7_ALL_FEATURES
  6
Continuous
 62
     9
100
AcDbCircle
 10
242.502046
 20
368.534086
 30
0.0
 40
1.3855771405
100
AcDbArc
 50
0.0
 51
90.0
  0
ARC
  5
2ED
330
20B
100
AcDbEntity
  8
7_ALL_FEATURES
  6
Continuous
 62
     9
100
AcDbCircle
 10
45.502046
 20
368.534086
 30
0.0
 40
1.3855771405
100
AcDbArc
 50
90.0
 51
180.0
  0
LINE
  5
2EE
330
20B
100
AcDbEntity
  8
7_ALL_FEATURES
  6
Continuous
 62
     9
100
AcDbLine
 10
243.887623
 20
368.534086
 30
0.0
 11
243.13788
 21
368.534086
 31
0.0
  0
LINE
  5
2EF
330
20B
100
AcDbEntity
  8
7_ALL_FEATURES
  6
Continuous
 62
     9
100
AcDbLine
 10
242.502046
 20
369.919663
 30
0.0
 11
242.502046
 21
369.16992
 31
0.0
  0
LINE
  5
2F0
330
20B
100
AcDbEntity
  8
7_ALL_FEATURES
  6
Continuous
 62
     9
100
AcDbLine
 10
45.502046
 20
369.919663
 30
0.0
 11
45.502046
 21
369.16992
 31
0.0
  0
LINE
  5
2F1
330
20B
100
AcDbEntity
  8
7_ALL_FEATURES
  6
Continuous
 62
     9
100
AcDbLine
 10
44.116469
 20
368.534086
 30
0.0
 11
44.866212
 21
368.534086
 31
0.0
  0
LINE
  5
2F2
330
20B
100
AcDbEntity
  8
7_ALL_FEATURES
  6
Continuous
 62
     9
100
AcDbLine
 10
44.116469
 20
171.534086
 30
0.0
 11
44.866212
 21
171.534086
 31
0.0
  0
LINE
  5
2F3
330
20B
100
AcDbEntity
  8
7_ALL_FEATURES
  6
Continuous
 62
     9
100
AcDbLine
 10
45.502046
 20
170.148509
 30
0.0
 11
45.502046
 21
170.898252
 31
0.0
  0
LINE
  5
2F4
330
20B
100
AcDbEntity
  8
7_ALL_FEATURES
  6
Continuous
 62
     9
100
AcDbLine
 10
242.502046
 20
170.148509
 30
0.0
 11
242.502046
 21
170.898252
 31
0.0
  0
LINE
  5
2F5
330
20B
100
AcDbEntity
  8
7_ALL_FEATURES
  6
Continuous
 62
     9
100
AcDbLine
 10
105.002046
 20
310.067332
 30
0.0
 11
105.002046
 21
310.034086
 31
0.0
  0
LINE
  5
2F6
330
20B
100
AcDbEntity
  8
7_ALL_FEATURES
  6
Continuous
 62
     9
100
AcDbLine
 10
243.887623
 20
171.534086
 30
0.0
 11
243.13788
 21
171.534086
 31
0.0
  0
LINE
  5
2F7
330
20B
100
AcDbEntity
  8
7_ALL_FEATURES
  6
Continuous
 62
     9
100
AcDbLine
 10
183.002046
 20
310.067332
 30
0.0
 11
183.002046
 21
310.034086
 31
0.0
  0
LINE
  5
2F8
330
20B
100
AcDbEntity
  8
7_ALL_FEATURES
  6
Continuous
 62
     9
100
AcDbLine
 10
105.002046
 20
310.067332
 30
0.0
 11
183.002046
 21
310.067332
 31
0.0
  0
LINE
  5
2F9
330
20B
100
AcDbEntity
  8
7_ALL_FEATURES
  6
Continuous
 62
     9
100
AcDbLine
 10
242.502046
 20
369.919663
 30
0.0
 11
242.502046
 21
370.034086
 31
0.0
  0
LINE
  5
2FA
330
20B
100
AcDbEntity
  8
7_ALL_FEATURES
  6
Continuous
 62
     9
100
AcDbLine
 10
45.502046
 20
369.919663
 30
0.0
 11
45.502046
 21
370.034086
 31
0.0
  0
LINE
  5
2FB
330
20B
100
AcDbEntity
  8
7_ALL_FEATURES
  6
Continuous
 62
     9
100
AcDbLine
 10
45.502046
 20
369.919663
 30
0.0
 11
242.502046
 21
369.919663
 31
0.0
  0
LINE
  5
2FC
330
20B
100
AcDbEntity
  8
7_ALL_FEATURES
  6
Continuous
 62
     9
100
AcDbLine
 10
184.035293
 20
309.034086
 30
0.0
 11
184.002046
 21
309.034086
 31
0.0
  0
LINE
  5
2FD
330
20B
100
AcDbEntity
  8
7_ALL_FEATURES
  6
Continuous
 62
     9
100
AcDbLine
 10
184.785036
 20
309.034086
 30
0.0
 11
184.035293
 21
309.034086
 31
0.0
  0
LINE
  5
2FE
330
20B
100
AcDbEntity
  8
7_ALL_FEATURES
  6
Continuous
 62
     9
100
AcDbLine
 10
184.035293
 20
231.034086
 30
0.0
 11
184.002046
 21
231.034086
 31
0.0
  0
LINE
  5
2FF
330
20B
100
AcDbEntity
  8
7_ALL_FEATURES
  6
Continuous
 62
     9
100
AcDbLine
 10
184.035293
 20
309.034086
 30
0.0
 11
184.035293
 21
231.034086
 31
0.0
  0
LINE
  5
300
330
20B
100
AcDbEntity
  8
7_ALL_FEATURES
  6
Continuous
 62
     9
100
AcDbLine
 10
243.887623
 20
171.534086
 30
0.0
 11
244.002046
 21
171.534086
 31
0.0
  0
LINE
  5
301
330
20B
100
AcDbEntity
  8
7_ALL_FEATURES
  6
Continuous
 62
     9
100
AcDbLine
 10
243.887623
 20
368.534086
 30
0.0
 11
244.002046
 21
368.534086
 31
0.0
  0
LINE
  5
302
330
20B
100
AcDbEntity
  8
7_ALL_FEATURES
  6
Continuous
 62
     9
100
AcDbLine
 10
243.887623
 20
368.534086
 30
0.0
 11
243.887623
 21
171.534086
 31
0.0
  0
LINE
  5
303
330
20B
100
AcDbEntity
  8
7_ALL_FEATURES
  6
Continuous
 62
     9
100
AcDbLine
 10
183.002046
 20
230.000839
 30
0.0
 11
183.002046
 21
230.034086
 31
0.0
  0
LINE
  5
304
330
20B
100
AcDbEntity
  8
7_ALL_FEATURES
  6
Continuous
 62
     9
100
AcDbLine
 10
183.002046
 20
310.817075
 30
0.0
 11
183.002046
 21
310.067332
 31
0.0
  0
LINE
  5
305
330
20B
100
AcDbEntity
  8
7_ALL_FEATURES
  6
Continuous
 62
     9
100
AcDbLine
 10
105.002046
 20
230.000839
 30
0.0
 11
105.002046
 21
230.034086
 31
0.0
  0
LINE
  5
306
330
20B
100
AcDbEntity
  8
7_ALL_FEATURES
  6
Continuous
 62
     9
100
AcDbLine
 10
183.002046
 20
230.000839
 30
0.0
 11
105.002046
 21
230.000839
 31
0.0
  0
LINE
  5
307
330
20B
100
AcDbEntity
  8
7_ALL_FEATURES
  6
Continuous
 62
     9
100
AcDbLine
 10
45.502046
 20
170.148509
 30
0.0
 11
45.502046
 21
170.034086
 31
0.0
  0
LINE
  5
308
330
20B
100
AcDbEntity
  8
7_ALL_FEATURES
  6
Continuous
 62
     9
100
AcDbLine
 10
242.502046
 20
170.148509
 30
0.0
 11
242.502046
 21
170.034086
 31
0.0
  0
LINE
  5
309
330
20B
100
AcDbEntity
  8
7_ALL_FEATURES
  6
Continuous
 62
     9
100
AcDbLine
 10
242.502046
 20
170.148509
 30
0.0
 11
45.502046
 21
170.148509
 31
0.0
  0
LINE
  5
30A
330
20B
100
AcDbEntity
  8
7_ALL_FEATURES
  6
Continuous
 62
     9
100
AcDbLine
 10
243.13788
 20
368.534086
 30
0.0
 11
243.13788
 21
171.534086
 31
0.0
  0
ARC
  5
30B
330
20B
100
AcDbEntity
  8
7_ALL_FEATURES
  6
Continuous
 62
     9
100
AcDbCircle
 10
242.502046
 20
368.534086
 30
0.0
 40
0.6358341468
100
AcDbArc
 50
0.0
 51
90.0
  0
LINE
  5
30C
330
20B
100
AcDbEntity
  8
7_ALL_FEATURES
  6
Continuous
 62
     9
100
AcDbLine
 10
45.502046
 20
369.16992
 30
0.0
 11
242.502046
 21
369.16992
 31
0.0
  0
ARC
  5
30D
330
20B
100
AcDbEntity
  8
7_ALL_FEATURES
  6
Continuous
 62
     9
100
AcDbCircle
 10
45.502046
 20
368.534086
 30
0.0
 40
0.6358341468
100
AcDbArc
 50
90.0
 51
180.0
  0
LINE
  5
30E
330
20B
100
AcDbEntity
  8
7_ALL_FEATURES
  6
Continuous
 62
     9
100
AcDbLine
 10
44.866212
 20
171.534086
 30
0.0
 11
44.866212
 21
368.534086
 31
0.0
  0
ARC
  5
30F
330
20B
100
AcDbEntity
  8
7_ALL_FEATURES
  6
Continuous
 62
     9
100
AcDbCircle
 10
45.502046
 20
171.534086
 30
0.0
 40
0.6358341468
100
AcDbArc
 50
180.0
 51
270.0
  0
LINE
  5
310
330
20B
100
AcDbEntity
  8
7_ALL_FEATURES
  6
Continuous
 62
     9
100
AcDbLine
 10
242.502046
 20
170.898252
 30
0.0
 11
45.502046
 21
170.898252
 31
0.0
  0
ARC
  5
311
330
20B
100
AcDbEntity
  8
7_ALL_FEATURES
  6
Continuous
 62
     9
100
AcDbCircle
 10
242.502046
 20
171.534086
 30
0.0
 40
0.6358341468
100
AcDbArc
 50
270.0
 51
360.0
  0
LINE
  5
312
330
20B
100
AcDbEntity
  8
7_ALL_FEATURES
  6
Continuous
 62
     9
100
AcDbLine
 10
183.002046
 20
229.251096
 30
0.0
 11
105.002046
 21
229.251096
 31
0.0
  0
SPLINE
  5
313
330
20B
100
AcDbEntity
  8
7_ALL_FEATURES
  6
Continuous
 62
     9
100
AcDbSpline
 70
     0
 71
     3
 72
    11
 73
     7
 74
     0
 42
0.000000001
 43
0.0000001
 40
0.0
 40
0.0
 40
0.0
 40
0.0
 40
0.2409518341
 40
0.4999646942
 40
0.758969254
 40
1.0
 40
1.0
 40
1.0
 40
1.0
 10
105.0020462788
 20
229.2510962014
 30
0.0
 10
104.7747249345
 20
229.2510962014
 30
0.0
 10
104.2978252789
 20
229.3105233857
 30
0.0
 10
103.6561205754
 20
229.6879976688
 30
0.0
 10
103.2785430183
 20
230.32972091
 30
0.0
 10
103.2190567825
 20
230.8066899054
 30
0.0
 10
103.2190567825
 20
231.0340856977
 30
0.0
  0
LINE
  5
314
330
20B
100
AcDbEntity
  8
7_ALL_FEATURES
  6
Continuous
 62
     9
100
AcDbLine
 10
103.219057
 20
231.034086
 30
0.0
 11
103.219057
 21
309.034086
 31
0.0
  0
SPLINE
  5
315
330
20B
100
AcDbEntity
  8
7_ALL_FEATURES
  6
Continuous
 62
     9
100
AcDbSpline
 70
     0
 71
     3
 72
    11
 73
     7
 74
     0
 42
0.000000001
 43
0.0000001
 40
0.0
 40
0.0
 40
0.0
 40
0.0
 40
0.2409518341
 40
0.4999646943
 40
0.758969254
 40
1.0
 40
1.0
 40
1.0
 40
1.0
 10
103.2190567825
 20
309.0340856977
 30
0.0
 10
103.2190567825
 20
309.261407042
 30
0.0
 10
103.278483966
 20
309.7383066978
 30
0.0
 10
103.6559582499
 20
310.3800114012
 30
0.0
 10
104.297681491
 20
310.7575889582
 30
0.0
 10
104.7746504865
 20
310.817075194
 30
0.0
 10
105.0020462788
 20
310.817075194
 30
0.0
  0
LINE
  5
316
330
20B
100
AcDbEntity
  8
7_ALL_FEATURES
  6
Continuous
 62
     9
100
AcDbLine
 10
105.002046
 20
310.817075
 30
0.0
 11
183.002046
 21
310.817075
 31
0.0
  0
SPLINE
  5
317
330
20B
100
AcDbEntity
  8
7_ALL_FEATURES
  6
Continuous
 62
     9
100
AcDbSpline
 70
     0
 71
     3
 72
    11
 73
     7
 74
     0
 42
0.000000001
 43
0.0000001
 40
0.0
 40
0.0
 40
0.0
 40
0.0
 40
0.240951834
 40
0.4999646942
 40
0.758969254
 40
1.0
 40
1.0
 40
1.0
 40
1.0
 10
183.0020462788
 20
310.817075194
 30
0.0
 10
183.229367623
 20
310.817075194
 30
0.0
 10
183.7062672786
 20
310.7576480096
 30
0.0
 10
184.3479719823
 20
310.3801737268
 30
0.0
 10
184.7255495393
 20
309.7384504854
 30
0.0
 10
184.7850357751
 20
309.26148149
 30
0.0
 10
184.7850357751
 20
309.0340856977
 30
0.0
  0
LINE
  5
318
330
20B
100
AcDbEntity
  8
7_ALL_FEATURES
  6
Continuous
 62
     9
100
AcDbLine
 10
184.785036
 20
309.034086
 30
0.0
 11
184.785036
 21
231.034086
 31
0.0
  0
SPLINE
  5
319
330
20B
100
AcDbEntity
  8
7_ALL_FEATURES
  6
Continuous
 62
     9
100
AcDbSpline
 70
     0
 71
     3
 72
    11
 73
     7
 74
     0
 42
0.000000001
 43
0.0000001
 40
0.0
 40
0.0
 40
0.0
 40
0.0
 40
0.2409518341
 40
0.4999646943
 40
0.758969254
 40
1.0
 40
1.0
 40
1.0
 40
1.0
 10
184.7850357751
 20
231.0340856977
 30
0.0
 10
184.7850357751
 20
230.8067643533
 30
0.0
 10
184.7256085918
 20
230.3298646974
 30
0.0
 10
184.3481343076
 20
229.6881599942
 30
0.0
 10
183.7064110666
 20
229.3105824372
 30
0.0
 10
183.2294420711
 20
229.2510962014
 30
0.0
 10
183.0020462788
 20
229.2510962014
 30
0.0
  0
LINE
  5
31A
330
20B
100
AcDbEntity
  8
7_ALL_FEATURES
  6
Continuous
 62
     9
100
AcDbLine
 10
103.9688
 20
231.034086
 30
0.0
 11
104.002046
 21
231.034086
 31
0.0
  0
LINE
  5
31B
330
20B
100
AcDbEntity
  8
7_ALL_FEATURES
  6
Continuous
 62
     9
100
AcDbLine
 10
103.9688
 20
309.034086
 30
0.0
 11
104.002046
 21
309.034086
 31
0.0
  0
LINE
  5
31C
330
20B
100
AcDbEntity
  8
7_ALL_FEATURES
  6
Continuous
 62
     9
100
AcDbLine
 10
103.9688
 20
231.034086
 30
0.0
 11
103.9688
 21
309.034086
 31
0.0
  0
LINE
  5
31D
330
20B
100
AcDbEntity
  8
7_ALL_FEATURES
  6
Continuous
 62
     9
100
AcDbLine
 10
105.002046
 20
310.817075
 30
0.0
 11
105.002046
 21
310.067332
 31
0.0
  0
LINE
  5
31E
330
20B
100
AcDbEntity
  8
7_ALL_FEATURES
  6
Continuous
 62
     9
100
AcDbLine
 10
103.219057
 20
309.034086
 30
0.0
 11
103.9688
 21
309.034086
 31
0.0
  0
LINE
  5
31F
330
20B
100
AcDbEntity
  8
7_ALL_FEATURES
  6
Continuous
 62
     7
100
AcDbLine
 10
44.116469
 20
114.117698
 30
0.0
 11
44.002046
 21
118.48733
 31
0.0
  0
LINE
  5
320
330
20B
100
AcDbEntity
  8
7_ALL_FEATURES
  6
Continuous
 62
     7
100
AcDbLine
 10
44.002046
 20
118.48733
 30
0.0
 11
45.271429
 21
118.48733
 31
0.0
  0
LINE
  5
321
330
20B
100
AcDbEntity
  8
7_ALL_FEATURES
  6
Continuous
 62
     7
100
AcDbLine
 10
45.271429
 20
118.48733
 30
0.0
 11
45.502046
 21
118.48733
 31
0.0
  0
LINE
  5
322
330
20B
100
AcDbEntity
  8
7_ALL_FEATURES
  6
Continuous
 62
     7
100
AcDbLine
 10
242.502046
 20
118.48733
 30
0.0
 11
242.794682
 21
118.48733
 31
0.0
  0
LINE
  5
323
330
20B
100
AcDbEntity
  8
7_ALL_FEATURES
  6
Continuous
 62
     7
100
AcDbLine
 10
242.794682
 20
118.48733
 30
0.0
 11
244.002046
 21
118.48733
 31
0.0
  0
LINE
  5
324
330
20B
100
AcDbEntity
  8
7_ALL_FEATURES
  6
Continuous
 62
     7
100
AcDbLine
 10
242.502046
 20
118.48733
 30
0.0
 11
45.502046
 21
118.48733
 31
0.0
  0
LINE
  5
325
330
20B
100
AcDbEntity
  8
7_ALL_FEATURES
  6
Continuous
 62
     7
100
AcDbLine
 10
67.002046
 20
123.68733
 30
0.0
 11
97.120812
 21
123.68733
 31
0.0
  0
LINE
  5
326
330
20B
100
AcDbEntity
  8
6_ALL_SURFS
  6
Continuous
 62
     7
100
AcDbLine
 10
59.976203
 20
123.68733
 30
0.0
 11
61.159505
 21
123.68733
 31
0.0
  0
LINE
  5
327
330
20B
100
AcDbEntity
  8
6_ALL_SURFS
  6
Continuous
 62
     7
100
AcDbLine
 10
61.159505
 20
123.68733
 30
0.0
 11
67.002046
 21
123.68733
 31
0.0
  0
LINE
  5
328
330
20B
100
AcDbEntity
  8
7_ALL_FEATURES
  6
Continuous
 62
     7
100
AcDbLine
 10
100.633281
 20
123.68733
 30
0.0
 11
187.370812
 21
123.68733
 31
0.0
  0
LINE
  5
329
330
20B
100
AcDbEntity
  8
6_ALL_SURFS
  6
Continuous
 62
     7
100
AcDbLine
 10
221.002046
 20
123.68733
 30
0.0
 11
226.844691
 21
123.68733
 31
0.0
  0
LINE
  5
32A
330
20B
100
AcDbEntity
  8
6_ALL_SURFS
  6
Continuous
 62
     7
100
AcDbLine
 10
226.844691
 20
123.68733
 30
0.0
 11
228.027889
 21
123.68733
 31
0.0
  0
LINE
  5
32B
330
20B
100
AcDbEntity
  8
7_ALL_FEATURES
  6
Continuous
 62
     7
100
AcDbLine
 10
190.883281
 20
123.68733
 30
0.0
 11
221.002046
 21
123.68733
 31
0.0
  0
LINE
  5
32C
330
20B
100
AcDbEntity
  8
7_ALL_FEATURES
  6
Continuous
 62
     7
100
AcDbLine
 10
184.785036
 20
113.38733
 30
0.0
 11
183.002046
 21
113.38733
 31
0.0
  0
LINE
  5
32D
330
20B
100
AcDbEntity
  8
7_ALL_FEATURES
  6
Continuous
 62
     7
100
AcDbLine
 10
183.002046
 20
113.38733
 30
0.0
 11
184.785036
 21
113.38733
 31
0.0
  0
LINE
  5
32E
330
20B
100
AcDbEntity
  8
7_ALL_FEATURES
  6
Continuous
 62
     7
100
AcDbLine
 10
105.002046
 20
113.38733
 30
0.0
 11
183.002046
 21
113.38733
 31
0.0
  0
LINE
  5
32F
330
20B
100
AcDbEntity
  8
7_ALL_FEATURES
  6
Continuous
 62
     7
100
AcDbLine
 10
103.219057
 20
113.38733
 30
0.0
 11
105.002046
 21
113.38733
 31
0.0
  0
LINE
  5
330
330
20B
100
AcDbEntity
  8
7_ALL_FEATURES
  6
Continuous
 62
     7
100
AcDbLine
 10
105.002046
 20
113.38733
 30
0.0
 11
103.219057
 21
113.38733
 31
0.0
  0
LINE
  5
331
330
20B
100
AcDbEntity
  8
7_ALL_FEATURES
  6
Continuous
 62
     7
100
AcDbLine
 10
183.002046
 20
113.38733
 30
0.0
 11
105.002046
 21
113.38733
 31
0.0
  0
LINE
  5
332
330
20B
100
AcDbEntity
  8
7_ALL_FEATURES
  6
Continuous
 62
     7
100
AcDbLine
 10
242.502046
 20
113.38733
 30
0.0
 11
184.785036
 21
113.38733
 31
0.0
  0
LINE
  5
333
330
20B
100
AcDbEntity
  8
7_ALL_FEATURES
  6
Continuous
 62
     7
100
AcDbLine
 10
184.785036
 20
113.38733
 30
0.0
 11
183.002046
 21
113.38733
 31
0.0
  0
LINE
  5
334
330
20B
100
AcDbEntity
  8
7_ALL_FEATURES
  6
Continuous
 62
     7
100
AcDbLine
 10
183.002046
 20
113.38733
 30
0.0
 11
105.002046
 21
113.38733
 31
0.0
  0
LINE
  5
335
330
20B
100
AcDbEntity
  8
7_ALL_FEATURES
  6
Continuous
 62
     7
100
AcDbLine
 10
105.002046
 20
113.38733
 30
0.0
 11
103.219057
 21
113.38733
 31
0.0
  0
LINE
  5
336
330
20B
100
AcDbEntity
  8
7_ALL_FEATURES
  6
Continuous
 62
     7
100
AcDbLine
 10
103.219057
 20
113.38733
 30
0.0
 11
45.502046
 21
113.38733
 31
0.0
  0
LINE
  5
337
330
20B
100
AcDbEntity
  8
7_ALL_FEATURES
  6
Continuous
 62
     7
100
AcDbLine
 10
44.866212
 20
113.38733
 30
0.0
 11
45.502046
 21
113.38733
 31
0.0
  0
LINE
  5
338
330
20B
100
AcDbEntity
  8
7_ALL_FEATURES
  6
Continuous
 62
     7
100
AcDbLine
 10
45.502046
 20
113.38733
 30
0.0
 11
242.502046
 21
113.38733
 31
0.0
  0
LINE
  5
339
330
20B
100
AcDbEntity
  8
7_ALL_FEATURES
  6
Continuous
 62
     7
100
AcDbLine
 10
242.502046
 20
113.38733
 30
0.0
 11
243.13788
 21
113.38733
 31
0.0
  0
LINE
  5
33A
330
20B
100
AcDbEntity
  8
7_ALL_FEATURES
  6
Continuous
 62
     7
100
AcDbLine
 10
243.887623
 20
114.117698
 30
0.0
 11
244.002046
 21
118.48733
 31
0.0
  0
LINE
  5
33B
330
20B
100
AcDbEntity
  8
7_ALL_FEATURES
  6
Continuous
 62
     7
100
AcDbLine
 10
227.536215
 20
124.392465
 30
0.0
 11
227.536215
 21
124.392465
 31
0.0
  0
LINE
  5
33C
330
20B
100
AcDbEntity
  8
7_ALL_FEATURES
  6
Continuous
 62
     7
100
AcDbLine
 10
228.175087
 20
123.676486
 30
0.0
 11
227.903097
 21
123.773246
 31
0.0
  0
LINE
  5
33D
330
20B
100
AcDbEntity
  8
7_ALL_FEATURES
  6
Continuous
 62
     7
100
AcDbLine
 10
227.903097
 20
123.773246
 30
0.0
 11
227.686991
 21
123.966651
 31
0.0
  0
LWPOLYLINE
  5
33E
330
20B
100
AcDbEntity
  8
7_ALL_FEATURES
  6
Continuous
 62
     7
100
AcDbPolyline
 90
        3
 70
     0
 43
0.0
 10
227.686991
 20
123.966651
 10
227.560204
 20
124.228399
 10
227.53623
 20
124.39209
  0
LINE
  5
33F
330
20B
100
AcDbEntity
  8
7_ALL_FEATURES
  6
Continuous
 62
     7
100
AcDbLine
 10
104.241516
 20
124.70478
 30
0.0
 11
104.277046
 21
123.68733
 31
0.0
  0
LINE
  5
340
330
20B
100
AcDbEntity
  8
7_ALL_FEATURES
  6
Continuous
 62
     7
100
AcDbLine
 10
93.512576
 20
124.70478
 30
0.0
 11
93.477046
 21
123.68733
 31
0.0
  0
LINE
  5
341
330
20B
100
AcDbEntity
  8
7_ALL_FEATURES
  6
Continuous
 62
     7
100
AcDbLine
 10
190.851278
 20
123.687314
 30
0.0
 11
190.883281
 21
123.68733
 31
0.0
  0
LINE
  5
342
330
20B
100
AcDbEntity
  8
6_ALL_SURFS
  6
Continuous
 62
     7
100
AcDbLine
 10
103.741821
 20
125.18733
 30
0.0
 11
102.68424
 21
125.18733
 31
0.0
  0
LINE
  5
343
330
20B
100
AcDbEntity
  8
6_ALL_SURFS
  6
Continuous
 62
     7
100
AcDbLine
 10
102.68424
 20
125.18733
 30
0.0
 11
95.069864
 21
125.18733
 31
0.0
  0
LINE
  5
344
330
20B
100
AcDbEntity
  8
6_ALL_SURFS
  6
Continuous
 62
     7
100
AcDbLine
 10
95.069864
 20
125.18733
 30
0.0
 11
94.012272
 21
125.18733
 31
0.0
  0
ARC
  5
345
330
20B
100
AcDbEntity
  8
6_ALL_SURFS
  6
Continuous
 62
     7
100
AcDbCircle
 10
103.741821
 20
124.68733
 30
0.0
 40
0.5
100
AcDbArc
 50
2.0
 51
90.0
  0
ARC
  5
346
330
20B
100
AcDbEntity
  8
6_ALL_SURFS
  6
Continuous
 62
     7
100
AcDbCircle
 10
94.012272
 20
124.68733
 30
0.0
 40
0.5
100
AcDbArc
 50
90.0
 51
178.0
  0
LWPOLYLINE
  5
347
330
20B
100
AcDbEntity
  8
7_ALL_FEATURES
  6
Continuous
 62
     7
100
AcDbPolyline
 90
        3
 70
     0
 43
0.0
 10
60.443897
 20
124.22846
 10
60.443889
 20
124.228399
 10
60.39455
 20
124.126541
  0
LINE
  5
348
330
20B
100
AcDbEntity
  8
7_ALL_FEATURES
  6
Continuous
 62
     7
100
AcDbLine
 10
60.39455
 20
124.126541
 30
0.0
 11
60.317133
 21
123.966716
 31
0.0
  0
LWPOLYLINE
  5
349
330
20B
100
AcDbEntity
  8
7_ALL_FEATURES
  6
Continuous
 62
     7
100
AcDbPolyline
 90
        3
 70
     0
 43
0.0
 10
60.317133
 20
123.966716
 10
60.317102
 20
123.966651
 10
60.228286
 20
123.887165
  0
LINE
  5
34A
330
20B
100
AcDbEntity
  8
7_ALL_FEATURES
  6
Continuous
 62
     7
100
AcDbLine
 10
60.228286
 20
123.887165
 30
0.0
 11
60.101068
 21
123.773311
 31
0.0
  0
LWPOLYLINE
  5
34B
330
20B
100
AcDbEntity
  8
7_ALL_FEATURES
  6
Continuous
 62
     7
100
AcDbPolyline
 90
        3
 70
     0
 43
0.0
 10
60.101068
 20
123.773311
 10
60.100995
 20
123.773246
 10
59.963091
 20
123.724187
  0
LINE
  5
34C
330
20B
100
AcDbEntity
  8
7_ALL_FEATURES
  6
Continuous
 62
     7
100
AcDbLine
 10
60.467877
 20
124.392453
 30
0.0
 11
60.467877
 21
124.392452
 31
0.0
  0
LINE
  5
34D
330
20B
100
AcDbEntity
  8
7_ALL_FEATURES
  6
Continuous
 62
     7
100
AcDbLine
 10
60.467863
 20
124.392089
 30
0.0
 11
60.443913
 21
124.228493
 31
0.0
  0
LWPOLYLINE
  5
34E
330
20B
100
AcDbEntity
  8
7_ALL_FEATURES
  6
Continuous
 62
     7
100
AcDbPolyline
 90
        4
 70
     0
 43
0.0
 10
60.443913
 20
124.228493
 10
60.31719
 20
123.966767
 10
60.101166
 20
123.773346
 10
59.963083
 20
123.724176
  0
LINE
  5
34F
330
20B
100
AcDbEntity
  8
7_ALL_FEATURES
  6
Continuous
 62
     7
100
AcDbLine
 10
59.963083
 20
123.724176
 30
0.0
 11
59.829257
 21
123.676522
 31
0.0
  0
LINE
  5
350
330
20B
100
AcDbEntity
  8
7_ALL_FEATURES
  6
Continuous
 62
     7
100
AcDbLine
 10
183.762576
 20
124.70478
 30
0.0
 11
183.727046
 21
123.68733
 31
0.0
  0
LINE
  5
351
330
20B
100
AcDbEntity
  8
7_ALL_FEATURES
  6
Continuous
 62
     7
100
AcDbLine
 10
194.491516
 20
124.70478
 30
0.0
 11
194.527046
 21
123.68733
 31
0.0
  0
LINE
  5
352
330
20B
100
AcDbEntity
  8
7_ALL_FEATURES
  6
Continuous
 62
     7
100
AcDbLine
 10
100.601266
 20
123.687314
 30
0.0
 11
100.633281
 21
123.68733
 31
0.0
  0
LINE
  5
353
330
20B
100
AcDbEntity
  8
6_ALL_SURFS
  6
Continuous
 62
     7
100
AcDbLine
 10
184.262272
 20
125.18733
 30
0.0
 11
185.319852
 21
125.18733
 31
0.0
  0
LINE
  5
354
330
20B
100
AcDbEntity
  8
6_ALL_SURFS
  6
Continuous
 62
     7
100
AcDbLine
 10
185.319852
 20
125.18733
 30
0.0
 11
192.934229
 21
125.18733
 31
0.0
  0
LINE
  5
355
330
20B
100
AcDbEntity
  8
6_ALL_SURFS
  6
Continuous
 62
     7
100
AcDbLine
 10
192.934229
 20
125.18733
 30
0.0
 11
193.991821
 21
125.18733
 31
0.0
  0
ARC
  5
356
330
20B
100
AcDbEntity
  8
6_ALL_SURFS
  6
Continuous
 62
     7
100
AcDbCircle
 10
184.262272
 20
124.68733
 30
0.0
 40
0.5
100
AcDbArc
 50
90.0
 51
178.0
  0
ARC
  5
357
330
20B
100
AcDbEntity
  8
6_ALL_SURFS
  6
Continuous
 62
     7
100
AcDbCircle
 10
193.991821
 20
124.68733
 30
0.0
 40
0.5
100
AcDbArc
 50
2.0
 51
90.0
  0
ARC
  5
358
330
20B
100
AcDbEntity
  8
6_ALL_SURFS
  6
Continuous
 62
     7
100
AcDbCircle
 10
70.708028
 20
124.68733
 30
0.0
 40
0.5
100
AcDbArc
 50
2.0
 51
90.0
  0
LINE
  5
359
330
20B
100
AcDbEntity
  8
6_ALL_SURFS
  6
Continuous
 62
     7
100
AcDbLine
 10
65.843254
 20
125.18733
 30
0.0
 11
69.643924
 21
125.18733
 31
0.0
  0
LINE
  5
35A
330
20B
100
AcDbEntity
  8
6_ALL_SURFS
  6
Continuous
 62
     7
100
AcDbLine
 10
69.643924
 20
125.18733
 30
0.0
 11
70.224975
 21
125.18733
 31
0.0
  0
LINE
  5
35B
330
20B
100
AcDbEntity
  8
6_ALL_SURFS
  6
Continuous
 62
     7
100
AcDbLine
 10
70.224975
 20
125.18733
 30
0.0
 11
70.708028
 21
125.18733
 31
0.0
  0
LINE
  5
35C
330
20B
100
AcDbEntity
  8
6_ALL_SURFS
  6
Continuous
 62
     7
100
AcDbLine
 10
70.708028
 20
125.18733
 30
0.0
 11
70.268408
 21
125.18733
 31
0.0
  0
LINE
  5
35D
330
20B
100
AcDbEntity
  8
6_ALL_SURFS
  6
Continuous
 62
     7
100
AcDbLine
 10
70.268408
 20
125.18733
 30
0.0
 11
69.519805
 21
125.18733
 31
0.0
  0
LINE
  5
35E
330
20B
100
AcDbEntity
  8
6_ALL_SURFS
  6
Continuous
 62
     7
100
AcDbLine
 10
69.519805
 20
125.18733
 30
0.0
 11
65.843254
 21
125.18733
 31
0.0
  0
LINE
  5
35F
330
20B
100
AcDbEntity
  8
6_ALL_SURFS
  6
Continuous
 62
     7
100
AcDbLine
 10
70.268408
 20
125.18733
 30
0.0
 11
70.708028
 21
125.18733
 31
0.0
  0
LINE
  5
360
330
20B
100
AcDbEntity
  8
6_ALL_SURFS
  6
Continuous
 62
     7
100
AcDbLine
 10
60.978479
 20
125.18733
 30
0.0
 11
61.461524
 21
125.18733
 31
0.0
  0
LINE
  5
361
330
20B
100
AcDbEntity
  8
6_ALL_SURFS
  6
Continuous
 62
     7
100
AcDbLine
 10
61.461524
 20
125.18733
 30
0.0
 11
62.042572
 21
125.18733
 31
0.0
  0
LINE
  5
362
330
20B
100
AcDbEntity
  8
6_ALL_SURFS
  6
Continuous
 62
     7
100
AcDbLine
 10
62.042572
 20
125.18733
 30
0.0
 11
65.843254
 21
125.18733
 31
0.0
  0
ARC
  5
363
330
20B
100
AcDbEntity
  8
6_ALL_SURFS
  6
Continuous
 62
     7
100
AcDbCircle
 10
60.978479
 20
124.68733
 30
0.0
 40
0.5
100
AcDbArc
 50
90.0
 51
178.0
  0
LINE
  5
364
330
20B
100
AcDbEntity
  8
6_ALL_SURFS
  6
Continuous
 62
     7
100
AcDbLine
 10
60.978479
 20
125.18733
 30
0.0
 11
61.418099
 21
125.18733
 31
0.0
  0
LINE
  5
365
330
20B
100
AcDbEntity
  8
6_ALL_SURFS
  6
Continuous
 62
     7
100
AcDbLine
 10
65.843254
 20
125.18733
 30
0.0
 11
62.166702
 21
125.18733
 31
0.0
  0
LINE
  5
366
330
20B
100
AcDbEntity
  8
6_ALL_SURFS
  6
Continuous
 62
     7
100
AcDbLine
 10
62.166702
 20
125.18733
 30
0.0
 11
61.418099
 21
125.18733
 31
0.0
  0
LINE
  5
367
330
20B
100
AcDbEntity
  8
6_ALL_SURFS
  6
Continuous
 62
     7
100
AcDbLine
 10
61.418099
 20
125.18733
 30
0.0
 11
60.978479
 21
125.18733
 31
0.0
  0
LINE
  5
368
330
20B
100
AcDbEntity
  8
6_ALL_SURFS
  6
Continuous
 62
     7
100
AcDbLine
 10
71.207723
 20
124.70478
 30
0.0
 11
71.243254
 21
123.68733
 31
0.0
  0
LINE
  5
369
330
20B
100
AcDbEntity
  8
6_ALL_SURFS
  6
Continuous
 62
     7
100
AcDbLine
 10
60.478784
 20
124.70478
 30
0.0
 11
60.467864
 21
124.392089
 31
0.0
  0
ARC
  5
36A
330
20B
100
AcDbEntity
  8
6_ALL_SURFS
  6
Continuous
 62
     7
100
AcDbCircle
 10
217.296065
 20
124.68733
 30
0.0
 40
0.5
100
AcDbArc
 50
90.0
 51
178.0
  0
LINE
  5
36B
330
20B
100
AcDbEntity
  8
6_ALL_SURFS
  6
Continuous
 62
     7
100
AcDbLine
 10
222.160839
 20
125.18733
 30
0.0
 11
218.360168
 21
125.18733
 31
0.0
  0
LINE
  5
36C
330
20B
100
AcDbEntity
  8
6_ALL_SURFS
  6
Continuous
 62
     7
100
AcDbLine
 10
218.360168
 20
125.18733
 30
0.0
 11
217.779117
 21
125.18733
 31
0.0
  0
LINE
  5
36D
330
20B
100
AcDbEntity
  8
6_ALL_SURFS
  6
Continuous
 62
     7
100
AcDbLine
 10
217.779117
 20
125.18733
 30
0.0
 11
217.296065
 21
125.18733
 31
0.0
  0
LINE
  5
36E
330
20B
100
AcDbEntity
  8
6_ALL_SURFS
  6
Continuous
 62
     7
100
AcDbLine
 10
217.296065
 20
125.18733
 30
0.0
 11
217.735684
 21
125.18733
 31
0.0
  0
LINE
  5
36F
330
20B
100
AcDbEntity
  8
6_ALL_SURFS
  6
Continuous
 62
     7
100
AcDbLine
 10
217.735684
 20
125.18733
 30
0.0
 11
218.484288
 21
125.18733
 31
0.0
  0
LINE
  5
370
330
20B
100
AcDbEntity
  8
6_ALL_SURFS
  6
Continuous
 62
     7
100
AcDbLine
 10
218.484288
 20
125.18733
 30
0.0
 11
222.160839
 21
125.18733
 31
0.0
  0
LINE
  5
371
330
20B
100
AcDbEntity
  8
6_ALL_SURFS
  6
Continuous
 62
     7
100
AcDbLine
 10
217.735684
 20
125.18733
 30
0.0
 11
217.296065
 21
125.18733
 31
0.0
  0
LINE
  5
372
330
20B
100
AcDbEntity
  8
6_ALL_SURFS
  6
Continuous
 62
     7
100
AcDbLine
 10
227.025613
 20
125.18733
 30
0.0
 11
226.542569
 21
125.18733
 31
0.0
  0
LINE
  5
373
330
20B
100
AcDbEntity
  8
6_ALL_SURFS
  6
Continuous
 62
     7
100
AcDbLine
 10
226.542569
 20
125.18733
 30
0.0
 11
225.96152
 21
125.18733
 31
0.0
  0
LINE
  5
374
330
20B
100
AcDbEntity
  8
6_ALL_SURFS
  6
Continuous
 62
     7
100
AcDbLine
 10
225.96152
 20
125.18733
 30
0.0
 11
222.160839
 21
125.18733
 31
0.0
  0
ARC
  5
375
330
20B
100
AcDbEntity
  8
6_ALL_SURFS
  6
Continuous
 62
     7
100
AcDbCircle
 10
227.025613
 20
124.68733
 30
0.0
 40
0.5
100
AcDbArc
 50
2.0
 51
90.0
  0
LINE
  5
376
330
20B
100
AcDbEntity
  8
6_ALL_SURFS
  6
Continuous
 62
     7
100
AcDbLine
 10
227.025613
 20
125.18733
 30
0.0
 11
226.585993
 21
125.18733
 31
0.0
  0
LINE
  5
377
330
20B
100
AcDbEntity
  8
6_ALL_SURFS
  6
Continuous
 62
     7
100
AcDbLine
 10
222.160839
 20
125.18733
 30
0.0
 11
225.83739
 21
125.18733
 31
0.0
  0
LINE
  5
378
330
20B
100
AcDbEntity
  8
6_ALL_SURFS
  6
Continuous
 62
     7
100
AcDbLine
 10
225.83739
 20
125.18733
 30
0.0
 11
226.585993
 21
125.18733
 31
0.0
  0
LINE
  5
379
330
20B
100
AcDbEntity
  8
6_ALL_SURFS
  6
Continuous
 62
     7
100
AcDbLine
 10
226.585993
 20
125.18733
 30
0.0
 11
227.025613
 21
125.18733
 31
0.0
  0
LINE
  5
37A
330
20B
100
AcDbEntity
  8
6_ALL_SURFS
  6
Continuous
 62
     7
100
AcDbLine
 10
216.760839
 20
123.68733
 30
0.0
 11
216.796369
 21
124.70478
 31
0.0
  0
LINE
  5
37B
330
20B
100
AcDbEntity
  8
6_ALL_SURFS
  6
Continuous
 62
     7
100
AcDbLine
 10
227.536228
 20
124.39209
 30
0.0
 11
227.525309
 21
124.70478
 31
0.0
  0
LINE
  5
37C
330
20B
100
AcDbEntity
  8
6_ALL_SURFS
  6
Continuous
 62
     7
100
AcDbLine
 10
58.865879
 20
118.48733
 30
0.0
 11
58.976546
 21
122.713507
 31
0.0
  0
LINE
  5
37D
330
20B
100
AcDbEntity
  8
6_ALL_SURFS
  6
Continuous
 62
     7
100
AcDbLine
 10
229.138213
 20
118.48733
 30
0.0
 11
229.027547
 21
122.713507
 31
0.0
  0
ARC
  5
37E
330
20B
100
AcDbEntity
  8
6_ALL_SURFS
  6
Continuous
 62
     7
100
AcDbCircle
 10
228.027889
 20
122.68733
 30
0.0
 40
1.0
100
AcDbArc
 50
1.5
 51
90.0
  0
LINE
  5
37F
330
20B
100
AcDbEntity
  8
7_ALL_FEATURES
  6
Continuous
 62
     7
100
AcDbLine
 10
187.370812
 20
123.68733
 30
0.0
 11
187.401619
 21
123.687318
 31
0.0
  0
LINE
  5
380
330
20B
100
AcDbEntity
  8
7_ALL_FEATURES
  6
Continuous
 62
     7
100
AcDbLine
 10
97.120812
 20
123.68733
 30
0.0
 11
97.151577
 21
123.687318
 31
0.0
  0
ARC
  5
381
330
20B
100
AcDbEntity
  8
6_ALL_SURFS
  6
Continuous
 62
     7
100
AcDbCircle
 10
59.976203
 20
122.68733
 30
0.0
 40
1.0
100
AcDbArc
 50
90.0
 51
178.5
  0
SPLINE
  5
382
330
20B
100
AcDbEntity
  8
7_ALL_FEATURES
  6
Continuous
 62
     7
100
AcDbSpline
 70
     0
 71
     3
 72
     8
 73
     4
 74
     0
 42
0.000000001
 43
0.0000001
 40
0.0
 40
0.0
 40
0.0
 40
0.0
 40
1.0
 40
1.0
 40
1.0
 40
1.0
 10
243.8876234194
 20
114.1176976055
 30
0.0
 10
243.8748731923
 20
113.6307860797
 30
0.0
 10
243.6249588611
 20
113.3873303167
 30
0.0
 10
243.1378804256
 20
113.3873303167
 30
0.0
  0
SPLINE
  5
383
330
20B
100
AcDbEntity
  8
7_ALL_FEATURES
  6
Continuous
 62
     7
100
AcDbSpline
 70
     0
 71
     3
 72
     8
 73
     4
 74
     0
 42
0.000000001
 43
0.0000001
 40
0.0
 40
0.0
 40
0.0
 40
0.0
 40
1.0
 40
1.0
 40
1.0
 40
1.0
 10
44.1164691383
 20
114.1176976055
 30
0.0
 10
44.1292193653
 20
113.6307860797
 30
0.0
 10
44.3791336965
 20
113.3873303167
 30
0.0
 10
44.866212132
 20
113.3873303167
 30
0.0
  0
SPLINE
  5
384
330
20B
100
AcDbEntity
  8
7_ALL_FEATURES
  6
Continuous
 62
     7
100
AcDbSpline
 70
     0
 71
     3
 72
     8
 73
     4
 74
     0
 42
0.000000001
 43
0.0000001
 40
0.0
 40
0.0
 40
0.0
 40
0.0
 40
1.0
 40
1.0
 40
1.0
 40
1.0
 10
44.1164691383
 20
114.1176976055
 30
0.0
 10
44.1292193653
 20
113.6307860797
 30
0.0
 10
44.3791336965
 20
113.3873303167
 30
0.0
 10
44.866212132
 20
113.3873303167
 30
0.0
  0
SPLINE
  5
385
330
20B
100
AcDbEntity
  8
7_ALL_FEATURES
  6
Continuous
 62
     7
100
AcDbSpline
 70
     0
 71
     3
 72
     8
 73
     4
 74
     0
 42
0.000000001
 43
0.0000001
 40
0.0
 40
0.0
 40
0.0
 40
0.0
 40
1.0
 40
1.0
 40
1.0
 40
1.0
 10
243.8876234194
 20
114.1176976055
 30
0.0
 10
243.8748731923
 20
113.6307860797
 30
0.0
 10
243.6249588611
 20
113.3873303167
 30
0.0
 10
243.1378804256
 20
113.3873303167
 30
0.0
  0
SPLINE
  5
386
330
20B
100
AcDbEntity
  8
7_ALL_FEATURES
  6
Continuous
 62
     9
100
AcDbSpline
 70
     0
 71
     3
 72
     9
 73
     5
 74
     0
 42
0.000000001
 43
0.0000001
 40
0.0
 40
0.0
 40
0.0
 40
0.0
 40
0.5000311266
 40
1.0
 40
1.0
 40
1.0
 40
1.0
 10
187.4015731503
 20
123.6873182567
 30
0.0
 10
187.9765649006
 20
123.6868648761
 30
0.0
 10
189.1264429885
 20
123.6660224201
 30
0.0
 10
190.2763211501
 20
123.686821261
 30
0.0
 10
190.8512412802
 20
123.6873165372
 30
0.0
  0
SPLINE
  5
387
330
20B
100
AcDbEntity
  8
7_ALL_FEATURES
  6
Continuous
 62
     9
100
AcDbSpline
 70
     0
 71
     3
 72
     9
 73
     5
 74
     0
 42
0.000000001
 43
0.0000001
 40
0.0
 40
0.0
 40
0.0
 40
0.0
 40
0.446984819
 40
1.0
 40
1.0
 40
1.0
 40
1.0
 10
61.617237217
 20
124.4111556942
 30
0.0
 10
61.8373639432
 20
124.4111227204
 30
0.0
 10
62.3361052879
 20
124.2850484469
 30
0.0
 10
62.7085261571
 20
123.9233083239
 30
0.0
 10
62.8553498316
 20
123.6939313285
 30
0.0
  0
LINE
  5
388
330
20B
100
AcDbEntity
  8
7_ALL_FEATURES
  6
Continuous
 62
     9
100
AcDbLine
 10
60.694266
 20
124.411156
 30
0.0
 11
61.617237
 21
124.411156
 31
0.0
  0
LINE
  5
389
330
20B
100
AcDbEntity
  8
6_ALL_SURFS
  6
Continuous
 62
     9
100
AcDbLine
 10
65.843254
 20
124.70478
 30
0.0
 11
71.207723
 21
124.70478
 31
0.0
  0
LINE
  5
38A
330
20B
100
AcDbEntity
  8
6_ALL_SURFS
  6
Continuous
 62
     9
100
AcDbLine
 10
183.762576
 20
124.70478
 30
0.0
 11
184.932935
 21
124.70478
 31
0.0
  0
LINE
  5
38B
330
20B
100
AcDbEntity
  8
6_ALL_SURFS
  6
Continuous
 62
     9
100
AcDbLine
 10
184.932935
 20
124.70478
 30
0.0
 11
193.321158
 21
124.70478
 31
0.0
  0
LINE
  5
38C
330
20B
100
AcDbEntity
  8
6_ALL_SURFS
  6
Continuous
 62
     9
100
AcDbLine
 10
193.321158
 20
124.70478
 30
0.0
 11
194.491516
 21
124.70478
 31
0.0
  0
SPLINE
  5
38D
330
20B
100
AcDbEntity
  8
7_ALL_FEATURES
  6
Continuous
 62
     9
100
AcDbSpline
 70
     0
 71
     3
 72
    10
 73
     6
 74
     0
 42
0.000000001
 43
0.0000001
 40
0.0
 40
0.0
 40
0.0
 40
0.0
 40
0.4993016749
 40
0.7432827356
 40
1.0
 40
1.0
 40
1.0
 40
1.0
 10
192.4479554795
 20
124.4111556942
 30
0.0
 10
192.6456023876
 20
124.4111324283
 30
0.0
 10
192.9487048932
 20
124.369645249
 30
0.0
 10
193.2922786791
 20
124.1630482599
 30
0.0
 10
193.4279599252
 20
124.0145916983
 30
0.0
 10
193.4871258159
 20
123.9319711243
 30
0.0
  0
SPLINE
  5
38E
330
20B
100
AcDbEntity
  8
7_ALL_FEATURES
  6
Continuous
 62
     9
100
AcDbSpline
 70
     0
 71
     3
 72
     9
 73
     5
 74
     0
 42
0.000000001
 43
0.0000001
 40
0.0
 40
0.0
 40
0.0
 40
0.0
 40
0.2427289848
 40
1.0
 40
1.0
 40
1.0
 40
1.0
 10
193.4871258159
 20
123.9319711243
 30
0.0
 10
193.500090686
 20
123.9138666895
 30
0.0
 10
193.5515496881
 20
123.837885631
 30
0.0
 10
193.5954127316
 20
123.7568744421
 30
0.0
 10
193.6248150304
 20
123.6939313285
 30
0.0
  0
LINE
  5
38F
330
20B
100
AcDbEntity
  8
7_ALL_FEATURES
  6
Continuous
 62
     9
100
AcDbLine
 10
190.668337
 20
124.411156
 30
0.0
 11
192.447955
 21
124.411156
 31
0.0
  0
SPLINE
  5
390
330
20B
100
AcDbEntity
  8
7_ALL_FEATURES
  6
Continuous
 62
     9
100
AcDbSpline
 70
     0
 71
     3
 72
     9
 73
     5
 74
     0
 42
0.000000001
 43
0.0000001
 40
0.0
 40
0.0
 40
0.0
 40
0.0
 40
0.5000990354
 40
1.0
 40
1.0
 40
1.0
 40
1.0
 10
187.5857554618
 20
124.4111556942
 30
0.0
 10
188.0996601362
 20
124.4111494997
 30
0.0
 10
189.1271481416
 20
124.3730284673
 30
0.0
 10
190.1546359601
 20
124.4111594151
 30
0.0
 10
190.6683370958
 20
124.4111556942
 30
0.0
  0
LINE
  5
391
330
20B
100
AcDbEntity
  8
7_ALL_FEATURES
  6
Continuous
 62
     9
100
AcDbLine
 10
185.806137
 20
124.411156
 30
0.0
 11
187.585755
 21
124.411156
 31
0.0
  0
SPLINE
  5
392
330
20B
100
AcDbEntity
  8
7_ALL_FEATURES
  6
Continuous
 62
     9
100
AcDbSpline
 70
     0
 71
     3
 72
     9
 73
     5
 74
     0
 42
0.000000001
 43
0.0000001
 40
0.0
 40
0.0
 40
0.0
 40
0.0
 40
0.260985563
 40
1.0
 40
1.0
 40
1.0
 40
1.0
 10
184.6270834017
 20
123.6892486941
 30
0.0
 10
184.6411762725
 20
123.7196635102
 30
0.0
 10
184.6985189042
 20
123.8345715565
 30
0.0
 10
184.7701845701
 20
123.9427283586
 30
0.0
 10
184.831794282
 20
124.0149361937
 30
0.0
  0
SPLINE
  5
393
330
20B
100
AcDbEntity
  8
7_ALL_FEATURES
  6
Continuous
 62
     9
100
AcDbSpline
 70
     0
 71
     3
 72
     9
 73
     5
 74
     0
 42
0.000000001
 43
0.0000001
 40
0.0
 40
0.0
 40
0.0
 40
0.0
 40
0.4946799202
 40
1.0
 40
1.0
 40
1.0
 40
1.0
 10
184.831794282
 20
124.0149361937
 30
0.0
 10
184.9473209384
 20
124.1503357839
 30
0.0
 10
185.257061954
 20
124.3682828404
 30
0.0
 10
185.6243214793
 20
124.4111529804
 30
0.0
 10
185.8061370781
 20
124.4111556942
 30
0.0
  0
SPLINE
  5
394
330
20B
100
AcDbEntity
  8
7_ALL_FEATURES
  6
Continuous
 62
     9
100
AcDbSpline
 70
     0
 71
     3
 72
     9
 73
     5
 74
     0
 42
0.000000001
 43
0.0000001
 40
0.0
 40
0.0
 40
0.0
 40
0.0
 40
0.5000318076
 40
1.0
 40
1.0
 40
1.0
 40
1.0
 10
97.1515297104
 20
123.6873182919
 30
0.0
 10
97.7265274703
 20
123.6868657499
 30
0.0
 10
98.8764160114
 20
123.6660232281
 30
0.0
 10
100.0263046287
 20
123.6868208605
 30
0.0
 10
100.6012292005
 20
123.687316518
 30
0.0
  0
LINE
  5
395
330
20B
100
AcDbEntity
  8
6_ALL_SURFS
  6
Continuous
 62
     9
100
AcDbLine
 10
58.976546
 20
122.713507
 30
0.0
 11
62.027547
 21
122.713507
 31
0.0
  0
LINE
  5
396
330
20B
100
AcDbEntity
  8
6_ALL_SURFS
  6
Continuous
 62
     9
100
AcDbLine
 10
62.027547
 20
122.713507
 30
0.0
 11
67.002046
 21
122.713507
 31
0.0
  0
LINE
  5
397
330
20B
100
AcDbEntity
  8
6_ALL_SURFS
  6
Continuous
 62
     9
100
AcDbLine
 10
67.002046
 20
118.48733
 30
0.0
 11
67.002046
 21
122.713507
 31
0.0
  0
LINE
  5
398
330
20B
100
AcDbEntity
  8
6_ALL_SURFS
  6
Continuous
 62
     9
100
AcDbLine
 10
67.002046
 20
122.713507
 30
0.0
 11
221.002046
 21
122.713507
 31
0.0
  0
LINE
  5
399
330
20B
100
AcDbEntity
  8
6_ALL_SURFS
  6
Continuous
 62
     9
100
AcDbLine
 10
221.002046
 20
118.48733
 30
0.0
 11
221.002046
 21
122.713507
 31
0.0
  0
LINE
  5
39A
330
20B
100
AcDbEntity
  8
6_ALL_SURFS
  6
Continuous
 62
     9
100
AcDbLine
 10
221.002046
 20
122.713507
 30
0.0
 11
225.976546
 21
122.713507
 31
0.0
  0
LINE
  5
39B
330
20B
100
AcDbEntity
  8
6_ALL_SURFS
  6
Continuous
 62
     9
100
AcDbLine
 10
225.976546
 20
122.713507
 30
0.0
 11
229.027547
 21
122.713507
 31
0.0
  0
LINE
  5
39C
330
20B
100
AcDbEntity
  8
6_ALL_SURFS
  6
Continuous
 62
     9
100
AcDbLine
 10
221.002046
 20
123.68733
 30
0.0
 11
221.002046
 21
122.713507
 31
0.0
  0
LINE
  5
39D
330
20B
100
AcDbEntity
  8
6_ALL_SURFS
  6
Continuous
 62
     9
100
AcDbLine
 10
67.002046
 20
123.68733
 30
0.0
 11
67.002046
 21
122.713507
 31
0.0
  0
LINE
  5
39E
330
20B
100
AcDbEntity
  8
7_ALL_FEATURES
  6
Continuous
 62
     9
100
AcDbLine
 10
45.502046
 20
114.117698
 30
0.0
 11
242.502046
 21
114.117698
 31
0.0
  0
LINE
  5
39F
330
20B
100
AcDbEntity
  8
7_ALL_FEATURES
  6
Continuous
 62
     9
100
AcDbLine
 10
45.502046
 20
114.117698
 30
0.0
 11
45.502046
 21
118.48733
 31
0.0
  0
LINE
  5
3A0
330
20B
100
AcDbEntity
  8
7_ALL_FEATURES
  6
Continuous
 62
     9
100
AcDbLine
 10
242.502046
 20
114.117698
 30
0.0
 11
242.502046
 21
118.48733
 31
0.0
  0
LINE
  5
3A1
330
20B
100
AcDbEntity
  8
7_ALL_FEATURES
  6
Continuous
 62
     9
100
AcDbLine
 10
44.116469
 20
114.117698
 30
0.0
 11
45.502046
 21
114.117698
 31
0.0
  0
LINE
  5
3A2
330
20B
100
AcDbEntity
  8
7_ALL_FEATURES
  6
Continuous
 62
     9
100
AcDbLine
 10
242.502046
 20
114.117698
 30
0.0
 11
243.887623
 21
114.117698
 31
0.0
  0
LINE
  5
3A3
330
20B
100
AcDbEntity
  8
7_ALL_FEATURES
  6
Continuous
 62
     9
100
AcDbLine
 10
45.502046
 20
114.117698
 30
0.0
 11
45.502046
 21
113.38733
 31
0.0
  0
LINE
  5
3A4
330
20B
100
AcDbEntity
  8
7_ALL_FEATURES
  6
Continuous
 62
     9
100
AcDbLine
 10
242.502046
 20
114.117698
 30
0.0
 11
242.502046
 21
113.38733
 31
0.0
  0
SPLINE
  5
3A5
330
20B
100
AcDbEntity
  8
7_ALL_FEATURES
  6
Continuous
 62
     9
100
AcDbSpline
 70
     0
 71
     3
 72
    11
 73
     7
 74
     0
 42
0.000000001
 43
0.0000001
 40
0.0
 40
0.0
 40
0.0
 40
0.0
 40
0.1946245407
 40
0.4249954653
 40
0.6988133968
 40
1.0
 40
1.0
 40
1.0
 40
1.0
 10
95.093012852
 20
123.6873303167
 30
0.0
 10
95.1536175022
 20
123.6873303168
 30
0.0
 10
95.2867776814
 20
123.7344082239
 30
0.0
 10
95.4337179979
 20
123.9028808907
 30
0.0
 10
95.5294473864
 20
124.1380109303
 30
0.0
 10
95.5541139315
 20
124.3173902255
 30
0.0
 10
95.5561370794
 20
124.4111556942
 30
0.0
  0
SPLINE
  5
3A6
330
20B
100
AcDbEntity
  8
7_ALL_FEATURES
  6
Continuous
 62
     9
100
AcDbSpline
 70
     0
 71
     3
 72
    10
 73
     6
 74
     0
 42
0.000000001
 43
0.0000001
 40
0.0
 40
0.0
 40
0.0
 40
0.0
 40
0.1239243128
 40
0.3408023939
 40
1.0
 40
1.0
 40
1.0
 40
1.0
 10
97.1208115792
 20
123.6873303167
 30
0.0
 10
97.1532442853
 20
123.6873303169
 30
0.0
 10
97.2277912532
 20
123.7609117021
 30
0.0
 10
97.3088836636
 20
124.0038977893
 30
0.0
 10
97.3340086522
 20
124.2386434095
 30
0.0
 10
97.3357554568
 20
124.4111556941
 30
0.0
  0
SPLINE
  5
3A7
330
20B
100
AcDbEntity
  8
7_ALL_FEATURES
  6
Continuous
 62
     9
100
AcDbSpline
 70
     0
 71
     3
 72
    10
 73
     6
 74
     0
 42
0.000000001
 43
0.0000001
 40
0.0
 40
0.0
 40
0.0
 40
0.0
 40
0.1239471062
 40
0.3408240343
 40
1.0
 40
1.0
 40
1.0
 40
1.0
 10
100.6332809781
 20
123.6873303167
 30
0.0
 10
100.6008415145
 20
123.687330317
 30
0.0
 10
100.526274551
 20
123.7608983237
 30
0.0
 10
100.4451722955
 20
124.0039010604
 30
0.0
 10
100.4200646425
 20
124.2386446662
 30
0.0
 10
100.4183370988
 20
124.411155694
 30
0.0
  0
SPLINE
  5
3A8
330
20B
100
AcDbEntity
  8
7_ALL_FEATURES
  6
Continuous
 62
     9
100
AcDbSpline
 70
     0
 71
     3
 72
    11
 73
     7
 74
     0
 42
0.000000001
 43
0.0000001
 40
0.0
 40
0.0
 40
0.0
 40
0.0
 40
0.19462424
 40
0.4249951378
 40
0.6988132296
 40
1.0
 40
1.0
 40
1.0
 40
1.0
 10
102.6610797058
 20
123.6873303167
 30
0.0
 10
102.6004751682
 20
123.6873303167
 30
0.0
 10
102.4673151569
 20
123.7344082803
 30
0.0
 10
102.3203750326
 20
123.9028809174
 30
0.0
 10
102.2246455333
 20
124.1380109041
 30
0.0
 10
102.1999787684
 20
124.3173902058
 30
0.0
 10
102.1979554795
 20
124.4111556942
 30
0.0
  0
SPLINE
  5
3A9
330
20B
100
AcDbEntity
  8
7_ALL_FEATURES
  6
Continuous
 62
     9
100
AcDbSpline
 70
     0
 71
     3
 72
     9
 73
     5
 74
     0
 42
0.000000001
 43
0.0000001
 40
0.0
 40
0.0
 40
0.0
 40
0.0
 40
0.4925459222
 40
1.0
 40
1.0
 40
1.0
 40
1.0
 10
59.9762031506
 20
123.6873303167
 30
0.0
 10
60.1567744958
 20
123.6873303169
 30
0.0
 10
60.5362866168
 20
123.8472398711
 30
0.0
 10
60.6880456173
 20
124.2252229144
 30
0.0
 10
60.6942658341
 20
124.4111556941
 30
0.0
  0
SPLINE
  5
3AA
330
20B
100
AcDbEntity
  8
7_ALL_FEATURES
  6
Continuous
 62
     9
100
AcDbSpline
 70
     0
 71
     3
 72
    11
 73
     7
 74
     0
 42
0.000000001
 43
0.0000001
 40
0.0
 40
0.0
 40
0.0
 40
0.0
 40
0.2221488971
 40
0.4614955628
 40
0.7233367991
 40
1.0
 40
1.0
 40
1.0
 40
1.0
 10
61.0278894079
 20
123.6873303167
 30
0.0
 10
61.103663019
 20
123.6873303168
 30
0.0
 10
61.2628930773
 20
123.728824627
 30
0.0
 10
61.4553998463
 20
123.893868077
 30
0.0
 10
61.5819018872
 20
124.1327701141
 30
0.0
 10
61.6146465845
 20
124.3168231583
 30
0.0
 10
61.6172372158
 20
124.4111556942
 30
0.0
  0
SPLINE
  5
3AB
330
20B
100
AcDbEntity
  8
7_ALL_FEATURES
  6
Continuous
 62
     9
100
AcDbSpline
 70
     0
 71
     3
 72
    13
 73
     9
 74
     0
 42
0.000000001
 43
0.0000001
 40
0.0
 40
0.0
 40
0.0
 40
0.0
 40
0.0158945941
 40
0.063662002
 40
0.1429730582
 40
0.2534896839
 40
0.5667741007
 40
1.0
 40
1.0
 40
1.0
 40
1.0
 10
60.467865201
 20
124.3920915747
 30
0.0
 10
60.4677939145
 20
124.3908886656
 30
0.0
 10
60.4756396911
 20
124.3950124686
 30
0.0
 10
60.4833496447
 20
124.3936096176
 30
0.0
 10
60.5028391954
 20
124.398122849
 30
0.0
 10
60.5396332423
 20
124.4020793678
 30
0.0
 10
60.6050696117
 20
124.4094396191
 30
0.0
 10
60.6614216065
 20
124.411156489
 30
0.0
 10
60.6942658326
 20
124.4111556942
 30
0.0
  0
LINE
  5
3AC
330
20B
100
AcDbEntity
  8
6_ALL_SURFS
  6
Continuous
 62
     9
100
AcDbLine
 10
60.478784
 20
124.70478
 30
0.0
 11
65.843254
 21
124.70478
 31
0.0
  0
SPLINE
  5
3AD
330
20B
100
AcDbEntity
  8
7_ALL_FEATURES
  6
Continuous
 62
     9
100
AcDbSpline
 70
     0
 71
     3
 72
    11
 73
     7
 74
     0
 42
0.000000001
 43
0.0000001
 40
0.0
 40
0.0
 40
0.0
 40
0.0
 40
0.1946245073
 40
0.4249954014
 40
0.6988133655
 40
1.0
 40
1.0
 40
1.0
 40
1.0
 10
185.3430128518
 20
123.6873303167
 30
0.0
 10
185.403617492
 20
123.6873303167
 30
0.0
 10
185.5367776616
 20
123.7344081844
 30
0.0
 10
185.6837179696
 20
123.9028808569
 30
0.0
 10
185.7794473692
 20
124.1380108994
 30
0.0
 10
185.8041139301
 20
124.3173902153
 30
0.0
 10
185.8061370781
 20
124.4111556942
 30
0.0
  0
SPLINE
  5
3AE
330
20B
100
AcDbEntity
  8
7_ALL_FEATURES
  6
Continuous
 62
     9
100
AcDbSpline
 70
     0
 71
     3
 72
    10
 73
     6
 74
     0
 42
0.000000001
 43
0.0000001
 40
0.0
 40
0.0
 40
0.0
 40
0.0
 40
0.1239239783
 40
0.340802089
 40
1.0
 40
1.0
 40
1.0
 40
1.0
 10
187.3708115795
 20
123.6873303167
 30
0.0
 10
187.4032441864
 20
123.687330317
 30
0.0
 10
187.4777908577
 20
123.7609119085
 30
0.0
 10
187.5588831279
 20
124.003897743
 30
0.0
 10
187.5840083721
 20
124.238643395
 30
0.0
 10
187.5857554594
 20
124.411155694
 30
0.0
  0
SPLINE
  5
3AF
330
20B
100
AcDbEntity
  8
7_ALL_FEATURES
  6
Continuous
 62
     9
100
AcDbSpline
 70
     0
 71
     3
 72
    10
 73
     6
 74
     0
 42
0.000000001
 43
0.0000001
 40
0.0
 40
0.0
 40
0.0
 40
0.0
 40
0.1239470653
 40
0.3408239543
 40
1.0
 40
1.0
 40
1.0
 40
1.0
 10
190.8832809785
 20
123.6873303167
 30
0.0
 10
190.8508415252
 20
123.6873303169
 30
0.0
 10
190.7762745557
 20
123.760898272
 30
0.0
 10
190.6951723196
 20
124.0039010421
 30
0.0
 10
190.6700646445
 20
124.2386446439
 30
0.0
 10
190.6683371008
 20
124.4111556941
 30
0.0
  0
SPLINE
  5
3B0
330
20B
100
AcDbEntity
  8
7_ALL_FEATURES
  6
Continuous
 62
     9
100
AcDbSpline
 70
     0
 71
     3
 72
    11
 73
     7
 74
     0
 42
0.000000001
 43
0.0000001
 40
0.0
 40
0.0
 40
0.0
 40
0.0
 40
0.1946258695
 40
0.4249969439
 40
0.6988141803
 40
1.0
 40
1.0
 40
1.0
 40
1.0
 10
192.9110797056
 20
123.6873303167
 30
0.0
 10
192.8504745544
 20
123.6873303168
 30
0.0
 10
192.7173135876
 20
123.7344079015
 30
0.0
 10
192.570372448
 20
123.9028807823
 30
0.0
 10
192.4746434914
 20
124.1380110352
 30
0.0
 10
192.4499779805
 20
124.3173903206
 30
0.0
 10
192.4479554779
 20
124.4111556942
 30
0.0
  0
SPLINE
  5
3B1
330
20B
100
AcDbEntity
  8
7_ALL_FEATURES
  6
Continuous
 62
     9
100
AcDbSpline
 70
     0
 71
     3
 72
    11
 73
     7
 74
     0
 42
0.000000001
 43
0.0000001
 40
0.0
 40
0.0
 40
0.0
 40
0.0
 40
0.2221497037
 40
0.4614962948
 40
0.7233371673
 40
1.0
 40
1.0
 40
1.0
 40
1.0
 10
226.9762031497
 20
123.6873303167
 30
0.0
 10
226.900429186
 20
123.6873303168
 30
0.0
 10
226.7411986481
 20
123.7288242998
 30
0.0
 10
226.5486912373
 20
123.8938677383
 30
0.0
 10
226.4221894809
 20
124.1327700116
 30
0.0
 10
226.389445464
 20
124.3168231735
 30
0.0
 10
226.3868553416
 20
124.4111556942
 30
0.0
  0
SPLINE
  5
3B2
330
20B
100
AcDbEntity
  8
7_ALL_FEATURES
  6
Continuous
 62
     9
100
AcDbSpline
 70
     0
 71
     3
 72
     9
 73
     5
 74
     0
 42
0.000000001
 43
0.0000001
 40
0.0
 40
0.0
 40
0.0
 40
0.0
 40
0.4925514361
 40
1.0
 40
1.0
 40
1.0
 40
1.0
 10
228.027889407
 20
123.6873303167
 30
0.0
 10
227.8473152087
 20
123.687330317
 30
0.0
 10
227.4677975893
 20
123.8472331146
 30
0.0
 10
227.3160406982
 20
124.225223871
 30
0.0
 10
227.3098267236
 20
124.4111556941
 30
0.0
  0
SPLINE
  5
3B3
330
20B
100
AcDbEntity
  8
7_ALL_FEATURES
  6
Continuous
 62
     9
100
AcDbSpline
 70
     0
 71
     3
 72
    13
 73
     9
 74
     0
 42
0.000000001
 43
0.0000001
 40
0.0
 40
0.0
 40
0.0
 40
0.0
 40
0.4330441666
 40
0.7464703046
 40
0.8571060434
 40
0.9363408442
 40
0.9840180783
 40
1.0
 40
1.0
 40
1.0
 40
1.0
 10
227.309826725
 20
124.4111556942
 30
0.0
 10
227.3426579619
 20
124.4111542766
 30
0.0
 10
227.3990531517
 20
124.4090498955
 30
0.0
 10
227.4643812334
 20
124.403059627
 30
0.0
 10
227.5013264595
 20
124.3970905693
 30
0.0
 10
227.5205601811
 20
124.3957315304
 30
0.0
 10
227.528750674
 20
124.3917902596
 30
0.0
 10
227.5361154763
 20
124.3932992408
 30
0.0
 10
227.5362273329
 20
124.3920927458
 30
0.0
  0
LINE
  5
3B4
330
20B
100
AcDbEntity
  8
7_ALL_FEATURES
  6
Continuous
 62
     9
100
AcDbLine
 10
226.386855
 20
124.411156
 30
0.0
 11
227.309827
 21
124.411156
 31
0.0
  0
SPLINE
  5
3B5
330
20B
100
AcDbEntity
  8
7_ALL_FEATURES
  6
Continuous
 62
     9
100
AcDbSpline
 70
     0
 71
     3
 72
     9
 73
     5
 74
     0
 42
0.000000001
 43
0.0000001
 40
0.0
 40
0.0
 40
0.0
 40
0.0
 40
0.5532438566
 40
1.0
 40
1.0
 40
1.0
 40
1.0
 10
225.1474509414
 20
123.6919332591
 30
0.0
 10
225.2942318863
 20
123.9219784383
 30
0.0
 10
225.6669703728
 20
124.2846942443
 30
0.0
 10
226.166496091
 20
124.4111554382
 30
0.0
 10
226.3868553406
 20
124.4111556942
 30
0.0
  0
LINE
  5
3B6
330
20B
100
AcDbEntity
  8
6_ALL_SURFS
  6
Continuous
 62
     9
100
AcDbLine
 10
222.160839
 20
124.70478
 30
0.0
 11
216.796369
 21
124.70478
 31
0.0
  0
LINE
  5
3B7
330
20B
100
AcDbEntity
  8
6_ALL_SURFS
  6
Continuous
 62
     9
100
AcDbLine
 10
104.241516
 20
124.70478
 30
0.0
 11
103.071158
 21
124.70478
 31
0.0
  0
LINE
  5
3B8
330
20B
100
AcDbEntity
  8
6_ALL_SURFS
  6
Continuous
 62
     9
100
AcDbLine
 10
103.071158
 20
124.70478
 30
0.0
 11
94.682935
 21
124.70478
 31
0.0
  0
LINE
  5
3B9
330
20B
100
AcDbEntity
  8
6_ALL_SURFS
  6
Continuous
 62
     9
100
AcDbLine
 10
94.682935
 20
124.70478
 30
0.0
 11
93.512576
 21
124.70478
 31
0.0
  0
SPLINE
  5
3BA
330
20B
100
AcDbEntity
  8
7_ALL_FEATURES
  6
Continuous
 62
     9
100
AcDbSpline
 70
     0
 71
     3
 72
    10
 73
     6
 74
     0
 42
0.000000001
 43
0.0000001
 40
0.0
 40
0.0
 40
0.0
 40
0.0
 40
0.497905077
 40
0.7418695422
 40
1.0
 40
1.0
 40
1.0
 40
1.0
 10
102.1979554795
 20
124.4111556942
 30
0.0
 10
102.4007144596
 20
124.4111511012
 30
0.0
 10
102.7126673922
 20
124.3672042057
 30
0.0
 10
103.0621388631
 20
124.1474649229
 30
0.0
 10
103.1980193465
 20
123.9905770292
 30
0.0
 10
103.2569383613
 20
123.9035246019
 30
0.0
  0
SPLINE
  5
3BB
330
20B
100
AcDbEntity
  8
7_ALL_FEATURES
  6
Continuous
 62
     9
100
AcDbSpline
 70
     0
 71
     3
 72
     8
 73
     4
 74
     0
 42
0.000000001
 43
0.0000001
 40
0.0
 40
0.0
 40
0.0
 40
0.0
 40
1.0
 40
1.0
 40
1.0
 40
1.0
 10
103.2569383613
 20
123.9035246019
 30
0.0
 10
103.3031338909
 20
123.8352710341
 30
0.0
 10
103.3431287698
 20
123.7625865033
 30
0.0
 10
103.3777014864
 20
123.6877713729
 30
0.0
  0
LINE
  5
3BC
330
20B
100
AcDbEntity
  8
7_ALL_FEATURES
  6
Continuous
 62
     9
100
AcDbLine
 10
100.418337
 20
124.411156
 30
0.0
 11
102.197955
 21
124.411156
 31
0.0
  0
LINE
  5
3BD
330
20B
100
AcDbEntity
  8
6_ALL_SURFS
  6
Continuous
 62
     9
100
AcDbLine
 10
227.525309
 20
124.70478
 30
0.0
 11
222.160839
 21
124.70478
 31
0.0
  0
SPLINE
  5
3BE
330
20B
100
AcDbEntity
  8
7_ALL_FEATURES
  6
Continuous
 62
     9
100
AcDbSpline
 70
     0
 71
     3
 72
     9
 73
     5
 74
     0
 42
0.000000001
 43
0.0000001
 40
0.0
 40
0.0
 40
0.0
 40
0.0
 40
0.5001013302
 40
1.0
 40
1.0
 40
1.0
 40
1.0
 10
97.3357554618
 20
124.4111556942
 30
0.0
 10
97.8496624897
 20
124.4111490524
 30
0.0
 10
98.8771505019
 20
124.373031031
 30
0.0
 10
99.904638323
 20
124.4111593075
 30
0.0
 10
100.4183370958
 20
124.4111556942
 30
0.0
  0
LINE
  5
3BF
330
20B
100
AcDbEntity
  8
7_ALL_FEATURES
  6
Continuous
 62
     9
100
AcDbLine
 10
95.556137
 20
124.411156
 30
0.0
 11
97.335755
 21
124.411156
 31
0.0
  0
SPLINE
  5
3C0
330
20B
100
AcDbEntity
  8
7_ALL_FEATURES
  6
Continuous
 62
     9
100
AcDbSpline
 70
     0
 71
     3
 72
     9
 73
     5
 74
     0
 42
0.000000001
 43
0.0000001
 40
0.0
 40
0.0
 40
0.0
 40
0.0
 40
0.2569213469
 40
1.0
 40
1.0
 40
1.0
 40
1.0
 10
94.3783380561
 20
123.6919332591
 30
0.0
 10
94.3873765608
 20
123.7113483881
 30
0.0
 10
94.4239383623
 20
123.7862569566
 30
0.0
 10
94.4662575627
 20
123.8584243472
 30
0.0
 10
94.5012501018
 20
123.9095329526
 30
0.0
  0
SPLINE
  5
3C1
330
20B
100
AcDbEntity
  8
7_ALL_FEATURES
  6
Continuous
 62
     9
100
AcDbSpline
 70
     0
 71
     3
 72
    10
 73
     6
 74
     0
 42
0.000000001
 43
0.0000001
 40
0.0
 40
0.0
 40
0.0
 40
0.0
 40
0.2579580986
 40
0.5019338478
 40
1.0
 40
1.0
 40
1.0
 40
1.0
 10
94.5012501018
 20
123.9095329526
 30
0.0
 10
94.5602483185
 20
123.995703224
 30
0.0
 10
94.6961555693
 20
124.1508587402
 30
0.0
 10
95.0444578992
 20
124.3677608544
 30
0.0
 10
95.3544989282
 20
124.4111555101
 30
0.0
 10
95.5561370781
 20
124.4111556942
 30
0.0
  0
LINE
  5
3C2
330
20B
100
AcDbEntity
  8
7_ALL_FEATURES
  6
Continuous
 62
     7
100
AcDbLine
 10
535.537684
 20
118.48733
 30
0.0
 11
535.830319
 21
118.48733
 31
0.0
  0
LINE
  5
3C3
330
20B
100
AcDbEntity
  8
7_ALL_FEATURES
  6
Continuous
 62
     7
100
AcDbLine
 10
535.830319
 20
118.48733
 30
0.0
 11
537.037684
 21
118.48733
 31
0.0
  0
LINE
  5
3C4
330
20B
100
AcDbEntity
  8
7_ALL_FEATURES
  6
Continuous
 62
     7
100
AcDbLine
 10
535.537684
 20
118.48733
 30
0.0
 11
338.537684
 21
118.48733
 31
0.0
  0
LINE
  5
3C5
330
20B
100
AcDbEntity
  8
7_ALL_FEATURES
  6
Continuous
 62
     7
100
AcDbLine
 10
337.037684
 20
118.48733
 30
0.0
 11
338.307066
 21
118.48733
 31
0.0
  0
LINE
  5
3C6
330
20B
100
AcDbEntity
  8
7_ALL_FEATURES
  6
Continuous
 62
     7
100
AcDbLine
 10
338.307066
 20
118.48733
 30
0.0
 11
338.537684
 21
118.48733
 31
0.0
  0
LINE
  5
3C7
330
20B
100
AcDbEntity
  8
6_ALL_SURFS
  6
Continuous
 62
     7
100
AcDbLine
 10
514.037684
 20
123.68733
 30
0.0
 11
519.880329
 21
123.68733
 31
0.0
  0
LINE
  5
3C8
330
20B
100
AcDbEntity
  8
6_ALL_SURFS
  6
Continuous
 62
     7
100
AcDbLine
 10
519.880329
 20
123.68733
 30
0.0
 11
521.063527
 21
123.68733
 31
0.0
  0
LINE
  5
3C9
330
20B
100
AcDbEntity
  8
7_ALL_FEATURES
  6
Continuous
 62
     7
100
AcDbLine
 10
483.918919
 20
123.68733
 30
0.0
 11
514.037684
 21
123.68733
 31
0.0
  0
LINE
  5
3CA
330
20B
100
AcDbEntity
  8
7_ALL_FEATURES
  6
Continuous
 62
     7
100
AcDbLine
 10
393.668919
 20
123.68733
 30
0.0
 11
480.406449
 21
123.68733
 31
0.0
  0
LINE
  5
3CB
330
20B
100
AcDbEntity
  8
7_ALL_FEATURES
  6
Continuous
 62
     7
100
AcDbLine
 10
360.037684
 20
123.68733
 30
0.0
 11
390.156449
 21
123.68733
 31
0.0
  0
LINE
  5
3CC
330
20B
100
AcDbEntity
  8
6_ALL_SURFS
  6
Continuous
 62
     7
100
AcDbLine
 10
353.011841
 20
123.68733
 30
0.0
 11
354.195142
 21
123.68733
 31
0.0
  0
LINE
  5
3CD
330
20B
100
AcDbEntity
  8
6_ALL_SURFS
  6
Continuous
 62
     7
100
AcDbLine
 10
354.195142
 20
123.68733
 30
0.0
 11
360.037684
 21
123.68733
 31
0.0
  0
LINE
  5
3CE
330
20B
100
AcDbEntity
  8
7_ALL_FEATURES
  6
Continuous
 62
     7
100
AcDbLine
 10
398.037684
 20
113.38733
 30
0.0
 11
396.254694
 21
113.38733
 31
0.0
  0
LINE
  5
3CF
330
20B
100
AcDbEntity
  8
7_ALL_FEATURES
  6
Continuous
 62
     7
100
AcDbLine
 10
476.037684
 20
113.38733
 30
0.0
 11
398.037684
 21
113.38733
 31
0.0
  0
LINE
  5
3D0
330
20B
100
AcDbEntity
  8
7_ALL_FEATURES
  6
Continuous
 62
     7
100
AcDbLine
 10
477.820673
 20
113.38733
 30
0.0
 11
476.037684
 21
113.38733
 31
0.0
  0
LINE
  5
3D1
330
20B
100
AcDbEntity
  8
7_ALL_FEATURES
  6
Continuous
 62
     7
100
AcDbLine
 10
476.037684
 20
113.38733
 30
0.0
 11
477.820673
 21
113.38733
 31
0.0
  0
LINE
  5
3D2
330
20B
100
AcDbEntity
  8
7_ALL_FEATURES
  6
Continuous
 62
     7
100
AcDbLine
 10
398.037684
 20
113.38733
 30
0.0
 11
476.037684
 21
113.38733
 31
0.0
  0
LINE
  5
3D3
330
20B
100
AcDbEntity
  8
7_ALL_FEATURES
  6
Continuous
 62
     7
100
AcDbLine
 10
396.254694
 20
113.38733
 30
0.0
 11
398.037684
 21
113.38733
 31
0.0
  0
LINE
  5
3D4
330
20B
100
AcDbEntity
  8
7_ALL_FEATURES
  6
Continuous
 62
     7
100
AcDbLine
 10
337.90185
 20
113.38733
 30
0.0
 11
338.537684
 21
113.38733
 31
0.0
  0
LINE
  5
3D5
330
20B
100
AcDbEntity
  8
7_ALL_FEATURES
  6
Continuous
 62
     7
100
AcDbLine
 10
338.537684
 20
113.38733
 30
0.0
 11
535.537684
 21
113.38733
 31
0.0
  0
LINE
  5
3D6
330
20B
100
AcDbEntity
  8
7_ALL_FEATURES
  6
Continuous
 62
     7
100
AcDbLine
 10
535.537684
 20
113.38733
 30
0.0
 11
536.173518
 21
113.38733
 31
0.0
  0
LINE
  5
3D7
330
20B
100
AcDbEntity
  8
7_ALL_FEATURES
  6
Continuous
 62
     7
100
AcDbLine
 10
535.537684
 20
113.38733
 30
0.0
 11
477.820673
 21
113.38733
 31
0.0
  0
LINE
  5
3D8
330
20B
100
AcDbEntity
  8
7_ALL_FEATURES
  6
Continuous
 62
     7
100
AcDbLine
 10
477.820673
 20
113.38733
 30
0.0
 11
476.037684
 21
113.38733
 31
0.0
  0
LINE
  5
3D9
330
20B
100
AcDbEntity
  8
7_ALL_FEATURES
  6
Continuous
 62
     7
100
AcDbLine
 10
476.037684
 20
113.38733
 30
0.0
 11
398.037684
 21
113.38733
 31
0.0
  0
LINE
  5
3DA
330
20B
100
AcDbEntity
  8
7_ALL_FEATURES
  6
Continuous
 62
     7
100
AcDbLine
 10
398.037684
 20
113.38733
 30
0.0
 11
396.254694
 21
113.38733
 31
0.0
  0
LINE
  5
3DB
330
20B
100
AcDbEntity
  8
7_ALL_FEATURES
  6
Continuous
 62
     7
100
AcDbLine
 10
396.254694
 20
113.38733
 30
0.0
 11
338.537684
 21
113.38733
 31
0.0
  0
LINE
  5
3DC
330
20B
100
AcDbEntity
  8
7_ALL_FEATURES
  6
Continuous
 62
     7
100
AcDbLine
 10
337.152107
 20
114.117698
 30
0.0
 11
337.037684
 21
118.48733
 31
0.0
  0
LINE
  5
3DD
330
20B
100
AcDbEntity
  8
7_ALL_FEATURES
  6
Continuous
 62
     7
100
AcDbLine
 10
536.923261
 20
114.117698
 30
0.0
 11
537.037684
 21
118.48733
 31
0.0
  0
LWPOLYLINE
  5
3DE
330
20B
100
AcDbEntity
  8
7_ALL_FEATURES
  6
Continuous
 62
     7
100
AcDbPolyline
 90
        3
 70
     0
 43
0.0
 10
353.479535
 20
124.22846
 10
353.479526
 20
124.228399
 10
353.430187
 20
124.126541
  0
LINE
  5
3DF
330
20B
100
AcDbEntity
  8
7_ALL_FEATURES
  6
Continuous
 62
     7
100
AcDbLine
 10
353.430187
 20
124.126541
 30
0.0
 11
353.352771
 21
123.966716
 31
0.0
  0
LWPOLYLINE
  5
3E0
330
20B
100
AcDbEntity
  8
7_ALL_FEATURES
  6
Continuous
 62
     7
100
AcDbPolyline
 90
        3
 70
     0
 43
0.0
 10
353.352771
 20
123.966716
 10
353.352739
 20
123.966651
 10
353.263923
 20
123.887165
  0
LINE
  5
3E1
330
20B
100
AcDbEntity
  8
7_ALL_FEATURES
  6
Continuous
 62
     7
100
AcDbLine
 10
353.263923
 20
123.887165
 30
0.0
 11
353.136705
 21
123.773311
 31
0.0
  0
LWPOLYLINE
  5
3E2
330
20B
100
AcDbEntity
  8
7_ALL_FEATURES
  6
Continuous
 62
     7
100
AcDbPolyline
 90
        3
 70
     0
 43
0.0
 10
353.136705
 20
123.773311
 10
353.136633
 20
123.773246
 10
352.998729
 20
123.724187
  0
LINE
  5
3E3
330
20B
100
AcDbEntity
  8
7_ALL_FEATURES
  6
Continuous
 62
     7
100
AcDbLine
 10
353.503515
 20
124.392453
 30
0.0
 11
353.503515
 21
124.392452
 31
0.0
  0
LINE
  5
3E4
330
20B
100
AcDbEntity
  8
7_ALL_FEATURES
  6
Continuous
 62
     7
100
AcDbLine
 10
353.5035
 20
124.392089
 30
0.0
 11
353.479551
 21
124.228493
 31
0.0
  0
LWPOLYLINE
  5
3E5
330
20B
100
AcDbEntity
  8
7_ALL_FEATURES
  6
Continuous
 62
     7
100
AcDbPolyline
 90
        4
 70
     0
 43
0.0
 10
353.479551
 20
124.228493
 10
353.352828
 20
123.966767
 10
353.136803
 20
123.773346
 10
352.99872
 20
123.724176
  0
LINE
  5
3E6
330
20B
100
AcDbEntity
  8
7_ALL_FEATURES
  6
Continuous
 62
     7
100
AcDbLine
 10
352.99872
 20
123.724176
 30
0.0
 11
352.864895
 21
123.676522
 31
0.0
  0
LINE
  5
3E7
330
20B
100
AcDbEntity
  8
7_ALL_FEATURES
  6
Continuous
 62
     7
100
AcDbLine
 10
393.636903
 20
123.687314
 30
0.0
 11
393.668919
 21
123.68733
 31
0.0
  0
LINE
  5
3E8
330
20B
100
AcDbEntity
  8
7_ALL_FEATURES
  6
Continuous
 62
     7
100
AcDbLine
 10
483.886916
 20
123.687314
 30
0.0
 11
483.918919
 21
123.68733
 31
0.0
  0
LINE
  5
3E9
330
20B
100
AcDbEntity
  8
7_ALL_FEATURES
  6
Continuous
 62
     7
100
AcDbLine
 10
520.571853
 20
124.392465
 30
0.0
 11
520.571853
 21
124.392465
 31
0.0
  0
LINE
  5
3EA
330
20B
100
AcDbEntity
  8
7_ALL_FEATURES
  6
Continuous
 62
     7
100
AcDbLine
 10
521.210724
 20
123.676486
 30
0.0
 11
520.938735
 21
123.773246
 31
0.0
  0
LINE
  5
3EB
330
20B
100
AcDbEntity
  8
7_ALL_FEATURES
  6
Continuous
 62
     7
100
AcDbLine
 10
520.938735
 20
123.773246
 30
0.0
 11
520.722628
 21
123.966651
 31
0.0
  0
LWPOLYLINE
  5
3EC
330
20B
100
AcDbEntity
  8
7_ALL_FEATURES
  6
Continuous
 62
     7
100
AcDbPolyline
 90
        3
 70
     0
 43
0.0
 10
520.722628
 20
123.966651
 10
520.595842
 20
124.228399
 10
520.571867
 20
124.39209
  0
ARC
  5
3ED
330
20B
100
AcDbEntity
  8
6_ALL_SURFS
  6
Continuous
 62
     7
100
AcDbCircle
 10
363.743666
 20
124.68733
 30
0.0
 40
0.5
100
AcDbArc
 50
2.0
 51
90.0
  0
LINE
  5
3EE
330
20B
100
AcDbEntity
  8
6_ALL_SURFS
  6
Continuous
 62
     7
100
AcDbLine
 10
358.878891
 20
125.18733
 30
0.0
 11
362.679562
 21
125.18733
 31
0.0
  0
LINE
  5
3EF
330
20B
100
AcDbEntity
  8
6_ALL_SURFS
  6
Continuous
 62
     7
100
AcDbLine
 10
362.679562
 20
125.18733
 30
0.0
 11
363.260613
 21
125.18733
 31
0.0
  0
LINE
  5
3F0
330
20B
100
AcDbEntity
  8
6_ALL_SURFS
  6
Continuous
 62
     7
100
AcDbLine
 10
363.260613
 20
125.18733
 30
0.0
 11
363.743666
 21
125.18733
 31
0.0
  0
LINE
  5
3F1
330
20B
100
AcDbEntity
  8
6_ALL_SURFS
  6
Continuous
 62
     7
100
AcDbLine
 10
363.743666
 20
125.18733
 30
0.0
 11
363.304046
 21
125.18733
 31
0.0
  0
LINE
  5
3F2
330
20B
100
AcDbEntity
  8
6_ALL_SURFS
  6
Continuous
 62
     7
100
AcDbLine
 10
363.304046
 20
125.18733
 30
0.0
 11
362.555442
 21
125.18733
 31
0.0
  0
LINE
  5
3F3
330
20B
100
AcDbEntity
  8
6_ALL_SURFS
  6
Continuous
 62
     7
100
AcDbLine
 10
362.555442
 20
125.18733
 30
0.0
 11
358.878891
 21
125.18733
 31
0.0
  0
LINE
  5
3F4
330
20B
100
AcDbEntity
  8
6_ALL_SURFS
  6
Continuous
 62
     7
100
AcDbLine
 10
363.304046
 20
125.18733
 30
0.0
 11
363.743666
 21
125.18733
 31
0.0
  0
LINE
  5
3F5
330
20B
100
AcDbEntity
  8
6_ALL_SURFS
  6
Continuous
 62
     7
100
AcDbLine
 10
354.014117
 20
125.18733
 30
0.0
 11
354.497162
 21
125.18733
 31
0.0
  0
LINE
  5
3F6
330
20B
100
AcDbEntity
  8
6_ALL_SURFS
  6
Continuous
 62
     7
100
AcDbLine
 10
354.497162
 20
125.18733
 30
0.0
 11
355.07821
 21
125.18733
 31
0.0
  0
LINE
  5
3F7
330
20B
100
AcDbEntity
  8
6_ALL_SURFS
  6
Continuous
 62
     7
100
AcDbLine
 10
355.07821
 20
125.18733
 30
0.0
 11
358.878891
 21
125.18733
 31
0.0
  0
ARC
  5
3F8
330
20B
100
AcDbEntity
  8
6_ALL_SURFS
  6
Continuous
 62
     7
100
AcDbCircle
 10
354.014117
 20
124.68733
 30
0.0
 40
0.5
100
AcDbArc
 50
90.0
 51
178.0
  0
LINE
  5
3F9
330
20B
100
AcDbEntity
  8
6_ALL_SURFS
  6
Continuous
 62
     7
100
AcDbLine
 10
354.014117
 20
125.18733
 30
0.0
 11
354.453737
 21
125.18733
 31
0.0
  0
LINE
  5
3FA
330
20B
100
AcDbEntity
  8
6_ALL_SURFS
  6
Continuous
 62
     7
100
AcDbLine
 10
358.878891
 20
125.18733
 30
0.0
 11
355.20234
 21
125.18733
 31
0.0
  0
LINE
  5
3FB
330
20B
100
AcDbEntity
  8
6_ALL_SURFS
  6
Continuous
 62
     7
100
AcDbLine
 10
355.20234
 20
125.18733
 30
0.0
 11
354.453737
 21
125.18733
 31
0.0
  0
LINE
  5
3FC
330
20B
100
AcDbEntity
  8
6_ALL_SURFS
  6
Continuous
 62
     7
100
AcDbLine
 10
354.453737
 20
125.18733
 30
0.0
 11
354.014117
 21
125.18733
 31
0.0
  0
LINE
  5
3FD
330
20B
100
AcDbEntity
  8
6_ALL_SURFS
  6
Continuous
 62
     7
100
AcDbLine
 10
364.243361
 20
124.70478
 30
0.0
 11
364.278891
 21
123.68733
 31
0.0
  0
LINE
  5
3FE
330
20B
100
AcDbEntity
  8
6_ALL_SURFS
  6
Continuous
 62
     7
100
AcDbLine
 10
353.514421
 20
124.70478
 30
0.0
 11
353.503502
 21
124.392089
 31
0.0
  0
LINE
  5
3FF
330
20B
100
AcDbEntity
  8
7_ALL_FEATURES
  6
Continuous
 62
     7
100
AcDbLine
 10
397.277154
 20
124.70478
 30
0.0
 11
397.312684
 21
123.68733
 31
0.0
  0
ARC
  5
400
330
20B
100
AcDbEntity
  8
6_ALL_SURFS
  6
Continuous
 62
     7
100
AcDbCircle
 10
510.331702
 20
124.68733
 30
0.0
 40
0.5
100
AcDbArc
 50
90.0
 51
178.0
  0
LINE
  5
401
330
20B
100
AcDbEntity
  8
6_ALL_SURFS
  6
Continuous
 62
     7
100
AcDbLine
 10
515.196477
 20
125.18733
 30
0.0
 11
511.395806
 21
125.18733
 31
0.0
  0
LINE
  5
402
330
20B
100
AcDbEntity
  8
6_ALL_SURFS
  6
Continuous
 62
     7
100
AcDbLine
 10
511.395806
 20
125.18733
 30
0.0
 11
510.814755
 21
125.18733
 31
0.0
  0
LINE
  5
403
330
20B
100
AcDbEntity
  8
6_ALL_SURFS
  6
Continuous
 62
     7
100
AcDbLine
 10
510.814755
 20
125.18733
 30
0.0
 11
510.331702
 21
125.18733
 31
0.0
  0
LINE
  5
404
330
20B
100
AcDbEntity
  8
7_ALL_FEATURES
  6
Continuous
 62
     7
100
AcDbLine
 10
386.548214
 20
124.70478
 30
0.0
 11
386.512684
 21
123.68733
 31
0.0
  0
LINE
  5
405
330
20B
100
AcDbEntity
  8
6_ALL_SURFS
  6
Continuous
 62
     7
100
AcDbLine
 10
510.331702
 20
125.18733
 30
0.0
 11
510.771322
 21
125.18733
 31
0.0
  0
LINE
  5
406
330
20B
100
AcDbEntity
  8
6_ALL_SURFS
  6
Continuous
 62
     7
100
AcDbLine
 10
510.771322
 20
125.18733
 30
0.0
 11
511.519925
 21
125.18733
 31
0.0
  0
LINE
  5
407
330
20B
100
AcDbEntity
  8
6_ALL_SURFS
  6
Continuous
 62
     7
100
AcDbLine
 10
511.519925
 20
125.18733
 30
0.0
 11
515.196477
 21
125.18733
 31
0.0
  0
LINE
  5
408
330
20B
100
AcDbEntity
  8
6_ALL_SURFS
  6
Continuous
 62
     7
100
AcDbLine
 10
510.771322
 20
125.18733
 30
0.0
 11
510.331702
 21
125.18733
 31
0.0
  0
LINE
  5
409
330
20B
100
AcDbEntity
  8
6_ALL_SURFS
  6
Continuous
 62
     7
100
AcDbLine
 10
520.061251
 20
125.18733
 30
0.0
 11
519.578206
 21
125.18733
 31
0.0
  0
LINE
  5
40A
330
20B
100
AcDbEntity
  8
6_ALL_SURFS
  6
Continuous
 62
     7
100
AcDbLine
 10
519.578206
 20
125.18733
 30
0.0
 11
518.997158
 21
125.18733
 31
0.0
  0
LINE
  5
40B
330
20B
100
AcDbEntity
  8
6_ALL_SURFS
  6
Continuous
 62
     7
100
AcDbLine
 10
518.997158
 20
125.18733
 30
0.0
 11
515.196477
 21
125.18733
 31
0.0
  0
ARC
  5
40C
330
20B
100
AcDbEntity
  8
6_ALL_SURFS
  6
Continuous
 62
     7
100
AcDbCircle
 10
520.061251
 20
124.68733
 30
0.0
 40
0.5
100
AcDbArc
 50
2.0
 51
90.0
  0
LINE
  5
40D
330
20B
100
AcDbEntity
  8
6_ALL_SURFS
  6
Continuous
 62
     7
100
AcDbLine
 10
520.061251
 20
125.18733
 30
0.0
 11
519.621631
 21
125.18733
 31
0.0
  0
LINE
  5
40E
330
20B
100
AcDbEntity
  8
6_ALL_SURFS
  6
Continuous
 62
     7
100
AcDbLine
 10
515.196477
 20
125.18733
 30
0.0
 11
518.873028
 21
125.18733
 31
0.0
  0
LINE
  5
40F
330
20B
100
AcDbEntity
  8
6_ALL_SURFS
  6
Continuous
 62
     7
100
AcDbLine
 10
518.873028
 20
125.18733
 30
0.0
 11
519.621631
 21
125.18733
 31
0.0
  0
LINE
  5
410
330
20B
100
AcDbEntity
  8
6_ALL_SURFS
  6
Continuous
 62
     7
100
AcDbLine
 10
519.621631
 20
125.18733
 30
0.0
 11
520.061251
 21
125.18733
 31
0.0
  0
LINE
  5
411
330
20B
100
AcDbEntity
  8
6_ALL_SURFS
  6
Continuous
 62
     7
100
AcDbLine
 10
396.777458
 20
125.18733
 30
0.0
 11
395.719878
 21
125.18733
 31
0.0
  0
LINE
  5
412
330
20B
100
AcDbEntity
  8
6_ALL_SURFS
  6
Continuous
 62
     7
100
AcDbLine
 10
395.719878
 20
125.18733
 30
0.0
 11
388.105501
 21
125.18733
 31
0.0
  0
LINE
  5
413
330
20B
100
AcDbEntity
  8
6_ALL_SURFS
  6
Continuous
 62
     7
100
AcDbLine
 10
388.105501
 20
125.18733
 30
0.0
 11
387.047909
 21
125.18733
 31
0.0
  0
LINE
  5
414
330
20B
100
AcDbEntity
  8
6_ALL_SURFS
  6
Continuous
 62
     7
100
AcDbLine
 10
509.796477
 20
123.68733
 30
0.0
 11
509.832007
 21
124.70478
 31
0.0
  0
LINE
  5
415
330
20B
100
AcDbEntity
  8
6_ALL_SURFS
  6
Continuous
 62
     7
100
AcDbLine
 10
520.571866
 20
124.39209
 30
0.0
 11
520.560946
 21
124.70478
 31
0.0
  0
ARC
  5
416
330
20B
100
AcDbEntity
  8
6_ALL_SURFS
  6
Continuous
 62
     7
100
AcDbCircle
 10
396.777458
 20
124.68733
 30
0.0
 40
0.5
100
AcDbArc
 50
2.0
 51
90.0
  0
ARC
  5
417
330
20B
100
AcDbEntity
  8
6_ALL_SURFS
  6
Continuous
 62
     7
100
AcDbCircle
 10
387.047909
 20
124.68733
 30
0.0
 40
0.5
100
AcDbArc
 50
90.0
 51
178.0
  0
LINE
  5
418
330
20B
100
AcDbEntity
  8
7_ALL_FEATURES
  6
Continuous
 62
     7
100
AcDbLine
 10
476.798214
 20
124.70478
 30
0.0
 11
476.762684
 21
123.68733
 31
0.0
  0
LINE
  5
419
330
20B
100
AcDbEntity
  8
7_ALL_FEATURES
  6
Continuous
 62
     7
100
AcDbLine
 10
487.527154
 20
124.70478
 30
0.0
 11
487.562684
 21
123.68733
 31
0.0
  0
LINE
  5
41A
330
20B
100
AcDbEntity
  8
6_ALL_SURFS
  6
Continuous
 62
     7
100
AcDbLine
 10
477.297909
 20
125.18733
 30
0.0
 11
478.35549
 21
125.18733
 31
0.0
  0
LINE
  5
41B
330
20B
100
AcDbEntity
  8
6_ALL_SURFS
  6
Continuous
 62
     7
100
AcDbLine
 10
478.35549
 20
125.18733
 30
0.0
 11
485.969866
 21
125.18733
 31
0.0
  0
LINE
  5
41C
330
20B
100
AcDbEntity
  8
6_ALL_SURFS
  6
Continuous
 62
     7
100
AcDbLine
 10
485.969866
 20
125.18733
 30
0.0
 11
487.027458
 21
125.18733
 31
0.0
  0
ARC
  5
41D
330
20B
100
AcDbEntity
  8
6_ALL_SURFS
  6
Continuous
 62
     7
100
AcDbCircle
 10
477.297909
 20
124.68733
 30
0.0
 40
0.5
100
AcDbArc
 50
90.0
 51
178.0
  0
ARC
  5
41E
330
20B
100
AcDbEntity
  8
6_ALL_SURFS
  6
Continuous
 62
     7
100
AcDbCircle
 10
487.027458
 20
124.68733
 30
0.0
 40
0.5
100
AcDbArc
 50
2.0
 51
90.0
  0
LINE
  5
41F
330
20B
100
AcDbEntity
  8
6_ALL_SURFS
  6
Continuous
 62
     7
100
AcDbLine
 10
522.173851
 20
118.48733
 30
0.0
 11
522.063184
 21
122.713507
 31
0.0
  0
LINE
  5
420
330
20B
100
AcDbEntity
  8
6_ALL_SURFS
  6
Continuous
 62
     7
100
AcDbLine
 10
351.901517
 20
118.48733
 30
0.0
 11
352.012183
 21
122.713507
 31
0.0
  0
LINE
  5
421
330
20B
100
AcDbEntity
  8
7_ALL_FEATURES
  6
Continuous
 62
     7
100
AcDbLine
 10
480.406449
 20
123.68733
 30
0.0
 11
480.437256
 21
123.687318
 31
0.0
  0
LINE
  5
422
330
20B
100
AcDbEntity
  8
7_ALL_FEATURES
  6
Continuous
 62
     7
100
AcDbLine
 10
390.156449
 20
123.68733
 30
0.0
 11
390.187214
 21
123.687318
 31
0.0
  0
ARC
  5
423
330
20B
100
AcDbEntity
  8
6_ALL_SURFS
  6
Continuous
 62
     7
100
AcDbCircle
 10
353.011841
 20
122.68733
 30
0.0
 40
1.0
100
AcDbArc
 50
90.0
 51
178.5
  0
ARC
  5
424
330
20B
100
AcDbEntity
  8
6_ALL_SURFS
  6
Continuous
 62
     7
100
AcDbCircle
 10
521.063527
 20
122.68733
 30
0.0
 40
1.0
100
AcDbArc
 50
1.5
 51
90.0
  0
SPLINE
  5
425
330
20B
100
AcDbEntity
  8
7_ALL_FEATURES
  6
Continuous
 62
     7
100
AcDbSpline
 70
     0
 71
     3
 72
     8
 73
     4
 74
     0
 42
0.000000001
 43
0.0000001
 40
0.0
 40
0.0
 40
0.0
 40
0.0
 40
1.0
 40
1.0
 40
1.0
 40
1.0
 10
337.152106683
 20
114.1176976055
 30
0.0
 10
337.16485691
 20
113.6307860797
 30
0.0
 10
337.4147712413
 20
113.3873303167
 30
0.0
 10
337.9018496767
 20
113.3873303167
 30
0.0
  0
SPLINE
  5
426
330
20B
100
AcDbEntity
  8
7_ALL_FEATURES
  6
Continuous
 62
     7
100
AcDbSpline
 70
     0
 71
     3
 72
     8
 73
     4
 74
     0
 42
0.000000001
 43
0.0000001
 40
0.0
 40
0.0
 40
0.0
 40
0.0
 40
1.0
 40
1.0
 40
1.0
 40
1.0
 10
337.152106683
 20
114.1176976055
 30
0.0
 10
337.16485691
 20
113.6307860797
 30
0.0
 10
337.4147712413
 20
113.3873303167
 30
0.0
 10
337.9018496767
 20
113.3873303167
 30
0.0
  0
SPLINE
  5
427
330
20B
100
AcDbEntity
  8
7_ALL_FEATURES
  6
Continuous
 62
     7
100
AcDbSpline
 70
     0
 71
     3
 72
     8
 73
     4
 74
     0
 42
0.000000001
 43
0.0000001
 40
0.0
 40
0.0
 40
0.0
 40
0.0
 40
1.0
 40
1.0
 40
1.0
 40
1.0
 10
536.9232609641
 20
114.1176976055
 30
0.0
 10
536.910510737
 20
113.6307860797
 30
0.0
 10
536.6605964058
 20
113.3873303167
 30
0.0
 10
536.1735179703
 20
113.3873303167
 30
0.0
  0
SPLINE
  5
428
330
20B
100
AcDbEntity
  8
7_ALL_FEATURES
  6
Continuous
 62
     7
100
AcDbSpline
 70
     0
 71
     3
 72
     8
 73
     4
 74
     0
 42
0.000000001
 43
0.0000001
 40
0.0
 40
0.0
 40
0.0
 40
0.0
 40
1.0
 40
1.0
 40
1.0
 40
1.0
 10
536.9232609641
 20
114.1176976055
 30
0.0
 10
536.910510737
 20
113.6307860797
 30
0.0
 10
536.6605964058
 20
113.3873303167
 30
0.0
 10
536.1735179703
 20
113.3873303167
 30
0.0
  0
SPLINE
  5
429
330
20B
100
AcDbEntity
  8
7_ALL_FEATURES
  6
Continuous
 62
     9
100
AcDbSpline
 70
     0
 71
     3
 72
     9
 73
     5
 74
     0
 42
0.000000001
 43
0.0000001
 40
0.0
 40
0.0
 40
0.0
 40
0.0
 40
0.5000318076
 40
1.0
 40
1.0
 40
1.0
 40
1.0
 10
390.1871672551
 20
123.6873182919
 30
0.0
 10
390.762165015
 20
123.6868657499
 30
0.0
 10
391.9120535562
 20
123.6660232281
 30
0.0
 10
393.0619421734
 20
123.6868208605
 30
0.0
 10
393.6368667452
 20
123.687316518
 30
0.0
  0
LINE
  5
42A
330
20B
100
AcDbEntity
  8
6_ALL_SURFS
  6
Continuous
 62
     9
100
AcDbLine
 10
397.277154
 20
124.70478
 30
0.0
 11
396.106795
 21
124.70478
 31
0.0
  0
LINE
  5
42B
330
20B
100
AcDbEntity
  8
6_ALL_SURFS
  6
Continuous
 62
     9
100
AcDbLine
 10
396.106795
 20
124.70478
 30
0.0
 11
387.718572
 21
124.70478
 31
0.0
  0
LINE
  5
42C
330
20B
100
AcDbEntity
  8
6_ALL_SURFS
  6
Continuous
 62
     9
100
AcDbLine
 10
387.718572
 20
124.70478
 30
0.0
 11
386.548214
 21
124.70478
 31
0.0
  0
LINE
  5
42D
330
20B
100
AcDbEntity
  8
6_ALL_SURFS
  6
Continuous
 62
     9
100
AcDbLine
 10
360.037684
 20
118.48733
 30
0.0
 11
360.037684
 21
122.713507
 31
0.0
  0
LINE
  5
42E
330
20B
100
AcDbEntity
  8
6_ALL_SURFS
  6
Continuous
 62
     9
100
AcDbLine
 10
360.037684
 20
122.713507
 30
0.0
 11
514.037684
 21
122.713507
 31
0.0
  0
LINE
  5
42F
330
20B
100
AcDbEntity
  8
6_ALL_SURFS
  6
Continuous
 62
     9
100
AcDbLine
 10
514.037684
 20
118.48733
 30
0.0
 11
514.037684
 21
122.713507
 31
0.0
  0
SPLINE
  5
430
330
20B
100
AcDbEntity
  8
7_ALL_FEATURES
  6
Continuous
 62
     9
100
AcDbSpline
 70
     0
 71
     3
 72
     9
 73
     5
 74
     0
 42
0.000000001
 43
0.0000001
 40
0.0
 40
0.0
 40
0.0
 40
0.0
 40
0.5000311266
 40
1.0
 40
1.0
 40
1.0
 40
1.0
 10
480.437210695
 20
123.6873182567
 30
0.0
 10
481.0122024453
 20
123.6868648761
 30
0.0
 10
482.1620805332
 20
123.6660224201
 30
0.0
 10
483.3119586948
 20
123.686821261
 30
0.0
 10
483.8868788249
 20
123.6873165372
 30
0.0
  0
LINE
  5
431
330
20B
100
AcDbEntity
  8
6_ALL_SURFS
  6
Continuous
 62
     9
100
AcDbLine
 10
514.037684
 20
122.713507
 30
0.0
 11
519.012183
 21
122.713507
 31
0.0
  0
LINE
  5
432
330
20B
100
AcDbEntity
  8
6_ALL_SURFS
  6
Continuous
 62
     9
100
AcDbLine
 10
519.012183
 20
122.713507
 30
0.0
 11
522.063184
 21
122.713507
 31
0.0
  0
LINE
  5
433
330
20B
100
AcDbEntity
  8
6_ALL_SURFS
  6
Continuous
 62
     9
100
AcDbLine
 10
352.012183
 20
122.713507
 30
0.0
 11
355.063184
 21
122.713507
 31
0.0
  0
LINE
  5
434
330
20B
100
AcDbEntity
  8
6_ALL_SURFS
  6
Continuous
 62
     9
100
AcDbLine
 10
355.063184
 20
122.713507
 30
0.0
 11
360.037684
 21
122.713507
 31
0.0
  0
LINE
  5
435
330
20B
100
AcDbEntity
  8
6_ALL_SURFS
  6
Continuous
 62
     9
100
AcDbLine
 10
360.037684
 20
123.68733
 30
0.0
 11
360.037684
 21
122.713507
 31
0.0
  0
LINE
  5
436
330
20B
100
AcDbEntity
  8
6_ALL_SURFS
  6
Continuous
 62
     9
100
AcDbLine
 10
514.037684
 20
123.68733
 30
0.0
 11
514.037684
 21
122.713507
 31
0.0
  0
LINE
  5
437
330
20B
100
AcDbEntity
  8
6_ALL_SURFS
  6
Continuous
 62
     9
100
AcDbLine
 10
476.798214
 20
124.70478
 30
0.0
 11
477.968572
 21
124.70478
 31
0.0
  0
LINE
  5
438
330
20B
100
AcDbEntity
  8
6_ALL_SURFS
  6
Continuous
 62
     9
100
AcDbLine
 10
477.968572
 20
124.70478
 30
0.0
 11
486.356795
 21
124.70478
 31
0.0
  0
LINE
  5
439
330
20B
100
AcDbEntity
  8
6_ALL_SURFS
  6
Continuous
 62
     9
100
AcDbLine
 10
486.356795
 20
124.70478
 30
0.0
 11
487.527154
 21
124.70478
 31
0.0
  0
SPLINE
  5
43A
330
20B
100
AcDbEntity
  8
7_ALL_FEATURES
  6
Continuous
 62
     9
100
AcDbSpline
 70
     0
 71
     3
 72
    10
 73
     6
 74
     0
 42
0.000000001
 43
0.0000001
 40
0.0
 40
0.0
 40
0.0
 40
0.0
 40
0.4993016749
 40
0.7432827356
 40
1.0
 40
1.0
 40
1.0
 40
1.0
 10
485.4835930242
 20
124.4111556942
 30
0.0
 10
485.6812399323
 20
124.4111324283
 30
0.0
 10
485.9843424379
 20
124.369645249
 30
0.0
 10
486.3279162238
 20
124.1630482599
 30
0.0
 10
486.4635974699
 20
124.0145916983
 30
0.0
 10
486.5227633606
 20
123.9319711243
 30
0.0
  0
SPLINE
  5
43B
330
20B
100
AcDbEntity
  8
7_ALL_FEATURES
  6
Continuous
 62
     9
100
AcDbSpline
 70
     0
 71
     3
 72
     9
 73
     5
 74
     0
 42
0.000000001
 43
0.0000001
 40
0.0
 40
0.0
 40
0.0
 40
0.0
 40
0.2427289848
 40
1.0
 40
1.0
 40
1.0
 40
1.0
 10
486.5227633606
 20
123.9319711243
 30
0.0
 10
486.5357282308
 20
123.9138666895
 30
0.0
 10
486.5871872329
 20
123.837885631
 30
0.0
 10
486.6310502763
 20
123.7568744421
 30
0.0
 10
486.6604525751
 20
123.6939313285
 30
0.0
  0
LINE
  5
43C
330
20B
100
AcDbEntity
  8
7_ALL_FEATURES
  6
Continuous
 62
     9
100
AcDbLine
 10
483.703975
 20
124.411156
 30
0.0
 11
485.483593
 21
124.411156
 31
0.0
  0
SPLINE
  5
43D
330
20B
100
AcDbEntity
  8
7_ALL_FEATURES
  6
Continuous
 62
     9
100
AcDbSpline
 70
     0
 71
     3
 72
     9
 73
     5
 74
     0
 42
0.000000001
 43
0.0000001
 40
0.0
 40
0.0
 40
0.0
 40
0.0
 40
0.5000990354
 40
1.0
 40
1.0
 40
1.0
 40
1.0
 10
480.6213930065
 20
124.4111556942
 30
0.0
 10
481.1352976809
 20
124.4111494997
 30
0.0
 10
482.1627856863
 20
124.3730284673
 30
0.0
 10
483.1902735048
 20
124.4111594151
 30
0.0
 10
483.7039746405
 20
124.4111556942
 30
0.0
  0
LINE
  5
43E
330
20B
100
AcDbEntity
  8
7_ALL_FEATURES
  6
Continuous
 62
     9
100
AcDbLine
 10
478.841775
 20
124.411156
 30
0.0
 11
480.621393
 21
124.411156
 31
0.0
  0
SPLINE
  5
43F
330
20B
100
AcDbEntity
  8
7_ALL_FEATURES
  6
Continuous
 62
     9
100
AcDbSpline
 70
     0
 71
     3
 72
     9
 73
     5
 74
     0
 42
0.000000001
 43
0.0000001
 40
0.0
 40
0.0
 40
0.0
 40
0.0
 40
0.260985563
 40
1.0
 40
1.0
 40
1.0
 40
1.0
 10
477.6627209464
 20
123.6892486941
 30
0.0
 10
477.6768138172
 20
123.7196635102
 30
0.0
 10
477.7341564489
 20
123.8345715565
 30
0.0
 10
477.8058221148
 20
123.9427283586
 30
0.0
 10
477.8674318268
 20
124.0149361937
 30
0.0
  0
SPLINE
  5
440
330
20B
100
AcDbEntity
  8
7_ALL_FEATURES
  6
Continuous
 62
     9
100
AcDbSpline
 70
     0
 71
     3
 72
     9
 73
     5
 74
     0
 42
0.000000001
 43
0.0000001
 40
0.0
 40
0.0
 40
0.0
 40
0.0
 40
0.4946799202
 40
1.0
 40
1.0
 40
1.0
 40
1.0
 10
477.8674318268
 20
124.0149361937
 30
0.0
 10
477.9829584831
 20
124.1503357839
 30
0.0
 10
478.2926994987
 20
124.3682828404
 30
0.0
 10
478.659959024
 20
124.4111529804
 30
0.0
 10
478.8417746229
 20
124.4111556942
 30
0.0
  0
SPLINE
  5
441
330
20B
100
AcDbEntity
  8
7_ALL_FEATURES
  6
Continuous
 62
     9
100
AcDbSpline
 70
     0
 71
     3
 72
    10
 73
     6
 74
     0
 42
0.000000001
 43
0.0000001
 40
0.0
 40
0.0
 40
0.0
 40
0.0
 40
0.497905077
 40
0.7418695422
 40
1.0
 40
1.0
 40
1.0
 40
1.0
 10
395.2335930242
 20
124.4111556942
 30
0.0
 10
395.4363520043
 20
124.4111511012
 30
0.0
 10
395.748304937
 20
124.3672042057
 30
0.0
 10
396.0977764078
 20
124.1474649229
 30
0.0
 10
396.2336568912
 20
123.9905770292
 30
0.0
 10
396.2925759061
 20
123.9035246019
 30
0.0
  0
SPLINE
  5
442
330
20B
100
AcDbEntity
  8
7_ALL_FEATURES
  6
Continuous
 62
     9
100
AcDbSpline
 70
     0
 71
     3
 72
     8
 73
     4
 74
     0
 42
0.000000001
 43
0.0000001
 40
0.0
 40
0.0
 40
0.0
 40
0.0
 40
1.0
 40
1.0
 40
1.0
 40
1.0
 10
396.2925759061
 20
123.9035246019
 30
0.0
 10
396.3387714356
 20
123.8352710341
 30
0.0
 10
396.3787663145
 20
123.7625865033
 30
0.0
 10
396.4133390311
 20
123.6877713729
 30
0.0
  0
LINE
  5
443
330
20B
100
AcDbEntity
  8
7_ALL_FEATURES
  6
Continuous
 62
     9
100
AcDbLine
 10
393.453975
 20
124.411156
 30
0.0
 11
395.233593
 21
124.411156
 31
0.0
  0
LINE
  5
444
330
20B
100
AcDbEntity
  8
7_ALL_FEATURES
  6
Continuous
 62
     9
100
AcDbLine
 10
535.537684
 20
114.117698
 30
0.0
 11
536.923261
 21
114.117698
 31
0.0
  0
LINE
  5
445
330
20B
100
AcDbEntity
  8
7_ALL_FEATURES
  6
Continuous
 62
     9
100
AcDbLine
 10
337.152107
 20
114.117698
 30
0.0
 11
338.537684
 21
114.117698
 31
0.0
  0
LINE
  5
446
330
20B
100
AcDbEntity
  8
7_ALL_FEATURES
  6
Continuous
 62
     9
100
AcDbLine
 10
338.537684
 20
114.117698
 30
0.0
 11
338.537684
 21
113.38733
 31
0.0
  0
LINE
  5
447
330
20B
100
AcDbEntity
  8
7_ALL_FEATURES
  6
Continuous
 62
     9
100
AcDbLine
 10
535.537684
 20
114.117698
 30
0.0
 11
535.537684
 21
113.38733
 31
0.0
  0
SPLINE
  5
448
330
20B
100
AcDbEntity
  8
7_ALL_FEATURES
  6
Continuous
 62
     9
100
AcDbSpline
 70
     0
 71
     3
 72
     9
 73
     5
 74
     0
 42
0.000000001
 43
0.0000001
 40
0.0
 40
0.0
 40
0.0
 40
0.0
 40
0.5001013302
 40
1.0
 40
1.0
 40
1.0
 40
1.0
 10
390.3713930065
 20
124.4111556942
 30
0.0
 10
390.8853000344
 20
124.4111490524
 30
0.0
 10
391.9127880466
 20
124.373031031
 30
0.0
 10
392.9402758677
 20
124.4111593075
 30
0.0
 10
393.4539746405
 20
124.4111556942
 30
0.0
  0
SPLINE
  5
449
330
20B
100
AcDbEntity
  8
7_ALL_FEATURES
  6
Continuous
 62
     9
100
AcDbSpline
 70
     0
 71
     3
 72
    11
 73
     7
 74
     0
 42
0.000000001
 43
0.0000001
 40
0.0
 40
0.0
 40
0.0
 40
0.0
 40
0.2221497037
 40
0.4614962948
 40
0.7233371673
 40
1.0
 40
1.0
 40
1.0
 40
1.0
 10
520.0118406945
 20
123.6873303167
 30
0.0
 10
519.9360667307
 20
123.6873303168
 30
0.0
 10
519.7768361928
 20
123.7288242998
 30
0.0
 10
519.584328782
 20
123.8938677383
 30
0.0
 10
519.4578270256
 20
124.1327700116
 30
0.0
 10
519.4250830087
 20
124.3168231735
 30
0.0
 10
519.4224928863
 20
124.4111556942
 30
0.0
  0
SPLINE
  5
44A
330
20B
100
AcDbEntity
  8
7_ALL_FEATURES
  6
Continuous
 62
     9
100
AcDbSpline
 70
     0
 71
     3
 72
     9
 73
     5
 74
     0
 42
0.000000001
 43
0.0000001
 40
0.0
 40
0.0
 40
0.0
 40
0.0
 40
0.4925514361
 40
1.0
 40
1.0
 40
1.0
 40
1.0
 10
521.0635269517
 20
123.6873303167
 30
0.0
 10
520.8829527534
 20
123.687330317
 30
0.0
 10
520.503435134
 20
123.8472331146
 30
0.0
 10
520.3516782429
 20
124.225223871
 30
0.0
 10
520.3454642683
 20
124.4111556941
 30
0.0
  0
SPLINE
  5
44B
330
20B
100
AcDbEntity
  8
7_ALL_FEATURES
  6
Continuous
 62
     9
100
AcDbSpline
 70
     0
 71
     3
 72
    11
 73
     7
 74
     0
 42
0.000000001
 43
0.0000001
 40
0.0
 40
0.0
 40
0.0
 40
0.0
 40
0.1946245073
 40
0.4249954014
 40
0.6988133655
 40
1.0
 40
1.0
 40
1.0
 40
1.0
 10
478.3786503966
 20
123.6873303167
 30
0.0
 10
478.4392550367
 20
123.6873303167
 30
0.0
 10
478.5724152063
 20
123.7344081844
 30
0.0
 10
478.7193555143
 20
123.9028808569
 30
0.0
 10
478.8150849139
 20
124.1380108994
 30
0.0
 10
478.8397514748
 20
124.3173902153
 30
0.0
 10
478.8417746229
 20
124.4111556942
 30
0.0
  0
SPLINE
  5
44C
330
20B
100
AcDbEntity
  8
7_ALL_FEATURES
  6
Continuous
 62
     9
100
AcDbSpline
 70
     0
 71
     3
 72
    10
 73
     6
 74
     0
 42
0.000000001
 43
0.0000001
 40
0.0
 40
0.0
 40
0.0
 40
0.0
 40
0.1239239783
 40
0.340802089
 40
1.0
 40
1.0
 40
1.0
 40
1.0
 10
480.4064491243
 20
123.6873303167
 30
0.0
 10
480.4388817311
 20
123.687330317
 30
0.0
 10
480.5134284024
 20
123.7609119085
 30
0.0
 10
480.5945206727
 20
124.003897743
 30
0.0
 10
480.6196459168
 20
124.238643395
 30
0.0
 10
480.6213930041
 20
124.411155694
 30
0.0
  0
SPLINE
  5
44D
330
20B
100
AcDbEntity
  8
7_ALL_FEATURES
  6
Continuous
 62
     9
100
AcDbSpline
 70
     0
 71
     3
 72
    10
 73
     6
 74
     0
 42
0.000000001
 43
0.0000001
 40
0.0
 40
0.0
 40
0.0
 40
0.0
 40
0.1239470653
 40
0.3408239543
 40
1.0
 40
1.0
 40
1.0
 40
1.0
 10
483.9189185232
 20
123.6873303167
 30
0.0
 10
483.8864790699
 20
123.6873303169
 30
0.0
 10
483.8119121004
 20
123.760898272
 30
0.0
 10
483.7308098643
 20
124.0039010421
 30
0.0
 10
483.7057021892
 20
124.2386446439
 30
0.0
 10
483.7039746455
 20
124.4111556941
 30
0.0
  0
SPLINE
  5
44E
330
20B
100
AcDbEntity
  8
7_ALL_FEATURES
  6
Continuous
 62
     9
100
AcDbSpline
 70
     0
 71
     3
 72
    11
 73
     7
 74
     0
 42
0.000000001
 43
0.0000001
 40
0.0
 40
0.0
 40
0.0
 40
0.0
 40
0.1946258695
 40
0.4249969439
 40
0.6988141803
 40
1.0
 40
1.0
 40
1.0
 40
1.0
 10
485.9467172503
 20
123.6873303167
 30
0.0
 10
485.8861120991
 20
123.6873303168
 30
0.0
 10
485.7529511323
 20
123.7344079015
 30
0.0
 10
485.6060099927
 20
123.9028807823
 30
0.0
 10
485.5102810361
 20
124.1380110352
 30
0.0
 10
485.4856155253
 20
124.3173903206
 30
0.0
 10
485.4835930226
 20
124.4111556942
 30
0.0
  0
LINE
  5
44F
330
20B
100
AcDbEntity
  8
7_ALL_FEATURES
  6
Continuous
 62
     9
100
AcDbLine
 10
388.591775
 20
124.411156
 30
0.0
 11
390.371393
 21
124.411156
 31
0.0
  0
SPLINE
  5
450
330
20B
100
AcDbEntity
  8
7_ALL_FEATURES
  6
Continuous
 62
     9
100
AcDbSpline
 70
     0
 71
     3
 72
     9
 73
     5
 74
     0
 42
0.000000001
 43
0.0000001
 40
0.0
 40
0.0
 40
0.0
 40
0.0
 40
0.2569213469
 40
1.0
 40
1.0
 40
1.0
 40
1.0
 10
387.4139756008
 20
123.6919332591
 30
0.0
 10
387.4230141055
 20
123.7113483881
 30
0.0
 10
387.459575907
 20
123.7862569566
 30
0.0
 10
387.5018951074
 20
123.8584243472
 30
0.0
 10
387.5368876465
 20
123.9095329526
 30
0.0
  0
SPLINE
  5
451
330
20B
100
AcDbEntity
  8
7_ALL_FEATURES
  6
Continuous
 62
     9
100
AcDbSpline
 70
     0
 71
     3
 72
    10
 73
     6
 74
     0
 42
0.000000001
 43
0.0000001
 40
0.0
 40
0.0
 40
0.0
 40
0.0
 40
0.2579580986
 40
0.5019338478
 40
1.0
 40
1.0
 40
1.0
 40
1.0
 10
387.5368876465
 20
123.9095329526
 30
0.0
 10
387.5958858632
 20
123.995703224
 30
0.0
 10
387.7317931141
 20
124.1508587402
 30
0.0
 10
388.0800954439
 20
124.3677608544
 30
0.0
 10
388.3901364729
 20
124.4111555101
 30
0.0
 10
388.5917746229
 20
124.4111556942
 30
0.0
  0
SPLINE
  5
452
330
20B
100
AcDbEntity
  8
7_ALL_FEATURES
  6
Continuous
 62
     9
100
AcDbSpline
 70
     0
 71
     3
 72
    11
 73
     7
 74
     0
 42
0.000000001
 43
0.0000001
 40
0.0
 40
0.0
 40
0.0
 40
0.0
 40
0.1946245407
 40
0.4249954653
 40
0.6988133968
 40
1.0
 40
1.0
 40
1.0
 40
1.0
 10
388.1286503967
 20
123.6873303167
 30
0.0
 10
388.1892550469
 20
123.6873303168
 30
0.0
 10
388.3224152261
 20
123.7344082239
 30
0.0
 10
388.4693555426
 20
123.9028808907
 30
0.0
 10
388.5650849311
 20
124.1380109303
 30
0.0
 10
388.5897514763
 20
124.3173902255
 30
0.0
 10
388.5917746241
 20
124.4111556942
 30
0.0
  0
SPLINE
  5
453
330
20B
100
AcDbEntity
  8
7_ALL_FEATURES
  6
Continuous
 62
     9
100
AcDbSpline
 70
     0
 71
     3
 72
    10
 73
     6
 74
     0
 42
0.000000001
 43
0.0000001
 40
0.0
 40
0.0
 40
0.0
 40
0.0
 40
0.1239243128
 40
0.3408023939
 40
1.0
 40
1.0
 40
1.0
 40
1.0
 10
390.1564491239
 20
123.6873303167
 30
0.0
 10
390.18888183
 20
123.6873303169
 30
0.0
 10
390.263428798
 20
123.7609117021
 30
0.0
 10
390.3445212083
 20
124.0038977893
 30
0.0
 10
390.3696461969
 20
124.2386434095
 30
0.0
 10
390.3713930016
 20
124.4111556941
 30
0.0
  0
SPLINE
  5
454
330
20B
100
AcDbEntity
  8
7_ALL_FEATURES
  6
Continuous
 62
     9
100
AcDbSpline
 70
     0
 71
     3
 72
    10
 73
     6
 74
     0
 42
0.000000001
 43
0.0000001
 40
0.0
 40
0.0
 40
0.0
 40
0.0
 40
0.1239471062
 40
0.3408240343
 40
1.0
 40
1.0
 40
1.0
 40
1.0
 10
393.6689185229
 20
123.6873303167
 30
0.0
 10
393.6364790592
 20
123.687330317
 30
0.0
 10
393.5619120957
 20
123.7608983237
 30
0.0
 10
393.4808098402
 20
124.0039010604
 30
0.0
 10
393.4557021872
 20
124.2386446662
 30
0.0
 10
393.4539746435
 20
124.411155694
 30
0.0
  0
SPLINE
  5
455
330
20B
100
AcDbEntity
  8
7_ALL_FEATURES
  6
Continuous
 62
     9
100
AcDbSpline
 70
     0
 71
     3
 72
    11
 73
     7
 74
     0
 42
0.000000001
 43
0.0000001
 40
0.0
 40
0.0
 40
0.0
 40
0.0
 40
0.19462424
 40
0.4249951378
 40
0.6988132296
 40
1.0
 40
1.0
 40
1.0
 40
1.0
 10
395.6967172505
 20
123.6873303167
 30
0.0
 10
395.6361127129
 20
123.6873303167
 30
0.0
 10
395.5029527016
 20
123.7344082803
 30
0.0
 10
395.3560125773
 20
123.9028809174
 30
0.0
 10
395.260283078
 20
124.1380109041
 30
0.0
 10
395.2356163131
 20
124.3173902058
 30
0.0
 10
395.2335930242
 20
124.4111556942
 30
0.0
  0
SPLINE
  5
456
330
20B
100
AcDbEntity
  8
7_ALL_FEATURES
  6
Continuous
 62
     9
100
AcDbSpline
 70
     0
 71
     3
 72
     9
 73
     5
 74
     0
 42
0.000000001
 43
0.0000001
 40
0.0
 40
0.0
 40
0.0
 40
0.0
 40
0.4925459222
 40
1.0
 40
1.0
 40
1.0
 40
1.0
 10
353.0118406953
 20
123.6873303167
 30
0.0
 10
353.1924120405
 20
123.6873303169
 30
0.0
 10
353.5719241615
 20
123.8472398711
 30
0.0
 10
353.723683162
 20
124.2252229144
 30
0.0
 10
353.7299033788
 20
124.4111556941
 30
0.0
  0
SPLINE
  5
457
330
20B
100
AcDbEntity
  8
7_ALL_FEATURES
  6
Continuous
 62
     9
100
AcDbSpline
 70
     0
 71
     3
 72
    11
 73
     7
 74
     0
 42
0.000000001
 43
0.0000001
 40
0.0
 40
0.0
 40
0.0
 40
0.0
 40
0.2221488971
 40
0.4614955628
 40
0.7233367991
 40
1.0
 40
1.0
 40
1.0
 40
1.0
 10
354.0635269526
 20
123.6873303167
 30
0.0
 10
354.1393005638
 20
123.6873303168
 30
0.0
 10
354.298530622
 20
123.728824627
 30
0.0
 10
354.491037391
 20
123.893868077
 30
0.0
 10
354.6175394319
 20
124.1327701141
 30
0.0
 10
354.6502841292
 20
124.3168231583
 30
0.0
 10
354.6528747605
 20
124.4111556942
 30
0.0
  0
LINE
  5
458
330
20B
100
AcDbEntity
  8
7_ALL_FEATURES
  6
Continuous
 62
     9
100
AcDbLine
 10
338.537684
 20
114.117698
 30
0.0
 11
535.537684
 21
114.117698
 31
0.0
  0
LINE
  5
459
330
20B
100
AcDbEntity
  8
7_ALL_FEATURES
  6
Continuous
 62
     9
100
AcDbLine
 10
338.537684
 20
114.117698
 30
0.0
 11
338.537684
 21
118.48733
 31
0.0
  0
LINE
  5
45A
330
20B
100
AcDbEntity
  8
7_ALL_FEATURES
  6
Continuous
 62
     9
100
AcDbLine
 10
535.537684
 20
114.117698
 30
0.0
 11
535.537684
 21
118.48733
 31
0.0
  0
LINE
  5
45B
330
20B
100
AcDbEntity
  8
6_ALL_SURFS
  6
Continuous
 62
     9
100
AcDbLine
 10
520.560946
 20
124.70478
 30
0.0
 11
515.196477
 21
124.70478
 31
0.0
  0
SPLINE
  5
45C
330
20B
100
AcDbEntity
  8
7_ALL_FEATURES
  6
Continuous
 62
     9
100
AcDbSpline
 70
     0
 71
     3
 72
    13
 73
     9
 74
     0
 42
0.000000001
 43
0.0000001
 40
0.0
 40
0.0
 40
0.0
 40
0.0
 40
0.4330441666
 40
0.7464703046
 40
0.8571060434
 40
0.9363408442
 40
0.9840180783
 40
1.0
 40
1.0
 40
1.0
 40
1.0
 10
520.3454642698
 20
124.4111556942
 30
0.0
 10
520.3782955067
 20
124.4111542766
 30
0.0
 10
520.4346906964
 20
124.4090498955
 30
0.0
 10
520.5000187781
 20
124.403059627
 30
0.0
 10
520.5369640043
 20
124.3970905693
 30
0.0
 10
520.5561977258
 20
124.3957315304
 30
0.0
 10
520.5643882187
 20
124.3917902596
 30
0.0
 10
520.571753021
 20
124.3932992408
 30
0.0
 10
520.5718648777
 20
124.3920927458
 30
0.0
  0
LINE
  5
45D
330
20B
100
AcDbEntity
  8
7_ALL_FEATURES
  6
Continuous
 62
     9
100
AcDbLine
 10
519.422493
 20
124.411156
 30
0.0
 11
520.345464
 21
124.411156
 31
0.0
  0
SPLINE
  5
45E
330
20B
100
AcDbEntity
  8
7_ALL_FEATURES
  6
Continuous
 62
     9
100
AcDbSpline
 70
     0
 71
     3
 72
     9
 73
     5
 74
     0
 42
0.000000001
 43
0.0000001
 40
0.0
 40
0.0
 40
0.0
 40
0.0
 40
0.5532438566
 40
1.0
 40
1.0
 40
1.0
 40
1.0
 10
518.1830884862
 20
123.6919332591
 30
0.0
 10
518.329869431
 20
123.9219784383
 30
0.0
 10
518.7026079175
 20
124.2846942443
 30
0.0
 10
519.2021336357
 20
124.4111554382
 30
0.0
 10
519.4224928853
 20
124.4111556942
 30
0.0
  0
LINE
  5
45F
330
20B
100
AcDbEntity
  8
6_ALL_SURFS
  6
Continuous
 62
     9
100
AcDbLine
 10
515.196477
 20
124.70478
 30
0.0
 11
509.832007
 21
124.70478
 31
0.0
  0
SPLINE
  5
460
330
20B
100
AcDbEntity
  8
7_ALL_FEATURES
  6
Continuous
 62
     9
100
AcDbSpline
 70
     0
 71
     3
 72
    13
 73
     9
 74
     0
 42
0.000000001
 43
0.0000001
 40
0.0
 40
0.0
 40
0.0
 40
0.0
 40
0.0158945941
 40
0.063662002
 40
0.1429730582
 40
0.2534896839
 40
0.5667741007
 40
1.0
 40
1.0
 40
1.0
 40
1.0
 10
353.5035027458
 20
124.3920915747
 30
0.0
 10
353.5034314592
 20
124.3908886656
 30
0.0
 10
353.5112772358
 20
124.3950124686
 30
0.0
 10
353.5189871895
 20
124.3936096176
 30
0.0
 10
353.5384767401
 20
124.398122849
 30
0.0
 10
353.575270787
 20
124.4020793678
 30
0.0
 10
353.6407071564
 20
124.4094396191
 30
0.0
 10
353.6970591512
 20
124.411156489
 30
0.0
 10
353.7299033773
 20
124.4111556942
 30
0.0
  0
LINE
  5
461
330
20B
100
AcDbEntity
  8
6_ALL_SURFS
  6
Continuous
 62
     9
100
AcDbLine
 10
353.514421
 20
124.70478
 30
0.0
 11
358.878891
 21
124.70478
 31
0.0
  0
SPLINE
  5
462
330
20B
100
AcDbEntity
  8
7_ALL_FEATURES
  6
Continuous
 62
     9
100
AcDbSpline
 70
     0
 71
     3
 72
     9
 73
     5
 74
     0
 42
0.000000001
 43
0.0000001
 40
0.0
 40
0.0
 40
0.0
 40
0.0
 40
0.446984819
 40
1.0
 40
1.0
 40
1.0
 40
1.0
 10
354.6528747618
 20
124.4111556942
 30
0.0
 10
354.873001488
 20
124.4111227204
 30
0.0
 10
355.3717428326
 20
124.2850484469
 30
0.0
 10
355.7441637018
 20
123.9233083239
 30
0.0
 10
355.8909873764
 20
123.6939313285
 30
0.0
  0
LINE
  5
463
330
20B
100
AcDbEntity
  8
7_ALL_FEATURES
  6
Continuous
 62
     9
100
AcDbLine
 10
353.729903
 20
124.411156
 30
0.0
 11
354.652875
 21
124.411156
 31
0.0
  0
LINE
  5
464
330
20B
100
AcDbEntity
  8
6_ALL_SURFS
  6
Continuous
 62
     9
100
AcDbLine
 10
358.878891
 20
124.70478
 30
0.0
 11
364.243361
 21
124.70478
 31
0.0
  0
SPLINE
  5
465
330
20B
100
AcDbEntity
  8
7_ALL_FEATURES
  6
Continuous
 62
     7
100
AcDbSpline
 70
     0
 71
     3
 72
    11
 73
     7
 74
     0
 42
0.000000001
 43
0.0000001
 40
0.0
 40
0.0
 40
0.0
 40
0.0
 40
0.2353701082
 40
0.5
 40
0.7646298918
 40
1.0
 40
1.0
 40
1.0
 40
1.0
 10
415.4408109197
 20
370.5433034837
 30
0.0
 10
415.5937802733
 20
370.6197881605
 30
0.0
 10
415.9453358612
 20
370.7288929152
 30
0.0
 10
416.5014710915
 20
370.7810108267
 30
0.0
 10
417.0576063218
 20
370.7288929152
 30
0.0
 10
417.4091619097
 20
370.6197881605
 30
0.0
 10
417.5621312633
 20
370.5433034837
 30
0.0
  0
LINE
  5
466
330
20B
100
AcDbEntity
  8
7_ALL_FEATURES
  6
Continuous
 62
     7
100
AcDbLine
 10
415.440811
 20
370.543303
 30
0.0
 11
276.140775
 21
300.893286
 31
0.0
  0
SPLINE
  5
467
330
20B
100
AcDbEntity
  8
7_ALL_FEATURES
  6
Continuous
 62
     7
100
AcDbSpline
 70
     0
 71
     3
 72
     9
 73
     5
 74
     0
 42
0.000000001
 43
0.0000001
 40
0.0
 40
0.0
 40
0.0
 40
0.0
 40
0.5687232325
 40
1.0
 40
1.0
 40
1.0
 40
1.0
 10
556.862167157
 20
300.8932855368
 30
0.0
 10
556.985212322
 20
300.8317629543
 30
0.0
 10
557.1954678305
 20
300.6983092487
 30
0.0
 10
557.3044958559
 20
300.4558904244
 30
0.0
 10
557.3013351057
 20
300.3516166183
 30
0.0
  0
LINE
  5
468
330
20B
100
AcDbEntity
  8
7_ALL_FEATURES
  6
Continuous
 62
     7
100
AcDbLine
 10
556.862167
 20
300.893286
 30
0.0
 11
417.562131
 21
370.543303
 31
0.0
  0
LINE
  5
469
330
20B
100
AcDbEntity
  8
7_ALL_FEATURES
  6
Continuous
 62
     7
100
AcDbLine
 10
361.346349
 20
296.971566
 30
0.0
 11
415.794364
 21
269.747559
 31
0.0
  0
LINE
  5
46A
330
20B
100
AcDbEntity
  8
7_ALL_FEATURES
  6
Continuous
 62
     7
100
AcDbLine
 10
417.208578
 20
269.747559
 30
0.0
 11
471.656593
 21
296.971566
 31
0.0
  0
ARC
  5
46B
330
20B
100
AcDbEntity
  8
7_ALL_FEATURES
  6
Continuous
 62
     7
100
AcDbCircle
 10
416.500922
 20
394.750725
 30
0.0
 40
123.8226095743
100
AcDbArc
 50
268.48051
 51
271.552462
  0
LINE
  5
46C
330
20B
100
AcDbEntity
  8
7_ALL_FEATURES
  6
Continuous
 62
     7
100
AcDbLine
 10
556.617042
 20
295.669364
 30
0.0
 11
556.616937
 21
295.669311
 31
0.0
  0
LINE
  5
46D
330
20B
100
AcDbEntity
  8
7_ALL_FEATURES
  6
Continuous
 62
     7
100
AcDbLine
 10
417.317006
 20
226.019346
 30
0.0
 11
556.345121
 21
295.533403
 31
0.0
  0
LINE
  5
46E
330
20B
100
AcDbEntity
  8
7_ALL_FEATURES
  6
Continuous
 62
     7
100
AcDbLine
 10
556.345121
 20
295.533403
 30
0.0
 11
556.617042
 21
295.669364
 31
0.0
  0
LINE
  5
46F
330
20B
100
AcDbEntity
  8
7_ALL_FEATURES
  6
Continuous
 62
     7
100
AcDbLine
 10
557.186946
 20
296.568954
 30
0.0
 11
557.186926
 21
296.568269
 31
0.0
  0
SPLINE
  5
470
330
20B
100
AcDbEntity
  8
7_ALL_FEATURES
  6
Continuous
 62
     7
100
AcDbSpline
 70
     0
 71
     3
 72
     9
 73
     5
 74
     0
 42
0.000000001
 43
0.0000001
 40
0.0
 40
0.0
 40
0.0
 40
0.0
 40
0.4799869379
 40
1.0
 40
1.0
 40
1.0
 40
1.0
 10
556.6169514339
 20
295.6693920527
 30
0.0
 10
556.7760562196
 20
295.7487002836
 30
0.0
 10
557.0845288859
 20
295.9920307038
 30
0.0
 10
557.1809084085
 20
296.3764440782
 30
0.0
 10
557.1869187866
 20
296.5689504776
 30
0.0
  0
SPLINE
  5
471
330
20B
100
AcDbEntity
  8
7_ALL_FEATURES
  6
Continuous
 62
     7
100
AcDbSpline
 70
     0
 71
     3
 72
     9
 73
     5
 74
     0
 42
0.000000001
 43
0.0000001
 40
0.0
 40
0.0
 40
0.0
 40
0.0
 40
0.5200219314
 40
1.0
 40
1.0
 40
1.0
 40
1.0
 10
275.8160156101
 20
296.5691237936
 30
0.0
 10
275.8219771416
 20
296.3765845478
 30
0.0
 10
275.9183715282
 20
295.9920741883
 30
0.0
 10
276.2269101496
 20
295.7487821005
 30
0.0
 10
276.3860042884
 20
295.6694019159
 30
0.0
  0
LINE
  5
472
330
20B
100
AcDbEntity
  8
7_ALL_FEATURES
  6
Continuous
 62
     7
100
AcDbLine
 10
276.3859
 20
295.669364
 30
0.0
 11
276.386013
 21
295.669307
 31
0.0
  0
LINE
  5
473
330
20B
100
AcDbEntity
  8
7_ALL_FEATURES
  6
Continuous
 62
     7
100
AcDbLine
 10
276.3859
 20
295.669364
 30
0.0
 11
276.657822
 21
295.533403
 31
0.0
  0
LINE
  5
474
330
20B
100
AcDbEntity
  8
7_ALL_FEATURES
  6
Continuous
 62
     7
100
AcDbLine
 10
276.657822
 20
295.533403
 30
0.0
 11
415.685936
 21
226.019346
 31
0.0
  0
LINE
  5
475
330
20B
100
AcDbEntity
  8
7_ALL_FEATURES
  6
Continuous
 62
     7
100
AcDbLine
 10
417.317887
 20
226.019789
 30
0.0
 11
417.317006
 21
226.019346
 31
0.0
  0
LINE
  5
476
330
20B
100
AcDbEntity
  8
7_ALL_FEATURES
  6
Continuous
 62
     7
100
AcDbLine
 10
415.685003
 20
226.019815
 30
0.0
 11
415.685936
 21
226.019346
 31
0.0
  0
SPLINE
  5
477
330
20B
100
AcDbEntity
  8
7_ALL_FEATURES
  6
Continuous
 62
     7
100
AcDbSpline
 70
     0
 71
     3
 72
     9
 73
     5
 74
     0
 42
0.000000001
 43
0.0000001
 40
0.0
 40
0.0
 40
0.0
 40
0.0
 40
0.2434649301
 40
1.0
 40
1.0
 40
1.0
 40
1.0
 10
415.6850549523
 20
226.0198274406
 30
0.0
 10
415.7116984516
 20
226.0064970185
 30
0.0
 10
415.8229455284
 20
225.9553903091
 30
0.0
 10
415.9403353532
 20
225.9181146027
 30
0.0
 10
416.0304137804
 20
225.8967586448
 30
0.0
  0
SPLINE
  5
478
330
20B
100
AcDbEntity
  8
7_ALL_FEATURES
  6
Continuous
 62
     7
100
AcDbSpline
 70
     0
 71
     3
 72
     8
 73
     4
 74
     0
 42
0.000000001
 43
0.0000001
 40
0.0
 40
0.0
 40
0.0
 40
0.0
 40
1.0
 40
1.0
 40
1.0
 40
1.0
 10
416.0304137804
 20
225.8967586448
 30
0.0
 10
416.1825054791
 20
225.8607004673
 30
0.0
 10
416.3399679077
 20
225.8436361609
 30
0.0
 10
416.4962750947
 20
225.8432616486
 30
0.0
  0
SPLINE
  5
479
330
20B
100
AcDbEntity
  8
7_ALL_FEATURES
  6
Continuous
 62
     7
100
AcDbSpline
 70
     0
 71
     3
 72
     9
 73
     5
 74
     0
 42
0.000000001
 43
0.0000001
 40
0.0
 40
0.0
 40
0.0
 40
0.0
 40
0.7537006496
 40
1.0
 40
1.0
 40
1.0
 40
1.0
 10
416.4962750947
 20
225.8432616486
 30
0.0
 10
416.6266954545
 20
225.8429491613
 30
0.0
 10
416.8005010106
 20
225.8579592514
 30
0.0
 10
416.9694952554
 20
225.8955300066
 30
0.0
 10
417.010742036
 20
225.9062606719
 30
0.0
  0
SPLINE
  5
47A
330
20B
100
AcDbEntity
  8
7_ALL_FEATURES
  6
Continuous
 62
     7
100
AcDbSpline
 70
     0
 71
     3
 72
     9
 73
     5
 74
     0
 42
0.000000001
 43
0.0000001
 40
0.0
 40
0.0
 40
0.0
 40
0.0
 40
0.2560074096
 40
1.0
 40
1.0
 40
1.0
 40
1.0
 10
417.010742036
 20
225.9062606719
 30
0.0
 10
417.0378090746
 20
225.913302369
 30
0.0
 10
417.142860426
 20
225.943275845
 30
0.0
 10
417.2451528644
 20
225.9834350948
 30
0.0
 10
417.3178428655
 20
226.0198002175
 30
0.0
  0
LWPOLYLINE
  5
47B
330
20B
100
AcDbEntity
  8
7_ALL_FEATURES
  6
Continuous
 62
     7
100
AcDbPolyline
 90
        3
 70
     0
 43
0.0
 10
472.550611
 20
296.524557
 10
472.670861
 20
296.457963
 10
472.767027
 20
296.388537
  0
LINE
  5
47C
330
20B
100
AcDbEntity
  8
7_ALL_FEATURES
  6
Continuous
 62
     7
100
AcDbLine
 10
472.767027
 20
296.388537
 30
0.0
 11
472.785958
 21
296.370673
 31
0.0
  0
LINE
  5
47D
330
20B
100
AcDbEntity
  8
7_ALL_FEATURES
  6
Continuous
 62
     7
100
AcDbLine
 10
472.550631
 20
296.524547
 30
0.0
 11
472.550611
 21
296.524557
 31
0.0
  0
LINE
  5
47E
330
20B
100
AcDbEntity
  8
7_ALL_FEATURES
  6
Continuous
 62
     7
100
AcDbLine
 10
417.396302
 20
324.101711
 30
0.0
 11
417.395395
 21
324.102168
 31
0.0
  0
LINE
  5
47F
330
20B
100
AcDbEntity
  8
7_ALL_FEATURES
  6
Continuous
 62
     7
100
AcDbLine
 10
417.396302
 20
324.101711
 30
0.0
 11
417.668224
 21
323.965751
 31
0.0
  0
LINE
  5
480
330
20B
100
AcDbEntity
  8
7_ALL_FEATURES
  6
Continuous
 62
     7
100
AcDbLine
 10
417.668224
 20
323.965751
 30
0.0
 11
472.550631
 21
296.524547
 31
0.0
  0
LWPOLYLINE
  5
481
330
20B
100
AcDbEntity
  8
7_ALL_FEATURES
  6
Continuous
 62
     7
100
AcDbPolyline
 90
        7
 70
     0
 43
0.0
 10
415.607235
 20
324.10201
 10
415.75224
 20
324.167082
 10
416.103623
 20
324.270068
 10
416.488607
 20
324.307961
 10
416.87576
 20
324.274497
 10
417.228235
 20
324.175893
 10
417.395395
 20
324.102168
  0
LINE
  5
482
330
20B
100
AcDbEntity
  8
7_ALL_FEATURES
  6
Continuous
 62
     7
100
AcDbLine
 10
415.60664
 20
324.101711
 30
0.0
 11
415.607235
 21
324.10201
 31
0.0
  0
LINE
  5
483
330
20B
100
AcDbEntity
  8
7_ALL_FEATURES
  6
Continuous
 62
     7
100
AcDbLine
 10
360.452311
 20
296.524547
 30
0.0
 11
415.334718
 21
323.965751
 31
0.0
  0
LINE
  5
484
330
20B
100
AcDbEntity
  8
7_ALL_FEATURES
  6
Continuous
 62
     7
100
AcDbLine
 10
415.334718
 20
323.965751
 30
0.0
 11
415.60664
 21
324.101711
 31
0.0
  0
LINE
  5
485
330
20B
100
AcDbEntity
  8
7_ALL_FEATURES
  6
Continuous
 62
     7
100
AcDbLine
 10
360.45173
 20
296.524258
 30
0.0
 11
360.452311
 21
296.524547
 31
0.0
  0
LWPOLYLINE
  5
486
330
20B
100
AcDbEntity
  8
7_ALL_FEATURES
  6
Continuous
 62
     7
100
AcDbPolyline
 90
        3
 70
     0
 43
0.0
 10
360.20978
 20
296.363781
 10
360.206848
 20
296.359191
 10
360.247808
 20
296.398639
  0
LINE
  5
487
330
20B
100
AcDbEntity
  8
7_ALL_FEATURES
  6
Continuous
 62
     7
100
AcDbLine
 10
360.247808
 20
296.398639
 30
0.0
 11
360.376119
 21
296.484062
 31
0.0
  0
LINE
  5
488
330
20B
100
AcDbEntity
  8
7_ALL_FEATURES
  6
Continuous
 62
     7
100
AcDbLine
 10
360.376119
 20
296.484062
 30
0.0
 11
360.45173
 21
296.524258
 31
0.0
  0
SPLINE
  5
489
330
20B
100
AcDbEntity
  8
7_ALL_FEATURES
  6
Continuous
 62
     7
100
AcDbSpline
 70
     0
 71
     3
 72
     9
 73
     5
 74
     0
 42
0.000000001
 43
0.0000001
 40
0.0
 40
0.0
 40
0.0
 40
0.0
 40
0.4312767675
 40
1.0
 40
1.0
 40
1.0
 40
1.0
 10
275.7016070773
 20
300.3516166183
 30
0.0
 10
275.6984463271
 20
300.4558904244
 30
0.0
 10
275.8074743525
 20
300.6983092487
 30
0.0
 10
276.017729861
 20
300.8317629543
 30
0.0
 10
276.140775026
 20
300.8932855368
 30
0.0
  0
LINE
  5
48A
330
20B
100
AcDbEntity
  8
7_ALL_FEATURES
  6
Continuous
 62
     7
100
AcDbLine
 10
275.816016
 20
296.568269
 30
0.0
 11
275.815991
 21
296.569128
 31
0.0
  0
LINE
  5
48B
330
20B
100
AcDbEntity
  8
7_ALL_FEATURES
  6
Continuous
 62
     7
100
AcDbLine
 10
275.816016
 20
296.568269
 30
0.0
 11
275.701607
 21
300.351617
 31
0.0
  0
LINE
  5
48C
330
20B
100
AcDbEntity
  8
7_ALL_FEATURES
  6
Continuous
 62
     7
100
AcDbLine
 10
557.186926
 20
296.568269
 30
0.0
 11
557.301336
 21
300.351617
 31
0.0
  0
SPLINE
  5
48D
330
20B
100
AcDbEntity
  8
7_ALL_FEATURES
  6
Continuous
 62
     7
100
AcDbSpline
 70
     0
 71
     3
 72
     9
 73
     5
 74
     0
 42
0.000000001
 43
0.0000001
 40
0.0
 40
0.0
 40
0.0
 40
0.0
 40
0.5
 40
1.0
 40
1.0
 40
1.0
 40
1.0
 10
415.7943643103
 20
269.7475588423
 30
0.0
 10
416.0116710572
 20
269.6389054689
 30
0.0
 10
416.5014710915
 20
269.5026588252
 30
0.0
 10
416.9912711258
 20
269.6389054689
 30
0.0
 10
417.2085778727
 20
269.7475588423
 30
0.0
  0
LINE
  5
48E
330
20B
100
AcDbEntity
  8
7_ALL_FEATURES
  6
Continuous
 62
     9
100
AcDbLine
 10
276.221684
 20
297.068618
 30
0.0
 11
276.140775
 21
300.893286
 31
0.0
  0
LINE
  5
48F
330
20B
100
AcDbEntity
  8
7_ALL_FEATURES
  6
Continuous
 62
     9
100
AcDbLine
 10
415.52172
 20
366.718636
 30
0.0
 11
415.440811
 21
370.543303
 31
0.0
  0
LINE
  5
490
330
20B
100
AcDbEntity
  8
7_ALL_FEATURES
  6
Continuous
 62
     9
100
AcDbLine
 10
276.221684
 20
297.068618
 30
0.0
 11
415.52172
 21
366.718636
 31
0.0
  0
SPLINE
  5
491
330
20B
100
AcDbEntity
  8
7_ALL_FEATURES
  6
Continuous
 62
     9
100
AcDbSpline
 70
     0
 71
     3
 72
    11
 73
     7
 74
     0
 42
0.000000001
 43
0.0000001
 40
0.0
 40
0.0
 40
0.0
 40
0.0
 40
0.2353701082
 40
0.5
 40
0.7646298918
 40
1.0
 40
1.0
 40
1.0
 40
1.0
 10
415.5217200996
 20
366.7186359606
 30
0.0
 10
415.6630206593
 20
366.7892862405
 30
0.0
 10
415.9877589168
 20
366.8900682765
 30
0.0
 10
416.5014710915
 20
366.9382105344
 30
0.0
 10
417.0151832663
 20
366.8900682765
 30
0.0
 10
417.3399215237
 20
366.7892862405
 30
0.0
 10
417.4812220834
 20
366.7186359606
 30
0.0
  0
SPLINE
  5
492
330
20B
100
AcDbEntity
  8
7_ALL_FEATURES
  6
Continuous
 62
     9
100
AcDbSpline
 70
     0
 71
     3
 72
     9
 73
     5
 74
     0
 42
0.000000001
 43
0.0000001
 40
0.0
 40
0.0
 40
0.0
 40
0.0
 40
0.5686992395
 40
1.0
 40
1.0
 40
1.0
 40
1.0
 10
556.7812579772
 20
297.0686180138
 30
0.0
 10
556.8948035127
 20
297.011845246
 30
0.0
 10
557.0887975867
 20
296.888706023
 30
0.0
 10
557.1896856009
 20
296.6651919537
 30
0.0
 10
557.1869446931
 20
296.5689539556
 30
0.0
  0
SPLINE
  5
493
330
20B
100
AcDbEntity
  8
7_ALL_FEATURES
  6
Continuous
 62
     9
100
AcDbSpline
 70
     0
 71
     3
 72
     9
 73
     5
 74
     0
 42
0.000000001
 43
0.0000001
 40
0.0
 40
0.0
 40
0.0
 40
0.0
 40
0.4999660004
 40
1.0
 40
1.0
 40
1.0
 40
1.0
 10
417.2320867001
 20
268.6362702472
 30
0.0
 10
417.0079230228
 20
268.5241884086
 30
0.0
 10
416.5014922144
 20
268.3929278239
 30
0.0
 10
415.9950496481
 20
268.5241731646
 30
0.0
 10
415.7708554829
 20
268.6362702472
 30
0.0
  0
SPLINE
  5
494
330
20B
100
AcDbEntity
  8
7_ALL_FEATURES
  6
Continuous
 62
     9
100
AcDbSpline
 70
     0
 71
     3
 72
     9
 73
     5
 74
     0
 42
0.000000001
 43
0.0000001
 40
0.0
 40
0.0
 40
0.0
 40
0.0
 40
0.2953067288
 40
1.0
 40
1.0
 40
1.0
 40
1.0
 10
360.6165265503
 20
296.2134347135
 30
0.0
 10
360.5824380793
 20
296.230478949
 30
0.0
 10
360.4696870288
 20
296.2919670854
 30
0.0
 10
360.3610847413
 20
296.3705784681
 30
0.0
 10
360.3075832512
 20
296.4441242558
 30
0.0
  0
SPLINE
  5
495
330
20B
100
AcDbEntity
  8
7_ALL_FEATURES
  6
Continuous
 62
     9
100
AcDbSpline
 70
     0
 71
     3
 72
     8
 73
     4
 74
     0
 42
0.000000001
 43
0.0000001
 40
0.0
 40
0.0
 40
0.0
 40
0.0
 40
1.0
 40
1.0
 40
1.0
 40
1.0
 10
360.3075832512
 20
296.4441242558
 30
0.0
 10
360.2934549348
 20
296.4635457365
 30
0.0
 10
360.2810816156
 20
296.4845625941
 30
0.0
 10
360.2721330912
 20
296.5068499705
 30
0.0
  0
SPLINE
  5
496
330
20B
100
AcDbEntity
  8
7_ALL_FEATURES
  6
Continuous
 62
     9
100
AcDbSpline
 70
     0
 71
     3
 72
     9
 73
     5
 74
     0
 42
0.000000001
 43
0.0000001
 40
0.0
 40
0.0
 40
0.0
 40
0.0
 40
0.4841292152
 40
1.0
 40
1.0
 40
1.0
 40
1.0
 10
417.7622350551
 20
267.7386794435
 30
0.0
 10
417.6051042179
 20
267.8172448622
 30
0.0
 10
417.3103706714
 20
268.0712802665
 30
0.0
 10
417.2360458599
 20
268.4491163315
 30
0.0
 10
417.2320867001
 20
268.6362702472
 30
0.0
  0
SPLINE
  5
497
330
20B
100
AcDbEntity
  8
7_ALL_FEATURES
  6
Continuous
 62
     9
100
AcDbSpline
 70
     0
 71
     3
 72
     9
 73
     5
 74
     0
 42
0.000000001
 43
0.0000001
 40
0.0
 40
0.0
 40
0.0
 40
0.0
 40
0.4841292152
 40
1.0
 40
1.0
 40
1.0
 40
1.0
 10
415.2407071279
 20
267.7386794435
 30
0.0
 10
415.3978379651
 20
267.8172448622
 30
0.0
 10
415.6925715116
 20
268.0712802665
 30
0.0
 10
415.7668963231
 20
268.4491163315
 30
0.0
 10
415.7708554829
 20
268.6362702472
 30
0.0
  0
SPLINE
  5
498
330
20B
100
AcDbEntity
  8
7_ALL_FEATURES
  6
Continuous
 62
     9
100
AcDbSpline
 70
     0
 71
     3
 72
     9
 73
     5
 74
     0
 42
0.000000001
 43
0.0000001
 40
0.0
 40
0.0
 40
0.0
 40
0.0
 40
0.4841292152
 40
1.0
 40
1.0
 40
1.0
 40
1.0
 10
360.0863781953
 20
295.3158439098
 30
0.0
 10
360.2435090326
 20
295.3944093285
 30
0.0
 10
360.538242579
 20
295.6484447328
 30
0.0
 10
360.6125673905
 20
296.0262807978
 30
0.0
 10
360.6165265503
 20
296.2134347135
 30
0.0
  0
SPLINE
  5
499
330
20B
100
AcDbEntity
  8
7_ALL_FEATURES
  6
Continuous
 62
     9
100
AcDbSpline
 70
     0
 71
     3
 72
     9
 73
     5
 74
     0
 42
0.000000001
 43
0.0000001
 40
0.0
 40
0.0
 40
0.0
 40
0.0
 40
0.3210914312
 40
1.0
 40
1.0
 40
1.0
 40
1.0
 10
360.0863781953
 20
296.5766078735
 30
0.0
 10
360.1222826638
 20
296.5586556392
 30
0.0
 10
360.2340831851
 20
296.508528447
 30
0.0
 10
360.3756938012
 20
296.4865417794
 30
0.0
 10
360.4517298966
 20
296.5242576468
 30
0.0
  0
SPLINE
  5
49A
330
20B
100
AcDbEntity
  8
7_ALL_FEATURES
  6
Continuous
 62
     9
100
AcDbSpline
 70
     0
 71
     3
 72
     9
 73
     5
 74
     0
 42
0.000000001
 43
0.0000001
 40
0.0
 40
0.0
 40
0.0
 40
0.0
 40
0.3212407343
 40
1.0
 40
1.0
 40
1.0
 40
1.0
 10
415.2407071279
 20
324.1537723397
 30
0.0
 10
415.2766844665
 20
324.1357836704
 30
0.0
 10
415.3886415755
 20
324.085577781
 30
0.0
 10
415.5306222838
 20
324.0637026847
 30
0.0
 10
415.606639891
 20
324.1017114883
 30
0.0
  0
SPLINE
  5
49B
330
20B
100
AcDbEntity
  8
7_ALL_FEATURES
  6
Continuous
 62
     9
100
AcDbSpline
 70
     0
 71
     3
 72
     9
 73
     5
 74
     0
 42
0.000000001
 43
0.0000001
 40
0.0
 40
0.0
 40
0.0
 40
0.0
 40
0.3212407343
 40
1.0
 40
1.0
 40
1.0
 40
1.0
 10
417.7622350551
 20
324.1537723397
 30
0.0
 10
417.7262577165
 20
324.1357836704
 30
0.0
 10
417.6143006075
 20
324.085577781
 30
0.0
 10
417.4723198992
 20
324.0637026847
 30
0.0
 10
417.3963022921
 20
324.1017114883
 30
0.0
  0
SPLINE
  5
49C
330
20B
100
AcDbEntity
  8
7_ALL_FEATURES
  6
Continuous
 62
     9
100
AcDbSpline
 70
     0
 71
     3
 72
     9
 73
     5
 74
     0
 42
0.000000001
 43
0.0000001
 40
0.0
 40
0.0
 40
0.0
 40
0.0
 40
0.2867033479
 40
1.0
 40
1.0
 40
1.0
 40
1.0
 10
472.9165639877
 20
296.5766078735
 30
0.0
 10
472.8966853117
 20
296.5666685355
 30
0.0
 10
472.8264995958
 20
296.5340668879
 30
0.0
 10
472.7513802933
 20
296.5096508269
 30
0.0
 10
472.6964392639
 20
296.5034109464
 30
0.0
  0
SPLINE
  5
49D
330
20B
100
AcDbEntity
  8
7_ALL_FEATURES
  6
Continuous
 62
     9
100
AcDbSpline
 70
     0
 71
     3
 72
     9
 73
     5
 74
     0
 42
0.000000001
 43
0.0000001
 40
0.0
 40
0.0
 40
0.0
 40
0.0
 40
0.2749486001
 40
1.0
 40
1.0
 40
1.0
 40
1.0
 10
472.6964392639
 20
296.5034109464
 30
0.0
 10
472.6829210103
 20
296.5018756223
 30
0.0
 10
472.633613408
 20
296.4987705399
 30
0.0
 10
472.5827209467
 20
296.508502161
 30
0.0
 10
472.5506312246
 20
296.524547022
 30
0.0
  0
SPLINE
  5
49E
330
20B
100
AcDbEntity
  8
7_ALL_FEATURES
  6
Continuous
 62
     9
100
AcDbSpline
 70
     0
 71
     3
 72
     9
 73
     5
 74
     0
 42
0.000000001
 43
0.0000001
 40
0.0
 40
0.0
 40
0.0
 40
0.0
 40
0.4841292152
 40
1.0
 40
1.0
 40
1.0
 40
1.0
 10
472.9165639877
 20
295.3158439098
 30
0.0
 10
472.7594331504
 20
295.3944093285
 30
0.0
 10
472.464699604
 20
295.6484447328
 30
0.0
 10
472.3903747925
 20
296.0262807978
 30
0.0
 10
472.3864156327
 20
296.2134347135
 30
0.0
  0
SPLINE
  5
49F
330
20B
100
AcDbEntity
  8
7_ALL_FEATURES
  6
Continuous
 62
     9
100
AcDbSpline
 70
     0
 71
     3
 72
     9
 73
     5
 74
     0
 42
0.000000001
 43
0.0000001
 40
0.0
 40
0.0
 40
0.0
 40
0.0
 40
0.5158707848
 40
1.0
 40
1.0
 40
1.0
 40
1.0
 10
276.2216842058
 20
297.0686180138
 30
0.0
 10
276.2256433656
 20
296.881464098
 30
0.0
 10
276.2999681771
 20
296.5036280331
 30
0.0
 10
276.5947017236
 20
296.2495926287
 30
0.0
 10
276.7518325608
 20
296.1710272101
 30
0.0
  0
SPLINE
  5
4A0
330
20B
100
AcDbEntity
  8
7_ALL_FEATURES
  6
Continuous
 62
     9
100
AcDbSpline
 70
     0
 71
     3
 72
     9
 73
     5
 74
     0
 42
0.000000001
 43
0.0000001
 40
0.0
 40
0.0
 40
0.0
 40
0.0
 40
0.5158707848
 40
1.0
 40
1.0
 40
1.0
 40
1.0
 10
415.5217200996
 20
366.7186359606
 30
0.0
 10
415.5256792593
 20
366.5314820449
 30
0.0
 10
415.6000040709
 20
366.15364598
 30
0.0
 10
415.8947376173
 20
365.8996105756
 30
0.0
 10
416.0518684546
 20
365.821045157
 30
0.0
  0
SPLINE
  5
4A1
330
20B
100
AcDbEntity
  8
7_ALL_FEATURES
  6
Continuous
 62
     9
100
AcDbSpline
 70
     0
 71
     3
 72
     9
 73
     5
 74
     0
 42
0.000000001
 43
0.0000001
 40
0.0
 40
0.0
 40
0.0
 40
0.0
 40
0.5158707848
 40
1.0
 40
1.0
 40
1.0
 40
1.0
 10
417.4812220834
 20
366.7186359606
 30
0.0
 10
417.4772629237
 20
366.5314820449
 30
0.0
 10
417.4029381122
 20
366.15364598
 30
0.0
 10
417.1082045657
 20
365.8996105756
 30
0.0
 10
416.9510737284
 20
365.821045157
 30
0.0
  0
SPLINE
  5
4A2
330
20B
100
AcDbEntity
  8
7_ALL_FEATURES
  6
Continuous
 62
     9
100
AcDbSpline
 70
     0
 71
     3
 72
     9
 73
     5
 74
     0
 42
0.000000001
 43
0.0000001
 40
0.0
 40
0.0
 40
0.0
 40
0.0
 40
0.5158707848
 40
1.0
 40
1.0
 40
1.0
 40
1.0
 10
556.7812579772
 20
297.0686180138
 30
0.0
 10
556.7772988174
 20
296.881464098
 30
0.0
 10
556.7029740059
 20
296.5036280331
 30
0.0
 10
556.4082404594
 20
296.2495926287
 30
0.0
 10
556.2511096222
 20
296.1710272101
 30
0.0
  0
SPLINE
  5
4A3
330
20B
100
AcDbEntity
  8
7_ALL_FEATURES
  6
Continuous
 62
     9
100
AcDbSpline
 70
     0
 71
     3
 72
     9
 73
     5
 74
     0
 42
0.000000001
 43
0.0000001
 40
0.0
 40
0.0
 40
0.0
 40
0.0
 40
0.1985135561
 40
1.0
 40
1.0
 40
1.0
 40
1.0
 10
417.3170064915
 20
226.0193457749
 30
0.0
 10
417.2946326952
 20
226.0081588767
 30
0.0
 10
417.1701636233
 20
225.9741669689
 30
0.0
 10
417.041406574
 20
226.0262402035
 30
0.0
 10
416.9510737284
 20
226.0714066263
 30
0.0
  0
SPLINE
  5
4A4
330
20B
100
AcDbEntity
  8
7_ALL_FEATURES
  6
Continuous
 62
     9
100
AcDbSpline
 70
     0
 71
     3
 72
     9
 73
     5
 74
     0
 42
0.000000001
 43
0.0000001
 40
0.0
 40
0.0
 40
0.0
 40
0.0
 40
0.1985141933
 40
1.0
 40
1.0
 40
1.0
 40
1.0
 10
556.616936743
 20
295.6693109389
 30
0.0
 10
556.5945629726
 20
295.6581402546
 30
0.0
 10
556.4701180409
 20
295.6242197246
 30
0.0
 10
556.3414158527
 20
295.6762714579
 30
0.0
 10
556.2511096222
 20
295.7214245732
 30
0.0
  0
ARC
  5
4A5
330
20B
100
AcDbEntity
  8
7_ALL_FEATURES
  6
Continuous
 62
     9
100
AcDbCircle
 10
416.501189
 20
393.649965
 30
0.0
 40
123.0799750564
100
AcDbArc
 50
268.819534
 51
271.193712
  0
SPLINE
  5
4A6
330
20B
100
AcDbEntity
  8
7_ALL_FEATURES
  6
Continuous
 62
     9
100
AcDbSpline
 70
     0
 71
     3
 72
     9
 73
     5
 74
     0
 42
0.000000001
 43
0.0000001
 40
0.0
 40
0.0
 40
0.0
 40
0.0
 40
0.1985142433
 40
1.0
 40
1.0
 40
1.0
 40
1.0
 10
276.3860134806
 20
295.6693069246
 30
0.0
 10
276.4083872487
 20
295.6581374739
 30
0.0
 10
276.5328303415
 20
295.6242223735
 30
0.0
 10
276.661528356
 20
295.6762724708
 30
0.0
 10
276.7518325608
 20
295.7214245732
 30
0.0
  0
SPLINE
  5
4A7
330
20B
100
AcDbEntity
  8
7_ALL_FEATURES
  6
Continuous
 62
     9
100
AcDbSpline
 70
     0
 71
     3
 72
     9
 73
     5
 74
     0
 42
0.000000001
 43
0.0000001
 40
0.0
 40
0.0
 40
0.0
 40
0.0
 40
0.431312877
 40
1.0
 40
1.0
 40
1.0
 40
1.0
 10
275.8159925665
 20
296.569128377
 30
0.0
 10
275.8133010039
 20
296.6653469028
 30
0.0
 10
275.9142310845
 20
296.8887542991
 30
0.0
 10
276.1081688757
 20
297.0118603487
 30
0.0
 10
276.2216842058
 20
297.0686180138
 30
0.0
  0
SPLINE
  5
4A8
330
20B
100
AcDbEntity
  8
7_ALL_FEATURES
  6
Continuous
 62
     9
100
AcDbSpline
 70
     0
 71
     3
 72
     9
 73
     5
 74
     0
 42
0.000000001
 43
0.0000001
 40
0.0
 40
0.0
 40
0.0
 40
0.0
 40
0.1985135561
 40
1.0
 40
1.0
 40
1.0
 40
1.0
 10
415.6859356915
 20
226.0193457749
 30
0.0
 10
415.7083094878
 20
226.0081588767
 30
0.0
 10
415.8327785597
 20
225.9741669689
 30
0.0
 10
415.961535609
 20
226.0262402035
 30
0.0
 10
416.0518684546
 20
226.0714066263
 30
0.0
  0
SPLINE
  5
4A9
330
20B
100
AcDbEntity
  8
7_ALL_FEATURES
  6
Continuous
 62
     9
100
AcDbSpline
 70
     0
 71
     3
 72
     9
 73
     5
 74
     0
 42
0.000000001
 43
0.0000001
 40
0.0
 40
0.0
 40
0.0
 40
0.0
 40
0.2313926432
 40
1.0
 40
1.0
 40
1.0
 40
1.0
 10
472.6964542577
 20
296.4457278194
 30
0.0
 10
472.6908295875
 20
296.4379087276
 30
0.0
 10
472.6651739223
 20
296.4050853656
 30
0.0
 10
472.6349476572
 20
296.3760305642
 30
0.0
 10
472.610489421
 20
296.3554048266
 30
0.0
  0
SPLINE
  5
4AA
330
20B
100
AcDbEntity
  8
7_ALL_FEATURES
  6
Continuous
 62
     9
100
AcDbSpline
 70
     0
 71
     3
 72
     9
 73
     5
 74
     0
 42
0.000000001
 43
0.0000001
 40
0.0
 40
0.0
 40
0.0
 40
0.0
 40
0.2245774143
 40
1.0
 40
1.0
 40
1.0
 40
1.0
 10
472.610489421
 20
296.3554048266
 30
0.0
 10
472.5952884481
 20
296.3425857795
 30
0.0
 10
472.5251951231
 20
296.2883560041
 30
0.0
 10
472.4478249611
 20
296.2441393777
 30
0.0
 10
472.3864156327
 20
296.2134347135
 30
0.0
  0
SPLINE
  5
4AB
330
20B
100
AcDbEntity
  8
7_ALL_FEATURES
  6
Continuous
 62
     9
100
AcDbSpline
 70
     0
 71
     3
 72
     9
 73
     5
 74
     0
 42
0.000000001
 43
0.0000001
 40
0.0
 40
0.0
 40
0.0
 40
0.0
 40
0.4999604488
 40
1.0
 40
1.0
 40
1.0
 40
1.0
 10
417.7622350551
 20
267.7386794435
 30
0.0
 10
417.3765950631
 20
267.5458594475
 30
0.0
 10
416.5015121168
 20
267.3524853738
 30
0.0
 10
415.6264081348
 20
267.5458289401
 30
0.0
 10
415.2407071279
 20
267.7386794435
 30
0.0
  0
LINE
  5
4AC
330
20B
100
AcDbEntity
  8
7_ALL_FEATURES
  6
Continuous
 62
     9
100
AcDbLine
 10
472.916564
 20
295.315844
 30
0.0
 11
417.762235
 21
267.738679
 31
0.0
  0
SPLINE
  5
4AD
330
20B
100
AcDbEntity
  8
7_ALL_FEATURES
  6
Continuous
 62
     9
100
AcDbSpline
 70
     0
 71
     3
 72
    15
 73
    11
 74
     0
 42
0.000000001
 43
0.0000001
 40
0.0
 40
0.0
 40
0.0
 40
0.0
 40
0.1420640329
 40
0.2743543209
 40
0.393526444
 40
0.4999672489
 40
0.6063719655
 40
0.7255743871
 40
0.8580372998
 40
1.0
 40
1.0
 40
1.0
 40
1.0
 10
472.9165639877
 20
296.5766078735
 30
0.0
 10
472.9923503115
 20
296.5387147115
 30
0.0
 10
473.1357899121
 20
296.4592159425
 30
0.0
 10
473.3227199462
 20
296.3147477604
 30
0.0
 10
473.4562670323
 20
296.1445079861
 30
0.0
 10
473.5141051796
 20
295.9463113449
 30
0.0
 10
473.4564313367
 20
295.7480254015
 30
0.0
 10
473.3227398941
 20
295.5777455379
 30
0.0
 10
473.1357420995
 20
295.4332861682
 30
0.0
 10
472.992296254
 20
295.353710043
 30
0.0
 10
472.9165639877
 20
295.3158439098
 30
0.0
  0
LINE
  5
4AE
330
20B
100
AcDbEntity
  8
7_ALL_FEATURES
  6
Continuous
 62
     9
100
AcDbLine
 10
417.762235
 20
324.153772
 30
0.0
 11
472.644622
 21
296.712579
 31
0.0
  0
LINE
  5
4AF
330
20B
100
AcDbEntity
  8
7_ALL_FEATURES
  6
Continuous
 62
     9
100
AcDbLine
 10
472.644622
 20
296.712579
 30
0.0
 11
472.916564
 21
296.576608
 31
0.0
  0
ARC
  5
4B0
330
20B
100
AcDbEntity
  8
7_ALL_FEATURES
  6
Continuous
 62
     9
100
AcDbCircle
 10
416.425379
 20
321.791547
 30
0.0
 40
2.6426413856
100
AcDbArc
 50
105.260016
 51
116.634069
  0
SPLINE
  5
4B1
330
20B
100
AcDbEntity
  8
7_ALL_FEATURES
  6
Continuous
 62
     9
100
AcDbSpline
 70
     0
 71
     3
 72
     9
 73
     5
 74
     0
 42
0.000000001
 43
0.0000001
 40
0.0
 40
0.0
 40
0.0
 40
0.0
 40
0.2366992014
 40
1.0
 40
1.0
 40
1.0
 40
1.0
 10
415.7298357935
 20
324.3410127188
 30
0.0
 10
415.7696561708
 20
324.3518425022
 30
0.0
 10
415.9389541977
 20
324.3936000503
 30
0.0
 10
416.1119930222
 20
324.4200274006
 30
0.0
 10
416.2445519209
 20
324.4317464594
 30
0.0
  0
ARC
  5
4B2
330
20B
100
AcDbEntity
  8
7_ALL_FEATURES
  6
Continuous
 62
     9
100
AcDbCircle
 10
416.501651
 20
321.518892
 30
0.0
 40
2.9241785629
100
AcDbArc
 50
84.965182
 51
95.044057
  0
SPLINE
  5
4B3
330
20B
100
AcDbEntity
  8
7_ALL_FEATURES
  6
Continuous
 62
     9
100
AcDbSpline
 70
     0
 71
     3
 72
     9
 73
     5
 74
     0
 42
0.000000001
 43
0.0000001
 40
0.0
 40
0.0
 40
0.0
 40
0.0
 40
0.2696736168
 40
1.0
 40
1.0
 40
1.0
 40
1.0
 10
416.7582799248
 20
324.4317878795
 30
0.0
 10
416.8238410805
 20
324.4259986752
 30
0.0
 10
417.0661674879
 20
324.3967564505
 30
0.0
 10
417.3052516486
 20
324.3383502164
 30
0.0
 10
417.4729506057
 20
324.2779555463
 30
0.0
  0
ARC
  5
4B4
330
20B
100
AcDbEntity
  8
7_ALL_FEATURES
  6
Continuous
 62
     9
100
AcDbCircle
 10
416.576247
 20
321.790053
 30
0.0
 40
2.6445676317
100
AcDbArc
 50
63.35496
 51
70.179554
  0
LINE
  5
4B5
330
20B
100
AcDbEntity
  8
7_ALL_FEATURES
  6
Continuous
 62
     9
100
AcDbLine
 10
360.086378
 20
296.576608
 30
0.0
 11
360.3583
 21
296.712569
 31
0.0
  0
LINE
  5
4B6
330
20B
100
AcDbEntity
  8
7_ALL_FEATURES
  6
Continuous
 62
     9
100
AcDbLine
 10
360.3583
 20
296.712569
 30
0.0
 11
415.240707
 21
324.153772
 31
0.0
  0
SPLINE
  5
4B7
330
20B
100
AcDbEntity
  8
7_ALL_FEATURES
  6
Continuous
 62
     9
100
AcDbSpline
 70
     0
 71
     3
 72
    15
 73
    11
 74
     0
 42
0.000000001
 43
0.0000001
 40
0.0
 40
0.0
 40
0.0
 40
0.0
 40
0.1420640329
 40
0.274354321
 40
0.3935264441
 40
0.4999672489
 40
0.6063719655
 40
0.7255743871
 40
0.8580372998
 40
1.0
 40
1.0
 40
1.0
 40
1.0
 10
360.0863781953
 20
295.3158439098
 30
0.0
 10
360.0105918714
 20
295.3537370718
 30
0.0
 10
359.8671522708
 20
295.4332358408
 30
0.0
 10
359.6802222367
 20
295.5777040229
 30
0.0
 10
359.5466751506
 20
295.7479437973
 30
0.0
 10
359.4888370035
 20
295.9461404384
 30
0.0
 10
359.5465108463
 20
296.1444263818
 30
0.0
 10
359.6802022889
 20
296.3147062454
 30
0.0
 10
359.8672000835
 20
296.4591656151
 30
0.0
 10
360.010645929
 20
296.5387417403
 30
0.0
 10
360.0863781953
 20
296.5766078735
 30
0.0
  0
LINE
  5
4B8
330
20B
100
AcDbEntity
  8
7_ALL_FEATURES
  6
Continuous
 62
     9
100
AcDbLine
 10
415.240707
 20
267.738679
 30
0.0
 11
360.086378
 21
295.315844
 31
0.0
  0
SPLINE
  5
4B9
330
20B
100
AcDbEntity
  8
7_ALL_FEATURES
  6
Continuous
 62
     9
100
AcDbSpline
 70
     0
 71
     3
 72
     9
 73
     5
 74
     0
 42
0.000000001
 43
0.0000001
 40
0.0
 40
0.0
 40
0.0
 40
0.0
 40
0.499999953
 40
1.0
 40
1.0
 40
1.0
 40
1.0
 10
416.9510737284
 20
226.0714066263
 30
0.0
 10
416.8141834933
 20
226.0029615087
 30
0.0
 10
416.501471108
 20
225.9536202404
 30
0.0
 10
416.1887587154
 20
226.0029614959
 30
0.0
 10
416.0518684546
 20
226.0714066263
 30
0.0
  0
LINE
  5
4BA
330
20B
100
AcDbEntity
  8
7_ALL_FEATURES
  6
Continuous
 62
     9
100
AcDbLine
 10
416.051868
 20
226.071407
 30
0.0
 11
415.779947
 21
226.207368
 31
0.0
  0
LINE
  5
4BB
330
20B
100
AcDbEntity
  8
7_ALL_FEATURES
  6
Continuous
 62
     9
100
AcDbLine
 10
415.779947
 20
226.207368
 30
0.0
 11
276.751833
 21
295.721425
 31
0.0
  0
SPLINE
  5
4BC
330
20B
100
AcDbEntity
  8
7_ALL_FEATURES
  6
Continuous
 62
     9
100
AcDbSpline
 70
     0
 71
     3
 72
     9
 73
     5
 74
     0
 42
0.000000001
 43
0.0000001
 40
0.0
 40
0.0
 40
0.0
 40
0.0
 40
0.5679209253
 40
1.0
 40
1.0
 40
1.0
 40
1.0
 10
276.7518325608
 20
295.7214245732
 30
0.0
 10
276.7005141119
 20
295.7470837976
 30
0.0
 10
276.6129268429
 20
295.8027345736
 30
0.0
 10
276.5656015093
 20
295.9025722492
 30
0.0
 10
276.565601051
 20
295.9462242236
 30
0.0
  0
SPLINE
  5
4BD
330
20B
100
AcDbEntity
  8
7_ALL_FEATURES
  6
Continuous
 62
     9
100
AcDbSpline
 70
     0
 71
     3
 72
     9
 73
     5
 74
     0
 42
0.000000001
 43
0.0000001
 40
0.0
 40
0.0
 40
0.0
 40
0.0
 40
0.2358096282
 40
1.0
 40
1.0
 40
1.0
 40
1.0
 10
276.565601051
 20
295.9462242236
 30
0.0
 10
276.56560094
 20
295.9567911517
 30
0.0
 10
276.5700924508
 20
296.0016656144
 30
0.0
 10
276.5931974909
 20
296.0431768755
 30
0.0
 10
276.6152456075
 20
296.0693790753
 30
0.0
  0
SPLINE
  5
4BE
330
20B
100
AcDbEntity
  8
7_ALL_FEATURES
  6
Continuous
 62
     9
100
AcDbSpline
 70
     0
 71
     3
 72
     9
 73
     5
 74
     0
 42
0.000000001
 43
0.0000001
 40
0.0
 40
0.0
 40
0.0
 40
0.0
 40
0.2255155436
 40
1.0
 40
1.0
 40
1.0
 40
1.0
 10
276.6152456075
 20
296.0693790753
 30
0.0
 10
276.6235192855
 20
296.0792115959
 30
0.0
 10
276.6632937737
 20
296.1202164323
 30
0.0
 10
276.7123598354
 20
296.1512908474
 30
0.0
 10
276.7518325608
 20
296.1710272101
 30
0.0
  0
LINE
  5
4BF
330
20B
100
AcDbEntity
  8
7_ALL_FEATURES
  6
Continuous
 62
     9
100
AcDbLine
 10
276.751833
 20
296.171027
 30
0.0
 11
416.051868
 21
365.821045
 31
0.0
  0
SPLINE
  5
4C0
330
20B
100
AcDbEntity
  8
7_ALL_FEATURES
  6
Continuous
 62
     9
100
AcDbSpline
 70
     0
 71
     3
 72
     9
 73
     5
 74
     0
 42
0.000000001
 43
0.0000001
 40
0.0
 40
0.0
 40
0.0
 40
0.0
 40
0.499999953
 40
1.0
 40
1.0
 40
1.0
 40
1.0
 10
416.0518684546
 20
365.821045157
 30
0.0
 10
416.1887586897
 20
365.8894902745
 30
0.0
 10
416.501471075
 20
365.9388315429
 30
0.0
 10
416.8141834676
 20
365.8894902874
 30
0.0
 10
416.9510737284
 20
365.821045157
 30
0.0
  0
LINE
  5
4C1
330
20B
100
AcDbEntity
  8
7_ALL_FEATURES
  6
Continuous
 62
     9
100
AcDbLine
 10
416.951074
 20
365.821045
 30
0.0
 11
556.25111
 21
296.171027
 31
0.0
  0
SPLINE
  5
4C2
330
20B
100
AcDbEntity
  8
7_ALL_FEATURES
  6
Continuous
 62
     9
100
AcDbSpline
 70
     0
 71
     3
 72
    11
 73
     7
 74
     0
 42
0.000000001
 43
0.0000001
 40
0.0
 40
0.0
 40
0.0
 40
0.0
 40
0.306384091
 40
0.5535352808
 40
0.7676511567
 40
1.0
 40
1.0
 40
1.0
 40
1.0
 10
556.2511096222
 20
296.1710272101
 30
0.0
 10
556.2911911718
 20
296.1509864353
 30
0.0
 10
556.3603406542
 20
296.1071811417
 30
0.0
 10
556.4326288283
 20
296.0161003114
 30
0.0
 10
556.4438766468
 20
295.9090015881
 30
0.0
 10
556.4095770396
 20
295.8490756678
 30
0.0
 10
556.3876965755
 20
295.823072708
 30
0.0
  0
SPLINE
  5
4C3
330
20B
100
AcDbEntity
  8
7_ALL_FEATURES
  6
Continuous
 62
     9
100
AcDbSpline
 70
     0
 71
     3
 72
     9
 73
     5
 74
     0
 42
0.000000001
 43
0.0000001
 40
0.0
 40
0.0
 40
0.0
 40
0.0
 40
0.2255155436
 40
1.0
 40
1.0
 40
1.0
 40
1.0
 10
556.3876965755
 20
295.823072708
 30
0.0
 10
556.3794228975
 20
295.8132401874
 30
0.0
 10
556.3396484093
 20
295.772235351
 30
0.0
 10
556.2905823476
 20
295.7411609359
 30
0.0
 10
556.2511096222
 20
295.7214245732
 30
0.0
  0
LINE
  5
4C4
330
20B
100
AcDbEntity
  8
7_ALL_FEATURES
  6
Continuous
 62
     9
100
AcDbLine
 10
556.25111
 20
295.721425
 30
0.0
 11
417.222996
 21
226.207368
 31
0.0
  0
LINE
  5
4C5
330
20B
100
AcDbEntity
  8
7_ALL_FEATURES
  6
Continuous
 62
     9
100
AcDbLine
 10
417.222996
 20
226.207368
 30
0.0
 11
416.951074
 21
226.071407
 31
0.0
  0
LINE
  5
4C6
330
20B
100
AcDbEntity
  8
7_ALL_FEATURES
  6
Continuous
 62
     9
100
AcDbLine
 10
415.770855
 20
268.63627
 30
0.0
 11
360.616527
 21
296.213435
 31
0.0
  0
LINE
  5
4C7
330
20B
100
AcDbEntity
  8
7_ALL_FEATURES
  6
Continuous
 62
     9
100
AcDbLine
 10
360.616527
 20
296.213435
 30
0.0
 11
360.623032
 21
296.520936
 31
0.0
  0
LINE
  5
4C8
330
20B
100
AcDbEntity
  8
7_ALL_FEATURES
  6
Continuous
 62
     9
100
AcDbLine
 10
360.623032
 20
296.520936
 30
0.0
 11
360.624934
 21
296.610858
 31
0.0
  0
LINE
  5
4C9
330
20B
100
AcDbEntity
  8
7_ALL_FEATURES
  6
Continuous
 62
     9
100
AcDbLine
 10
415.770855
 20
268.63627
 30
0.0
 11
415.794364
 21
269.747559
 31
0.0
  0
LINE
  5
4CA
330
20B
100
AcDbEntity
  8
7_ALL_FEATURES
  6
Continuous
 62
     9
100
AcDbLine
 10
472.386416
 20
296.213435
 30
0.0
 11
417.232087
 21
268.63627
 31
0.0
  0
LINE
  5
4CB
330
20B
100
AcDbEntity
  8
7_ALL_FEATURES
  6
Continuous
 62
     9
100
AcDbLine
 10
417.232087
 20
268.63627
 30
0.0
 11
417.208578
 21
269.747559
 31
0.0
  0
LINE
  5
4CC
330
20B
100
AcDbEntity
  8
7_ALL_FEATURES
  6
Continuous
 62
     9
100
AcDbLine
 10
472.386416
 20
296.213435
 30
0.0
 11
472.37991
 21
296.520946
 31
0.0
  0
LINE
  5
4CD
330
20B
100
AcDbEntity
  8
7_ALL_FEATURES
  6
Continuous
 62
     9
100
AcDbLine
 10
472.37991
 20
296.520946
 30
0.0
 11
472.378008
 21
296.610858
 31
0.0
  0
LINE
  5
4CE
330
20B
100
AcDbEntity
  8
7_ALL_FEATURES
  6
Continuous
 62
     9
100
AcDbLine
 10
417.481222
 20
366.718636
 30
0.0
 11
556.781258
 21
297.068618
 31
0.0
  0
LINE
  5
4CF
330
20B
100
AcDbEntity
  8
7_ALL_FEATURES
  6
Continuous
 62
     9
100
AcDbLine
 10
417.481222
 20
366.718636
 30
0.0
 11
417.562131
 21
370.543303
 31
0.0
  0
LINE
  5
4D0
330
20B
100
AcDbEntity
  8
7_ALL_FEATURES
  6
Continuous
 62
     9
100
AcDbLine
 10
556.781258
 20
297.068618
 30
0.0
 11
556.862167
 21
300.893286
 31
0.0
  0
DIMENSION
  5
4D1
330
20B
100
AcDbEntity
  8
0
  6
Continuous
 62
     2
100
AcDbDimension
280
     0
  2
*D1
 10
244.002046
 20
391.769059
 30
0.0
 11
143.600801
 21
391.769059
 31
0.0
 70
   160
 71
     2
 42
200.0
 73
     0
 74
     0
 75
     0
  3
DIMSTYLE_1
100
AcDbAlignedDimension
 13
44.002046
 23
380.593562
 33
0.0
 14
244.002046
 24
380.593562
 34
0.0
100
AcDbRotatedDimension
  0
DIMENSION
  5
4D2
330
20B
100
AcDbEntity
  8
0
  6
Continuous
 62
     2
100
AcDbDimension
280
     0
  2
*D2
 10
19.673431
 20
170.034086
 30
0.0
 11
19.673431
 21
271.084241
 31
0.0
 70
   160
 71
     2
 42
200.0
 73
     0
 74
     0
 75
     0
  3
DIMSTYLE_1
100
AcDbAlignedDimension
 13
34.711069
 23
370.034086
 33
0.0
 14
34.711069
 24
170.034086
 34
0.0
 50
270.0
100
AcDbRotatedDimension
  0
DIMENSION
  5
4D3
330
20B
100
AcDbEntity
  8
0
  6
Continuous
 62
     2
100
AcDbDimension
280
     0
  2
*D3
 10
184.002046
 20
381.020347
 30
0.0
 11
143.988424
 21
381.020347
 31
0.0
 70
   160
 71
     2
 42
80.0
 73
     0
 74
     0
 75
     0
  3
DIMSTYLE_2
100
AcDbAlignedDimension
 13
104.002046
 23
379.520347
 33
0.0
 14
184.002046
 24
379.520347
 34
0.0
100
AcDbRotatedDimension
  0
DIMENSION
  5
4D4
330
20B
100
AcDbEntity
  8
0
  6
Continuous
 62
     2
100
AcDbDimension
280
     0
  2
*D4
 10
31.834634
 20
230.034086
 30
0.0
 11
31.834634
 21
270.020464
 31
0.0
 70
   160
 71
     2
 42
80.0
 73
     0
 74
     0
 75
     0
  3
DIMSTYLE_2
100
AcDbAlignedDimension
 13
34.711069
 23
310.034086
 33
0.0
 14
35.287317
 24
230.034086
 34
0.0
 50
270.0
100
AcDbRotatedDimension
  0
DIMENSION
  5
4D5
330
20B
100
AcDbEntity
  8
0
  6
Continuous
 62
     2
100
AcDbDimension
280
     0
  2
*D5
 10
269.721903
 20
125.18733
 30
0.0
 11
269.721903
 21
119.411694
 31
0.0
 70
   160
 71
     2
 42
11.8
 73
     0
 74
     0
 75
     0
  3
DIMSTYLE_3
100
AcDbAlignedDimension
 13
259.50459
 23
113.38733
 33
0.0
 14
259.722814
 24
125.18733
 34
0.0
 50
90.0
100
AcDbRotatedDimension
  0
INSERT
  5
4D6
330
20B
100
AcDbEntity
  8
0
  6
Continuous
 62
     2
100
AcDbBlockReference
  2
LOGO2_BL0
 10
507.711643
 20
36.783161
 30
0.0
  0
ACAD_TABLE
  5
4D7
102
{ACAD_XDICTIONARY
360
52E
102
}
330
20B
100
AcDbEntity
  8
0
  6
Continuous
 62
     2
160
              3220
310
940C000017000000880000001D000000000000000000F03F00000000000000000000000000000000B239BE662BDE7E400000000000000000000000000000F03F00000000000000006BE6BB9D3E24494000000000000000000000000000000000000000000000F03F0000000000000000000000000000000000000000000000
310
000000000000000000000000000000F03F54000000200000000200000000000000000000000000000000000000000000000000000000000000008056400000000000000000000000000000000000000000000000000000000000000000000000000000F03F5400000020000000020000000000000000000000000000000000
310
00000000000000000000000000000000000000000000000044C0000000000000000000000000000000000000000000000000000000000000F03F5400000020000000020000000000000000003E4000000000000018C00000000000000000000000000080564000000000000018C00000000000000000000000000000000000
310
00000000000000000000000000F03F5400000020000000020000000000000000003E4000000000000028C00000000000000000000000000080564000000000000028C0000000000000000000000000000000000000000000000000000000000000F03F5400000020000000020000000000000000003E4000000000000036C0
310
0000000000000000000000000080564000000000000036C0000000000000000000000000000000000000000000000000000000000000F03F54000000200000000200000000000000000000000000000000003BC0000000000000000000000000008056400000000000003BC000000000000000000000000000000000000000
310
0000000000000000000000F03F540000002000000002000000000000000000000000000000000044C00000000000000000000000000080564000000000000044C0000000000000000000000000000000000000000000000000000000000000F03F5400000020000000020000000000000000003E4000000000000000000000
310
0000000000000000000000003E400000000000003BC0000000000000000000000000000000000000000000000000000000000000F03F540000002000000002000000000000000080514000000000000000000000000000000000000000000080514000000000000028C0000000000000000000000000000000000000000000
310
000000000000000000F03F540000002000000002000000000000000080564000000000000000000000000000000000000000000080564000000000000044C0000000000000000000000000000000000000000000000000000000000000F03F0C000000100000000B000000C400000026000000CDCCCCCCCC7C3F4000000000
310
000012C0000000000000000000000000000000000000000000000000000000000000F03F000000000000F03F0000000000000000000000000000000041003000350036005F0043005F003000300032000000000014000000010000000000000000000840333333333333EB3F0000000000000000000000000000F03F000000
310
00000000000000000000000000000000000000000000000000000000000000000000000000740078007400000000000000BC000000260000003333333333DF514000000000000013C0000000000000000000000000000000000000000000000000000000000000F03F000000000000F03F0000000000000000000000000000
310
00005200650076003A0030003000000000000C000000010000000000000000000C40333333333333EB3F0000000000000000000000000000F03F00000000000000000000000000000000000000000000000000000000000000000000000000000000740078007400000000000000C000000026000000CDCCCCCCCC7C3F4000
310
000000008026C0000000000000000000000000000000000000000000000000000000000000F03F000000000000F03F000000000000000000000000000000005300630061006C0065003A0031003A003100000012000000010000000000000000000C40333333333333EB3F0000000000000000000000000000F03F00000000
310
000000000000000000000000000000000000000000000000000000000000000000000000740078007400000000000000B4000000260000003333333333DF514000000000008025C0000000000000000000000000000000000000000000000000000000000000F03F000000000000F03F000000000000000000000000000000
310
00410032000000000004000000010000000000000000000C40333333333333EB3F0000000000000000000000000000F03F00000000000000000000000000000000000000000000000000000000000000000000000000000000740078007400000000000000E400000026000000CDCCCCCCCC7C3F4033333333335332C00000
310
00000000000000000000000000000000000000000000000000000000F03F000000000000F03F00000000000000000000000000000000460052004F004E0054002E002000500049004100540054004F002000510055004100440052004F00200043004F004D0042004F00340000003600000001000000333333333333054033
310
3333333333EB3F0000000000000000000000000000F03F00000000000000000000000000000000000000000000000000000000000000000000000000000000740078007400000000000000C800000026000000CDCCCCCCCC7C3F400000000000C039C000000000000000000000000000000000000000000000000000000000
310
0000F03F000000000000F03F0000000000000000000000000000000044004100540045003A00310032002E00310032002E003100390000001A000000010000000000000000000440333333333333EB3F0000000000000000000000000000F03F00000000000000000000000000000000000000000000000000000000000000
310
0000000000000000007400780074000000000000001801000026000000CDCCCCCCCCCCF73F0000000000903DC0000000000000000000000000000000000000000000000000000000000000F03F000000000000F03F0000000000000000000000000000000041006E007900200069006E00740065006700720061006C002000
310
6F00720020007000610072007400690061006C00200072006500700072006F00640075006300740069006F006E00730020006100720065002000700072006F0068006900620069007400650064000000000068000000010000000000000000000240333333333333EB3F0000000000000000000000000000F03F0000000000
310
00000000000000000000000000000000000000000000000000000000000000000000007400780074000000000000002001000026000000CDCCCCCCCCCCF73F00000000007840C0000000000000000000000000000000000000000000000000000000000000F03F000000000000F03F00000000000000000000000000000000
310
77006900740068006F007500740020007000720069006F007200200061007500740068006F007200690073006100740069006F006E0020006F00660020004C002000260020004C0020004C007500630065002000260020004C006900670068007400200073002E0072002E006C002E002C0000007200000001000000000000
310
0000000240333333333333EB3F0000000000000000000000000000F03F00000000000000000000000000000000000000000000000000000000000000000000000000000000740078007400000000000000F800000026000000CDCCCCCCCCCCF73F00000000002842C000000000000000000000000000000000000000000000
310
0000000000000000F03F000000000000F03F0000000000000000000000000000000069006E0020006100630063006F007200640061006E006300650020007700690074006800200074006800650020006C0061007700200069006E00200066006F007200630065002E00000000004800000001000000000000000000024033
310
3333333333EB3F0000000000000000000000000000F03F00000000000000000000000000000000000000000000000000000000000000000000000000000000740078007400000000000000D800000026000000CDCCCCCCCCCCF73F0000000000D843C000000000000000000000000000000000000000000000000000000000
310
0000F03F000000000000F03F0000000000000000000000000000000041006C006C0020007200690067006800740073002000720065007300650072007600650064002E000000000028000000010000000000000000000240333333333333EB3F0000000000000000000000000000F03F000000000000000000000000000000
310
00000000000000000000000000000000000000000000000000740078007400000000000000080000001F000000
100
AcDbBlockReference
  2
*T7
 10
493.885596
 20
50.283161
 30
0.0
100
AcDbTable
342
500
343
214
 11
1.0
 21
0.0
 31
0.0
 90
       22
 91
        5
 92
        5
 93
        0
 94
        0
 95
        0
 96
        0
141
6.0
141
6.0
141
10.0
141
5.0
141
13.0
142
10.0
142
10.0
142
10.0
142
40.0
142
20.0
171
     1
172
     0
173
     0
174
     0
175
     3
176
     4
 91
       32
178
     0
145
0.0
140
3.5
 92
        0
301
CELL_VALUE
 93
        2
 90
        4
  1
 
 94
        0
300

302
 
304
ACVALUE_END
171
     1
172
     0
173
     1
174
     0
175
     1
176
     1
 91
        0
178
     0
145
0.0
 92
        0
301
CELL_VALUE
 93
        3
 90
        0
 91
        0
 94
        0
300

302

304
ACVALUE_END
171
     1
172
     0
173
     1
174
     0
175
     1
176
     1
 91
        0
178
     0
145
0.0
 92
        0
301
CELL_VALUE
 93
        3
 90
        0
 91
        0
 94
        0
300

302

304
ACVALUE_END
171
     1
172
     0
173
     0
174
     0
175
     1
176
     1
 91
       49
178
     0
145
0.0
170
     4
  7
TEXTSTYLE_4
140
3.0
 92
        0
301
CELL_VALUE
 93
        2
 90
        4
  1
A056_C_002
 94
        0
300

302
A056_C_002
304
ACVALUE_END
171
     1
172
     0
173
     0
174
     0
175
     1
176
     1
 91
       49
178
     0
145
0.0
170
     4
  7
TEXTSTYLE_4
140
3.5
 92
        0
301
CELL_VALUE
 93
        2
 90
        4
  1
Rev:00
 94
        0
300

302
Rev:00
304
ACVALUE_END
171
     1
172
     0
173
     1
174
     0
175
     1
176
     1
 91
        0
178
     0
145
0.0
 92
        0
301
CELL_VALUE
 93
        3
 90
        0
 91
        0
 94
        0
300

302

304
ACVALUE_END
171
     1
172
     0
173
     1
174
     0
175
     1
176
     1
 91
        0
178
     0
145
0.0
 92
        0
301
CELL_VALUE
 93
        3
 90
        0
 91
        0
 94
        0
300

302

304
ACVALUE_END
171
     1
172
     0
173
     1
174
     0
175
     1
176
     1
 91
        0
178
     0
145
0.0
 92
        0
301
CELL_VALUE
 93
        3
 90
        0
 91
        0
 94
        0
300

302

304
ACVALUE_END
171
     1
172
     0
173
     0
174
     0
175
     1
176
     1
 91
       49
178
     0
145
0.0
170
     1
  7
TEXTSTYLE_4
140
3.5
 92
        0
301
CELL_VALUE
 93
        2
 90
        4
  1
Scale:1:1
 94
        0
300

302
Scale:1:1
304
ACVALUE_END
171
     1
172
     0
173
     0
174
     0
175
     1
176
     1
 91
       49
178
     0
145
0.0
170
     4
  7
TEXTSTYLE_4
140
3.5
 92
        0
301
CELL_VALUE
 93
        2
 90
        4
  1
A2
 94
        0
300

302
A2
304
ACVALUE_END
171
     1
172
     0
173
     1
174
     0
175
     1
176
     1
 91
        0
178
     0
145
0.0
 92
        0
301
CELL_VALUE
 93
        3
 90
        0
 91
        0
 94
        0
300

302

304
ACVALUE_END
171
     1
172
     0
173
     1
174
     0
175
     1
176
     1
 91
        0
178
     0
145
0.0
 92
        0
301
CELL_VALUE
 93
        3
 90
        0
 91
        0
 94
        0
300

302

304
ACVALUE_END
171
     1
172
     0
173
     1
174
     0
175
     1
176
     1
 91
        0
178
     0
145
0.0
 92
        0
301
CELL_VALUE
 93
        3
 90
        0
 91
        0
 94
        0
300

302

304
ACVALUE_END
171
     1
172
     0
173
     0
174
     0
175
     2
176
     1
 91
       49
178
     0
145
0.0
170
     4
  7
TEXTSTYLE_4
140
2.65
 92
        0
301
CELL_VALUE
 93
        2
 90
        4
  1
FRONT. PIATTO QUADRO COMBO4
 94
        0
300

302
FRONT. PIATTO QUADRO COMBO4
304
ACVALUE_END
171
     1
172
     0
173
     1
174
     0
175
     1
176
     1
 91
        0
178
     0
145
0.0
 92
        0
301
CELL_VALUE
 93
        3
 90
        0
 91
        0
 94
        0
300

302

304
ACVALUE_END
171
     1
172
     0
173
     1
174
     0
175
     1
176
     1
 91
        0
178
     0
145
0.0
 92
        0
301
CELL_VALUE
 93
        3
 90
        0
 91
        0
 94
        0
300

302

304
ACVALUE_END
171
     1
172
     0
173
     1
174
     0
175
     1
176
     1
 91
        0
178
     0
145
0.0
 92
        0
301
CELL_VALUE
 93
        3
 90
        0
 91
        0
 94
        0
300

302

304
ACVALUE_END
171
     1
172
     0
173
     1
174
     0
175
     1
176
     1
 91
        0
178
     0
145
0.0
 92
        0
301
CELL_VALUE
 93
        3
 90
        0
 91
        0
 94
        0
300

302

304
ACVALUE_END
171
     1
172
     0
173
     0
174
     0
175
     2
176
     1
 91
       49
178
     0
145
0.0
170
     4
  7
TEXTSTYLE_4
140
2.5
 92
        0
301
CELL_VALUE
 93
        2
 90
        4
  1
DATE:12.12.19
 94
        0
300

302
DATE:12.12.19
304
ACVALUE_END
171
     1
172
     0
173
     1
174
     0
175
     1
176
     1
 91
        0
178
     0
145
0.0
 92
        0
301
CELL_VALUE
 93
        3
 90
        0
 91
        0
 94
        0
300

302

304
ACVALUE_END
171
     1
172
     0
173
     0
174
     0
175
     5
176
     1
 91
       49
178
     0
145
0.0
170
     4
  7
TEXTSTYLE_4
140
2.25
 92
        0
301
CELL_VALUE
 93
        2
 90
        4
  1
Any integral or partial reproductions are prohibited \Pwithout prior authorisation of L & L Luce & Light s.r.l., \Pin accordance with the law in force. \PAll rights reserved.
 94
        0
300

302
Any integral or partial reproductions are prohibited \Pwithout prior authorisation of L & L Luce & Light s.r.l., \Pin accordance with the law in force. \PAll rights reserved.
304
ACVALUE_END
171
     1
172
     0
173
     1
174
     0
175
     1
176
     1
 91
        0
178
     0
145
0.0
 92
        0
301
CELL_VALUE
 93
        3
 90
        0
 91
        0
 94
        0
300

302

304
ACVALUE_END
171
     1
172
     0
173
     1
174
     0
175
     1
176
     1
 91
        0
178
     0
145
0.0
 92
        0
301
CELL_VALUE
 93
        3
 90
        0
 91
        0
 94
        0
300

302

304
ACVALUE_END
171
     1
172
     0
173
     1
174
     0
175
     1
176
     1
 91
        0
178
     0
145
0.0
 92
        0
301
CELL_VALUE
 93
        3
 90
        0
 91
        0
 94
        0
300

302

304
ACVALUE_END
171
     1
172
     0
173
     1
174
     0
175
     1
176
     1
 91
        0
178
     0
145
0.0
 92
        0
301
CELL_VALUE
 93
        3
 90
        0
 91
        0
 94
        0
300

302

304
ACVALUE_END
  0
ENDSEC
  0
SECTION
  2
OBJECTS
  0
DICTIONARY
  5
C
330
0
100
AcDbDictionary
281
     1
  3
ACAD_DETAILVIEWSTYLE
350
537
  3
ACAD_GROUP
350
D
  3
ACAD_IMAGE_DICT
350
527
  3
ACAD_LAYOUT
350
1A
  3
ACAD_MATERIAL
350
51B
  3
ACAD_MLEADERSTYLE
350
536
  3
ACAD_MLINESTYLE
350
17
  3
ACAD_PLOTSETTINGS
350
19
  3
ACAD_PLOTSTYLENAME
350
E
  3
ACAD_SCALELIST
350
4DD
  3
ACAD_SECTIONVIEWSTYLE
350
538
  3
ACAD_TABLESTYLE
350
4FF
  3
ACAD_VISUALSTYLE
350
502
  3
ACDB_RECOMPOSE_DATA
350
534
  3
AcDbVariableDictionary
350
530
  3
HOST_DOC_SETTINGS
350
525
  3
MCS_STREAM_DICT
350
521
  0
SUN
  5
524
330
1F4
100
AcDbSun
 90
        1
290
     0
 63
     7
421
 16777215
 40
1.0
291
     1
 91
  2455826
 92
 54000000
292
     0
 70
     2
 71
   256
280
     1
  0
DICTIONARY
  5
52E
330
4D7
100
AcDbDictionary
280
     1
281
     1
  3
ACAD_XREC_ROUNDTRIP
360
52F
  0
DICTIONARY
  5
537
102
{ACAD_REACTORS
330
C
102
}
330
C
100
AcDbDictionary
281
     1
  0
DICTIONARY
  5
D
102
{ACAD_REACTORS
330
C
102
}
330
C
100
AcDbDictionary
281
     1
  0
DICTIONARY
  5
527
102
{ACAD_REACTORS
330
C
102
}
330
C
100
AcDbDictionary
281
     1
  0
DICTIONARY
  5
1A
102
{ACAD_REACTORS
330
C
102
}
330
C
100
AcDbDictionary
281
     1
  3
Layout1
350
4DA
  3
Model
350
4D9
  0
DICTIONARY
  5
51B
102
{ACAD_REACTORS
330
C
102
}
330
C
100
AcDbDictionary
281
     1
  3
ByBlock
350
51D
  3
ByLayer
350
51C
  3
Global
350
51E
  0
DICTIONARY
  5
536
102
{ACAD_REACTORS
330
C
102
}
330
C
100
AcDbDictionary
281
     1
  0
DICTIONARY
  5
17
102
{ACAD_REACTORS
330
C
102
}
330
C
100
AcDbDictionary
281
     1
  3
Standard
350
18
  0
DICTIONARY
  5
19
102
{ACAD_REACTORS
330
C
102
}
330
C
100
AcDbDictionary
281
     1
  0
ACDBDICTIONARYWDFLT
  5
E
102
{ACAD_REACTORS
330
C
102
}
330
C
100
AcDbDictionary
281
     1
  3
Normal
350
F
100
AcDbDictionaryWithDefault
340
F
  0
DICTIONARY
  5
4DD
102
{ACAD_REACTORS
330
C
102
}
330
C
100
AcDbDictionary
281
     1
  3
A0
350
4DE
  3
A1
350
4DF
  3
A2
350
4E0
  3
A3
350
4E1
  3
A4
350
4E2
  3
A5
350
4E3
  3
A6
350
4E4
  3
A7
350
4E5
  3
A8
350
4E6
  3
A9
350
4E7
  3
B0
350
4E8
  3
B1
350
4E9
  3
B2
350
4EA
  3
B3
350
4EB
  3
B4
350
4EC
  3
B5
350
4ED
  3
B6
350
4EE
  3
B7
350
4EF
  3
B8
350
4F0
  3
B9
350
4F1
  3
C0
350
4F2
  3
C1
350
4F3
  3
C2
350
4F4
  3
C3
350
4F5
  3
C4
350
4F6
  3
C5
350
4F7
  3
C6
350
4F8
  3
C7
350
4F9
  3
C8
350
4FA
  3
C9
350
4FB
  3
D0
350
4FC
  3
D1
350
4FD
  3
D2
350
4FE
  0
DICTIONARY
  5
538
102
{ACAD_REACTORS
330
C
102
}
330
C
100
AcDbDictionary
281
     1
  0
DICTIONARY
  5
4FF
102
{ACAD_REACTORS
330
C
102
}
330
C
100
AcDbDictionary
281
     1
  3
Standard
350
500
  0
DICTIONARY
  5
502
102
{ACAD_REACTORS
330
C
102
}
330
C
100
AcDbDictionary
281
     1
  3
2dWireframe
350
507
  3
Basic
350
50A
  3
Brighten
350
50E
  3
ColorChange
350
512
  3
Conceptual
350
50C
  3
Dim
350
50D
  3
EdgeColorOff
350
515
  3
Facepattern
350
511
  3
Flat
350
503
  3
FlatWithEdges
350
504
  3
Gouraud
350
505
  3
GouraudWithEdges
350
506
  3
Hidden
350
509
  3
JitterOff
350
513
  3
Linepattern
350
510
  3
OverhangOff
350
514
  3
Realistic
350
50B
  3
Shaded
350
51A
  3
Shaded with edges
350
519
  3
Shades of Gray
350
516
  3
Sketchy
350
517
  3
Thicken
350
50F
  3
Wireframe
350
508
  3
X-Ray
350
518
  0
XRECORD
  5
534
102
{ACAD_REACTORS
330
C
102
}
330
C
100
AcDbXrecord
280
     1
 90
        1
330
4D7
330
500
  0
DICTIONARY
  5
530
102
{ACAD_REACTORS
330
C
102
}
330
C
100
AcDbDictionary
281
     1
  3
CANNOSCALE
350
531
  3
CTABLESTYLE
350
535
  0
DICTIONARY
  5
525
102
{ACAD_REACTORS
330
C
102
}
330
C
100
AcDbDictionary
281
     1
  3
NCDocParameters
350
526
  0
DICTIONARY
  5
521
102
{ACAD_REACTORS
330
C
102
}
330
C
100
AcDbDictionary
281
     1
  3
MC_VERSION_DATA
350
52A
  3
MCS_DOCUMENT_ID
350
522
  3
MCS_PARAMS_DATA
350
528
  0
XRECORD
  5
52F
102
{ACAD_REACTORS
330
52E
102
}
330
52E
100
AcDbXrecord
280
     1
102
ACAD_ROUNDTRIP_2008_TABLE_ENTITY
360
52C
 70
     2
 90
        1
 10
0.0
 20
0.0
 30
0.0
 90
        0
 90
        4
361
52D
  0
LAYOUT
  5
4DA
102
{ACAD_REACTORS
330
1A
102
}
330
1A
100
AcDbPlotSettings
  1

  2
none_device
  4
ISO_A2_(594.00_x_420.00_MM)
  6

 40
0.0
 41
0.0
 42
0.0
 43
0.0
 44
594.0
 45
420.0
 46
0.0
 47
0.0
 48
0.0
 49
0.0
140
0.0
141
0.0
142
1.0
143
1.0
 70
     0
 72
     1
 73
     0
 74
     0
  7

 75
     0
 76
     0
 77
     2
 78
   300
147
1.0
148
0.0
149
0.0
100
AcDbLayout
  1
Layout1
 70
     0
 71
     1
 10
0.0
 20
0.0
 11
594.0
 21
420.0
 12
0.0
 22
0.0
 32
0.0
 14
0.0
 24
0.0
 34
0.0
 15
0.0
 25
0.0
 35
0.0
146
0.0
 13
0.0
 23
0.0
 33
0.0
 16
1.0
 26
0.0
 36
0.0
 17
0.0
 27
1.0
 37
0.0
 76
     0
330
20C
  0
LAYOUT
  5
4D9
102
{ACAD_REACTORS
330
1A
102
}
330
1A
100
AcDbPlotSettings
  1

  2
none_device
  4
ISO_A2_(594.00_x_420.00_MM)
  6

 40
0.0
 41
0.0
 42
0.0
 43
0.0
 44
594.0
 45
420.0
 46
0.0
 47
0.0
 48
0.0
 49
0.0
140
0.0
141
0.0
142
1.0
143
1.0
 70
  1024
 72
     1
 73
     0
 74
     0
  7

 75
     0
 76
     0
 77
     2
 78
   300
147
1.0
148
0.0
149
0.0
100
AcDbLayout
  1
Model
 70
     0
 71
     0
 10
0.0
 20
0.0
 11
594.0
 21
420.0
 12
0.0
 22
0.0
 32
0.0
 14
0.0
 24
0.0
 34
0.0
 15
0.0
 25
0.0
 35
0.0
146
0.0
 13
0.0
 23
0.0
 33
0.0
 16
1.0
 26
0.0
 36
0.0
 17
0.0
 27
1.0
 37
0.0
 76
     0
330
20B
331
1F4
  0
MATERIAL
  5
51D
102
{ACAD_REACTORS
330
51B
102
}
330
51B
100
AcDbMaterial
  1
ByBlock
 72
     1
 94
      127
  0
MATERIAL
  5
51C
102
{ACAD_REACTORS
330
51B
102
}
330
51B
100
AcDbMaterial
  1
ByLayer
 72
     1
 94
      127
  0
MATERIAL
  5
51E
102
{ACAD_REACTORS
330
51B
102
}
330
51B
100
AcDbMaterial
  1
Global
 72
     1
 94
      127
  0
MLINESTYLE
  5
18
102
{ACAD_REACTORS
330
17
102
}
330
17
100
AcDbMlineStyle
  2
STANDARD
 70
     0
  3

 62
   256
 51
90.0
 52
90.0
 71
     2
 49
0.5
 62
   256
  6
BYLAYER
 49
-0.5
 62
   256
  6
BYLAYER
  0
ACDBPLACEHOLDER
  5
F
102
{ACAD_REACTORS
330
E
102
}
330
E
  0
SCALE
  5
4DE
102
{ACAD_REACTORS
330
4DD
102
}
330
4DD
100
AcDbScale
 70
     0
300
1:1
140
1.0
141
1.0
290
     1
  0
SCALE
  5
4DF
102
{ACAD_REACTORS
330
4DD
102
}
330
4DD
100
AcDbScale
 70
     0
300
1:2
140
1.0
141
2.0
290
     0
  0
SCALE
  5
4E0
102
{ACAD_REACTORS
330
4DD
102
}
330
4DD
100
AcDbScale
 70
     0
300
1:4
140
1.0
141
4.0
290
     0
  0
SCALE
  5
4E1
102
{ACAD_REACTORS
330
4DD
102
}
330
4DD
100
AcDbScale
 70
     0
300
1:5
140
1.0
141
5.0
290
     0
  0
SCALE
  5
4E2
102
{ACAD_REACTORS
330
4DD
102
}
330
4DD
100
AcDbScale
 70
     0
300
1:8
140
1.0
141
8.0
290
     0
  0
SCALE
  5
4E3
102
{ACAD_REACTORS
330
4DD
102
}
330
4DD
100
AcDbScale
 70
     0
300
1:10
140
1.0
141
10.0
290
     0
  0
SCALE
  5
4E4
102
{ACAD_REACTORS
330
4DD
102
}
330
4DD
100
AcDbScale
 70
     0
300
1:16
140
1.0
141
16.0
290
     0
  0
SCALE
  5
4E5
102
{ACAD_REACTORS
330
4DD
102
}
330
4DD
100
AcDbScale
 70
     0
300
1:20
140
1.0
141
20.0
290
     0
  0
SCALE
  5
4E6
102
{ACAD_REACTORS
330
4DD
102
}
330
4DD
100
AcDbScale
 70
     0
300
1:30
140
1.0
141
30.0
290
     0
  0
SCALE
  5
4E7
102
{ACAD_REACTORS
330
4DD
102
}
330
4DD
100
AcDbScale
 70
     0
300
1:40
140
1.0
141
40.0
290
     0
  0
SCALE
  5
4E8
102
{ACAD_REACTORS
330
4DD
102
}
330
4DD
100
AcDbScale
 70
     0
300
1:50
140
1.0
141
50.0
290
     0
  0
SCALE
  5
4E9
102
{ACAD_REACTORS
330
4DD
102
}
330
4DD
100
AcDbScale
 70
     0
300
1:100
140
1.0
141
100.0
290
     0
  0
SCALE
  5
4EA
102
{ACAD_REACTORS
330
4DD
102
}
330
4DD
100
AcDbScale
 70
     0
300
2:1
140
2.0
141
1.0
290
     0
  0
SCALE
  5
4EB
102
{ACAD_REACTORS
330
4DD
102
}
330
4DD
100
AcDbScale
 70
     0
300
4:1
140
4.0
141
1.0
290
     0
  0
SCALE
  5
4EC
102
{ACAD_REACTORS
330
4DD
102
}
330
4DD
100
AcDbScale
 70
     0
300
8:1
140
8.0
141
1.0
290
     0
  0
SCALE
  5
4ED
102
{ACAD_REACTORS
330
4DD
102
}
330
4DD
100
AcDbScale
 70
     0
300
10:1
140
10.0
141
1.0
290
     0
  0
SCALE
  5
4EE
102
{ACAD_REACTORS
330
4DD
102
}
330
4DD
100
AcDbScale
 70
     0
300
100:1
140
100.0
141
1.0
290
     0
  0
SCALE
  5
4EF
102
{ACAD_REACTORS
330
4DD
102
}
330
4DD
100
AcDbScale
 70
     0
300
1/128" = 1'-0"
140
0.007812
141
12.0
290
     0
  0
SCALE
  5
4F0
102
{ACAD_REACTORS
330
4DD
102
}
330
4DD
100
AcDbScale
 70
     0
300
1/64" = 1'-0"
140
0.015625
141
12.0
290
     0
  0
SCALE
  5
4F1
102
{ACAD_REACTORS
330
4DD
102
}
330
4DD
100
AcDbScale
 70
     0
300
1/32" = 1'-0"
140
0.03125
141
12.0
290
     0
  0
SCALE
  5
4F2
102
{ACAD_REACTORS
330
4DD
102
}
330
4DD
100
AcDbScale
 70
     0
300
1/16" = 1'-0"
140
0.0625
141
12.0
290
     0
  0
SCALE
  5
4F3
102
{ACAD_REACTORS
330
4DD
102
}
330
4DD
100
AcDbScale
 70
     0
300
3/32" = 1'-0"
140
0.09375
141
12.0
290
     0
  0
SCALE
  5
4F4
102
{ACAD_REACTORS
330
4DD
102
}
330
4DD
100
AcDbScale
 70
     0
300
1/8" = 1'-0"
140
0.125
141
12.0
290
     0
  0
SCALE
  5
4F5
102
{ACAD_REACTORS
330
4DD
102
}
330
4DD
100
AcDbScale
 70
     0
300
3/16" = 1'-0"
140
0.1875
141
12.0
290
     0
  0
SCALE
  5
4F6
102
{ACAD_REACTORS
330
4DD
102
}
330
4DD
100
AcDbScale
 70
     0
300
1/4" = 1'-0"
140
0.25
141
12.0
290
     0
  0
SCALE
  5
4F7
102
{ACAD_REACTORS
330
4DD
102
}
330
4DD
100
AcDbScale
 70
     0
300
3/8" = 1'-0"
140
0.375
141
12.0
290
     0
  0
SCALE
  5
4F8
102
{ACAD_REACTORS
330
4DD
102
}
330
4DD
100
AcDbScale
 70
     0
300
1/2" = 1'-0"
140
0.5
141
12.0
290
     0
  0
SCALE
  5
4F9
102
{ACAD_REACTORS
330
4DD
102
}
330
4DD
100
AcDbScale
 70
     0
300
3/4" = 1'-0"
140
0.75
141
12.0
290
     0
  0
SCALE
  5
4FA
102
{ACAD_REACTORS
330
4DD
102
}
330
4DD
100
AcDbScale
 70
     0
300
1" = 1'-0"
140
1.0
141
12.0
290
     0
  0
SCALE
  5
4FB
102
{ACAD_REACTORS
330
4DD
102
}
330
4DD
100
AcDbScale
 70
     0
300
1-1/2" = 1'-0"
140
1.5
141
12.0
290
     0
  0
SCALE
  5
4FC
102
{ACAD_REACTORS
330
4DD
102
}
330
4DD
100
AcDbScale
 70
     0
300
3" = 1'-0"
140
3.0
141
12.0
290
     0
  0
SCALE
  5
4FD
102
{ACAD_REACTORS
330
4DD
102
}
330
4DD
100
AcDbScale
 70
     0
300
6" = 1'-0"
140
6.0
141
12.0
290
     0
  0
SCALE
  5
4FE
102
{ACAD_REACTORS
330
4DD
102
}
330
4DD
100
AcDbScale
 70
     0
300
1'-0" = 1'-0"
140
12.0
141
12.0
290
     0
  0
TABLESTYLE
  5
500
102
{ACAD_REACTORS
330
4FF
102
}
102
{ACAD_XDICTIONARY
360
532
102
}
330
4FF
100
AcDbTableStyle
  3
Standard
 70
     0
 71
     0
 40
0.06
 41
0.06
280
     0
281
     0
  7
STANDARD
140
4.5
170
     2
 62
     0
 63
   257
283
     0
 90
        4
 91
        0
  1

274
    -2
284
     1
 64
     0
275
    -2
285
     1
 65
     0
276
    -2
286
     1
 66
     0
277
    -2
287
     1
 67
     0
278
    -2
288
     1
 68
     0
279
    -2
289
     1
 69
     0
  7
STANDARD
140
6.0
170
     5
 62
     0
 63
   257
283
     0
 90
        4
 91
        0
  1

274
    -2
284
     1
 64
     0
275
    -2
285
     1
 65
     0
276
    -2
286
     1
 66
     0
277
    -2
287
     1
 67
     0
278
    -2
288
     1
 68
     0
279
    -2
289
     1
 69
     0
  7
STANDARD
140
4.5
170
     5
 62
     0
 63
   257
283
     0
 90
        4
 91
        0
  1

274
    -2
284
     1
 64
     0
275
    -2
285
     1
 65
     0
276
    -2
286
     1
 66
     0
277
    -2
287
     1
 67
     0
278
    -2
288
     1
 68
     0
279
    -2
289
     1
 69
     0
  0
VISUALSTYLE
  5
507
102
{ACAD_REACTORS
330
502
102
}
330
502
100
AcDbVisualStyle
  2
2dWireframe
 70
     4
177
     3
291
     0
 70
    58
 90
        0
176
     1
 90
        2
176
     1
 90
        0
176
     1
 90
        0
176
     1
 40
0.6
176
     1
 40
30.0
176
     1
 62
     7
420
 16777215
176
     1
 90
        1
176
     1
 90
        4
176
     1
 62
     7
176
     1
 62
   257
176
     1
 90
        1
176
     1
 90
        1
176
     1
 40
1.0
176
     1
 90
        0
176
     1
 62
   257
176
     1
 40
1.0
176
     1
 90
        1
176
     1
 90
        6
176
     1
 90
        2
176
     1
 62
     7
176
     1
 90
        5
176
     1
 90
        0
176
     1
 90
        0
176
     1
290
     0
176
     1
 90
        1
176
     1
 40
0.0
176
     1
 90
        0
176
     1
290
     1
176
     1
290
     1
176
     1
290
     0
176
     1
290
     0
176
     1
290
     0
176
     1
290
     0
176
     1
290
     0
176
     1
290
     0
176
     1
290
     0
176
     1
 90
       50
176
     1
 40
0.0
176
     1
 40
1.0
176
     1
 90
        0
176
     1
 62
    18
420
        0
176
     1
 90
       50
176
     1
 90
        3
176
     1
 62
     5
420
      255
176
     1
290
     0
176
     1
 90
       50
176
     1
 90
       50
176
     1
 90
       50
176
     1
290
     0
176
     1
 90
       50
176
     1
 62
   256
176
     0
 40
1.0
176
     0
 90
        2
176
     1
  1
strokes_ogs.tif
176
     1
290
     0
176
     1
 40
1.0
176
     1
 40
1.0
176
     1
  0
VISUALSTYLE
  5
50A
102
{ACAD_REACTORS
330
502
102
}
330
502
100
AcDbVisualStyle
  2
Basic
 70
     7
177
     3
291
     1
 70
    58
 90
        1
176
     1
 90
        0
176
     1
 90
        1
176
     1
 90
        0
176
     1
 40
0.6
176
     1
 40
30.0
176
     1
 62
     7
420
 16777215
176
     1
 90
        0
176
     1
 90
        4
176
     1
 62
     7
176
     1
 62
   257
176
     1
 90
        1
176
     1
 90
        1
176
     1
 40
1.0
176
     1
 90
        8
176
     1
 62
     7
176
     1
 40
1.0
176
     1
 90
        1
176
     1
 90
        6
176
     1
 90
        2
176
     1
 62
     7
176
     1
 90
        5
176
     1
 90
        0
176
     1
 90
        0
176
     1
290
     0
176
     1
 90
        1
176
     1
 40
0.0
176
     1
 90
        0
176
     1
290
     0
176
     1
290
     1
176
     1
290
     1
176
     1
290
     0
176
     1
290
     0
176
     1
290
     0
176
     1
290
     0
176
     1
290
     0
176
     1
290
     0
176
     1
 90
       50
176
     1
 40
0.0
176
     1
 40
1.0
176
     1
 90
        0
176
     1
 62
    18
420
        0
176
     1
 90
       50
176
     1
 90
        3
176
     1
 62
     5
420
      255
176
     1
290
     0
176
     1
 90
       50
176
     1
 90
       50
176
     1
 90
       50
176
     1
290
     0
176
     1
 90
       50
176
     1
 62
   256
176
     0
 40
1.0
176
     0
 90
        2
176
     1
  1
strokes_ogs.tif
176
     1
290
     0
176
     1
 40
1.0
176
     1
 40
1.0
176
     1
  0
VISUALSTYLE
  5
50E
102
{ACAD_REACTORS
330
502
102
}
330
502
100
AcDbVisualStyle
  2
Brighten
 70
    12
177
     3
291
     1
 70
    58
 90
        2
176
     1
 90
        2
176
     1
 90
        0
176
     1
 90
        0
176
     1
 40
0.6
176
     1
 40
30.0
176
     1
 62
     7
420
 16777215
176
     1
 90
        1
176
     1
 90
        4
176
     1
 62
     7
176
     1
 62
   257
176
     1
 90
        1
176
     1
 90
        1
176
     1
 40
1.0
176
     1
 90
        8
176
     1
 62
     7
176
     1
 40
1.0
176
     1
 90
        1
176
     1
 90
        6
176
     1
 90
        2
176
     1
 62
     7
176
     1
 90
        5
176
     1
 90
        0
176
     1
 90
        0
176
     1
290
     0
176
     1
 90
        1
176
     1
 40
50.0
176
     1
 90
        0
176
     1
290
     0
176
     1
290
     1
176
     1
290
     1
176
     1
290
     0
176
     1
290
     0
176
     1
290
     0
176
     1
290
     0
176
     1
290
     0
176
     1
290
     0
176
     1
 90
       50
176
     1
 40
0.0
176
     1
 40
1.0
176
     1
 90
        0
176
     1
 62
    18
420
        0
176
     1
 90
       50
176
     1
 90
        3
176
     1
 62
     5
420
      255
176
     1
290
     0
176
     1
 90
       50
176
     1
 90
       50
176
     1
 90
       50
176
     1
290
     0
176
     1
 90
       50
176
     1
 62
   256
176
     0
 40
1.0
176
     0
 90
        2
176
     1
  1
strokes_ogs.tif
176
     1
290
     0
176
     1
 40
1.0
176
     1
 40
1.0
176
     1
  0
VISUALSTYLE
  5
512
102
{ACAD_REACTORS
330
502
102
}
330
502
100
AcDbVisualStyle
  2
ColorChange
 70
    16
177
     3
291
     1
 70
    58
 90
        2
176
     1
 90
        2
176
     1
 90
        3
176
     1
 90
        0
176
     1
 40
0.6
176
     1
 40
30.0
176
     1
 62
     8
420
  8421504
176
     1
 90
        1
176
     1
 90
        4
176
     1
 62
     7
176
     1
 62
   257
176
     1
 90
        1
176
     1
 90
        1
176
     1
 40
1.0
176
     1
 90
        8
176
     1
 62
     8
420
  8421504
176
     1
 40
1.0
176
     1
 90
        1
176
     1
 90
        6
176
     1
 90
        2
176
     1
 62
     7
176
     1
 90
        5
176
     1
 90
        0
176
     1
 90
        0
176
     1
290
     0
176
     1
 90
        1
176
     1
 40
0.0
176
     1
 90
        0
176
     1
290
     0
176
     1
290
     1
176
     1
290
     1
176
     1
290
     0
176
     1
290
     0
176
     1
290
     0
176
     1
290
     0
176
     1
290
     0
176
     1
290
     0
176
     1
 90
       50
176
     1
 40
0.0
176
     1
 40
1.0
176
     1
 90
        0
176
     1
 62
    18
420
        0
176
     1
 90
       50
176
     1
 90
        3
176
     1
 62
     5
420
      255
176
     1
290
     0
176
     1
 90
       50
176
     1
 90
       50
176
     1
 90
       50
176
     1
290
     0
176
     1
 90
       50
176
     1
 62
   256
176
     0
 40
1.0
176
     0
 90
        2
176
     1
  1
strokes_ogs.tif
176
     1
290
     0
176
     1
 40
1.0
176
     1
 40
1.0
176
     1
  0
VISUALSTYLE
  5
50C
102
{ACAD_REACTORS
330
502
102
}
330
502
100
AcDbVisualStyle
  2
Conceptual
 70
     9
177
     3
291
     0
 70
    58
 90
        3
176
     1
 90
        2
176
     1
 90
        0
176
     1
 90
        0
176
     1
 40
0.6
176
     1
 40
30.0
176
     1
 62
     7
420
 16777215
176
     1
 90
        2
176
     1
 90
        2
176
     1
 62
     7
176
     1
 62
   257
176
     1
 90
        1
176
     1
 90
        1
176
     1
 40
179.0
176
     1
 90
        8
176
     1
 62
     7
176
     1
 40
1.0
176
     1
 90
        1
176
     1
 90
        6
176
     1
 90
        2
176
     1
 62
     7
176
     1
 90
        3
176
     1
 90
        0
176
     1
 90
        0
176
     1
290
     0
176
     1
 90
        1
176
     1
 40
0.0
176
     1
 90
        0
176
     1
290
     0
176
     1
290
     1
176
     1
290
     1
176
     1
290
     0
176
     1
290
     0
176
     1
290
     0
176
     1
290
     0
176
     1
290
     0
176
     1
290
     0
176
     1
 90
       50
176
     1
 40
0.0
176
     1
 40
1.0
176
     1
 90
        0
176
     1
 62
    18
420
        0
176
     1
 90
       50
176
     1
 90
        3
176
     1
 62
     5
420
      255
176
     1
290
     0
176
     1
 90
       50
176
     1
 90
       50
176
     1
 90
       50
176
     1
290
     0
176
     1
 90
       50
176
     1
 62
   256
176
     0
 40
1.0
176
     0
 90
        2
176
     1
  1
strokes_ogs.tif
176
     1
290
     0
176
     1
 40
1.0
176
     1
 40
1.0
176
     1
  0
VISUALSTYLE
  5
50D
102
{ACAD_REACTORS
330
502
102
}
330
502
100
AcDbVisualStyle
  2
Dim
 70
    11
177
     3
291
     1
 70
    58
 90
        2
176
     1
 90
        2
176
     1
 90
        0
176
     1
 90
        0
176
     1
 40
0.6
176
     1
 40
30.0
176
     1
 62
     7
420
 16777215
176
     1
 90
        1
176
     1
 90
        4
176
     1
 62
     7
176
     1
 62
   257
176
     1
 90
        1
176
     1
 90
        1
176
     1
 40
1.0
176
     1
 90
        8
176
     1
 62
     7
176
     1
 40
1.0
176
     1
 90
        1
176
     1
 90
        6
176
     1
 90
        2
176
     1
 62
     7
176
     1
 90
        5
176
     1
 90
        0
176
     1
 90
        0
176
     1
290
     0
176
     1
 90
        1
176
     1
 40
-50.0
176
     1
 90
        0
176
     1
290
     0
176
     1
290
     1
176
     1
290
     1
176
     1
290
     0
176
     1
290
     0
176
     1
290
     0
176
     1
290
     0
176
     1
290
     0
176
     1
290
     0
176
     1
 90
       50
176
     1
 40
0.0
176
     1
 40
1.0
176
     1
 90
        0
176
     1
 62
    18
420
        0
176
     1
 90
       50
176
     1
 90
        3
176
     1
 62
     5
420
      255
176
     1
290
     0
176
     1
 90
       50
176
     1
 90
       50
176
     1
 90
       50
176
     1
290
     0
176
     1
 90
       50
176
     1
 62
   256
176
     0
 40
1.0
176
     0
 90
        2
176
     1
  1
strokes_ogs.tif
176
     1
290
     0
176
     1
 40
1.0
176
     1
 40
1.0
176
     1
  0
VISUALSTYLE
  5
515
102
{ACAD_REACTORS
330
502
102
}
330
502
100
AcDbVisualStyle
  2
EdgeColorOff
 70
    22
177
     3
291
     1
 70
    58
 90
        2
176
     0
 90
        2
176
     0
 90
        0
176
     0
 90
        0
176
     0
 40
0.6
176
     0
 40
30.0
176
     0
 62
     7
420
 16777215
176
     0
 90
        1
176
     0
 90
        4
176
     0
 62
     7
176
     0
 62
   257
176
     0
 90
        1
176
     0
 90
        1
176
     0
 40
1.0
176
     0
 90
        8
176
     2
 62
     7
176
     0
 40
1.0
176
     0
 90
        1
176
     0
 90
        6
176
     0
 90
        2
176
     0
 62
     7
176
     0
 90
        5
176
     0
 90
        0
176
     0
 90
        0
176
     0
290
     0
176
     0
 90
        1
176
     0
 40
0.0
176
     0
 90
        0
176
     0
290
     0
176
     0
290
     1
176
     0
290
     1
176
     0
290
     0
176
     0
290
     0
176
     0
290
     0
176
     0
290
     0
176
     0
290
     0
176
     0
290
     0
176
     0
 90
       50
176
     0
 40
0.0
176
     0
 40
1.0
176
     0
 90
        0
176
     0
 62
    18
420
        0
176
     0
 90
       50
176
     0
 90
        3
176
     0
 62
     5
420
      255
176
     0
290
     0
176
     0
 90
       50
176
     0
 90
       50
176
     0
 90
       50
176
     0
290
     0
176
     0
 90
       50
176
     0
 62
   256
176
     0
 40
1.0
176
     0
 90
        2
176
     0
  1
strokes_ogs.tif
176
     0
290
     0
176
     0
 40
1.0
176
     0
 40
1.0
176
     0
  0
VISUALSTYLE
  5
511
102
{ACAD_REACTORS
330
502
102
}
330
502
100
AcDbVisualStyle
  2
Facepattern
 70
    15
177
     3
291
     1
 70
    58
 90
        2
176
     1
 90
        2
176
     1
 90
        0
176
     1
 90
        0
176
     1
 40
0.6
176
     1
 40
30.0
176
     1
 62
     7
420
 16777215
176
     1
 90
        1
176
     1
 90
        4
176
     1
 62
     7
176
     1
 62
   257
176
     1
 90
        1
176
     1
 90
        1
176
     1
 40
1.0
176
     1
 90
        8
176
     1
 62
     7
176
     1
 40
1.0
176
     1
 90
        1
176
     1
 90
        6
176
     1
 90
        2
176
     1
 62
     7
176
     1
 90
        5
176
     1
 90
        0
176
     1
 90
        0
176
     1
290
     0
176
     1
 90
        1
176
     1
 40
0.0
176
     1
 90
        0
176
     1
290
     0
176
     1
290
     1
176
     1
290
     1
176
     1
290
     0
176
     1
290
     0
176
     1
290
     0
176
     1
290
     0
176
     1
290
     0
176
     1
290
     0
176
     1
 90
       50
176
     1
 40
0.0
176
     1
 40
1.0
176
     1
 90
        0
176
     1
 62
    18
420
        0
176
     1
 90
       50
176
     1
 90
        3
176
     1
 62
     5
420
      255
176
     1
290
     0
176
     1
 90
       50
176
     1
 90
       50
176
     1
 90
       50
176
     1
290
     0
176
     1
 90
       50
176
     1
 62
   256
176
     0
 40
1.0
176
     0
 90
        2
176
     1
  1
strokes_ogs.tif
176
     1
290
     0
176
     1
 40
1.0
176
     1
 40
1.0
176
     1
  0
VISUALSTYLE
  5
503
102
{ACAD_REACTORS
330
502
102
}
330
502
100
AcDbVisualStyle
  2
Flat
 70
     0
177
     3
291
     1
 70
    58
 90
        2
176
     1
 90
        1
176
     1
 90
        1
176
     1
 90
        2
176
     1
 40
0.6
176
     1
 40
30.0
176
     1
 62
     7
420
 16777215
176
     1
 90
        0
176
     1
 90
        0
176
     1
 62
     7
176
     1
 62
   257
176
     1
 90
        1
176
     1
 90
        1
176
     1
 40
1.0
176
     1
 90
        8
176
     1
 62
     7
176
     1
 40
1.0
176
     1
 90
        1
176
     1
 90
        6
176
     1
 90
        2
176
     1
 62
     7
176
     1
 90
        5
176
     1
 90
        0
176
     1
 90
        0
176
     1
290
     0
176
     1
 90
       13
176
     1
 40
0.0
176
     1
 90
        0
176
     1
290
     0
176
     1
290
     1
176
     1
290
     1
176
     1
290
     0
176
     1
290
     0
176
     1
290
     0
176
     1
290
     0
176
     1
290
     0
176
     1
290
     0
176
     1
 90
       50
176
     1
 40
0.0
176
     1
 40
1.0
176
     1
 90
        0
176
     1
 62
    18
420
        0
176
     1
 90
       50
176
     1
 90
        3
176
     1
 62
     5
420
      255
176
     1
290
     0
176
     1
 90
       50
176
     1
 90
       50
176
     1
 90
       50
176
     1
290
     0
176
     1
 90
       50
176
     1
 62
   256
176
     0
 40
1.0
176
     0
 90
        2
176
     1
  1
strokes_ogs.tif
176
     1
290
     0
176
     1
 40
1.0
176
     1
 40
1.0
176
     1
  0
VISUALSTYLE
  5
504
102
{ACAD_REACTORS
330
502
102
}
330
502
100
AcDbVisualStyle
  2
FlatWithEdges
 70
     1
177
     3
291
     1
 70
    58
 90
        2
176
     1
 90
        1
176
     1
 90
        1
176
     1
 90
        2
176
     1
 40
0.6
176
     1
 40
30.0
176
     1
 62
     7
420
 16777215
176
     1
 90
        1
176
     1
 90
        0
176
     1
 62
     7
176
     1
 62
   257
176
     1
 90
        1
176
     1
 90
        1
176
     1
 40
1.0
176
     1
 90
        0
176
     1
 62
   257
176
     1
 40
1.0
176
     1
 90
        1
176
     1
 90
        6
176
     1
 90
        2
176
     1
 62
     7
176
     1
 90
        5
176
     1
 90
        0
176
     1
 90
        0
176
     1
290
     0
176
     1
 90
       13
176
     1
 40
0.0
176
     1
 90
        0
176
     1
290
     0
176
     1
290
     1
176
     1
290
     1
176
     1
290
     0
176
     1
290
     0
176
     1
290
     0
176
     1
290
     0
176
     1
290
     0
176
     1
290
     0
176
     1
 90
       50
176
     1
 40
0.0
176
     1
 40
1.0
176
     1
 90
        0
176
     1
 62
    18
420
        0
176
     1
 90
       50
176
     1
 90
        3
176
     1
 62
     5
420
      255
176
     1
290
     0
176
     1
 90
       50
176
     1
 90
       50
176
     1
 90
       50
176
     1
290
     0
176
     1
 90
       50
176
     1
 62
   256
176
     0
 40
1.0
176
     0
 90
        2
176
     1
  1
strokes_ogs.tif
176
     1
290
     0
176
     1
 40
1.0
176
     1
 40
1.0
176
     1
  0
VISUALSTYLE
  5
505
102
{ACAD_REACTORS
330
502
102
}
330
502
100
AcDbVisualStyle
  2
Gouraud
 70
     2
177
     3
291
     1
 70
    58
 90
        2
176
     1
 90
        2
176
     1
 90
        1
176
     1
 90
        2
176
     1
 40
0.6
176
     1
 40
30.0
176
     1
 62
     7
420
 16777215
176
     1
 90
        0
176
     1
 90
        0
176
     1
 62
     7
176
     1
 62
   257
176
     1
 90
        1
176
     1
 90
        1
176
     1
 40
1.0
176
     1
 90
        0
176
     1
 62
     7
176
     1
 40
1.0
176
     1
 90
        1
176
     1
 90
        6
176
     1
 90
        2
176
     1
 62
     7
176
     1
 90
        5
176
     1
 90
        0
176
     1
 90
        0
176
     1
290
     0
176
     1
 90
       13
176
     1
 40
0.0
176
     1
 90
        0
176
     1
290
     0
176
     1
290
     1
176
     1
290
     1
176
     1
290
     0
176
     1
290
     0
176
     1
290
     0
176
     1
290
     0
176
     1
290
     0
176
     1
290
     0
176
     1
 90
       50
176
     1
 40
0.0
176
     1
 40
1.0
176
     1
 90
        0
176
     1
 62
    18
420
        0
176
     1
 90
       50
176
     1
 90
        3
176
     1
 62
     5
420
      255
176
     1
290
     0
176
     1
 90
       50
176
     1
 90
       50
176
     1
 90
       50
176
     1
290
     0
176
     1
 90
       50
176
     1
 62
   256
176
     0
 40
1.0
176
     0
 90
        2
176
     1
  1
strokes_ogs.tif
176
     1
290
     0
176
     1
 40
1.0
176
     1
 40
1.0
176
     1
  0
VISUALSTYLE
  5
506
102
{ACAD_REACTORS
330
502
102
}
330
502
100
AcDbVisualStyle
  2
GouraudWithEdges
 70
     3
177
     3
291
     1
 70
    58
 90
        2
176
     1
 90
        2
176
     1
 90
        1
176
     1
 90
        2
176
     1
 40
0.6
176
     1
 40
30.0
176
     1
 62
     7
420
 16777215
176
     1
 90
        1
176
     1
 90
        0
176
     1
 62
     7
176
     1
 62
   257
176
     1
 90
        1
176
     1
 90
        1
176
     1
 40
1.0
176
     1
 90
        0
176
     1
 62
   257
176
     1
 40
1.0
176
     1
 90
        1
176
     1
 90
        6
176
     1
 90
        2
176
     1
 62
     7
176
     1
 90
        5
176
     1
 90
        0
176
     1
 90
        0
176
     1
290
     0
176
     1
 90
       13
176
     1
 40
0.0
176
     1
 90
        0
176
     1
290
     0
176
     1
290
     1
176
     1
290
     1
176
     1
290
     0
176
     1
290
     0
176
     1
290
     0
176
     1
290
     0
176
     1
290
     0
176
     1
290
     0
176
     1
 90
       50
176
     1
 40
0.0
176
     1
 40
1.0
176
     1
 90
        0
176
     1
 62
    18
420
        0
176
     1
 90
       50
176
     1
 90
        3
176
     1
 62
     5
420
      255
176
     1
290
     0
176
     1
 90
       50
176
     1
 90
       50
176
     1
 90
       50
176
     1
290
     0
176
     1
 90
       50
176
     1
 62
   256
176
     0
 40
1.0
176
     0
 90
        2
176
     1
  1
strokes_ogs.tif
176
     1
290
     0
176
     1
 40
1.0
176
     1
 40
1.0
176
     1
  0
VISUALSTYLE
  5
509
102
{ACAD_REACTORS
330
502
102
}
330
502
100
AcDbVisualStyle
  2
Hidden
 70
     6
177
     3
291
     0
 70
    58
 90
        1
176
     1
 90
        2
176
     1
 90
        2
176
     1
 90
        0
176
     1
 40
0.6
176
     1
 40
30.0
176
     1
 62
     7
420
 16777215
176
     1
 90
        2
176
     1
 90
        2
176
     1
 62
     7
176
     1
 62
   257
176
     1
 90
        2
176
     1
 90
        1
176
     1
 40
40.0
176
     1
 90
        0
176
     1
 62
   257
176
     1
 40
1.0
176
     1
 90
        1
176
     1
 90
        6
176
     1
 90
        2
176
     1
 62
     7
176
     1
 90
        3
176
     1
 90
        0
176
     1
 90
        0
176
     1
290
     0
176
     1
 90
        1
176
     1
 40
0.0
176
     1
 90
        0
176
     1
290
     0
176
     1
290
     1
176
     1
290
     1
176
     1
290
     0
176
     1
290
     0
176
     1
290
     0
176
     1
290
     0
176
     1
290
     0
176
     1
290
     0
176
     1
 90
       50
176
     1
 40
0.0
176
     1
 40
1.0
176
     1
 90
        0
176
     1
 62
    18
420
        0
176
     1
 90
       50
176
     1
 90
        3
176
     1
 62
     5
420
      255
176
     1
290
     0
176
     1
 90
       50
176
     1
 90
       50
176
     1
 90
       50
176
     1
290
     0
176
     1
 90
       50
176
     1
 62
   256
176
     0
 40
1.0
176
     0
 90
        2
176
     1
  1
strokes_ogs.tif
176
     1
290
     0
176
     1
 40
1.0
176
     1
 40
1.0
176
     1
  0
VISUALSTYLE
  5
513
102
{ACAD_REACTORS
330
502
102
}
330
502
100
AcDbVisualStyle
  2
JitterOff
 70
    20
177
     3
291
     1
 70
    58
 90
        2
176
     0
 90
        2
176
     0
 90
        0
176
     0
 90
        0
176
     0
 40
0.6
176
     0
 40
30.0
176
     0
 62
     7
420
 16777215
176
     0
 90
        1
176
     0
 90
        4
176
     0
 62
     7
176
     0
 62
   257
176
     0
 90
        1
176
     0
 90
        1
176
     0
 40
1.0
176
     0
 90
       10
176
     2
 62
     7
176
     0
 40
1.0
176
     0
 90
        1
176
     0
 90
        6
176
     0
 90
        2
176
     0
 62
     7
176
     0
 90
        5
176
     0
 90
        0
176
     0
 90
        0
176
     0
290
     0
176
     0
 90
        1
176
     0
 40
0.0
176
     0
 90
        0
176
     0
290
     0
176
     0
290
     1
176
     0
290
     1
176
     0
290
     0
176
     0
290
     0
176
     0
290
     0
176
     0
290
     0
176
     0
290
     0
176
     0
290
     0
176
     0
 90
       50
176
     0
 40
0.0
176
     0
 40
1.0
176
     0
 90
        0
176
     0
 62
    18
420
        0
176
     0
 90
       50
176
     0
 90
        3
176
     0
 62
     5
420
      255
176
     0
290
     0
176
     0
 90
       50
176
     0
 90
       50
176
     0
 90
       50
176
     0
290
     0
176
     0
 90
       50
176
     0
 62
   256
176
     0
 40
1.0
176
     0
 90
        2
176
     0
  1
strokes_ogs.tif
176
     0
290
     0
176
     0
 40
1.0
176
     0
 40
1.0
176
     0
  0
VISUALSTYLE
  5
510
102
{ACAD_REACTORS
330
502
102
}
330
502
100
AcDbVisualStyle
  2
Linepattern
 70
    14
177
     3
291
     1
 70
    58
 90
        2
176
     1
 90
        2
176
     1
 90
        0
176
     1
 90
        0
176
     1
 40
0.6
176
     1
 40
30.0
176
     1
 62
     7
420
 16777215
176
     1
 90
        1
176
     1
 90
        4
176
     1
 62
     7
176
     1
 62
   257
176
     1
 90
        7
176
     1
 90
        7
176
     1
 40
1.0
176
     1
 90
        8
176
     1
 62
     7
176
     1
 40
1.0
176
     1
 90
        1
176
     1
 90
        6
176
     1
 90
        2
176
     1
 62
     7
176
     1
 90
        5
176
     1
 90
        0
176
     1
 90
        0
176
     1
290
     0
176
     1
 90
        1
176
     1
 40
0.0
176
     1
 90
        0
176
     1
290
     0
176
     1
290
     1
176
     1
290
     1
176
     1
290
     0
176
     1
290
     0
176
     1
290
     0
176
     1
290
     0
176
     1
290
     0
176
     1
290
     0
176
     1
 90
       50
176
     1
 40
0.0
176
     1
 40
1.0
176
     1
 90
        0
176
     1
 62
    18
420
        0
176
     1
 90
       50
176
     1
 90
        3
176
     1
 62
     5
420
      255
176
     1
290
     0
176
     1
 90
       50
176
     1
 90
       50
176
     1
 90
       50
176
     1
290
     0
176
     1
 90
       50
176
     1
 62
   256
176
     0
 40
1.0
176
     0
 90
        2
176
     1
  1
strokes_ogs.tif
176
     1
290
     0
176
     1
 40
1.0
176
     1
 40
1.0
176
     1
  0
VISUALSTYLE
  5
514
102
{ACAD_REACTORS
330
502
102
}
330
502
100
AcDbVisualStyle
  2
OverhangOff
 70
    21
177
     3
291
     1
 70
    58
 90
        2
176
     0
 90
        2
176
     0
 90
        0
176
     0
 90
        0
176
     0
 40
0.6
176
     0
 40
30.0
176
     0
 62
     7
420
 16777215
176
     0
 90
        1
176
     0
 90
        4
176
     0
 62
     7
176
     0
 62
   257
176
     0
 90
        1
176
     0
 90
        1
176
     0
 40
1.0
176
     0
 90
        9
176
     2
 62
     7
176
     0
 40
1.0
176
     0
 90
        1
176
     0
 90
        6
176
     0
 90
        2
176
     0
 62
     7
176
     0
 90
        5
176
     0
 90
        0
176
     0
 90
        0
176
     0
290
     0
176
     0
 90
        1
176
     0
 40
0.0
176
     0
 90
        0
176
     0
290
     0
176
     0
290
     1
176
     0
290
     1
176
     0
290
     0
176
     0
290
     0
176
     0
290
     0
176
     0
290
     0
176
     0
290
     0
176
     0
290
     0
176
     0
 90
       50
176
     0
 40
0.0
176
     0
 40
1.0
176
     0
 90
        0
176
     0
 62
    18
420
        0
176
     0
 90
       50
176
     0
 90
        3
176
     0
 62
     5
420
      255
176
     0
290
     0
176
     0
 90
       50
176
     0
 90
       50
176
     0
 90
       50
176
     0
290
     0
176
     0
 90
       50
176
     0
 62
   256
176
     0
 40
1.0
176
     0
 90
        2
176
     0
  1
strokes_ogs.tif
176
     0
290
     0
176
     0
 40
1.0
176
     0
 40
1.0
176
     0
  0
VISUALSTYLE
  5
50B
102
{ACAD_REACTORS
330
502
102
}
330
502
100
AcDbVisualStyle
  2
Realistic
 70
     8
177
     3
291
     0
 70
    58
 90
        2
176
     1
 90
        3
176
     1
 90
        0
176
     1
 90
        2
176
     1
 40
0.6
176
     1
 40
30.0
176
     1
 62
     7
420
 16777215
176
     1
 90
        0
176
     1
 90
        0
176
     1
 62
     7
176
     1
 62
   257
176
     1
 90
        1
176
     1
 90
        1
176
     1
 40
1.0
176
     1
 90
        8
176
     1
 62
   257
176
     1
 40
1.0
176
     1
 90
        1
176
     1
 90
        6
176
     1
 90
        2
176
     1
 62
     7
176
     1
 90
        3
176
     1
 90
        0
176
     1
 90
        0
176
     1
290
     0
176
     1
 90
       13
176
     1
 40
0.0
176
     1
 90
        0
176
     1
290
     0
176
     1
290
     1
176
     1
290
     1
176
     1
290
     0
176
     1
290
     0
176
     1
290
     0
176
     1
290
     0
176
     1
290
     0
176
     1
290
     0
176
     1
 90
       50
176
     1
 40
0.0
176
     1
 40
1.0
176
     1
 90
        0
176
     1
 62
    18
420
        0
176
     1
 90
       50
176
     1
 90
        3
176
     1
 62
     5
420
      255
176
     1
290
     0
176
     1
 90
       50
176
     1
 90
       50
176
     1
 90
       50
176
     1
290
     0
176
     1
 90
       50
176
     1
 62
   256
176
     0
 40
1.0
176
     0
 90
        2
176
     1
  1
strokes_ogs.tif
176
     1
290
     0
176
     1
 40
1.0
176
     1
 40
1.0
176
     1
  0
VISUALSTYLE
  5
51A
102
{ACAD_REACTORS
330
502
102
}
330
502
100
AcDbVisualStyle
  2
Shaded
 70
    27
177
     3
291
     0
 70
    58
 90
        2
176
     1
 90
        2
176
     1
 90
        1
176
     1
 90
        2
176
     1
 40
0.6
176
     1
 40
30.0
176
     1
 62
     7
420
 16777215
176
     1
 90
        0
176
     1
 90
        4
176
     1
 62
     7
176
     1
 62
   257
176
     1
 90
        1
176
     1
 90
        1
176
     1
 40
1.0
176
     1
 90
        8
176
     1
 62
   257
176
     1
 40
1.0
176
     1
 90
        1
176
     1
 90
        6
176
     1
 90
        2
176
     1
 62
     8
420
  7895160
176
     1
 90
        3
176
     1
 90
        0
176
     1
 90
        0
176
     1
290
     0
176
     1
 90
        5
176
     1
 40
0.0
176
     1
 90
        0
176
     1
290
     0
176
     1
290
     1
176
     1
290
     1
176
     1
290
     0
176
     1
290
     0
176
     1
290
     0
176
     1
290
     0
176
     1
290
     0
176
     1
290
     0
176
     1
 90
       50
176
     1
 40
0.0
176
     1
 40
1.0
176
     1
 90
        0
176
     1
 62
    18
420
        0
176
     1
 90
       50
176
     1
 90
        3
176
     1
 62
     5
420
      255
176
     1
290
     0
176
     1
 90
       50
176
     1
 90
       50
176
     1
 90
       50
176
     1
290
     0
176
     1
 90
       50
176
     1
 62
   256
176
     0
 40
1.0
176
     0
 90
        2
176
     1
  1
strokes_ogs.tif
176
     1
290
     0
176
     1
 40
1.0
176
     1
 40
1.0
176
     1
  0
VISUALSTYLE
  5
519
102
{ACAD_REACTORS
330
502
102
}
330
502
100
AcDbVisualStyle
  2
Shaded with edges
 70
    26
177
     3
291
     0
 70
    58
 90
        2
176
     1
 90
        2
176
     1
 90
        1
176
     1
 90
        2
176
     1
 40
0.6
176
     1
 40
30.0
176
     1
 62
     7
420
 16777215
176
     1
 90
        1
176
     1
 90
       10
176
     1
 62
     7
176
     1
 62
   257
176
     1
 90
        2
176
     1
 90
        1
176
     1
 40
1.0
176
     1
 90
        8
176
     1
 62
   257
176
     1
 40
1.0
176
     1
 90
        1
176
     1
 90
        6
176
     1
 90
        2
176
     1
 62
     7
176
     1
 90
        3
176
     1
 90
        0
176
     1
 90
        0
176
     1
290
     0
176
     1
 90
        5
176
     1
 40
0.0
176
     1
 90
        0
176
     1
290
     0
176
     1
290
     1
176
     1
290
     1
176
     1
290
     0
176
     1
290
     0
176
     1
290
     0
176
     1
290
     0
176
     1
290
     0
176
     1
290
     0
176
     1
 90
       50
176
     1
 40
0.0
176
     1
 40
1.0
176
     1
 90
        0
176
     1
 62
    18
420
        0
176
     1
 90
       50
176
     1
 90
        3
176
     1
 62
     5
420
      255
176
     1
290
     0
176
     1
 90
       50
176
     1
 90
       50
176
     1
 90
       50
176
     1
290
     0
176
     1
 90
       50
176
     1
 62
   256
176
     0
 40
1.0
176
     0
 90
        2
176
     1
  1
strokes_ogs.tif
176
     1
290
     0
176
     1
 40
1.0
176
     1
 40
1.0
176
     1
  0
VISUALSTYLE
  5
516
102
{ACAD_REACTORS
330
502
102
}
330
502
100
AcDbVisualStyle
  2
Shades of Gray
 70
    23
177
     3
291
     0
 70
    58
 90
        2
176
     1
 90
        2
176
     1
 90
        3
176
     1
 90
        0
176
     1
 40
0.6
176
     1
 40
30.0
176
     1
 62
     7
420
 16777215
176
     1
 90
        2
176
     1
 90
        2
176
     1
 62
     7
176
     1
 62
     7
176
     1
 90
        1
176
     1
 90
        1
176
     1
 40
40.0
176
     1
 90
        8
176
     1
 62
     7
176
     1
 40
1.0
176
     1
 90
        1
176
     1
 90
        6
176
     1
 90
        2
176
     1
 62
     7
176
     1
 90
        3
176
     1
 90
        0
176
     1
 90
        0
176
     1
290
     0
176
     1
 90
        1
176
     1
 40
0.0
176
     1
 90
        0
176
     1
290
     0
176
     1
290
     1
176
     1
290
     1
176
     1
290
     0
176
     1
290
     0
176
     1
290
     0
176
     1
290
     0
176
     1
290
     0
176
     1
290
     0
176
     1
 90
       50
176
     1
 40
0.0
176
     1
 40
1.0
176
     1
 90
        0
176
     1
 62
    18
420
        0
176
     1
 90
       50
176
     1
 90
        3
176
     1
 62
     5
420
      255
176
     1
290
     0
176
     1
 90
       50
176
     1
 90
       50
176
     1
 90
       50
176
     1
290
     0
176
     1
 90
       50
176
     1
 62
   256
176
     0
 40
1.0
176
     0
 90
        2
176
     1
  1
strokes_ogs.tif
176
     1
290
     0
176
     1
 40
1.0
176
     1
 40
1.0
176
     1
  0
VISUALSTYLE
  5
517
102
{ACAD_REACTORS
330
502
102
}
330
502
100
AcDbVisualStyle
  2
Sketchy
 70
    24
177
     3
291
     0
 70
    58
 90
        1
176
     1
 90
        2
176
     1
 90
        2
176
     1
 90
        0
176
     1
 40
0.6
176
     1
 40
30.0
176
     1
 62
     7
420
 16777215
176
     1
 90
        2
176
     1
 90
        2
176
     1
 62
     7
176
     1
 62
     7
176
     1
 90
        1
176
     1
 90
        1
176
     1
 40
40.0
176
     1
 90
       11
176
     1
 62
     7
176
     1
 40
1.0
176
     1
 90
        1
176
     1
 90
        6
176
     1
 90
        2
176
     1
 62
     7
176
     1
 90
        6
176
     1
 90
        0
176
     1
 90
        0
176
     1
290
     0
176
     1
 90
        1
176
     1
 40
0.0
176
     1
 90
        0
176
     1
290
     0
176
     1
290
     1
176
     1
290
     1
176
     1
290
     0
176
     1
290
     0
176
     1
290
     0
176
     1
290
     0
176
     1
290
     0
176
     1
290
     0
176
     1
 90
       50
176
     1
 40
0.0
176
     1
 40
1.0
176
     1
 90
        0
176
     1
 62
    18
420
        0
176
     1
 90
       50
176
     1
 90
        3
176
     1
 62
     5
420
      255
176
     1
290
     0
176
     1
 90
       50
176
     1
 90
       50
176
     1
 90
       50
176
     1
290
     0
176
     1
 90
       50
176
     1
 62
   256
176
     0
 40
1.0
176
     0
 90
        2
176
     1
  1
strokes_ogs.tif
176
     1
290
     0
176
     1
 40
1.0
176
     1
 40
1.0
176
     1
  0
VISUALSTYLE
  5
50F
102
{ACAD_REACTORS
330
502
102
}
330
502
100
AcDbVisualStyle
  2
Thicken
 70
    13
177
     3
291
     1
 70
    58
 90
        2
176
     1
 90
        2
176
     1
 90
        0
176
     1
 90
        0
176
     1
 40
0.6
176
     1
 40
30.0
176
     1
 62
     7
420
 16777215
176
     1
 90
        1
176
     1
 90
        4
176
     1
 62
     7
176
     1
 62
   257
176
     1
 90
        1
176
     1
 90
        1
176
     1
 40
1.0
176
     1
 90
       12
176
     1
 62
     7
176
     1
 40
1.0
176
     1
 90
        1
176
     1
 90
        6
176
     1
 90
        2
176
     1
 62
     7
176
     1
 90
        5
176
     1
 90
        0
176
     1
 90
        0
176
     1
290
     0
176
     1
 90
        1
176
     1
 40
0.0
176
     1
 90
        0
176
     1
290
     0
176
     1
290
     1
176
     1
290
     1
176
     1
290
     0
176
     1
290
     0
176
     1
290
     0
176
     1
290
     0
176
     1
290
     0
176
     1
290
     0
176
     1
 90
       50
176
     1
 40
0.0
176
     1
 40
1.0
176
     1
 90
        0
176
     1
 62
    18
420
        0
176
     1
 90
       50
176
     1
 90
        3
176
     1
 62
     5
420
      255
176
     1
290
     0
176
     1
 90
       50
176
     1
 90
       50
176
     1
 90
       50
176
     1
290
     0
176
     1
 90
       50
176
     1
 62
   256
176
     0
 40
1.0
176
     0
 90
        2
176
     1
  1
strokes_ogs.tif
176
     1
290
     0
176
     1
 40
1.0
176
     1
 40
1.0
176
     1
  0
VISUALSTYLE
  5
508
102
{ACAD_REACTORS
330
502
102
}
330
502
100
AcDbVisualStyle
  2
Wireframe
 70
     5
177
     3
291
     0
 70
    58
 90
        0
176
     1
 90
        2
176
     1
 90
        0
176
     1
 90
        0
176
     1
 40
0.6
176
     1
 40
30.0
176
     1
 62
     7
420
 16777215
176
     1
 90
        1
176
     1
 90
        4
176
     1
 62
     7
176
     1
 62
   257
176
     1
 90
        1
176
     1
 90
        1
176
     1
 40
1.0
176
     1
 90
        0
176
     1
 62
   257
176
     1
 40
1.0
176
     1
 90
        1
176
     1
 90
        6
176
     1
 90
        2
176
     1
 62
     7
176
     1
 90
        3
176
     1
 90
        0
176
     1
 90
        0
176
     1
290
     0
176
     1
 90
        1
176
     1
 40
0.0
176
     1
 90
        0
176
     1
290
     0
176
     1
290
     1
176
     1
290
     1
176
     1
290
     0
176
     1
290
     0
176
     1
290
     0
176
     1
290
     0
176
     1
290
     0
176
     1
290
     0
176
     1
 90
       50
176
     1
 40
0.0
176
     1
 40
1.0
176
     1
 90
        0
176
     1
 62
    18
420
        0
176
     1
 90
       50
176
     1
 90
        3
176
     1
 62
     5
420
      255
176
     1
290
     0
176
     1
 90
       50
176
     1
 90
       50
176
     1
 90
       50
176
     1
290
     0
176
     1
 90
       50
176
     1
 62
   256
176
     0
 40
1.0
176
     0
 90
        2
176
     1
  1
strokes_ogs.tif
176
     1
290
     0
176
     1
 40
1.0
176
     1
 40
1.0
176
     1
  0
VISUALSTYLE
  5
518
102
{ACAD_REACTORS
330
502
102
}
330
502
100
AcDbVisualStyle
  2
X-Ray
 70
    25
177
     3
291
     0
 70
    58
 90
        2
176
     1
 90
        2
176
     1
 90
        1
176
     1
 90
        1
176
     1
 40
0.5
176
     1
 40
30.0
176
     1
 62
     7
420
 16777215
176
     1
 90
        1
176
     1
 90
        0
176
     1
 62
     7
176
     1
 62
   257
176
     1
 90
        1
176
     1
 90
        1
176
     1
 40
1.0
176
     1
 90
        8
176
     1
 62
     7
176
     1
 40
1.0
176
     1
 90
        1
176
     1
 90
        6
176
     1
 90
        2
176
     1
 62
     7
176
     1
 90
        3
176
     1
 90
        0
176
     1
 90
        0
176
     1
290
     0
176
     1
 90
       13
176
     1
 40
0.0
176
     1
 90
        0
176
     1
290
     0
176
     1
290
     1
176
     1
290
     1
176
     1
290
     0
176
     1
290
     0
176
     1
290
     0
176
     1
290
     0
176
     1
290
     0
176
     1
290
     0
176
     1
 90
       50
176
     1
 40
0.0
176
     1
 40
1.0
176
     1
 90
        0
176
     1
 62
    18
420
        0
176
     1
 90
       50
176
     1
 90
        3
176
     1
 62
     5
420
      255
176
     1
290
     0
176
     1
 90
       50
176
     1
 90
       50
176
     1
 90
       50
176
     1
290
     0
176
     1
 90
       50
176
     1
 62
   256
176
     0
 40
1.0
176
     0
 90
        2
176
     1
  1
strokes_ogs.tif
176
     1
290
     0
176
     1
 40
1.0
176
     1
 40
1.0
176
     1
  0
DICTIONARYVAR
  5
531
102
{ACAD_REACTORS
330
530
102
}
330
530
100
DictionaryVariables
280
     0
  1
1:1
  0
DICTIONARYVAR
  5
535
102
{ACAD_REACTORS
330
530
102
}
330
530
100
DictionaryVariables
280
     0
  1
Standard
  0
CSACDOCUMENTOPTIONS
  5
526
102
{ACAD_REACTORS
330
525
102
}
330
525
  0
XRECORD
  5
52A
102
{ACAD_REACTORS
330
521
102
}
330
521
100
AcDbXrecord
280
     1
300
MC_VERSION_DATA
 90
       95
310
0600000002000000570000001C000000E404000000000000000000007801936764E5D8CF7A8393818115C460606066E0646662626666706006F214793899F8DE3171E725E6E53B3BBA2878E6951050AF75FEFFFFFF520032DE0F3057000000
  0
XRECORD
  5
522
102
{ACAD_REACTORS
330
521
102
}
330
521
100
AcDbXrecord
280
     1
300
MCS_DOCUMENT_ID
 90
       60
310
0600000002000000150000001C000000E404000000000000000000007801E3D5FD243AF77D8CB86F53AD7ADDF35FCD71FF8100006A5D0BF015000000
  0
XRECORD
  5
528
102
{ACAD_REACTORS
330
521
102
}
330
521
100
AcDbXrecord
280
     1
300
MCS_PARAMS_DATA
 90
     3313
310
0600000002000000F64B00001C000000E404000000000000000000007801C55C5B905C45199EE99EBDCCE67E5DA218172C303B91307B4B8C459531245054850D55591F78B236BB49B9BAC9E6B22A082A9655BE5865596569A965F9209288CF16503EC8834088C10B092404211702988430422E9084CDAEFFD7A7FBF4DFA7CF
310
D9D99D9D39930798FF3F7DCEF7DFFAFBBBFBCC6CDBFC46297252EECB48F9CDF5ED5234493921A5206D76815820B252E4F3225F128D7D5F59BF69E3162948D9A2D485B3131313747328BF06593E960915079422437734AA3BDAA5CCD053F5ED4FD2557D257BAB94DF007A03479F859BB2B22193C9108EC1CDCADC0464C27506
310
28605703E48886E0B986E10F03BF91E33707F8E3140E7A9091C8268236920C1C662240B94888A1C8E07600AE99C32D5131CA8B3925D172EFE62D7D6D9DABBA8ADDD6F17CE16D13F0457AE8AC9268DE32DABF73B07FCFA013F9BF8491D7C17E2550D8E8FFCA8DFE4E98B3929B331718B291824FFF72EB941D9E8E2211D5A93C
310
784A44C557923911258BD0C8640531AEEC61A924855B11378280384364A422680C0A928DB9C10CD89D581114199665B722B26E4590C82B0222AB08FAA8A60626C028E0044F81BA246F5360E167F2D27C56A10E05C058C13C59DEC6207679103AFC5DEADF992F2B284F67B31C8EE359B64A9665A62453228F64269D98455E3B
310
A4B35817F7EC92C86FB8EFFE8DBD5BEEDBDCAB0CD3B5FC8E99065A7E55D536E39DE7826237F1C8BBBCB3CFADFC93302087C80397EE69C2FF69CA32234F0763E41851010DA578E8294D435524988818E84710A7B2643B4F7C034F6CE5C9368F203BE8094C6268541D70D35EE4B585DAE170F4942EB8D2D422560A9917F34B62
310
CE86919D9F1F6DDBB36DD770FFC0B6BC682E898607BEB5737424F8D83B323AF07529CFC0B69BB96D9FD3CFF9B410ED79B1A42416161FEA29AEEDEEEC5ADF532C76DEF3C5AEEEB5CAECF97A60330D2C1C3579EAD0DA7621F20269BD6768746FDBF0D0DE51F3B0EE356B3ABBD6F474F7740D76770EACED08FCFC92BEAF13F701
310
B5AF7FEBF0B6B691ED6D7D23C3DBF6F4EF840FDA9AD583C58E81E240FFEAADDD5BD70EAC0E669D2A25F27FB610851F9335859F059541B9E5971EC7A5A7E83F2CE53DB9A4040555A2661A4DDBF2C560B2E54E7D5483931EF871F7C88E5DFDA3435B878687461F6EDB313248FE3596847C70DBDEBC682809D13B22E56A5856E4
310
E9998738519B6E2A89DCE6EDDBDB542AF4E4380F8F61A4965F57116093E5A052A06AF588670205D9A715FB49B140D81A90855F902680EBB8B3A3187EEA96F2B224E392BAF898328CB1AD47DA34C1601A1B421AD816D190715CC3F276A5DE067C546F03AED6DB808FEB6DC0B57A1BB00853B49EB3E0937A47E07ABD0D188301
310
71CB797197D3603B1D06BFCB6DB024827C0C834324E60945463B3712E196397079076E990B47228783C8E09631B8F129C211385B3E540C97413DC70673C524DEAD70BD23917B079179B782793791AE77D944EFDCDC5529988B13E1069D6092C472A7F777A6F648E4C184C88239C8822913E16AE29D48176E29E0727C316496
310
EF2A967C95165E504B0C2B218EEE82DD5C63513CD614C5091F6D6FA7551865CC5C5030A1E0A3E84BEC86CFD04EC5DD01AA74CBDB05AB8C403295A124BB2908C4B032B4682A032283FB103E391B4E03172C7199C4E0F88E871E8855ADA1482D3238FA1846E0B807A77785BFF935FE1D74369F5647D0D171CA5F4F09337C2559
310
105132935A503D6DBC7A94B54D2B6DF1E0339960F436A97441791E5EC104D40283580888C4FDED577B1FD8B4B9AF6FE30605D8AAD7F1F34A62F6DD5BBEC62E92057A31FEA25A9DB3F5FBD3C1729D9CD723B0BF0DE8402BB05A67160DDE4416E59079C0D9EAA575B7321F67115FC018C76AB5B3A33D06B68CBD9BFBDC93C073
310
800CC384FD360C544F539B6F02B1820953BE9D01DE01C0D85A6C50369A5AC4065C7760793B965800321749E4B50891C0C2AB0CAE9808178444974C70F875952A9381563C01BE9D08EAFA481283ABD8C7EF7870DAABE068E68833DFAC8EA0A3E3F87C0B07AA507B2311F0889285BDC333294C4E2DB27C67BA70ABD2857B688A
310
70552AA7873DB8489E55063D5D2DCBE9BB9E49F1E554A5083C922EDCA3E9C27D2F5DB8EF7B705EE9D87E1E920E88313AAE6AECF4FBD668D3D30DB4E51ADA9BEDB0D7AFCEB4DDED85F7C4ECF6551B3BCE2AFF6E835E49458EC94883D6E73C45753FAE614C3C0A0362777435D915EC025C33F7578776011DE6F3D066954C59D6
310
D76F86AC9CD58A53F4122CF0552BAE070AEA3B5AF15752304F1F47569D50AB71F41A31FA5A51C904CD43C6B0F51D2ACEFC112ACC4CC1B0FF086CE7AD5A4D096A005126387AAD451EE384D9C035A925859E39C1AA865EE9A9B8DA21CEE289167F7CF1D4C4BC7A125EC5AED5D8BB0B5A9D9144D134CFA71BF85A8D44BE568348
310
F6AA55A2F3CAEA4F6982FD21118CC249D3CBF852A586F244BA70FBD285DB9F085793EDE56E143F0AD06C6B4CB2242BDD3DD1419166C2865E81F9CE1648F3CBD84597B22E28992A3DDCE24C77F3F311A01C8A722828EC3CF15F7D987933F818F8E59BC138E5CD4CE8AC24C94E68BA32F5C3CBAB808B6B06B9936E642F9F804C
310
903AF2F3709D37832318A078E4B37AEBDCFAA66859945B9EBB25776BAE2DD3995995E9CA1433DDFA4DAC7ECE6FE93696E96BB06712968ED2661884A9EE40230F60D0D73DE8C858453B9E8E4212D5A9B0784A762662599FEDD18C9299F4094C728A91F536658E91CDA6DFC8E89F363B15B4CB31404FD2581CF722BBF229B517
310
430944E56AB2E2A8E3461950730F2B7ECA7BC570E389706E8BA9D241C744225C40C29385944F707279EA277D998065D9EAD604B1263E66D38513E9C2490F4EE7CC6E8AA89C3D9DA588701CA708AB6414C194931EE3FC0D4515D71A4FBFE712F8CB4A26532A6E8DCF01CA61A3745BE3F3C09F6E6B442F0CD7BAD36A8D2F002E
310
AE359E3BE646F6B8926D6BBC0CD9926FBEF08C5220B9BAE91D0E14769FF44B52301E3C00E8FA74C117BD24F396E22C7F1005F2DA2902EB76053DE720B0D3EE397F2F036AE8B24A3DE750225C4DF8F8A544B81AF69C7F2482D6C4C77F067093EF36FE359541FF8E0E8A50399BA22F63681CEF0EBDEBB2C3834A9E09EF1E0654
310
1D79F708F0A7CBBB956F495E015C1CEFEE3EEC46B65FC996771F856C09285F58A7148C77872F6104D6DC9A8897D30896D457015D1FDE3DEA25B91CEFF2EBD6EB0A68F718A0D3A6DDD7CA805699768F27C2D584925E4F84AB9476A39B03E744D09CD6610FF59F44E89A78FA46BA70DDDE0ADC144A4DBCEBF1E0221D416DC23D
310
1D715254A766A8A7AC60C1FF26021ED7783E889CD89C52F24C1ACF0940D5B1F19C047E7A8DE714E0E21ACFD5436EE339AB64DB78E44B91C6730003ECCB897CE1D28548E3798246B0C6731AD0536D3CB3E90740046E0B5FD5161351555C247A084506FA9607AAEBD39C44F1E2B63A5BDCA18E17B755B2E2664A322602C34C3A
310
0393625B51C09BC60D77315EF1E1C8DB80730A9C37D5B8CD0EBF3EA3A6FB4EA2A7C18B1B2746D53A5F7BB70C687C78291FE10E3A386EE3054657F9CB297E9CF703B0E71DFC4DA3397B4068C3CF33A1A81F02C2C920DB8E7ABF712005813923946BAE06DE453454B45CC32AF6311810C751E3F85A979E7874424F9299B34AB2
310
210DC430A45A3473162283FB2F3218C7FE178FBB1CF59692CDAD957C0DECAC3739580882F7E26636C4FC0874E66F42CE013F2EB274A4C323CBB88082C5B980AE4CFD4DC879C0C5B1FFF5E7DDC89E57324556799F2F34BC006EC70CD18A8318C0D9FF0AB6807CDBB19F46B0A4BE07E8B4D9FF8207EA504E3D7E65FA3E4C7226
310
B329B0E8D703AAFEBAA304E869379E693123CD68457958A4FF2F11AE86ECFF4119D078F6E7138AD87FF2370F86D6E1E38789702D76FED2134932CCA824CB8C811832A3160D33426421BD980847AF6F0C11D33DEECB1CFE9B7175D1F926045DE5BD8DBFBDBE94081764D0049324E6DDB40A8607F372225C4D16463974B5B836
310
F393232E193EA2E499B49986C93A780A6DA631A981D7A6CD34012EAECDFCFC5937B23F52B26D33BF83CCDBCC56A5C0ECD07DE7A7A7226D661D8D6033A419D0536D33E07F56B8C4CA7C0D48229F9610695A461A0883CE7B494E8DD95B004DF38E8247AB09FE45AC1A52EDAC32A0861DD8DA85D8A76276989D08579353913989
310
700119397510D9BB4CAB9DF096393711B4263ECE4B176E7EBA700B3C389DB3F0B5335AA6A7234288EA142D784A9083AFB414616018456CF24C3293C4CD2F49D3E5A5F0410CEE7E0F2E6A6FEA11580893E29AEE529C2FC11C4DF48D4AA628982DB44A422820F8563073C8F989CF2240392BED74F7768B819FDEDE6E09E0E29A
310
EE72FA030B3CB273954C91D5916E87CC9BEEFB4FAB1E6B73B10CFB6CBEB73B4423589D2D05F4CC9AAE2E4C768646F0614DBB4BD40606DDEA2539B5A67B13A0D36EBACBCA809A9055A7E9E24B8E0D79912B896C91FE0C1655C17843E129FA335B3277F4E8510807513CB9CC44868E210AF7FE19028691B0917E39482B125CF8
310
D4FF01F0B312DAF64B0000
  0
TABLECONTENT
  5
52C
330
52F
100
AcDbLinkedData
  1

300

100
AcDbLinkedTableData
 90
        5
300
COLUMN
  1
LINKEDTABLEDATACOLUMN_BEGIN
300

 91
        0
301
CUSTOMDATA
  1
DATAMAP_BEGIN
 90
        0
309
DATAMAP_END
309
LINKEDTABLEDATACOLUMN_END
  1
FORMATTEDTABLEDATACOLUMN_BEGIN
300
COLUMNTABLEFORMAT
  1
TABLEFORMAT_BEGIN
 90
        3
170
     0
309
TABLEFORMAT_END
309
FORMATTEDTABLEDATACOLUMN_END
  1
TABLECOLUMN_BEGIN
 90
        0
 40
10.0
309
TABLECOLUMN_END
300
COLUMN
  1
LINKEDTABLEDATACOLUMN_BEGIN
300

 91
        0
301
CUSTOMDATA
  1
DATAMAP_BEGIN
 90
        0
309
DATAMAP_END
309
LINKEDTABLEDATACOLUMN_END
  1
FORMATTEDTABLEDATACOLUMN_BEGIN
300
COLUMNTABLEFORMAT
  1
TABLEFORMAT_BEGIN
 90
        3
170
     0
309
TABLEFORMAT_END
309
FORMATTEDTABLEDATACOLUMN_END
  1
TABLECOLUMN_BEGIN
 90
        0
 40
10.0
309
TABLECOLUMN_END
300
COLUMN
  1
LINKEDTABLEDATACOLUMN_BEGIN
300

 91
        0
301
CUSTOMDATA
  1
DATAMAP_BEGIN
 90
        0
309
DATAMAP_END
309
LINKEDTABLEDATACOLUMN_END
  1
FORMATTEDTABLEDATACOLUMN_BEGIN
300
COLUMNTABLEFORMAT
  1
TABLEFORMAT_BEGIN
 90
        3
170
     0
309
TABLEFORMAT_END
309
FORMATTEDTABLEDATACOLUMN_END
  1
TABLECOLUMN_BEGIN
 90
        0
 40
10.0
309
TABLECOLUMN_END
300
COLUMN
  1
LINKEDTABLEDATACOLUMN_BEGIN
300

 91
        0
301
CUSTOMDATA
  1
DATAMAP_BEGIN
 90
        0
309
DATAMAP_END
309
LINKEDTABLEDATACOLUMN_END
  1
FORMATTEDTABLEDATACOLUMN_BEGIN
300
COLUMNTABLEFORMAT
  1
TABLEFORMAT_BEGIN
 90
        3
170
     0
309
TABLEFORMAT_END
309
FORMATTEDTABLEDATACOLUMN_END
  1
TABLECOLUMN_BEGIN
 90
        0
 40
40.0
309
TABLECOLUMN_END
300
COLUMN
  1
LINKEDTABLEDATACOLUMN_BEGIN
300

 91
        0
301
CUSTOMDATA
  1
DATAMAP_BEGIN
 90
        0
309
DATAMAP_END
309
LINKEDTABLEDATACOLUMN_END
  1
FORMATTEDTABLEDATACOLUMN_BEGIN
300
COLUMNTABLEFORMAT
  1
TABLEFORMAT_BEGIN
 90
        3
170
     0
309
TABLEFORMAT_END
309
FORMATTEDTABLEDATACOLUMN_END
  1
TABLECOLUMN_BEGIN
 90
        0
 40
20.0
309
TABLECOLUMN_END
 91
        5
301
ROW
  1
LINKEDTABLEDATAROW_BEGIN
 90
        5
300
CELL
  1
LINKEDTABLEDATACELL_BEGIN
 90
        0
300

 91
        0
301
CUSTOMDATA
  1
DATAMAP_BEGIN
 90
        1
300
ACAD_ROUNDTRIP_2008_CELL_CHECKSUM
301
DATAMAP_VALUE
 93
        2
 90
        2
140
32.0
 94
        0
300

302

304
ACVALUE_END
309
DATAMAP_END
 92
        0
 95
        1
302
CONTENT
  1
CELLCONTENT_BEGIN
 90
        1
300
VALUE
 93
        2
 90
        4
  1
 
 94
        0
300

302
 
304
ACVALUE_END
 91
        0
309
CELLCONTENT_END
  1
FORMATTEDCELLCONTENT_BEGIN
170
     1
300
CONTENTFORMAT
  1
CONTENTFORMAT_BEGIN
 90
      132
 91
        0
 92
      512
 93
        0
300

 40
0.0
140
1.0
 94
        1
 62
     0
340
0
144
3.5
309
CONTENTFORMAT_END
309
FORMATTEDCELLCONTENT_END
309
LINKEDTABLEDATACELL_END
  1
FORMATTEDTABLEDATACELL_BEGIN
300
CELLTABLEFORMAT
  1
TABLEFORMAT_BEGIN
 90
        1
170
     1
 91
        0
 92
        0
 62
   257
 93
        1
300
CONTENTFORMAT
  1
CONTENTFORMAT_BEGIN
 90
        0
 91
        0
 92
      512
 93
        0
300

 40
0.0
140
1.0
 94
        1
 62
     0
340
0
144
0.18
309
CONTENTFORMAT_END
171
     0
 94
        0
309
TABLEFORMAT_END
309
FORMATTEDTABLEDATACELL_END
  1
TABLECELL_BEGIN
 90
        0
 91
        0
309
TABLECELL_END
300
CELL
  1
LINKEDTABLEDATACELL_BEGIN
 90
        0
300

 91
        0
301
CUSTOMDATA
  1
DATAMAP_BEGIN
 90
        0
309
DATAMAP_END
 92
        0
 95
        0
309
LINKEDTABLEDATACELL_END
  1
FORMATTEDTABLEDATACELL_BEGIN
300
CELLTABLEFORMAT
  1
TABLEFORMAT_BEGIN
 90
        1
170
     1
 91
        0
 92
        0
 62
   257
 93
        1
300
CONTENTFORMAT
  1
CONTENTFORMAT_BEGIN
 90
        0
 91
        0
 92
      512
 93
        0
300

 40
0.0
140
1.0
 94
        1
 62
     0
340
0
144
0.18
309
CONTENTFORMAT_END
171
     0
 94
        0
309
TABLEFORMAT_END
309
FORMATTEDTABLEDATACELL_END
  1
TABLECELL_BEGIN
 90
        0
 91
        0
309
TABLECELL_END
300
CELL
  1
LINKEDTABLEDATACELL_BEGIN
 90
        0
300

 91
        0
301
CUSTOMDATA
  1
DATAMAP_BEGIN
 90
        0
309
DATAMAP_END
 92
        0
 95
        0
309
LINKEDTABLEDATACELL_END
  1
FORMATTEDTABLEDATACELL_BEGIN
300
CELLTABLEFORMAT
  1
TABLEFORMAT_BEGIN
 90
        1
170
     1
 91
        0
 92
        0
 62
   257
 93
        1
300
CONTENTFORMAT
  1
CONTENTFORMAT_BEGIN
 90
        0
 91
        0
 92
      512
 93
        0
300

 40
0.0
140
1.0
 94
        1
 62
     0
340
0
144
0.18
309
CONTENTFORMAT_END
171
     0
 94
        0
309
TABLEFORMAT_END
309
FORMATTEDTABLEDATACELL_END
  1
TABLECELL_BEGIN
 90
        0
 91
        0
309
TABLECELL_END
300
CELL
  1
LINKEDTABLEDATACELL_BEGIN
 90
        0
300

 91
        0
301
CUSTOMDATA
  1
DATAMAP_BEGIN
 90
        1
300
ACAD_ROUNDTRIP_2008_CELL_CHECKSUM
301
DATAMAP_VALUE
 93
        2
 90
        2
140
3394.0
 94
        0
300

302

304
ACVALUE_END
309
DATAMAP_END
 92
        0
 95
        1
302
CONTENT
  1
CELLCONTENT_BEGIN
 90
        1
300
VALUE
 93
        2
 90
        4
  1
A056_C_002
 94
        0
300

302
A056_C_002
304
ACVALUE_END
 91
        0
309
CELLCONTENT_END
  1
FORMATTEDCELLCONTENT_BEGIN
170
     1
300
CONTENTFORMAT
  1
CONTENTFORMAT_BEGIN
 90
      196
 91
        0
 92
      512
 93
        0
300

 40
0.0
140
1.0
 94
        1
 62
     0
340
209
144
3.0
309
CONTENTFORMAT_END
309
FORMATTEDCELLCONTENT_END
309
LINKEDTABLEDATACELL_END
  1
FORMATTEDTABLEDATACELL_BEGIN
300
CELLTABLEFORMAT
  1
TABLEFORMAT_BEGIN
 90
        1
170
     1
 91
       16
 92
        0
 62
   257
 93
        1
300
CONTENTFORMAT
  1
CONTENTFORMAT_BEGIN
 90
       16
 91
        0
 92
      512
 93
        0
300

 40
0.0
140
1.0
 94
        4
 62
     0
340
0
144
0.18
309
CONTENTFORMAT_END
171
     0
 94
        4
 95
        1
302
GRIDFORMAT
  1
GRIDFORMAT_BEGIN
 90
       26
 91
        1
 62
     0
 92
       -2
340
0
 93
        0
 40
0.045
309
GRIDFORMAT_END
 95
        4
302
GRIDFORMAT
  1
GRIDFORMAT_BEGIN
 90
       26
 91
        1
 62
     0
 92
       -2
340
0
 93
        0
 40
0.045
309
GRIDFORMAT_END
 95
        8
302
GRIDFORMAT
  1
GRIDFORMAT_BEGIN
 90
       26
 91
        1
 62
     0
 92
       -2
340
0
 93
        0
 40
0.045
309
GRIDFORMAT_END
 95
       32
302
GRIDFORMAT
  1
GRIDFORMAT_BEGIN
 90
       26
 91
        1
 62
     0
 92
       -2
340
0
 93
        0
 40
0.045
309
GRIDFORMAT_END
309
TABLEFORMAT_END
309
FORMATTEDTABLEDATACELL_END
  1
TABLECELL_BEGIN
 90
        0
 91
        0
309
TABLECELL_END
300
CELL
  1
LINKEDTABLEDATACELL_BEGIN
 90
        0
300

 91
        0
301
CUSTOMDATA
  1
DATAMAP_BEGIN
 90
        1
300
ACAD_ROUNDTRIP_2008_CELL_CHECKSUM
301
DATAMAP_VALUE
 93
        2
 90
        2
140
1398.0
 94
        0
300

302

304
ACVALUE_END
309
DATAMAP_END
 92
        0
 95
        1
302
CONTENT
  1
CELLCONTENT_BEGIN
 90
        1
300
VALUE
 93
        2
 90
        4
  1
Rev:00
 94
        0
300

302
Rev:00
304
ACVALUE_END
 91
        0
309
CELLCONTENT_END
  1
FORMATTEDCELLCONTENT_BEGIN
170
     1
300
CONTENTFORMAT
  1
CONTENTFORMAT_BEGIN
 90
      196
 91
        0
 92
      512
 93
        0
300

 40
0.0
140
1.0
 94
        1
 62
     0
340
209
144
3.5
309
CONTENTFORMAT_END
309
FORMATTEDCELLCONTENT_END
309
LINKEDTABLEDATACELL_END
  1
FORMATTEDTABLEDATACELL_BEGIN
300
CELLTABLEFORMAT
  1
TABLEFORMAT_BEGIN
 90
        1
170
     1
 91
       16
 92
        0
 62
   257
 93
        1
300
CONTENTFORMAT
  1
CONTENTFORMAT_BEGIN
 90
       16
 91
        0
 92
      512
 93
        0
300

 40
0.0
140
1.0
 94
        4
 62
     0
340
0
144
0.18
309
CONTENTFORMAT_END
171
     0
 94
        4
 95
        1
302
GRIDFORMAT
  1
GRIDFORMAT_BEGIN
 90
       26
 91
        1
 62
     0
 92
       -2
340
0
 93
        0
 40
0.045
309
GRIDFORMAT_END
 95
        4
302
GRIDFORMAT
  1
GRIDFORMAT_BEGIN
 90
       26
 91
        1
 62
     0
 92
       -2
340
0
 93
        0
 40
0.045
309
GRIDFORMAT_END
 95
        8
302
GRIDFORMAT
  1
GRIDFORMAT_BEGIN
 90
       26
 91
        1
 62
     0
 92
       -2
340
0
 93
        0
 40
0.045
309
GRIDFORMAT_END
 95
       32
302
GRIDFORMAT
  1
GRIDFORMAT_BEGIN
 90
       26
 91
        1
 62
     0
 92
       -2
340
0
 93
        0
 40
0.045
309
GRIDFORMAT_END
309
TABLEFORMAT_END
309
FORMATTEDTABLEDATACELL_END
  1
TABLECELL_BEGIN
 90
        0
 91
        0
309
TABLECELL_END
 91
        0
301
CUSTOMDATA
  1
DATAMAP_BEGIN
 90
        0
309
DATAMAP_END
309
LINKEDTABLEDATAROW_END
  1
FORMATTEDTABLEDATAROW_BEGIN
300
ROWTABLEFORMAT
  1
TABLEFORMAT_BEGIN
 90
        2
170
     0
309
TABLEFORMAT_END
309
FORMATTEDTABLEDATAROW_END
  1
TABLEROW_BEGIN
 90
        1
 40
6.0
309
TABLEROW_END
301
ROW
  1
LINKEDTABLEDATAROW_BEGIN
 90
        5
300
CELL
  1
LINKEDTABLEDATACELL_BEGIN
 90
        0
300

 91
        0
301
CUSTOMDATA
  1
DATAMAP_BEGIN
 90
        0
309
DATAMAP_END
 92
        0
 95
        0
309
LINKEDTABLEDATACELL_END
  1
FORMATTEDTABLEDATACELL_BEGIN
300
CELLTABLEFORMAT
  1
TABLEFORMAT_BEGIN
 90
        1
170
     1
 91
        0
 92
        0
 62
   257
 93
        1
300
CONTENTFORMAT
  1
CONTENTFORMAT_BEGIN
 90
        0
 91
        0
 92
      512
 93
        0
300

 40
0.0
140
1.0
 94
        1
 62
     0
340
0
144
0.18
309
CONTENTFORMAT_END
171
     0
 94
        0
309
TABLEFORMAT_END
309
FORMATTEDTABLEDATACELL_END
  1
TABLECELL_BEGIN
 90
        0
 91
        0
309
TABLECELL_END
300
CELL
  1
LINKEDTABLEDATACELL_BEGIN
 90
        0
300

 91
        0
301
CUSTOMDATA
  1
DATAMAP_BEGIN
 90
        0
309
DATAMAP_END
 92
        0
 95
        0
309
LINKEDTABLEDATACELL_END
  1
FORMATTEDTABLEDATACELL_BEGIN
300
CELLTABLEFORMAT
  1
TABLEFORMAT_BEGIN
 90
        1
170
     1
 91
        0
 92
        0
 62
   257
 93
        1
300
CONTENTFORMAT
  1
CONTENTFORMAT_BEGIN
 90
        0
 91
        0
 92
      512
 93
        0
300

 40
0.0
140
1.0
 94
        1
 62
     0
340
0
144
0.18
309
CONTENTFORMAT_END
171
     0
 94
        0
309
TABLEFORMAT_END
309
FORMATTEDTABLEDATACELL_END
  1
TABLECELL_BEGIN
 90
        0
 91
        0
309
TABLECELL_END
300
CELL
  1
LINKEDTABLEDATACELL_BEGIN
 90
        0
300

 91
        0
301
CUSTOMDATA
  1
DATAMAP_BEGIN
 90
        0
309
DATAMAP_END
 92
        0
 95
        0
309
LINKEDTABLEDATACELL_END
  1
FORMATTEDTABLEDATACELL_BEGIN
300
CELLTABLEFORMAT
  1
TABLEFORMAT_BEGIN
 90
        1
170
     1
 91
        0
 92
        0
 62
   257
 93
        1
300
CONTENTFORMAT
  1
CONTENTFORMAT_BEGIN
 90
        0
 91
        0
 92
      512
 93
        0
300

 40
0.0
140
1.0
 94
        1
 62
     0
340
0
144
0.18
309
CONTENTFORMAT_END
171
     0
 94
        0
309
TABLEFORMAT_END
309
FORMATTEDTABLEDATACELL_END
  1
TABLECELL_BEGIN
 90
        0
 91
        0
309
TABLECELL_END
300
CELL
  1
LINKEDTABLEDATACELL_BEGIN
 90
        0
300

 91
        0
301
CUSTOMDATA
  1
DATAMAP_BEGIN
 90
        1
300
ACAD_ROUNDTRIP_2008_CELL_CHECKSUM
301
DATAMAP_VALUE
 93
        2
 90
        2
140
3105.0
 94
        0
300

302

304
ACVALUE_END
309
DATAMAP_END
 92
        0
 95
        1
302
CONTENT
  1
CELLCONTENT_BEGIN
 90
        1
300
VALUE
 93
        2
 90
        4
  1
Scale:1:1
 94
        0
300

302
Scale:1:1
304
ACVALUE_END
 91
        0
309
CELLCONTENT_END
  1
FORMATTEDCELLCONTENT_BEGIN
170
     1
300
CONTENTFORMAT
  1
CONTENTFORMAT_BEGIN
 90
      196
 91
        0
 92
      512
 93
        0
300

 40
0.0
140
1.0
 94
        1
 62
     0
340
209
144
3.5
309
CONTENTFORMAT_END
309
FORMATTEDCELLCONTENT_END
309
LINKEDTABLEDATACELL_END
  1
FORMATTEDTABLEDATACELL_BEGIN
300
CELLTABLEFORMAT
  1
TABLEFORMAT_BEGIN
 90
        1
170
     1
 91
       16
 92
        0
 62
   257
 93
        1
300
CONTENTFORMAT
  1
CONTENTFORMAT_BEGIN
 90
       16
 91
        0
 92
      512
 93
        0
300

 40
0.0
140
1.0
 94
        1
 62
     0
340
0
144
0.18
309
CONTENTFORMAT_END
171
     0
 94
        4
 95
        1
302
GRIDFORMAT
  1
GRIDFORMAT_BEGIN
 90
       26
 91
        1
 62
     0
 92
       -2
340
0
 93
        0
 40
0.045
309
GRIDFORMAT_END
 95
        4
302
GRIDFORMAT
  1
GRIDFORMAT_BEGIN
 90
       26
 91
        1
 62
     0
 92
       -2
340
0
 93
        0
 40
0.045
309
GRIDFORMAT_END
 95
        8
302
GRIDFORMAT
  1
GRIDFORMAT_BEGIN
 90
       26
 91
        1
 62
     0
 92
       -2
340
0
 93
        0
 40
0.045
309
GRIDFORMAT_END
 95
       32
302
GRIDFORMAT
  1
GRIDFORMAT_BEGIN
 90
       26
 91
        1
 62
     0
 92
       -2
340
0
 93
        0
 40
0.045
309
GRIDFORMAT_END
309
TABLEFORMAT_END
309
FORMATTEDTABLEDATACELL_END
  1
TABLECELL_BEGIN
 90
        0
 91
        0
309
TABLECELL_END
300
CELL
  1
LINKEDTABLEDATACELL_BEGIN
 90
        0
300

 91
        0
301
CUSTOMDATA
  1
DATAMAP_BEGIN
 90
        1
300
ACAD_ROUNDTRIP_2008_CELL_CHECKSUM
301
DATAMAP_VALUE
 93
        2
 90
        2
140
165.0
 94
        0
300

302

304
ACVALUE_END
309
DATAMAP_END
 92
        0
 95
        1
302
CONTENT
  1
CELLCONTENT_BEGIN
 90
        1
300
VALUE
 93
        2
 90
        4
  1
A2
 94
        0
300

302
A2
304
ACVALUE_END
 91
        0
309
CELLCONTENT_END
  1
FORMATTEDCELLCONTENT_BEGIN
170
     1
300
CONTENTFORMAT
  1
CONTENTFORMAT_BEGIN
 90
      196
 91
        0
 92
      512
 93
        0
300

 40
0.0
140
1.0
 94
        1
 62
     0
340
209
144
3.5
309
CONTENTFORMAT_END
309
FORMATTEDCELLCONTENT_END
309
LINKEDTABLEDATACELL_END
  1
FORMATTEDTABLEDATACELL_BEGIN
300
CELLTABLEFORMAT
  1
TABLEFORMAT_BEGIN
 90
        1
170
     1
 91
       16
 92
        0
 62
   257
 93
        1
300
CONTENTFORMAT
  1
CONTENTFORMAT_BEGIN
 90
       16
 91
        0
 92
      512
 93
        0
300

 40
0.0
140
1.0
 94
        4
 62
     0
340
0
144
0.18
309
CONTENTFORMAT_END
171
     0
 94
        4
 95
        1
302
GRIDFORMAT
  1
GRIDFORMAT_BEGIN
 90
       26
 91
        1
 62
     0
 92
       -2
340
0
 93
        0
 40
0.045
309
GRIDFORMAT_END
 95
        4
302
GRIDFORMAT
  1
GRIDFORMAT_BEGIN
 90
       26
 91
        1
 62
     0
 92
       -2
340
0
 93
        0
 40
0.045
309
GRIDFORMAT_END
 95
        8
302
GRIDFORMAT
  1
GRIDFORMAT_BEGIN
 90
       26
 91
        1
 62
     0
 92
       -2
340
0
 93
        0
 40
0.045
309
GRIDFORMAT_END
 95
       32
302
GRIDFORMAT
  1
GRIDFORMAT_BEGIN
 90
       26
 91
        1
 62
     0
 92
       -2
340
0
 93
        0
 40
0.045
309
GRIDFORMAT_END
309
TABLEFORMAT_END
309
FORMATTEDTABLEDATACELL_END
  1
TABLECELL_BEGIN
 90
        0
 91
        0
309
TABLECELL_END
 91
        0
301
CUSTOMDATA
  1
DATAMAP_BEGIN
 90
        0
309
DATAMAP_END
309
LINKEDTABLEDATAROW_END
  1
FORMATTEDTABLEDATAROW_BEGIN
300
ROWTABLEFORMAT
  1
TABLEFORMAT_BEGIN
 90
        2
170
     0
309
TABLEFORMAT_END
309
FORMATTEDTABLEDATAROW_END
  1
TABLEROW_BEGIN
 90
        2
 40
6.0
309
TABLEROW_END
301
ROW
  1
LINKEDTABLEDATAROW_BEGIN
 90
        5
300
CELL
  1
LINKEDTABLEDATACELL_BEGIN
 90
        0
300

 91
        0
301
CUSTOMDATA
  1
DATAMAP_BEGIN
 90
        0
309
DATAMAP_END
 92
        0
 95
        0
309
LINKEDTABLEDATACELL_END
  1
FORMATTEDTABLEDATACELL_BEGIN
300
CELLTABLEFORMAT
  1
TABLEFORMAT_BEGIN
 90
        1
170
     1
 91
        0
 92
        0
 62
   257
 93
        1
300
CONTENTFORMAT
  1
CONTENTFORMAT_BEGIN
 90
        0
 91
        0
 92
      512
 93
        0
300

 40
0.0
140
1.0
 94
        1
 62
     0
340
0
144
0.18
309
CONTENTFORMAT_END
171
     0
 94
        0
309
TABLEFORMAT_END
309
FORMATTEDTABLEDATACELL_END
  1
TABLECELL_BEGIN
 90
        0
 91
        0
309
TABLECELL_END
300
CELL
  1
LINKEDTABLEDATACELL_BEGIN
 90
        0
300

 91
        0
301
CUSTOMDATA
  1
DATAMAP_BEGIN
 90
        0
309
DATAMAP_END
 92
        0
 95
        0
309
LINKEDTABLEDATACELL_END
  1
FORMATTEDTABLEDATACELL_BEGIN
300
CELLTABLEFORMAT
  1
TABLEFORMAT_BEGIN
 90
        1
170
     1
 91
        0
 92
        0
 62
   257
 93
        1
300
CONTENTFORMAT
  1
CONTENTFORMAT_BEGIN
 90
        0
 91
        0
 92
      512
 93
        0
300

 40
0.0
140
1.0
 94
        1
 62
     0
340
0
144
0.18
309
CONTENTFORMAT_END
171
     0
 94
        0
309
TABLEFORMAT_END
309
FORMATTEDTABLEDATACELL_END
  1
TABLECELL_BEGIN
 90
        0
 91
        0
309
TABLECELL_END
300
CELL
  1
LINKEDTABLEDATACELL_BEGIN
 90
        0
300

 91
        0
301
CUSTOMDATA
  1
DATAMAP_BEGIN
 90
        0
309
DATAMAP_END
 92
        0
 95
        0
309
LINKEDTABLEDATACELL_END
  1
FORMATTEDTABLEDATACELL_BEGIN
300
CELLTABLEFORMAT
  1
TABLEFORMAT_BEGIN
 90
        1
170
     1
 91
        0
 92
        0
 62
   257
 93
        1
300
CONTENTFORMAT
  1
CONTENTFORMAT_BEGIN
 90
        0
 91
        0
 92
      512
 93
        0
300

 40
0.0
140
1.0
 94
        1
 62
     0
340
0
144
0.18
309
CONTENTFORMAT_END
171
     0
 94
        0
309
TABLEFORMAT_END
309
FORMATTEDTABLEDATACELL_END
  1
TABLECELL_BEGIN
 90
        0
 91
        0
309
TABLECELL_END
300
CELL
  1
LINKEDTABLEDATACELL_BEGIN
 90
        0
300

 91
        0
301
CUSTOMDATA
  1
DATAMAP_BEGIN
 90
        1
300
ACAD_ROUNDTRIP_2008_CELL_CHECKSUM
301
DATAMAP_VALUE
 93
        2
 90
        2
140
26018.0
 94
        0
300

302

304
ACVALUE_END
309
DATAMAP_END
 92
        0
 95
        1
302
CONTENT
  1
CELLCONTENT_BEGIN
 90
        1
300
VALUE
 93
        2
 90
        4
  1
FRONT. PIATTO QUADRO COMBO4
 94
        0
300

302
FRONT. PIATTO QUADRO COMBO4
304
ACVALUE_END
 91
        0
309
CELLCONTENT_END
  1
FORMATTEDCELLCONTENT_BEGIN
170
     1
300
CONTENTFORMAT
  1
CONTENTFORMAT_BEGIN
 90
      196
 91
        0
 92
      512
 93
        0
300

 40
0.0
140
1.0
 94
        1
 62
     0
340
209
144
2.65
309
CONTENTFORMAT_END
309
FORMATTEDCELLCONTENT_END
309
LINKEDTABLEDATACELL_END
  1
FORMATTEDTABLEDATACELL_BEGIN
300
CELLTABLEFORMAT
  1
TABLEFORMAT_BEGIN
 90
        1
170
     1
 91
       16
 92
        0
 62
   257
 93
        1
300
CONTENTFORMAT
  1
CONTENTFORMAT_BEGIN
 90
       16
 91
        0
 92
      512
 93
        0
300

 40
0.0
140
1.0
 94
        4
 62
     0
340
0
144
0.18
309
CONTENTFORMAT_END
171
     0
 94
        4
 95
        1
302
GRIDFORMAT
  1
GRIDFORMAT_BEGIN
 90
       26
 91
        1
 62
     0
 92
       -2
340
0
 93
        0
 40
0.045
309
GRIDFORMAT_END
 95
        4
302
GRIDFORMAT
  1
GRIDFORMAT_BEGIN
 90
       26
 91
        1
 62
     0
 92
       -2
340
0
 93
        0
 40
0.045
309
GRIDFORMAT_END
 95
        8
302
GRIDFORMAT
  1
GRIDFORMAT_BEGIN
 90
       26
 91
        1
 62
     0
 92
       -2
340
0
 93
        0
 40
0.045
309
GRIDFORMAT_END
 95
       32
302
GRIDFORMAT
  1
GRIDFORMAT_BEGIN
 90
       26
 91
        1
 62
     0
 92
       -2
340
0
 93
        0
 40
0.045
309
GRIDFORMAT_END
309
TABLEFORMAT_END
309
FORMATTEDTABLEDATACELL_END
  1
TABLECELL_BEGIN
 90
        0
 91
        0
309
TABLECELL_END
300
CELL
  1
LINKEDTABLEDATACELL_BEGIN
 90
        0
300

 91
        0
301
CUSTOMDATA
  1
DATAMAP_BEGIN
 90
        0
309
DATAMAP_END
 92
        0
 95
        0
309
LINKEDTABLEDATACELL_END
  1
FORMATTEDTABLEDATACELL_BEGIN
300
CELLTABLEFORMAT
  1
TABLEFORMAT_BEGIN
 90
        1
170
     1
 91
        0
 92
        0
 62
   257
 93
        1
300
CONTENTFORMAT
  1
CONTENTFORMAT_BEGIN
 90
        0
 91
        0
 92
      512
 93
        0
300

 40
0.0
140
1.0
 94
        1
 62
     0
340
0
144
0.18
309
CONTENTFORMAT_END
171
     0
 94
        0
309
TABLEFORMAT_END
309
FORMATTEDTABLEDATACELL_END
  1
TABLECELL_BEGIN
 90
        0
 91
        0
309
TABLECELL_END
 91
        0
301
CUSTOMDATA
  1
DATAMAP_BEGIN
 90
        0
309
DATAMAP_END
309
LINKEDTABLEDATAROW_END
  1
FORMATTEDTABLEDATAROW_BEGIN
300
ROWTABLEFORMAT
  1
TABLEFORMAT_BEGIN
 90
        2
170
     0
309
TABLEFORMAT_END
309
FORMATTEDTABLEDATAROW_END
  1
TABLEROW_BEGIN
 90
        3
 40
10.0
309
TABLEROW_END
301
ROW
  1
LINKEDTABLEDATAROW_BEGIN
 90
        5
300
CELL
  1
LINKEDTABLEDATACELL_BEGIN
 90
        0
300

 91
        0
301
CUSTOMDATA
  1
DATAMAP_BEGIN
 90
        0
309
DATAMAP_END
 92
        0
 95
        0
309
LINKEDTABLEDATACELL_END
  1
FORMATTEDTABLEDATACELL_BEGIN
300
CELLTABLEFORMAT
  1
TABLEFORMAT_BEGIN
 90
        1
170
     1
 91
        0
 92
        0
 62
   257
 93
        1
300
CONTENTFORMAT
  1
CONTENTFORMAT_BEGIN
 90
        0
 91
        0
 92
      512
 93
        0
300

 40
0.0
140
1.0
 94
        1
 62
     0
340
0
144
0.18
309
CONTENTFORMAT_END
171
     0
 94
        0
309
TABLEFORMAT_END
309
FORMATTEDTABLEDATACELL_END
  1
TABLECELL_BEGIN
 90
        0
 91
        0
309
TABLECELL_END
300
CELL
  1
LINKEDTABLEDATACELL_BEGIN
 90
        0
300

 91
        0
301
CUSTOMDATA
  1
DATAMAP_BEGIN
 90
        0
309
DATAMAP_END
 92
        0
 95
        0
309
LINKEDTABLEDATACELL_END
  1
FORMATTEDTABLEDATACELL_BEGIN
300
CELLTABLEFORMAT
  1
TABLEFORMAT_BEGIN
 90
        1
170
     1
 91
        0
 92
        0
 62
   257
 93
        1
300
CONTENTFORMAT
  1
CONTENTFORMAT_BEGIN
 90
        0
 91
        0
 92
      512
 93
        0
300

 40
0.0
140
1.0
 94
        1
 62
     0
340
0
144
0.18
309
CONTENTFORMAT_END
171
     0
 94
        0
309
TABLEFORMAT_END
309
FORMATTEDTABLEDATACELL_END
  1
TABLECELL_BEGIN
 90
        0
 91
        0
309
TABLECELL_END
300
CELL
  1
LINKEDTABLEDATACELL_BEGIN
 90
        0
300

 91
        0
301
CUSTOMDATA
  1
DATAMAP_BEGIN
 90
        0
309
DATAMAP_END
 92
        0
 95
        0
309
LINKEDTABLEDATACELL_END
  1
FORMATTEDTABLEDATACELL_BEGIN
300
CELLTABLEFORMAT
  1
TABLEFORMAT_BEGIN
 90
        1
170
     1
 91
        0
 92
        0
 62
   257
 93
        1
300
CONTENTFORMAT
  1
CONTENTFORMAT_BEGIN
 90
        0
 91
        0
 92
      512
 93
        0
300

 40
0.0
140
1.0
 94
        1
 62
     0
340
0
144
0.18
309
CONTENTFORMAT_END
171
     0
 94
        0
309
TABLEFORMAT_END
309
FORMATTEDTABLEDATACELL_END
  1
TABLECELL_BEGIN
 90
        0
 91
        0
309
TABLECELL_END
300
CELL
  1
LINKEDTABLEDATACELL_BEGIN
 90
        0
300

 91
        0
301
CUSTOMDATA
  1
DATAMAP_BEGIN
 90
        1
300
ACAD_ROUNDTRIP_2008_CELL_CHECKSUM
301
DATAMAP_VALUE
 93
        2
 90
        2
140
4804.0
 94
        0
300

302

304
ACVALUE_END
309
DATAMAP_END
 92
        0
 95
        1
302
CONTENT
  1
CELLCONTENT_BEGIN
 90
        1
300
VALUE
 93
        2
 90
        4
  1
DATE:12.12.19
 94
        0
300

302
DATE:12.12.19
304
ACVALUE_END
 91
        0
309
CELLCONTENT_END
  1
FORMATTEDCELLCONTENT_BEGIN
170
     1
300
CONTENTFORMAT
  1
CONTENTFORMAT_BEGIN
 90
      196
 91
        0
 92
      512
 93
        0
300

 40
0.0
140
1.0
 94
        1
 62
     0
340
209
144
2.5
309
CONTENTFORMAT_END
309
FORMATTEDCELLCONTENT_END
309
LINKEDTABLEDATACELL_END
  1
FORMATTEDTABLEDATACELL_BEGIN
300
CELLTABLEFORMAT
  1
TABLEFORMAT_BEGIN
 90
        1
170
     1
 91
       16
 92
        0
 62
   257
 93
        1
300
CONTENTFORMAT
  1
CONTENTFORMAT_BEGIN
 90
       16
 91
        0
 92
      512
 93
        0
300

 40
0.0
140
1.0
 94
        4
 62
     0
340
0
144
0.18
309
CONTENTFORMAT_END
171
     0
 94
        4
 95
        1
302
GRIDFORMAT
  1
GRIDFORMAT_BEGIN
 90
       26
 91
        1
 62
     0
 92
       -2
340
0
 93
        0
 40
0.045
309
GRIDFORMAT_END
 95
        4
302
GRIDFORMAT
  1
GRIDFORMAT_BEGIN
 90
       26
 91
        1
 62
     0
 92
       -2
340
0
 93
        0
 40
0.045
309
GRIDFORMAT_END
 95
        8
302
GRIDFORMAT
  1
GRIDFORMAT_BEGIN
 90
       26
 91
        1
 62
     0
 92
       -2
340
0
 93
        0
 40
0.045
309
GRIDFORMAT_END
 95
       32
302
GRIDFORMAT
  1
GRIDFORMAT_BEGIN
 90
       26
 91
        1
 62
     0
 92
       -2
340
0
 93
        0
 40
0.045
309
GRIDFORMAT_END
309
TABLEFORMAT_END
309
FORMATTEDTABLEDATACELL_END
  1
TABLECELL_BEGIN
 90
        0
 91
        0
309
TABLECELL_END
300
CELL
  1
LINKEDTABLEDATACELL_BEGIN
 90
        0
300

 91
        0
301
CUSTOMDATA
  1
DATAMAP_BEGIN
 90
        0
309
DATAMAP_END
 92
        0
 95
        0
309
LINKEDTABLEDATACELL_END
  1
FORMATTEDTABLEDATACELL_BEGIN
300
CELLTABLEFORMAT
  1
TABLEFORMAT_BEGIN
 90
        1
170
     1
 91
        0
 92
        0
 62
   257
 93
        1
300
CONTENTFORMAT
  1
CONTENTFORMAT_BEGIN
 90
        0
 91
        0
 92
      512
 93
        0
300

 40
0.0
140
1.0
 94
        1
 62
     0
340
0
144
0.18
309
CONTENTFORMAT_END
171
     0
 94
        0
309
TABLEFORMAT_END
309
FORMATTEDTABLEDATACELL_END
  1
TABLECELL_BEGIN
 90
        0
 91
        0
309
TABLECELL_END
 91
        0
301
CUSTOMDATA
  1
DATAMAP_BEGIN
 90
        0
309
DATAMAP_END
309
LINKEDTABLEDATAROW_END
  1
FORMATTEDTABLEDATAROW_BEGIN
300
ROWTABLEFORMAT
  1
TABLEFORMAT_BEGIN
 90
        2
170
     0
309
TABLEFORMAT_END
309
FORMATTEDTABLEDATAROW_END
  1
TABLEROW_BEGIN
 90
        3
 40
5.0
309
TABLEROW_END
301
ROW
  1
LINKEDTABLEDATAROW_BEGIN
 90
        5
300
CELL
  1
LINKEDTABLEDATACELL_BEGIN
 90
        0
300

 91
        0
301
CUSTOMDATA
  1
DATAMAP_BEGIN
 90
        1
300
ACAD_ROUNDTRIP_2008_CELL_CHECKSUM
301
DATAMAP_VALUE
 93
        2
 90
        2
140
1361482.0
 94
        0
300

302

304
ACVALUE_END
309
DATAMAP_END
 92
        0
 95
        1
302
CONTENT
  1
CELLCONTENT_BEGIN
 90
        1
300
VALUE
 93
        2
 90
        4
  1
Any integral or partial reproductions are prohibited \Pwithout prior authorisation of L & L Luce & Light s.r.l., \Pin accordance with the law in force. \PAll rights reserved.
 94
        0
300

302
Any integral or partial reproductions are prohibited \Pwithout prior authorisation of L & L Luce & Light s.r.l., \Pin accordance with the law in force. \PAll rights reserved.
304
ACVALUE_END
 91
        0
309
CELLCONTENT_END
  1
FORMATTEDCELLCONTENT_BEGIN
170
     1
300
CONTENTFORMAT
  1
CONTENTFORMAT_BEGIN
 90
      196
 91
        0
 92
      512
 93
        0
300

 40
0.0
140
1.0
 94
        1
 62
     0
340
209
144
2.25
309
CONTENTFORMAT_END
309
FORMATTEDCELLCONTENT_END
309
LINKEDTABLEDATACELL_END
  1
FORMATTEDTABLEDATACELL_BEGIN
300
CELLTABLEFORMAT
  1
TABLEFORMAT_BEGIN
 90
        1
170
     1
 91
       16
 92
        0
 62
   257
 93
        1
300
CONTENTFORMAT
  1
CONTENTFORMAT_BEGIN
 90
       16
 91
        0
 92
      512
 93
        0
300

 40
0.0
140
1.0
 94
        4
 62
     0
340
0
144
0.18
309
CONTENTFORMAT_END
171
     0
 94
        4
 95
        1
302
GRIDFORMAT
  1
GRIDFORMAT_BEGIN
 90
       26
 91
        1
 62
     0
 92
       -2
340
0
 93
        0
 40
0.045
309
GRIDFORMAT_END
 95
        4
302
GRIDFORMAT
  1
GRIDFORMAT_BEGIN
 90
       26
 91
        1
 62
     0
 92
       -2
340
0
 93
        0
 40
0.045
309
GRIDFORMAT_END
 95
        8
302
GRIDFORMAT
  1
GRIDFORMAT_BEGIN
 90
       26
 91
        1
 62
     0
 92
       -2
340
0
 93
        0
 40
0.045
309
GRIDFORMAT_END
 95
       32
302
GRIDFORMAT
  1
GRIDFORMAT_BEGIN
 90
       26
 91
        1
 62
     0
 92
       -2
340
0
 93
        0
 40
0.045
309
GRIDFORMAT_END
309
TABLEFORMAT_END
309
FORMATTEDTABLEDATACELL_END
  1
TABLECELL_BEGIN
 90
        0
 91
        0
309
TABLECELL_END
300
CELL
  1
LINKEDTABLEDATACELL_BEGIN
 90
        0
300

 91
        0
301
CUSTOMDATA
  1
DATAMAP_BEGIN
 90
        0
309
DATAMAP_END
 92
        0
 95
        0
309
LINKEDTABLEDATACELL_END
  1
FORMATTEDTABLEDATACELL_BEGIN
300
CELLTABLEFORMAT
  1
TABLEFORMAT_BEGIN
 90
        1
170
     1
 91
        0
 92
        0
 62
   257
 93
        1
300
CONTENTFORMAT
  1
CONTENTFORMAT_BEGIN
 90
        0
 91
        0
 92
      512
 93
        0
300

 40
0.0
140
1.0
 94
        1
 62
     0
340
0
144
0.18
309
CONTENTFORMAT_END
171
     0
 94
        0
309
TABLEFORMAT_END
309
FORMATTEDTABLEDATACELL_END
  1
TABLECELL_BEGIN
 90
        0
 91
        0
309
TABLECELL_END
300
CELL
  1
LINKEDTABLEDATACELL_BEGIN
 90
        0
300

 91
        0
301
CUSTOMDATA
  1
DATAMAP_BEGIN
 90
        0
309
DATAMAP_END
 92
        0
 95
        0
309
LINKEDTABLEDATACELL_END
  1
FORMATTEDTABLEDATACELL_BEGIN
300
CELLTABLEFORMAT
  1
TABLEFORMAT_BEGIN
 90
        1
170
     1
 91
        0
 92
        0
 62
   257
 93
        1
300
CONTENTFORMAT
  1
CONTENTFORMAT_BEGIN
 90
        0
 91
        0
 92
      512
 93
        0
300

 40
0.0
140
1.0
 94
        1
 62
     0
340
0
144
0.18
309
CONTENTFORMAT_END
171
     0
 94
        0
309
TABLEFORMAT_END
309
FORMATTEDTABLEDATACELL_END
  1
TABLECELL_BEGIN
 90
        0
 91
        0
309
TABLECELL_END
300
CELL
  1
LINKEDTABLEDATACELL_BEGIN
 90
        0
300

 91
        0
301
CUSTOMDATA
  1
DATAMAP_BEGIN
 90
        0
309
DATAMAP_END
 92
        0
 95
        0
309
LINKEDTABLEDATACELL_END
  1
FORMATTEDTABLEDATACELL_BEGIN
300
CELLTABLEFORMAT
  1
TABLEFORMAT_BEGIN
 90
        1
170
     1
 91
        0
 92
        0
 62
   257
 93
        1
300
CONTENTFORMAT
  1
CONTENTFORMAT_BEGIN
 90
        0
 91
        0
 92
      512
 93
        0
300

 40
0.0
140
1.0
 94
        1
 62
     0
340
0
144
0.18
309
CONTENTFORMAT_END
171
     0
 94
        0
309
TABLEFORMAT_END
309
FORMATTEDTABLEDATACELL_END
  1
TABLECELL_BEGIN
 90
        0
 91
        0
309
TABLECELL_END
300
CELL
  1
LINKEDTABLEDATACELL_BEGIN
 90
        0
300

 91
        0
301
CUSTOMDATA
  1
DATAMAP_BEGIN
 90
        0
309
DATAMAP_END
 92
        0
 95
        0
309
LINKEDTABLEDATACELL_END
  1
FORMATTEDTABLEDATACELL_BEGIN
300
CELLTABLEFORMAT
  1
TABLEFORMAT_BEGIN
 90
        1
170
     1
 91
        0
 92
        0
 62
   257
 93
        1
300
CONTENTFORMAT
  1
CONTENTFORMAT_BEGIN
 90
        0
 91
        0
 92
      512
 93
        0
300

 40
0.0
140
1.0
 94
        1
 62
     0
340
0
144
0.18
309
CONTENTFORMAT_END
171
     0
 94
        0
309
TABLEFORMAT_END
309
FORMATTEDTABLEDATACELL_END
  1
TABLECELL_BEGIN
 90
        0
 91
        0
309
TABLECELL_END
 91
        0
301
CUSTOMDATA
  1
DATAMAP_BEGIN
 90
        0
309
DATAMAP_END
309
LINKEDTABLEDATAROW_END
  1
FORMATTEDTABLEDATAROW_BEGIN
300
ROWTABLEFORMAT
  1
TABLEFORMAT_BEGIN
 90
        2
170
     0
309
TABLEFORMAT_END
309
FORMATTEDTABLEDATAROW_END
  1
TABLEROW_BEGIN
 90
        3
 40
13.0
309
TABLEROW_END
100
AcDbFormattedTableData
300
TABLEFORMAT
  1
TABLEFORMAT_BEGIN
 90
        4
170
     1
 91
    15360
 92
        0
 62
   257
 93
        1
300
CONTENTFORMAT
  1
CONTENTFORMAT_BEGIN
 90
        0
 91
        0
 92
      512
 93
        0
300

 40
0.0
140
1.0
 94
        1
 62
     0
340
0
144
0.18
309
CONTENTFORMAT_END
171
     1
301
MARGIN
  1
CELLMARGIN_BEGIN
 40
0.06
 40
0.06
 40
0.06
 40
0.06
 40
0.06
 40
0.06
309
CELLMARGIN_END
 94
        0
309
TABLEFORMAT_END
 90
        4
 91
        0
 92
        0
 93
        3
 94
        2
 91
        2
 92
        3
 93
        2
 94
        4
 91
        3
 92
        3
 93
        3
 94
        4
 91
        4
 92
        0
 93
        4
 94
        4
100
AcDbTableContent
340
500
  0
TABLEGEOMETRY
  5
52D
330
52F
100
AcDbTableGeometry
 90
        5
 91
        5
 92
       25
 93
        0
 40
0.0
 41
0.0
330
0
 94
        0
 93
        0
 40
0.0
 41
0.0
330
0
 94
        0
 93
        0
 40
0.0
 41
0.0
330
0
 94
        0
 93
        0
 40
0.0
 41
0.0
330
0
 94
        0
 93
        0
 40
0.0
 41
0.0
330
0
 94
        0
 93
        0
 40
0.0
 41
0.0
330
0
 94
        0
 93
        0
 40
0.0
 41
0.0
330
0
 94
        0
 93
        0
 40
0.0
 41
0.0
330
0
 94
        0
 93
        0
 40
0.0
 41
0.0
330
0
 94
        0
 93
        0
 40
0.0
 41
0.0
330
0
 94
        0
 93
        0
 40
0.0
 41
0.0
330
0
 94
        0
 93
        0
 40
0.0
 41
0.0
330
0
 94
        0
 93
        0
 40
0.0
 41
0.0
330
0
 94
        0
 93
        0
 40
0.0
 41
0.0
330
0
 94
        0
 93
        0
 40
0.0
 41
0.0
330
0
 94
        0
 93
        0
 40
0.0
 41
0.0
330
0
 94
        0
 93
        0
 40
0.0
 41
0.0
330
0
 94
        0
 93
        0
 40
0.0
 41
0.0
330
0
 94
        0
 93
        0
 40
0.0
 41
0.0
330
0
 94
        0
 93
        0
 40
0.0
 41
0.0
330
0
 94
        0
 93
        0
 40
0.0
 41
0.0
330
0
 94
        0
 93
        0
 40
0.0
 41
0.0
330
0
 94
        0
 93
        0
 40
0.0
 41
0.0
330
0
 94
        0
 93
        0
 40
0.0
 41
0.0
330
0
 94
        0
 93
        0
 40
0.0
 41
0.0
330
0
 94
        0
  0
DICTIONARY
  5
532
330
500
100
AcDbDictionary
280
     1
281
     1
  3
ACAD_ROUNDTRIP_2008_TABLESTYLE_CELLSTYLEMAP
360
533
  0
CELLSTYLEMAP
  5
533
102
{ACAD_REACTORS
330
532
102
}
330
532
100
AcDbCellStyleMap
 90
        3
300
CELLSTYLE
  1
TABLEFORMAT_BEGIN
 90
        5
170
     1
 91
        0
 92
        0
 62
   257
 93
        1
300
CONTENTFORMAT
  1
CONTENTFORMAT_BEGIN
 90
        0
 91
        0
 92
        4
 93
        0
300

 40
0.0
140
1.0
 94
        5
 62
     0
340
11
144
6.0
309
CONTENTFORMAT_END
171
     1
301
MARGIN
  1
CELLMARGIN_BEGIN
 40
1.5
 40
1.5
 40
1.5
 40
1.5
 40
1.5
 40
1.5
309
CELLMARGIN_END
 94
        6
 95
        1
302
GRIDFORMAT
  1
GRIDFORMAT_BEGIN
 90
        0
 91
        1
 62
     0
 92
       -2
340
14
 93
        0
 40
0.045
309
GRIDFORMAT_END
 95
        2
302
GRIDFORMAT
  1
GRIDFORMAT_BEGIN
 90
        0
 91
        1
 62
     0
 92
       -2
340
14
 93
        0
 40
0.045
309
GRIDFORMAT_END
 95
        4
302
GRIDFORMAT
  1
GRIDFORMAT_BEGIN
 90
        0
 91
        1
 62
     0
 92
       -2
340
14
 93
        0
 40
0.045
309
GRIDFORMAT_END
 95
        8
302
GRIDFORMAT
  1
GRIDFORMAT_BEGIN
 90
        0
 91
        1
 62
     0
 92
       -2
340
14
 93
        0
 40
0.045
309
GRIDFORMAT_END
 95
       16
302
GRIDFORMAT
  1
GRIDFORMAT_BEGIN
 90
        0
 91
        1
 62
     0
 92
       -2
340
14
 93
        0
 40
0.045
309
GRIDFORMAT_END
 95
       32
302
GRIDFORMAT
  1
GRIDFORMAT_BEGIN
 90
        0
 91
        1
 62
     0
 92
       -2
340
14
 93
        0
 40
0.045
309
GRIDFORMAT_END
309
TABLEFORMAT_END
  1
CELLSTYLE_BEGIN
 90
        1
 91
        1
300
_TITLE
309
CELLSTYLE_END
300
CELLSTYLE
  1
TABLEFORMAT_BEGIN
 90
        5
170
     1
 91
        0
 92
        0
 62
   257
 93
        1
300
CONTENTFORMAT
  1
CONTENTFORMAT_BEGIN
 90
        0
 91
        0
 92
        4
 93
        0
300

 40
0.0
140
1.0
 94
        5
 62
     0
340
11
144
4.5
309
CONTENTFORMAT_END
171
     1
301
MARGIN
  1
CELLMARGIN_BEGIN
 40
1.5
 40
1.5
 40
1.5
 40
1.5
 40
1.5
 40
1.5
309
CELLMARGIN_END
 94
        6
 95
        1
302
GRIDFORMAT
  1
GRIDFORMAT_BEGIN
 90
        0
 91
        1
 62
     0
 92
       -2
340
14
 93
        0
 40
0.045
309
GRIDFORMAT_END
 95
        2
302
GRIDFORMAT
  1
GRIDFORMAT_BEGIN
 90
        0
 91
        1
 62
     0
 92
       -2
340
14
 93
        0
 40
0.045
309
GRIDFORMAT_END
 95
        4
302
GRIDFORMAT
  1
GRIDFORMAT_BEGIN
 90
        0
 91
        1
 62
     0
 92
       -2
340
14
 93
        0
 40
0.045
309
GRIDFORMAT_END
 95
        8
302
GRIDFORMAT
  1
GRIDFORMAT_BEGIN
 90
        0
 91
        1
 62
     0
 92
       -2
340
14
 93
        0
 40
0.045
309
GRIDFORMAT_END
 95
       16
302
GRIDFORMAT
  1
GRIDFORMAT_BEGIN
 90
        0
 91
        1
 62
     0
 92
       -2
340
14
 93
        0
 40
0.045
309
GRIDFORMAT_END
 95
       32
302
GRIDFORMAT
  1
GRIDFORMAT_BEGIN
 90
        0
 91
        1
 62
     0
 92
       -2
340
14
 93
        0
 40
0.045
309
GRIDFORMAT_END
309
TABLEFORMAT_END
  1
CELLSTYLE_BEGIN
 90
        2
 91
        1
300
_HEADER
309
CELLSTYLE_END
300
CELLSTYLE
  1
TABLEFORMAT_BEGIN
 90
        5
170
     1
 91
        0
 92
        0
 62
   257
 93
        1
300
CONTENTFORMAT
  1
CONTENTFORMAT_BEGIN
 90
        0
 91
        0
 92
        4
 93
        0
300

 40
0.0
140
1.0
 94
        2
 62
     0
340
11
144
4.5
309
CONTENTFORMAT_END
171
     1
301
MARGIN
  1
CELLMARGIN_BEGIN
 40
1.5
 40
1.5
 40
1.5
 40
1.5
 40
1.5
 40
1.5
309
CELLMARGIN_END
 94
        6
 95
        1
302
GRIDFORMAT
  1
GRIDFORMAT_BEGIN
 90
        0
 91
        1
 62
     0
 92
       -2
340
14
 93
        0
 40
0.045
309
GRIDFORMAT_END
 95
        2
302
GRIDFORMAT
  1
GRIDFORMAT_BEGIN
 90
        0
 91
        1
 62
     0
 92
       -2
340
14
 93
        0
 40
0.045
309
GRIDFORMAT_END
 95
        4
302
GRIDFORMAT
  1
GRIDFORMAT_BEGIN
 90
        0
 91
        1
 62
     0
 92
       -2
340
14
 93
        0
 40
0.045
309
GRIDFORMAT_END
 95
        8
302
GRIDFORMAT
  1
GRIDFORMAT_BEGIN
 90
        0
 91
        1
 62
     0
 92
       -2
340
14
 93
        0
 40
0.045
309
GRIDFORMAT_END
 95
       16
302
GRIDFORMAT
  1
GRIDFORMAT_BEGIN
 90
        0
 91
        1
 62
     0
 92
       -2
340
14
 93
        0
 40
0.045
309
GRIDFORMAT_END
 95
       32
302
GRIDFORMAT
  1
GRIDFORMAT_BEGIN
 90
        0
 91
        1
 62
     0
 92
       -2
340
14
 93
        0
 40
0.045
309
GRIDFORMAT_END
309
TABLEFORMAT_END
  1
CELLSTYLE_BEGIN
 90
        3
 91
        2
300
_DATA
309
CELLSTYLE_END
  0
ENDSEC
  0
EOF
