  0
SECTION
  2
HEADER
  9
$ACADVER
  1
AC1027
  9
$ACADMAINTVER
 70
     8
  9
$DWGCODEPAGE
  3
ANSI_1252
  9
$REQUIREDVERSIONS
160
                 0
  9
$INSBASE
 10
0.0
 20
0.0
 30
0.0
  9
$EXTMIN
 10
0.0
 20
0.0
 30
0.0
  9
$EXTMAX
 10
297.0
 20
210.0
 30
0.0
  9
$LIMMIN
 10
0.0
 20
0.0
  9
$LIMMAX
 10
297.0
 20
210.0
  9
$ORTHOMODE
 70
     0
  9
$REGENMODE
 70
     1
  9
$FILLMODE
 70
     1
  9
$QTEXTMODE
 70
     0
  9
$MIRRTEXT
 70
     1
  9
$LTSCALE
 40
16.335
  9
$ATTMODE
 70
     1
  9
$TEXTSIZE
 40
0.2
  9
$TRACEWID
 40
0.05
  9
$TEXTSTYLE
  7
STANDARD
  9
$CLAYER
  8
0
  9
$CELTYPE
  6
BYLAYER
  9
$CECOLOR
 62
   256
  9
$CELTSCALE
 40
1.0
  9
$DISPSILH
 70
     0
  9
$DIMSCALE
 40
1.0
  9
$DIMASZ
 40
2.5
  9
$DIMEXO
 40
0.75
  9
$DIMDLI
 40
11.286
  9
$DIMRND
 40
0.0
  9
$DIMDLE
 40
0.0
  9
$DIMEXE
 40
0.75
  9
$DIMTP
 40
0.01
  9
$DIMTM
 40
0.01
  9
$DIMTXT
 40
3.0
  9
$DIMCEN
 40
2.673
  9
$DIMTSZ
 40
0.0
  9
$DIMTOL
 70
     1
  9
$DIMLIM
 70
     0
  9
$DIMTIH
 70
     1
  9
$DIMTOH
 70
     1
  9
$DIMSE1
 70
     0
  9
$DIMSE2
 70
     0
  9
$DIMTAD
 70
     0
  9
$DIMZIN
 70
     0
  9
$DIMBLK
  1
CLOSED
  9
$DIMASO
 70
     1
  9
$DIMSHO
 70
     1
  9
$DIMPOST
  1

  9
$DIMAPOST
  1

  9
$DIMALT
 70
     0
  9
$DIMALTD
 70
     2
  9
$DIMALTF
 40
25.4
  9
$DIMLFAC
 40
1.0
  9
$DIMTOFL
 70
     0
  9
$DIMTVP
 40
0.0
  9
$DIMTIX
 70
     0
  9
$DIMSOXD
 70
     0
  9
$DIMSAH
 70
     0
  9
$DIMBLK1
  1

  9
$DIMBLK2
  1

  9
$DIMSTYLE
  2
STANDARD
  9
$DIMCLRD
 70
     0
  9
$DIMCLRE
 70
     0
  9
$DIMCLRT
 70
     0
  9
$DIMTFAC
 40
1.0
  9
$DIMGAP
 40
0.625
  9
$DIMJUST
 70
     0
  9
$DIMSD1
 70
     0
  9
$DIMSD2
 70
     0
  9
$DIMTOLJ
 70
     1
  9
$DIMTZIN
 70
     0
  9
$DIMALTZ
 70
     0
  9
$DIMALTTZ
 70
     0
  9
$DIMUPT
 70
     0
  9
$DIMDEC
 70
     4
  9
$DIMTDEC
 70
     4
  9
$DIMALTU
 70
     2
  9
$DIMALTTD
 70
     2
  9
$DIMTXSTY
  7
STANDARD
  9
$DIMAUNIT
 70
     0
  9
$DIMADEC
 70
     0
  9
$DIMALTRND
 40
0.0
  9
$DIMAZIN
 70
     0
  9
$DIMDSEP
 70
    44
  9
$DIMATFIT
 70
     3
  9
$DIMFRAC
 70
     0
  9
$DIMLDRBLK
  1

  9
$DIMLUNIT
 70
     2
  9
$DIMLWD
 70
    -2
  9
$DIMLWE
 70
    -2
  9
$DIMTMOVE
 70
     0
  9
$DIMFXL
 40
1.0
  9
$DIMFXLON
 70
     0
  9
$DIMJOGANG
 40
0.785398
  9
$DIMTFILL
 70
     0
  9
$DIMTFILLCLR
 70
     0
  9
$DIMARCSYM
 70
     0
  9
$DIMLTYPE
  6

  9
$DIMLTEX1
  6

  9
$DIMLTEX2
  6

  9
$DIMTXTDIRECTION
 70
     0
  9
$LUNITS
 70
     2
  9
$LUPREC
 70
     4
  9
$SKETCHINC
 40
0.1
  9
$FILLETRAD
 40
0.5
  9
$AUNITS
 70
     0
  9
$AUPREC
 70
     0
  9
$MENU
  1
.
  9
$ELEVATION
 40
0.0
  9
$PELEVATION
 40
0.0
  9
$THICKNESS
 40
0.0
  9
$LIMCHECK
 70
     0
  9
$CHAMFERA
 40
0.0
  9
$CHAMFERB
 40
0.0
  9
$CHAMFERC
 40
0.0
  9
$CHAMFERD
 40
0.0
  9
$SKPOLY
 70
     0
  9
$TDCREATE
 40
2447893.041666667
  9
$TDUCREATE
 40
0.0
  9
$TDUPDATE
 40
2458857.355623287
  9
$TDUUPDATE
 40
2458857.31395662
  9
$TDINDWG
 40
0.0
  9
$TDUSRTIMER
 40
0.0
  9
$USRTIMER
 70
     1
  9
$ANGBASE
 50
0.0
  9
$ANGDIR
 70
     0
  9
$PDMODE
 70
     3
  9
$PDSIZE
 40
0.3125
  9
$PLINEWID
 40
0.0
  9
$SPLFRAME
 70
     0
  9
$SPLINETYPE
 70
     6
  9
$SPLINESEGS
 70
     8
  9
$HANDSEED
  5
4C2
  9
$SURFTAB1
 70
     6
  9
$SURFTAB2
 70
     6
  9
$SURFTYPE
 70
     6
  9
$SURFU
 70
     6
  9
$SURFV
 70
     6
  9
$UCSBASE
  2

  9
$UCSNAME
  2

  9
$UCSORG
 10
0.0
 20
0.0
 30
0.0
  9
$UCSXDIR
 10
1.0
 20
0.0
 30
0.0
  9
$UCSYDIR
 10
0.0
 20
1.0
 30
0.0
  9
$UCSORTHOREF
  2

  9
$UCSORTHOVIEW
 70
     0
  9
$UCSORGTOP
 10
0.0
 20
0.0
 30
0.0
  9
$UCSORGBOTTOM
 10
0.0
 20
0.0
 30
0.0
  9
$UCSORGLEFT
 10
0.0
 20
0.0
 30
0.0
  9
$UCSORGRIGHT
 10
0.0
 20
0.0
 30
0.0
  9
$UCSORGFRONT
 10
0.0
 20
0.0
 30
0.0
  9
$UCSORGBACK
 10
0.0
 20
0.0
 30
0.0
  9
$PUCSBASE
  2

  9
$PUCSNAME
  2

  9
$PUCSORG
 10
0.0
 20
0.0
 30
0.0
  9
$PUCSXDIR
 10
1.0
 20
0.0
 30
0.0
  9
$PUCSYDIR
 10
0.0
 20
1.0
 30
0.0
  9
$PUCSORTHOREF
  2

  9
$PUCSORTHOVIEW
 70
     0
  9
$PUCSORGTOP
 10
0.0
 20
0.0
 30
0.0
  9
$PUCSORGBOTTOM
 10
0.0
 20
0.0
 30
0.0
  9
$PUCSORGLEFT
 10
0.0
 20
0.0
 30
0.0
  9
$PUCSORGRIGHT
 10
0.0
 20
0.0
 30
0.0
  9
$PUCSORGFRONT
 10
0.0
 20
0.0
 30
0.0
  9
$PUCSORGBACK
 10
0.0
 20
0.0
 30
0.0
  9
$USERI1
 70
     0
  9
$USERI2
 70
     0
  9
$USERI3
 70
     0
  9
$USERI4
 70
     0
  9
$USERI5
 70
     0
  9
$USERR1
 40
0.0
  9
$USERR2
 40
0.0
  9
$USERR3
 40
0.0
  9
$USERR4
 40
0.0
  9
$USERR5
 40
0.0
  9
$WORLDVIEW
 70
     1
  9
$SHADEDGE
 70
     3
  9
$SHADEDIF
 70
    70
  9
$TILEMODE
 70
     1
  9
$MAXACTVP
 70
    64
  9
$PINSBASE
 10
0.0
 20
0.0
 30
0.0
  9
$PLIMCHECK
 70
     0
  9
$PEXTMIN
 10
1.000000E+20
 20
1.000000E+20
 30
1.000000E+20
  9
$PEXTMAX
 10
-1.000000E+20
 20
-1.000000E+20
 30
-1.000000E+20
  9
$PLIMMIN
 10
0.0
 20
0.0
  9
$PLIMMAX
 10
12.0
 20
9.0
  9
$UNITMODE
 70
     0
  9
$VISRETAIN
 70
     1
  9
$PLINEGEN
 70
     0
  9
$PSLTSCALE
 70
     0
  9
$TREEDEPTH
 70
  3020
  9
$CMLSTYLE
  2

  9
$CMLJUST
 70
     0
  9
$CMLSCALE
 40
1.0
  9
$PROXYGRAPHICS
 70
     1
  9
$MEASUREMENT
 70
     1
  9
$CELWEIGHT
370
    -1
  9
$ENDCAPS
280
     0
  9
$JOINSTYLE
280
     0
  9
$LWDISPLAY
290
     0
  9
$INSUNITS
 70
     4
  9
$HYPERLINKBASE
  1

  9
$STYLESHEET
  1

  9
$XEDIT
290
     1
  9
$CEPSNTYPE
380
     0
  9
$PSTYLEMODE
290
     1
  9
$FINGERPRINTGUID
  2
{5001291E-1073-4F96-8BB5-1B79EA4C5761}
  9
$VERSIONGUID
  2
{FAEB1C32-E019-11D5-929B-00C0DF256EC4}
  9
$EXTNAMES
290
     1
  9
$PSVPSCALE
 40
0.0
  9
$OLESTARTUP
290
     0
  9
$SORTENTS
280
   127
  9
$INDEXCTL
280
     0
  9
$HIDETEXT
280
     1
  9
$XCLIPFRAME
280
     2
  9
$HALOGAP
280
     0
  9
$OBSCOLOR
 70
   257
  9
$OBSLTYPE
280
     0
  9
$INTERSECTIONDISPLAY
280
     0
  9
$INTERSECTIONCOLOR
 70
   257
  9
$DIMASSOC
280
     2
  9
$PROJECTNAME
  1

  9
$CAMERADISPLAY
290
     0
  9
$LENSLENGTH
 40
50.0
  9
$CAMERAHEIGHT
 40
0.0
  9
$STEPSPERSEC
 40
2.0
  9
$STEPSIZE
 40
6.0
  9
$3DDWFPREC
 40
2.0
  9
$PSOLWIDTH
 40
0.25
  9
$PSOLHEIGHT
 40
4.0
  9
$LOFTANG1
 40
1.570796
  9
$LOFTANG2
 40
1.570796
  9
$LOFTMAG1
 40
0.0
  9
$LOFTMAG2
 40
0.0
  9
$LOFTPARAM
 70
     7
  9
$LOFTNORMALS
280
     1
  9
$LATITUDE
 40
37.795
  9
$LONGITUDE
 40
-122.394
  9
$NORTHDIRECTION
 40
0.0
  9
$TIMEZONE
 70
 -8000
  9
$LIGHTGLYPHDISPLAY
280
     1
  9
$TILEMODELIGHTSYNCH
280
     1
  9
$SOLIDHIST
280
     1
  9
$SHOWHIST
280
     1
  9
$DWFFRAME
280
     2
  9
$DGNFRAME
280
     2
  9
$REALWORLDSCALE
290
     1
  9
$INTERFERECOLOR
 62
   256
  9
$CSHADOW
280
     0
  9
$SHADOWPLANELOCATION
 40
0.0
  0
ENDSEC
  0
SECTION
  2
CLASSES
  0
CLASS
  1
ACDBDICTIONARYWDFLT
  2
AcDbDictionaryWithDefault
  3
ObjectDBX Classes
 90
        0
 91
        6
280
     0
281
     0
  0
CLASS
  1
ACDBPLACEHOLDER
  2
AcDbPlaceHolder
  3
ObjectDBX Classes
 90
        0
 91
        1
280
     0
281
     0
  0
CLASS
  1
LAYOUT
  2
AcDbLayout
  3
ObjectDBX Classes
 90
        0
 91
        1
280
     0
281
     0
  0
CLASS
  1
TABLESTYLE
  2
AcDbTableStyle
  3
ObjectDBX Classes
 90
     4095
 91
        5
280
     0
281
     0
  0
CLASS
  1
ACAD_TABLE
  2
AcDbTable
  3
ObjectDBX Classes
 90
     1025
 91
        5
280
     0
281
     1
  0
CLASS
  1
SCALE
  2
AcDbScale
  3
ObjectDBX Classes
 90
     1153
 91
        5
280
     0
281
     0
  0
CLASS
  1
TABLEGEOMETRY
  2
AcDbTableGeometry
  3
ObjectDBX Classes
 90
     1152
 91
        4
280
     0
281
     0
  0
CLASS
  1
VISUALSTYLE
  2
AcDbVisualStyle
  3
ObjectDBX Classes
 90
     4095
 91
        5
280
     0
281
     0
  0
CLASS
  1
MATERIAL
  2
AcDbMaterial
  3
ObjectDBX Classes
 90
     1153
 91
        5
280
     0
281
     0
  0
CLASS
  1
SUN
  2
AcDbSun
  3
SCENEOE
 90
     1153
 91
        5
280
     0
281
     0
  0
CLASS
  1
CSACDOCUMENTOPTIONS
  2
CDocDataContainer
  3
"DERU003_CSAPP"
 90
     4095
 91
        4
280
     0
281
     0
  0
CLASS
  1
TABLECONTENT
  2
AcDbTableContent
  3
ObjectDBX Classes
 90
     1152
 91
        4
280
     0
281
     0
  0
CLASS
  1
DICTIONARYVAR
  2
AcDbDictionaryVar
  3
ObjectDBX Classes
 90
        0
 91
        4
280
     0
281
     0
  0
CLASS
  1
CELLSTYLEMAP
  2
AcDbCellStyleMap
  3
ObjectDBX Classes
 90
     1152
 91
        4
280
     0
281
     0
  0
ENDSEC
  0
SECTION
  2
TABLES
  0
TABLE
  2
VPORT
  5
8
330
0
100
AcDbSymbolTable
 70
     1
  0
VPORT
  5
1F4
330
8
100
AcDbSymbolTableRecord
100
AcDbViewportTableRecord
  2
*ACTIVE
 70
     0
 10
0.0
 20
0.0
 11
1.0
 21
1.0
 12
148.5
 22
105.0
 13
0.0
 23
0.0
 14
1.0
 24
1.0
 15
0.0
 25
0.0
 16
0.0
 26
0.0
 36
1.0
 17
0.0
 27
0.0
 37
0.0
 40
210.0
 41
2.107285
 42
50.0
 43
0.0
 44
0.0
 50
0.0
 51
0.0
 71
    16
 72
   100
 73
     1
 74
     1
 75
     0
 76
     0
 77
     0
 78
     0
281
     0
 65
     1
110
0.0
120
0.0
130
0.0
111
1.0
121
0.0
131
0.0
112
0.0
122
1.0
132
0.0
 79
     0
146
0.0
 60
     3
 61
     5
292
     1
282
     1
141
0.0
142
0.0
 63
   256
361
4AD
  0
ENDTAB
  0
TABLE
  2
LTYPE
  5
5
330
0
100
AcDbSymbolTable
 70
     6
  0
LTYPE
  5
14
330
5
100
AcDbSymbolTableRecord
100
AcDbLinetypeTableRecord
  2
BYBLOCK
 70
     0
  3

 72
    65
 73
     0
 40
0.0
  0
LTYPE
  5
15
330
5
100
AcDbSymbolTableRecord
100
AcDbLinetypeTableRecord
  2
BYLAYER
 70
     0
  3

 72
    65
 73
     0
 40
0.0
  0
LTYPE
  5
16
330
5
100
AcDbSymbolTableRecord
100
AcDbLinetypeTableRecord
  2
CONTINUOUS
 70
     0
  3
Solid line
 72
    65
 73
     0
 40
0.0
  0
LTYPE
  5
1F5
330
5
100
AcDbSymbolTableRecord
100
AcDbLinetypeTableRecord
  2
CENTER
 70
     0
  3
____ _ ____ _ ____ _ ____ _ ____ _ ____ _ ____
 72
    65
 73
     4
 40
0.6
 49
0.375
 74
     0
 49
-0.075
 74
     0
 49
0.075
 74
     0
 49
-0.075
 74
     0
  0
LTYPE
  5
1F6
330
5
100
AcDbSymbolTableRecord
100
AcDbLinetypeTableRecord
  2
HIDDEN
 70
     0
  3
- - - - - - - - - - - - - - - - - - - -
 72
    65
 73
     2
 40
0.2
 49
0.1
 74
     0
 49
-0.1
 74
     0
  0
LTYPE
  5
1F7
330
5
100
AcDbSymbolTableRecord
100
AcDbLinetypeTableRecord
  2
PHANTOM
 70
     0
  3
_____ _ _ _____ _ _ _____ _ _ _____
 72
    65
 73
     6
 40
0.8
 49
0.45
 74
     0
 49
-0.05
 74
     0
 49
0.1
 74
     0
 49
-0.05
 74
     0
 49
0.1
 74
     0
 49
-0.05
 74
     0
  0
LTYPE
  5
1F8
330
5
100
AcDbSymbolTableRecord
100
AcDbLinetypeTableRecord
  2
DOT
 70
     0
  3
. . . . . . . . . . . . . . . . . . . .
 72
    65
 73
     2
 40
0.2
 49
0.1
 74
     0
 49
-0.1
 74
     0
  0
LTYPE
  5
1F9
330
5
100
AcDbSymbolTableRecord
100
AcDbLinetypeTableRecord
  2
DASHED
 70
     0
  3
- - - - - - - - - - - - - - - - - - - -
 72
    65
 73
     2
 40
0.2
 49
0.1
 74
     0
 49
-0.1
 74
     0
  0
ENDTAB
  0
TABLE
  2
LAYER
  5
2
330
0
100
AcDbSymbolTable
 70
    12
  0
LAYER
  5
10
330
2
100
AcDbSymbolTableRecord
100
AcDbLayerTableRecord
  2
0
 70
     0
 62
     7
  6
CONTINUOUS
370
    -3
390
F
347
4A7
348
0
  0
LAYER
  5
1FA
330
2
100
AcDbSymbolTableRecord
100
AcDbLayerTableRecord
  2
DEFAULT_1
 70
     0
 62
     7
  6
CENTER
370
    -3
390
F
347
4A7
348
0
  0
LAYER
  5
1FB
330
2
100
AcDbSymbolTableRecord
100
AcDbLayerTableRecord
  2
DEFAULT_2
 70
     0
 62
     8
  6
HIDDEN
370
    -3
390
F
347
4A7
348
0
  0
LAYER
  5
1FC
330
2
100
AcDbSymbolTableRecord
100
AcDbLayerTableRecord
  2
DEFAULT_3
 70
     0
 62
     7
  6
PHANTOM
370
    -3
390
F
347
4A7
348
0
  0
LAYER
  5
1FD
330
2
100
AcDbSymbolTableRecord
100
AcDbLayerTableRecord
  2
1_ALL_PLANES
 70
     0
 62
     7
  6
CONTINUOUS
370
    -3
390
F
347
4A7
348
0
  0
LAYER
  5
1FE
330
2
100
AcDbSymbolTableRecord
100
AcDbLayerTableRecord
  2
2_ALL_CSYS
 70
     0
 62
     7
  6
CONTINUOUS
370
    -3
390
F
347
4A7
348
0
  0
LAYER
  5
1FF
330
2
100
AcDbSymbolTableRecord
100
AcDbLayerTableRecord
  2
3_ALL_AXES
 70
     0
 62
     7
  6
CONTINUOUS
370
    -3
390
F
347
4A7
348
0
  0
LAYER
  5
200
330
2
100
AcDbSymbolTableRecord
100
AcDbLayerTableRecord
  2
4_ALL_POINTS
 70
     0
 62
     7
  6
CONTINUOUS
370
    -3
390
F
347
4A7
348
0
  0
LAYER
  5
201
330
2
100
AcDbSymbolTableRecord
100
AcDbLayerTableRecord
  2
5_ALL_CURVES
 70
     0
 62
     7
  6
CONTINUOUS
370
    -3
390
F
347
4A7
348
0
  0
LAYER
  5
202
330
2
100
AcDbSymbolTableRecord
100
AcDbLayerTableRecord
  2
6_ALL_SURFS
 70
     0
 62
     7
  6
CONTINUOUS
370
    -3
390
F
347
4A7
348
0
  0
LAYER
  5
203
330
2
100
AcDbSymbolTableRecord
100
AcDbLayerTableRecord
  2
7_ALL_FEATURES
 70
     0
 62
     7
  6
CONTINUOUS
370
    -3
390
F
347
4A7
348
0
  0
LAYER
  5
204
330
2
100
AcDbSymbolTableRecord
100
AcDbLayerTableRecord
  2
9_SOLID
 70
     0
 62
     7
  6
CONTINUOUS
370
    -3
390
F
347
4A7
348
0
  0
ENDTAB
  0
TABLE
  2
STYLE
  5
3
330
0
100
AcDbSymbolTable
 70
     4
  0
STYLE
  5
11
330
3
100
AcDbSymbolTableRecord
100
AcDbTextStyleTableRecord
  2
STANDARD
 70
     0
 40
0.0
 41
1.0
 50
0.0
 71
     0
 42
0.2
  3
arial.ttf
  4

  0
STYLE
  5
205
330
3
100
AcDbSymbolTableRecord
100
AcDbTextStyleTableRecord
  2
TEXTSTYLE_1
 70
     0
 40
0.0
 41
0.8
 50
0.0
 71
     0
 42
0.2
  3
gdt
  4

  0
STYLE
  5
206
330
3
100
AcDbSymbolTableRecord
100
AcDbTextStyleTableRecord
  2
TEXTSTYLE_2
 70
     0
 40
0.0
 41
0.85
 50
0.0
 71
     0
 42
0.2
  3
gdt
  4

  0
STYLE
  5
207
330
3
100
AcDbSymbolTableRecord
100
AcDbTextStyleTableRecord
  2
TEXTSTYLE_3
 70
     0
 40
0.0
 41
0.85
 50
0.0
 71
     0
 42
0.2
  3
txt
  4

  0
ENDTAB
  0
TABLE
  2
VIEW
  5
6
330
0
100
AcDbSymbolTable
 70
     0
  0
ENDTAB
  0
TABLE
  2
UCS
  5
7
330
0
100
AcDbSymbolTable
 70
     0
  0
ENDTAB
  0
TABLE
  2
APPID
  5
9
330
0
100
AcDbSymbolTable
 70
     6
  0
APPID
  5
208
330
9
100
AcDbSymbolTableRecord
100
AcDbRegAppTableRecord
  2
ACAD
 70
     0
  0
APPID
  5
4A8
330
9
100
AcDbSymbolTableRecord
100
AcDbRegAppTableRecord
  2
MCS_DIM1
 70
     0
  0
APPID
  5
4A9
330
9
100
AcDbSymbolTableRecord
100
AcDbRegAppTableRecord
  2
McsXdata5
 70
     0
  0
APPID
  5
4AC
330
9
100
AcDbSymbolTableRecord
100
AcDbRegAppTableRecord
  2
MCS_DOCUMENT_ID
 70
     0
  0
APPID
  5
4B2
330
9
100
AcDbSymbolTableRecord
100
AcDbRegAppTableRecord
  2
MCS_PARAMS_DATA
 70
     0
  0
APPID
  5
4B4
330
9
100
AcDbSymbolTableRecord
100
AcDbRegAppTableRecord
  2
MC_VERSION_DATA
 70
     0
  0
ENDTAB
  0
TABLE
  2
DIMSTYLE
  5
A
330
0
100
AcDbSymbolTable
 70
     3
100
AcDbDimStyleTable
  0
DIMSTYLE
105
211
330
A
100
AcDbSymbolTableRecord
100
AcDbDimStyleTableRecord
  2
STANDARD
 70
     0
 41
2.5
 42
0.75
 44
0.75
 47
0.01
 48
0.01
 71
     1
 73
     0
 74
     0
 77
     1
 78
     8
 79
     2
140
3.0
147
0.625
171
     1
178
     0
179
     2
271
     2
272
     2
278
    44
284
     8
340
11
341
20B
342
20B
343
20B
344
20B
  0
DIMSTYLE
105
212
330
A
100
AcDbSymbolTableRecord
100
AcDbDimStyleTableRecord
  2
DIMSTYLE_1
 70
     0
  3
<>
 41
2.5
 42
0.75
 44
0.75
 47
0.3
 48
0.3
 73
     0
 74
     0
 77
     1
 78
     8
 79
     2
140
3.0
147
0.625
171
     1
172
     1
178
     0
179
     2
271
     2
272
     2
278
    44
284
     8
288
     1
289
     2
340
11
341
20B
342
20B
343
20B
344
20B
  0
DIMSTYLE
105
213
330
A
100
AcDbSymbolTableRecord
100
AcDbDimStyleTableRecord
  2
DIMSTYLE_2
 70
     0
 41
2.5
 42
0.75
 44
0.75
 47
0.2
 48
0.2
 73
     0
 74
     0
 77
     1
 78
     8
 79
     2
140
3.0
147
0.75
171
     1
178
     0
179
     2
271
     2
272
     2
278
    44
284
     8
340
11
341
20B
342
20B
343
20B
344
20B
  0
ENDTAB
  0
TABLE
  2
BLOCK_RECORD
  5
1
330
0
100
AcDbSymbolTable
 70
     6
  0
BLOCK_RECORD
  5
209
330
1
100
AcDbSymbolTableRecord
100
AcDbBlockTableRecord
  2
*Model_Space
340
462
 70
     0
280
     1
281
     0
  0
BLOCK_RECORD
  5
20A
330
1
100
AcDbSymbolTableRecord
100
AcDbBlockTableRecord
  2
*Paper_Space
340
463
 70
     0
280
     1
281
     0
  0
BLOCK_RECORD
  5
20B
330
1
100
AcDbSymbolTableRecord
100
AcDbBlockTableRecord
  2
_CLOSED
340
0
102
{BLKREFS
331
259
331
25F
331
260
331
268
331
269
102
}
 70
     0
280
     1
281
     0
  0
BLOCK_RECORD
  5
20C
330
1
100
AcDbSymbolTableRecord
100
AcDbBlockTableRecord
  2
*D1
340
0
 70
     0
280
     1
281
     0
  0
BLOCK_RECORD
  5
20D
330
1
100
AcDbSymbolTableRecord
100
AcDbBlockTableRecord
  2
*D2
340
0
 70
     0
280
     1
281
     0
  0
BLOCK_RECORD
  5
20E
330
1
100
AcDbSymbolTableRecord
100
AcDbBlockTableRecord
  2
*D3
340
0
 70
     0
280
     1
281
     0
  0
BLOCK_RECORD
  5
20F
330
1
100
AcDbSymbolTableRecord
100
AcDbBlockTableRecord
  2
LOGO2_BL0
340
0
102
{BLKREFS
331
45F
102
}
 70
     0
280
     1
281
     0
  0
BLOCK_RECORD
  5
210
330
1
100
AcDbSymbolTableRecord
100
AcDbBlockTableRecord
  2
*T5
340
0
102
{BLKREFS
331
460
102
}
 70
     0
280
     1
281
     0
  0
ENDTAB
  0
ENDSEC
  0
SECTION
  2
BLOCKS
  0
BLOCK
  5
20
330
209
100
AcDbEntity
  8
0
100
AcDbBlockBegin
  2
*Model_Space
 70
     0
 10
0.0
 20
0.0
 30
0.0
  3
*Model_Space
  1
*Model_Space
  0
ENDBLK
  5
21
330
209
100
AcDbEntity
  8
0
100
AcDbBlockEnd
  0
BLOCK
  5
1C
330
20A
100
AcDbEntity
 67
     1
  8
0
100
AcDbBlockBegin
  2
*Paper_Space
 70
     0
 10
0.0
 20
0.0
 30
0.0
  3
*Paper_Space
  1
*Paper_Space
  0
ENDBLK
  5
1D
330
20A
100
AcDbEntity
 67
     1
  8
0
100
AcDbBlockEnd
  0
BLOCK
  5
250
330
20B
100
AcDbEntity
  8
0
100
AcDbBlockBegin
  2
_CLOSED
 70
     0
 10
0.0
 20
0.0
 30
0.0
  3
_CLOSED
  1
_CLOSED
  0
LINE
  5
251
330
20B
100
AcDbEntity
  8
0
  6
ByBlock
 62
     0
100
AcDbLine
 10
0.0
 20
0.0
 30
0.0
 11
-1.0
 21
0.2
 31
0.0
  0
LINE
  5
252
330
20B
100
AcDbEntity
  8
0
  6
ByBlock
 62
     0
100
AcDbLine
 10
-1.0
 20
0.2
 30
0.0
 11
-1.0
 21
-0.2
 31
0.0
  0
LINE
  5
253
330
20B
100
AcDbEntity
  8
0
  6
ByBlock
 62
     0
100
AcDbLine
 10
-1.0
 20
-0.2
 30
0.0
 11
0.0
 21
0.0
 31
0.0
  0
LINE
  5
254
330
20B
100
AcDbEntity
  8
0
  6
ByBlock
 62
     0
100
AcDbLine
 10
-1.0
 20
0.0
 30
0.0
 11
0.0
 21
0.0
 31
0.0
  0
ENDBLK
  5
255
330
20B
100
AcDbEntity
  8
0
  6
ByBlock
 62
     0
100
AcDbBlockEnd
  0
BLOCK
  5
256
330
20C
100
AcDbEntity
  8
0
100
AcDbBlockBegin
  2
*D1
 70
     1
 10
0.0
 20
0.0
 30
0.0
  3
*D1
  1
*D1
  0
MTEXT
  5
257
330
20C
100
AcDbEntity
  8
0
  6
Continuous
 62
     2
100
AcDbMText
 10
121.555454
 20
173.771274
 30
0.0
 40
3.0
 41
8.66171
 46
0.0
 71
     1
 72
     1
  1
{\Fgdt;n}\Farial.ttf;85
  7
TEXTSTYLE_2
 11
0.8504840368
 21
0.5260008585
 31
0.0
 73
     1
 44
0.9
  0
LINE
  5
258
330
20C
100
AcDbEntity
  8
0
  6
Continuous
 62
     2
100
AcDbLine
 10
117.058631
 20
166.58086
 30
0.0
 11
130.894603
 21
175.138026
 31
0.0
  0
INSERT
  5
259
330
20C
100
AcDbEntity
  8
0
  6
Continuous
 62
     2
100
AcDbBlockReference
  2
_CLOSED
 10
117.058631
 20
166.58086
 30
0.0
 41
2.5
 42
2.5
 43
2.5
 50
211.735645
  0
ENDBLK
  5
25A
330
20C
100
AcDbEntity
  8
0
  6
ByBlock
 62
     0
100
AcDbBlockEnd
  0
BLOCK
  5
25B
330
20D
100
AcDbEntity
  8
0
100
AcDbBlockBegin
  2
*D2
 70
     1
 10
0.0
 20
0.0
 30
0.0
  3
*D2
  1
*D2
  0
MTEXT
  5
25C
330
20D
100
AcDbEntity
  8
0
  6
Continuous
 62
     2
100
AcDbMText
 10
81.919555
 20
149.495175
 30
0.0
 40
3.0
 41
8.66171
 46
0.0
 71
     2
 72
     1
  1
{\Fgdt;n}\Farial.ttf;35
  7
TEXTSTYLE_2
 11
0.8207765315
 21
0.5712494071999999
 31
0.0
 73
     1
 44
0.9
  0
LINE
  5
25D
330
20D
100
AcDbEntity
  8
0
  6
Continuous
 62
     2
100
AcDbLine
 10
95.276649
 20
154.222688
 30
0.0
 11
80.91306
 21
144.225823
 31
0.0
  0
LINE
  5
25E
330
20D
100
AcDbEntity
  8
0
  6
Continuous
 62
     2
100
AcDbLine
 10
66.54947
 20
134.228959
 30
0.0
 11
80.91306
 21
144.225823
 31
0.0
  0
INSERT
  5
25F
330
20D
100
AcDbEntity
  8
0
  6
Continuous
 62
     2
100
AcDbBlockReference
  2
_CLOSED
 10
95.276649
 20
154.222688
 30
0.0
 41
2.5
 42
2.5
 43
2.5
 50
34.837397
  0
INSERT
  5
260
330
20D
100
AcDbEntity
  8
0
  6
Continuous
 62
     2
100
AcDbBlockReference
  2
_CLOSED
 10
66.54947
 20
134.228959
 30
0.0
 41
2.5
 42
2.5
 43
2.5
 50
214.837397
  0
ENDBLK
  5
261
330
20D
100
AcDbEntity
  8
0
  6
ByBlock
 62
     0
100
AcDbBlockEnd
  0
BLOCK
  5
262
330
20E
100
AcDbEntity
  8
0
100
AcDbBlockBegin
  2
*D3
 70
     1
 10
0.0
 20
0.0
 30
0.0
  3
*D3
  1
*D3
  0
MTEXT
  5
263
330
20E
100
AcDbEntity
  8
0
  6
Continuous
 62
     2
100
AcDbMText
 10
138.536328
 20
77.626576
 30
0.0
 40
3.0
 41
5.821561
 46
0.0
 71
     2
 72
     1
  1
9,5
 11
0.0
 21
1.0
 31
0.0
 73
     1
 44
0.9
  0
LINE
  5
264
330
20E
100
AcDbEntity
  8
0
  6
Continuous
 62
     2
100
AcDbLine
 10
132.680089
 20
72.876576
 30
0.0
 11
143.036328
 21
72.876576
 31
0.0
  0
LINE
  5
265
330
20E
100
AcDbEntity
  8
0
  6
Continuous
 62
     2
100
AcDbLine
 10
131.859931
 20
82.376576
 30
0.0
 11
143.036328
 21
82.376576
 31
0.0
  0
LINE
  5
266
330
20E
100
AcDbEntity
  8
0
  6
Continuous
 62
     2
100
AcDbLine
 10
142.286328
 20
72.876576
 30
0.0
 11
142.286328
 21
77.626576
 31
0.0
  0
LINE
  5
267
330
20E
100
AcDbEntity
  8
0
  6
Continuous
 62
     2
100
AcDbLine
 10
142.286328
 20
82.376576
 30
0.0
 11
142.286328
 21
77.626576
 31
0.0
  0
INSERT
  5
268
330
20E
100
AcDbEntity
  8
0
  6
Continuous
 62
     2
100
AcDbBlockReference
  2
_CLOSED
 10
142.286328
 20
72.876576
 30
0.0
 41
2.5
 42
2.5
 43
2.5
 50
270.0
  0
INSERT
  5
269
330
20E
100
AcDbEntity
  8
0
  6
Continuous
 62
     2
100
AcDbBlockReference
  2
_CLOSED
 10
142.286328
 20
82.376576
 30
0.0
 41
2.5
 42
2.5
 43
2.5
 50
90.0
  0
ENDBLK
  5
26A
330
20E
100
AcDbEntity
  8
0
  6
ByBlock
 62
     0
100
AcDbBlockEnd
  0
BLOCK
  5
214
330
20F
100
AcDbEntity
  8
0
100
AcDbBlockBegin
  2
LOGO2_BL0
 70
     0
 10
207.828459
 20
39.543518
 30
0.0
  3
LOGO2_BL0
  1
LOGO2_BL0
  0
LINE
  5
215
330
20F
100
AcDbEntity
  8
0
  6
Continuous
 62
     7
100
AcDbLine
 10
199.571384
 20
42.739009
 30
0.0
 11
198.267043
 21
42.739009
 31
0.0
  0
LINE
  5
216
330
20F
100
AcDbEntity
  8
0
  6
Continuous
 62
     7
100
AcDbLine
 10
198.267043
 20
42.739009
 30
0.0
 11
198.267043
 21
32.279943
 31
0.0
  0
LINE
  5
217
330
20F
100
AcDbEntity
  8
0
  6
Continuous
 62
     7
100
AcDbLine
 10
198.267043
 20
32.279943
 30
0.0
 11
202.748098
 21
32.279943
 31
0.0
  0
LINE
  5
218
330
20F
100
AcDbEntity
  8
0
  6
Continuous
 62
     7
100
AcDbLine
 10
202.748098
 20
32.279943
 30
0.0
 11
202.748098
 21
33.472797
 31
0.0
  0
LINE
  5
219
330
20F
100
AcDbEntity
  8
0
  6
Continuous
 62
     7
100
AcDbLine
 10
202.748098
 20
33.472797
 30
0.0
 11
199.571384
 21
33.472797
 31
0.0
  0
LINE
  5
21A
330
20F
100
AcDbEntity
  8
0
  6
Continuous
 62
     7
100
AcDbLine
 10
199.571384
 20
33.472797
 30
0.0
 11
199.571384
 21
42.739009
 31
0.0
  0
LINE
  5
21B
330
20F
100
AcDbEntity
  8
0
  6
Continuous
 62
     7
100
AcDbLine
 10
214.50771
 20
42.739009
 30
0.0
 11
213.203893
 21
42.739009
 31
0.0
  0
LINE
  5
21C
330
20F
100
AcDbEntity
  8
0
  6
Continuous
 62
     7
100
AcDbLine
 10
213.203893
 20
42.739009
 30
0.0
 11
213.203893
 21
32.279943
 31
0.0
  0
LINE
  5
21D
330
20F
100
AcDbEntity
  8
0
  6
Continuous
 62
     7
100
AcDbLine
 10
213.203893
 20
32.279943
 30
0.0
 11
217.685078
 21
32.279943
 31
0.0
  0
LINE
  5
21E
330
20F
100
AcDbEntity
  8
0
  6
Continuous
 62
     7
100
AcDbLine
 10
217.685078
 20
32.279943
 30
0.0
 11
217.685078
 21
33.472797
 31
0.0
  0
LINE
  5
21F
330
20F
100
AcDbEntity
  8
0
  6
Continuous
 62
     7
100
AcDbLine
 10
217.685078
 20
33.472797
 30
0.0
 11
214.50771
 21
33.472797
 31
0.0
  0
LINE
  5
220
330
20F
100
AcDbEntity
  8
0
  6
Continuous
 62
     7
100
AcDbLine
 10
214.50771
 20
33.472797
 30
0.0
 11
214.50771
 21
42.739009
 31
0.0
  0
LWPOLYLINE
  5
221
330
20F
100
AcDbEntity
  8
0
  6
Continuous
 62
     7
100
AcDbPolyline
 90
        2
 70
     0
 43
0.2
 10
196.621438
 20
28.936392
 10
196.621438
 20
27.079329
  0
LWPOLYLINE
  5
222
330
20F
100
AcDbEntity
  8
0
  6
Continuous
 62
     7
100
AcDbPolyline
 90
        2
 70
     0
 43
0.2
 10
196.621438
 20
27.079329
 10
197.417154
 20
27.079329
  0
LWPOLYLINE
  5
223
330
20F
100
AcDbEntity
  8
0
  6
Continuous
 62
     7
100
AcDbPolyline
 90
        2
 70
     0
 43
0.2
 10
197.417154
 20
27.079329
 10
197.417154
 20
27.29131
  0
LWPOLYLINE
  5
224
330
20F
100
AcDbEntity
  8
0
  6
Continuous
 62
     7
100
AcDbPolyline
 90
        2
 70
     0
 43
0.2
 10
197.417154
 20
27.29131
 10
196.853047
 20
27.29131
  0
LWPOLYLINE
  5
225
330
20F
100
AcDbEntity
  8
0
  6
Continuous
 62
     7
100
AcDbPolyline
 90
        2
 70
     0
 43
0.2
 10
196.853047
 20
27.29131
 10
196.853047
 20
28.936392
  0
LWPOLYLINE
  5
226
330
20F
100
AcDbEntity
  8
0
  6
Continuous
 62
     7
100
AcDbPolyline
 90
        2
 70
     0
 43
0.2
 10
196.853047
 20
28.936392
 10
196.621438
 20
28.936392
  0
SPLINE
  5
227
330
20F
100
AcDbEntity
  8
0
  6
Continuous
 62
     7
100
AcDbSpline
 70
     3
 71
     3
 72
    35
 73
    31
 74
     0
 42
0.000000001
 43
0.0000001
 40
0.0
 40
0.0
 40
0.0
 40
0.0
 40
1.0
 40
1.0
 40
1.0
 40
2.0
 40
2.0
 40
2.0
 40
3.0
 40
3.0
 40
3.0
 40
4.0
 40
4.0
 40
4.0
 40
5.0
 40
5.0
 40
5.0
 40
6.0
 40
6.0
 40
6.0
 40
7.0
 40
7.0
 40
7.0
 40
8.0
 40
8.0
 40
8.0
 40
9.0
 40
9.0
 40
9.0
 40
10.0
 40
10.0
 40
10.0
 40
10.0
 10
198.8154472326
 20
28.2318802186
 30
0.0
 10
198.8154472326
 20
28.2318802186
 30
0.0
 10
198.8154472326
 20
27.5697649394
 30
0.0
 10
198.8154472326
 20
27.5697649394
 30
0.0
 10
198.8154472326
 20
27.2546713441
 30
0.0
 10
198.9633109215
 20
27.0400727161
 30
0.0
 10
199.3033974058
 20
27.0400727161
 30
0.0
 10
199.6429604788
 20
27.0400727161
 30
0.0
 10
199.7910858732
 20
27.2546713441
 30
0.0
 10
199.7910858732
 20
27.5697649394
 30
0.0
 10
199.7910858732
 20
27.5697649394
 30
0.0
 10
199.7910858732
 20
28.2318802186
 30
0.0
 10
199.7910858732
 20
28.2318802186
 30
0.0
 10
199.7910858732
 20
28.2318802186
 30
0.0
 10
199.5690286344
 20
28.2318802186
 30
0.0
 10
199.5690286344
 20
28.2318802186
 30
0.0
 10
199.5690286344
 20
28.2318802186
 30
0.0
 10
199.5690286344
 20
27.5948886813
 30
0.0
 10
199.5690286344
 20
27.5948886813
 30
0.0
 10
199.5690286344
 20
27.4090776741
 30
0.0
 10
199.5223141769
 20
27.2462967635
 30
0.0
 10
199.3033974058
 20
27.2462967635
 30
0.0
 10
199.0839572233
 20
27.2462967635
 30
0.0
 10
199.0372427659
 20
27.4090776741
 30
0.0
 10
199.0372427659
 20
27.5948886813
 30
0.0
 10
199.0372427659
 20
27.5948886813
 30
0.0
 10
199.0372427659
 20
28.2318802186
 30
0.0
 10
199.0372427659
 20
28.2318802186
 30
0.0
 10
199.0372427659
 20
28.2318802186
 30
0.0
 10
198.8154472326
 20
28.2318802186
 30
0.0
 10
198.8154472326
 20
28.2318802186
 30
0.0
  0
SPLINE
  5
228
330
20F
100
AcDbEntity
  8
0
  6
Continuous
 62
     7
100
AcDbSpline
 70
     3
 71
     3
 72
    35
 73
    31
 74
     0
 42
0.000000001
 43
0.0000001
 40
0.0
 40
0.0
 40
0.0
 40
0.0
 40
1.0
 40
1.0
 40
1.0
 40
2.0
 40
2.0
 40
2.0
 40
3.0
 40
3.0
 40
3.0
 40
4.0
 40
4.0
 40
4.0
 40
5.0
 40
5.0
 40
5.0
 40
6.0
 40
6.0
 40
6.0
 40
7.0
 40
7.0
 40
7.0
 40
8.0
 40
8.0
 40
8.0
 40
9.0
 40
9.0
 40
9.0
 40
10.0
 40
10.0
 40
10.0
 40
10.0
 10
202.2142184304
 20
28.1905307269
 30
0.0
 10
202.1257619228
 20
28.2418250331
 30
0.0
 10
202.0123125261
 20
28.2669487749
 30
0.0
 10
201.9086770911
 20
28.2669487749
 30
0.0
 10
201.553804238
 20
28.2669487749
 30
0.0
 10
201.2783590477
 20
28.0031494858
 30
0.0
 10
201.2783590477
 20
27.6456595762
 30
0.0
 10
201.2783590477
 20
27.3007315375
 30
0.0
 10
201.5568138529
 20
27.0405961274
 30
0.0
 10
201.8963769259
 20
27.0405961274
 30
0.0
 10
202.0123125261
 20
27.0405961274
 30
0.0
 10
202.113069199
 20
27.0625794015
 30
0.0
 10
202.2142184304
 20
27.1164907641
 30
0.0
 10
202.2142184304
 20
27.1164907641
 30
0.0
 10
202.2142184304
 20
27.3991328596
 30
0.0
 10
202.2142184304
 20
27.3991328596
 30
0.0
 10
202.1303417715
 20
27.3059656504
 30
0.0
 10
202.0268371894
 20
27.2468201748
 30
0.0
 10
201.8987322767
 20
27.2468201748
 30
0.0
 10
201.6650291366
 20
27.2468201748
 30
0.0
 10
201.4997620225
 20
27.4190224885
 30
0.0
 10
201.4997620225
 20
27.6556043907
 30
0.0
 10
201.4997620225
 20
27.8675859622
 30
0.0
 10
201.6675153402
 20
28.0596779049
 30
0.0
 10
201.8843384662
 20
28.0596779049
 30
0.0
 10
202.0171540805
 20
28.0596779049
 30
0.0
 10
202.1257619228
 20
28.0057665422
 30
0.0
 10
202.2142184304
 20
27.9047481637
 30
0.0
 10
202.2142184304
 20
27.9047481637
 30
0.0
 10
202.2142184304
 20
28.1905307269
 30
0.0
 10
202.2142184304
 20
28.1905307269
 30
0.0
  0
SPLINE
  5
229
330
20F
100
AcDbEntity
  8
0
  6
Continuous
 62
     7
100
AcDbSpline
 70
     3
 71
     3
 72
    32
 73
    28
 74
     0
 42
0.000000001
 43
0.0000001
 40
0.0
 40
0.0
 40
0.0
 40
0.0
 40
1.0
 40
1.0
 40
1.0
 40
2.0
 40
2.0
 40
2.0
 40
3.0
 40
3.0
 40
3.0
 40
4.0
 40
4.0
 40
4.0
 40
5.0
 40
5.0
 40
5.0
 40
6.0
 40
6.0
 40
6.0
 40
7.0
 40
7.0
 40
7.0
 40
8.0
 40
8.0
 40
8.0
 40
9.0
 40
9.0
 40
9.0
 40
9.0
 10
204.7460896827
 20
27.6189656005
 30
0.0
 10
204.7460896827
 20
27.6189656005
 30
0.0
 10
204.7460896827
 20
27.6529873342
 30
0.0
 10
204.7460896827
 20
27.6529873342
 30
0.0
 10
204.7460896827
 20
27.9952983165
 30
0.0
 10
204.5732331049
 20
28.2669487749
 30
0.0
 10
204.2065834977
 20
28.2669487749
 30
0.0
 10
203.8349614833
 20
28.2669487749
 30
0.0
 10
203.6452248915
 20
28.0005324294
 30
0.0
 10
203.6452248915
 20
27.6456595762
 30
0.0
 10
203.6452248915
 20
27.3059656504
 30
0.0
 10
203.8593001082
 20
27.0400727161
 30
0.0
 10
204.2114250521
 20
27.0400727161
 30
0.0
 10
204.4354450833
 20
27.0400727161
 30
0.0
 10
204.6376126933
 20
27.1557466107
 30
0.0
 10
204.7460896827
 20
27.3551663114
 30
0.0
 10
204.7460896827
 20
27.3551663114
 30
0.0
 10
204.558446736
 20
27.4619422141
 30
0.0
 10
204.558446736
 20
27.4619422141
 30
0.0
 10
204.4749626356
 20
27.3232382229
 30
0.0
 10
204.3837582186
 20
27.2373987716
 30
0.0
 10
204.2141729614
 20
27.2373987716
 30
0.0
 10
204.0021913898
 20
27.2373987716
 30
0.0
 10
203.8692449227
 20
27.4221629563
 30
0.0
 10
203.8668895719
 20
27.6189656005
 30
0.0
 10
203.8668895719
 20
27.6189656005
 30
0.0
 10
204.7460896827
 20
27.6189656005
 30
0.0
 10
204.7460896827
 20
27.6189656005
 30
0.0
  0
SPLINE
  5
22A
330
20F
100
AcDbEntity
  8
0
  6
Continuous
 62
     7
100
AcDbSpline
 70
     3
 71
     3
 72
    14
 73
    10
 74
     0
 42
0.000000001
 43
0.0000001
 40
0.0
 40
0.0
 40
0.0
 40
0.0
 40
1.0
 40
1.0
 40
1.0
 40
2.0
 40
2.0
 40
2.0
 40
3.0
 40
3.0
 40
3.0
 40
3.0
 10
203.8789280315
 20
27.7864572126
 30
0.0
 10
203.9065379769
 20
27.9513317683
 30
0.0
 10
204.034381184
 20
28.0743334209
 30
0.0
 10
204.2065834977
 20
28.0743334209
 30
0.0
 10
204.3837582186
 20
28.0743334209
 30
0.0
 10
204.4972076153
 20
27.9586595263
 30
0.0
 10
204.5244250023
 20
27.7864572126
 30
0.0
 10
204.5244250023
 20
27.7864572126
 30
0.0
 10
203.8789280315
 20
27.7864572126
 30
0.0
 10
203.8789280315
 20
27.7864572126
 30
0.0
  0
SPLINE
  5
22B
330
20F
100
AcDbEntity
  8
0
  6
Continuous
 62
     7
100
AcDbSpline
 70
     3
 71
     3
 72
    20
 73
    16
 74
     0
 42
0.000000001
 43
0.0000001
 40
0.0
 40
0.0
 40
0.0
 40
0.0
 40
1.0
 40
1.0
 40
1.0
 40
2.0
 40
2.0
 40
2.0
 40
3.0
 40
3.0
 40
3.0
 40
4.0
 40
4.0
 40
4.0
 40
5.0
 40
5.0
 40
5.0
 40
5.0
 10
206.7701211329
 20
27.9958217278
 30
0.0
 10
206.7701211329
 20
27.9958217278
 30
0.0
 10
207.1812606995
 20
27.4933468914
 30
0.0
 10
207.1812606995
 20
27.4933468914
 30
0.0
 10
207.0651942464
 20
27.3776729968
 30
0.0
 10
206.9274062249
 20
27.2473435861
 30
0.0
 10
206.7554656168
 20
27.2473435861
 30
0.0
 10
206.5780291902
 20
27.2473435861
 30
0.0
 10
206.4105375781
 20
27.4116947305
 30
0.0
 10
206.4105375781
 20
27.5886077458
 30
0.0
 10
206.4105375781
 20
27.7665675837
 30
0.0
 10
206.6202946517
 20
27.8927097041
 30
0.0
 10
206.7478761531
 20
27.9806428004
 30
0.0
 10
206.7478761531
 20
27.9806428004
 30
0.0
 10
206.7701211329
 20
27.9958217278
 30
0.0
 10
206.7701211329
 20
27.9958217278
 30
0.0
  0
SPLINE
  5
22C
330
20F
100
AcDbEntity
  8
0
  6
Continuous
 62
     7
100
AcDbSpline
 70
     3
 71
     3
 72
    23
 73
    19
 74
     0
 42
0.000000001
 43
0.0000001
 40
0.0
 40
0.0
 40
0.0
 40
0.0
 40
1.0
 40
1.0
 40
1.0
 40
2.0
 40
2.0
 40
2.0
 40
3.0
 40
3.0
 40
3.0
 40
4.0
 40
4.0
 40
4.0
 40
5.0
 40
5.0
 40
5.0
 40
6.0
 40
6.0
 40
6.0
 40
6.0
 10
206.8194526468
 20
28.2868384038
 30
0.0
 10
206.8194526468
 20
28.2868384038
 30
0.0
 10
206.7578209676
 20
28.365350097
 30
0.0
 10
206.7578209676
 20
28.365350097
 30
0.0
 10
206.703909605
 20
28.4339169757
 30
0.0
 10
206.6471194802
 20
28.5030072657
 30
0.0
 10
206.6471194802
 20
28.5966978862
 30
0.0
 10
206.6471194802
 20
28.7155122486
 30
0.0
 10
206.7430345987
 20
28.7929771192
 30
0.0
 10
206.8539977918
 20
28.7929771192
 30
0.0
 10
206.97726115
 20
28.7929771192
 30
0.0
 10
207.0705592121
 20
28.721793184
 30
0.0
 10
207.0705592121
 20
28.5914637734
 30
0.0
 10
207.0705592121
 20
28.4564236611
 30
0.0
 10
206.9424542994
 20
28.3800056131
 30
0.0
 10
206.8488945317
 20
28.3062046215
 30
0.0
 10
206.8488945317
 20
28.3062046215
 30
0.0
 10
206.8194526468
 20
28.2868384038
 30
0.0
 10
206.8194526468
 20
28.2868384038
 30
0.0
  0
SPLINE
  5
22D
330
20F
100
AcDbEntity
  8
0
  6
Continuous
 62
     7
100
AcDbSpline
 70
     3
 71
     3
 72
    50
 73
    46
 74
     0
 42
0.000000001
 43
0.0000001
 40
0.0
 40
0.0
 40
0.0
 40
0.0
 40
1.0
 40
1.0
 40
1.0
 40
2.0
 40
2.0
 40
2.0
 40
3.0
 40
3.0
 40
3.0
 40
4.0
 40
4.0
 40
4.0
 40
5.0
 40
5.0
 40
5.0
 40
6.0
 40
6.0
 40
6.0
 40
7.0
 40
7.0
 40
7.0
 40
8.0
 40
8.0
 40
8.0
 40
9.0
 40
9.0
 40
9.0
 40
10.0
 40
10.0
 40
10.0
 40
11.0
 40
11.0
 40
11.0
 40
12.0
 40
12.0
 40
12.0
 40
13.0
 40
13.0
 40
13.0
 40
14.0
 40
14.0
 40
14.0
 40
15.0
 40
15.0
 40
15.0
 40
15.0
 10
207.5216088894
 20
27.079851974
 30
0.0
 10
207.5216088894
 20
27.079851974
 30
0.0
 10
207.8069988941
 20
27.079851974
 30
0.0
 10
207.8069988941
 20
27.079851974
 30
0.0
 10
207.8069988941
 20
27.079851974
 30
0.0
 10
207.4746327263
 20
27.490729835
 30
0.0
 10
207.4746327263
 20
27.490729835
 30
0.0
 10
207.4746327263
 20
27.490729835
 30
0.0
 10
207.7011389612
 20
27.7566227692
 30
0.0
 10
207.7011389612
 20
27.7566227692
 30
0.0
 10
207.7011389612
 20
27.7566227692
 30
0.0
 10
207.5528827139
 20
27.9094588653
 30
0.0
 10
207.5528827139
 20
27.9094588653
 30
0.0
 10
207.5528827139
 20
27.9094588653
 30
0.0
 10
207.3369755576
 20
27.6582214471
 30
0.0
 10
207.3369755576
 20
27.6582214471
 30
0.0
 10
207.3369755576
 20
27.6582214471
 30
0.0
 10
206.9499129103
 20
28.1261511384
 30
0.0
 10
206.9499129103
 20
28.1261511384
 30
0.0
 10
207.1053660628
 20
28.2402547992
 30
0.0
 10
207.2876440438
 20
28.3800056131
 30
0.0
 10
207.2876440438
 20
28.5893701282
 30
0.0
 10
207.2876440438
 20
28.8332797884
 30
0.0
 10
207.0856072866
 20
28.9766944812
 30
0.0
 10
206.8591010518
 20
28.9766944812
 30
0.0
 10
206.614929686
 20
28.9766944812
 30
0.0
 10
206.4305580599
 20
28.8259520303
 30
0.0
 10
206.4305580599
 20
28.5694804993
 30
0.0
 10
206.4305580599
 20
28.4119337016
 30
0.0
 10
206.5292210876
 20
28.2742765329
 30
0.0
 10
206.6345576093
 20
28.1633133399
 30
0.0
 10
206.6345576093
 20
28.1633133399
 30
0.0
 10
206.5190145675
 20
28.0795675338
 30
0.0
 10
206.5190145675
 20
28.0795675338
 30
0.0
 10
206.3413164353
 20
27.9513317683
 30
0.0
 10
206.1939761577
 20
27.8236194141
 30
0.0
 10
206.1939761577
 20
27.5865141007
 30
0.0
 10
206.1939761577
 20
27.2661863925
 30
0.0
 10
206.452541334
 20
27.0400727161
 30
0.0
 10
206.7629242277
 20
27.0400727161
 30
0.0
 10
206.9818409988
 20
27.0400727161
 30
0.0
 10
207.1790362015
 20
27.1651680139
 30
0.0
 10
207.3193104267
 20
27.3310893922
 30
0.0
 10
207.3193104267
 20
27.3310893922
 30
0.0
 10
207.5216088894
 20
27.079851974
 30
0.0
 10
207.5216088894
 20
27.079851974
 30
0.0
  0
LWPOLYLINE
  5
22E
330
20F
100
AcDbEntity
  8
0
  6
Continuous
 62
     7
100
AcDbPolyline
 90
        2
 70
     0
 43
0.2
 10
209.457053
 20
28.936392
 10
209.225705
 20
28.936392
  0
LWPOLYLINE
  5
22F
330
20F
100
AcDbEntity
  8
0
  6
Continuous
 62
     7
100
AcDbPolyline
 90
        2
 70
     0
 43
0.2
 10
209.225705
 20
28.936392
 10
209.225705
 20
27.079329
  0
LWPOLYLINE
  5
230
330
20F
100
AcDbEntity
  8
0
  6
Continuous
 62
     7
100
AcDbPolyline
 90
        2
 70
     0
 43
0.2
 10
209.225705
 20
27.079329
 10
210.021029
 20
27.079329
  0
LWPOLYLINE
  5
231
330
20F
100
AcDbEntity
  8
0
  6
Continuous
 62
     7
100
AcDbPolyline
 90
        2
 70
     0
 43
0.2
 10
210.021029
 20
27.079329
 10
210.021029
 20
27.29131
  0
LWPOLYLINE
  5
232
330
20F
100
AcDbEntity
  8
0
  6
Continuous
 62
     7
100
AcDbPolyline
 90
        2
 70
     0
 43
0.2
 10
210.021029
 20
27.29131
 10
209.457053
 20
27.29131
  0
LWPOLYLINE
  5
233
330
20F
100
AcDbEntity
  8
0
  6
Continuous
 62
     7
100
AcDbPolyline
 90
        2
 70
     0
 43
0.2
 10
209.457053
 20
27.29131
 10
209.457053
 20
28.936392
  0
LWPOLYLINE
  5
234
330
20F
100
AcDbEntity
  8
0
  6
Continuous
 62
     7
100
AcDbPolyline
 90
        2
 70
     0
 43
0.2
 10
211.700132
 20
28.23188
 10
211.478991
 20
28.23188
  0
LWPOLYLINE
  5
235
330
20F
100
AcDbEntity
  8
0
  6
Continuous
 62
     7
100
AcDbPolyline
 90
        2
 70
     0
 43
0.2
 10
211.478991
 20
28.23188
 10
211.478991
 20
27.079852
  0
LWPOLYLINE
  5
236
330
20F
100
AcDbEntity
  8
0
  6
Continuous
 62
     7
100
AcDbPolyline
 90
        2
 70
     0
 43
0.2
 10
211.478991
 20
27.079852
 10
211.700132
 20
27.079852
  0
LWPOLYLINE
  5
237
330
20F
100
AcDbEntity
  8
0
  6
Continuous
 62
     7
100
AcDbPolyline
 90
        2
 70
     0
 43
0.2
 10
211.700132
 20
27.079852
 10
211.700132
 20
28.23188
  0
SPLINE
  5
238
330
20F
100
AcDbEntity
  8
0
  6
Continuous
 62
     7
100
AcDbSpline
 70
     3
 71
     3
 72
    17
 73
    13
 74
     0
 42
0.000000001
 43
0.0000001
 40
0.0
 40
0.0
 40
0.0
 40
0.0
 40
1.0
 40
1.0
 40
1.0
 40
2.0
 40
2.0
 40
2.0
 40
3.0
 40
3.0
 40
3.0
 40
4.0
 40
4.0
 40
4.0
 40
4.0
 10
211.5896922716
 20
28.914408538
 30
0.0
 10
211.5056847599
 20
28.914408538
 30
0.0
 10
211.4371178812
 20
28.845318248
 30
0.0
 10
211.4371178812
 20
28.7594787968
 30
0.0
 10
211.4371178812
 20
28.6752095794
 30
0.0
 10
211.5056847599
 20
28.6092597572
 30
0.0
 10
211.5896922716
 20
28.6092597572
 30
0.0
 10
211.6734380776
 20
28.6092597572
 30
0.0
 10
211.742266662
 20
28.6752095794
 30
0.0
 10
211.742266662
 20
28.7594787968
 30
0.0
 10
211.742266662
 20
28.845318248
 30
0.0
 10
211.6734380776
 20
28.914408538
 30
0.0
 10
211.5896922716
 20
28.914408538
 30
0.0
  0
SPLINE
  5
239
330
20F
100
AcDbEntity
  8
0
  6
Continuous
 62
     7
100
AcDbSpline
 70
     3
 71
     3
 72
    17
 73
    13
 74
     0
 42
0.000000001
 43
0.0000001
 40
0.0
 40
0.0
 40
0.0
 40
0.0
 40
1.0
 40
1.0
 40
1.0
 40
2.0
 40
2.0
 40
2.0
 40
3.0
 40
3.0
 40
3.0
 40
4.0
 40
4.0
 40
4.0
 40
4.0
 10
213.830415995
 20
27.2373987716
 30
0.0
 10
213.5964511493
 20
27.2373987716
 30
0.0
 10
213.4661217386
 20
27.4394355288
 30
0.0
 10
213.4661217386
 20
27.6556043907
 30
0.0
 10
213.4661217386
 20
27.8702030187
 30
0.0
 10
213.6019469678
 20
28.0690993081
 30
0.0
 10
213.830415995
 20
28.0690993081
 30
0.0
 10
214.0698766592
 20
28.0690993081
 30
0.0
 10
214.2054401827
 20
27.8801478331
 30
0.0
 10
214.2054401827
 20
27.6556043907
 30
0.0
 10
214.2054401827
 20
27.4294907143
 30
0.0
 10
214.0722320099
 20
27.2373987716
 30
0.0
 10
213.830415995
 20
27.2373987716
 30
0.0
  0
SPLINE
  5
23A
330
20F
100
AcDbEntity
  8
0
  6
Continuous
 62
     7
100
AcDbSpline
 70
     3
 71
     3
 72
    50
 73
    46
 74
     0
 42
0.000000001
 43
0.0000001
 40
0.0
 40
0.0
 40
0.0
 40
0.0
 40
1.0
 40
1.0
 40
1.0
 40
2.0
 40
2.0
 40
2.0
 40
3.0
 40
3.0
 40
3.0
 40
4.0
 40
4.0
 40
4.0
 40
5.0
 40
5.0
 40
5.0
 40
6.0
 40
6.0
 40
6.0
 40
7.0
 40
7.0
 40
7.0
 40
8.0
 40
8.0
 40
8.0
 40
9.0
 40
9.0
 40
9.0
 40
10.0
 40
10.0
 40
10.0
 40
11.0
 40
11.0
 40
11.0
 40
12.0
 40
12.0
 40
12.0
 40
13.0
 40
13.0
 40
13.0
 40
14.0
 40
14.0
 40
14.0
 40
15.0
 40
15.0
 40
15.0
 40
15.0
 10
214.4145429922
 20
28.2324036299
 30
0.0
 10
214.4145429922
 20
28.2324036299
 30
0.0
 10
214.1928783118
 20
28.2324036299
 30
0.0
 10
214.1928783118
 20
28.2324036299
 30
0.0
 10
214.1928783118
 20
28.2324036299
 30
0.0
 10
214.1928783118
 20
28.0350775744
 30
0.0
 10
214.1928783118
 20
28.0350775744
 30
0.0
 10
214.1928783118
 20
28.0350775744
 30
0.0
 10
214.1881676102
 20
28.0350775744
 30
0.0
 10
214.1881676102
 20
28.0350775744
 30
0.0
 10
214.0968323405
 20
28.1779688559
 30
0.0
 10
213.9589134661
 20
28.2664253636
 30
0.0
 10
213.7861877411
 20
28.2664253636
 30
0.0
 10
213.4538215733
 20
28.2664253636
 30
0.0
 10
213.2447187638
 20
27.9785491553
 30
0.0
 10
213.2447187638
 20
27.6629321487
 30
0.0
 10
213.2447187638
 20
27.3331830373
 30
0.0
 10
213.4417831137
 20
27.0400727161
 30
0.0
 10
213.7966559669
 20
27.0400727161
 30
0.0
 10
213.9589134661
 20
27.0400727161
 30
0.0
 10
214.0989259856
 20
27.1285292238
 30
0.0
 10
214.1881676102
 20
27.2593820457
 30
0.0
 10
214.1881676102
 20
27.2593820457
 30
0.0
 10
214.1928783118
 20
27.2593820457
 30
0.0
 10
214.1928783118
 20
27.2593820457
 30
0.0
 10
214.1928783118
 20
27.2593820457
 30
0.0
 10
214.1928783118
 20
27.0400727161
 30
0.0
 10
214.1928783118
 20
27.0400727161
 30
0.0
 10
214.1928783118
 20
26.803490814
 30
0.0
 10
214.1363498927
 20
26.6166329842
 30
0.0
 10
213.8631292004
 20
26.6166329842
 30
0.0
 10
213.6608307377
 20
26.6166329842
 30
0.0
 10
213.5182011617
 20
26.7349239353
 30
0.0
 10
213.5182011617
 20
26.9411479827
 30
0.0
 10
213.5182011617
 20
26.9411479827
 30
0.0
 10
213.2965364813
 20
26.9411479827
 30
0.0
 10
213.2965364813
 20
26.9411479827
 30
0.0
 10
213.3015088886
 20
26.6166329842
 30
0.0
 10
213.5325949722
 20
26.41983034
 30
0.0
 10
213.8529226803
 20
26.41983034
 30
0.0
 10
214.3009627427
 20
26.41983034
 30
0.0
 10
214.4145429922
 20
26.7050894919
 30
0.0
 10
214.4145429922
 20
27.1018352481
 30
0.0
 10
214.4145429922
 20
27.1018352481
 30
0.0
 10
214.4145429922
 20
28.2324036299
 30
0.0
 10
214.4145429922
 20
28.2324036299
 30
0.0
  0
SPLINE
  5
23B
330
20F
100
AcDbEntity
  8
0
  6
Continuous
 62
     7
100
AcDbSpline
 70
     3
 71
     3
 72
    44
 73
    40
 74
     0
 42
0.000000001
 43
0.0000001
 40
0.0
 40
0.0
 40
0.0
 40
0.0
 40
1.0
 40
1.0
 40
1.0
 40
2.0
 40
2.0
 40
2.0
 40
3.0
 40
3.0
 40
3.0
 40
4.0
 40
4.0
 40
4.0
 40
5.0
 40
5.0
 40
5.0
 40
6.0
 40
6.0
 40
6.0
 40
7.0
 40
7.0
 40
7.0
 40
8.0
 40
8.0
 40
8.0
 40
9.0
 40
9.0
 40
9.0
 40
10.0
 40
10.0
 40
10.0
 40
11.0
 40
11.0
 40
11.0
 40
12.0
 40
12.0
 40
12.0
 40
13.0
 40
13.0
 40
13.0
 40
13.0
 10
215.9834683276
 20
29.2174636737
 30
0.0
 10
215.9834683276
 20
29.2174636737
 30
0.0
 10
215.9834683276
 20
27.0793285627
 30
0.0
 10
215.9834683276
 20
27.0793285627
 30
0.0
 10
215.9834683276
 20
27.0793285627
 30
0.0
 10
216.2048713024
 20
27.0793285627
 30
0.0
 10
216.2048713024
 20
27.0793285627
 30
0.0
 10
216.2048713024
 20
27.0793285627
 30
0.0
 10
216.2048713024
 20
27.609020786
 30
0.0
 10
216.2048713024
 20
27.609020786
 30
0.0
 10
216.2048713024
 20
27.8189087125
 30
0.0
 10
216.2048713024
 20
28.0696227194
 30
0.0
 10
216.4901304543
 20
28.0696227194
 30
0.0
 10
216.7170292476
 20
28.0696227194
 30
0.0
 10
216.7439849289
 20
27.9366762522
 30
0.0
 10
216.7439849289
 20
27.7403970193
 30
0.0
 10
216.7439849289
 20
27.7403970193
 30
0.0
 10
216.7439849289
 20
27.0793285627
 30
0.0
 10
216.7439849289
 20
27.0793285627
 30
0.0
 10
216.7439849289
 20
27.0793285627
 30
0.0
 10
216.9659113149
 20
27.0793285627
 30
0.0
 10
216.9659113149
 20
27.0793285627
 30
0.0
 10
216.9659113149
 20
27.0793285627
 30
0.0
 10
216.9659113149
 20
27.7665675837
 30
0.0
 10
216.9659113149
 20
27.7665675837
 30
0.0
 10
216.9659113149
 20
28.047116034
 30
0.0
 10
216.8819038032
 20
28.2669487749
 30
0.0
 10
216.5568653935
 20
28.2669487749
 30
0.0
 10
216.4171145796
 20
28.2669487749
 30
0.0
 10
216.2789339996
 20
28.2004755413
 30
0.0
 10
216.209582004
 20
28.0774738887
 30
0.0
 10
216.209582004
 20
28.0774738887
 30
0.0
 10
216.2048713024
 20
28.0774738887
 30
0.0
 10
216.2048713024
 20
28.0774738887
 30
0.0
 10
216.2048713024
 20
28.0774738887
 30
0.0
 10
216.2048713024
 20
29.2174636737
 30
0.0
 10
216.2048713024
 20
29.2174636737
 30
0.0
 10
216.2048713024
 20
29.2174636737
 30
0.0
 10
215.9834683276
 20
29.2174636737
 30
0.0
 10
215.9834683276
 20
29.2174636737
 30
0.0
  0
LWPOLYLINE
  5
23C
330
20F
100
AcDbEntity
  8
0
  6
Continuous
 62
     7
100
AcDbPolyline
 90
        2
 70
     0
 43
0.2
 10
218.805702
 20
28.025133
 10
219.022133
 20
28.025133
  0
LWPOLYLINE
  5
23D
330
20F
100
AcDbEntity
  8
0
  6
Continuous
 62
     7
100
AcDbPolyline
 90
        2
 70
     0
 43
0.2
 10
219.022133
 20
28.025133
 10
219.022133
 20
28.23188
  0
LWPOLYLINE
  5
23E
330
20F
100
AcDbEntity
  8
0
  6
Continuous
 62
     7
100
AcDbPolyline
 90
        2
 70
     0
 43
0.2
 10
219.022133
 20
28.23188
 10
218.805702
 20
28.23188
  0
LWPOLYLINE
  5
23F
330
20F
100
AcDbEntity
  8
0
  6
Continuous
 62
     7
100
AcDbPolyline
 90
        2
 70
     0
 43
0.2
 10
218.805702
 20
28.23188
 10
218.805702
 20
28.672593
  0
LWPOLYLINE
  5
240
330
20F
100
AcDbEntity
  8
0
  6
Continuous
 62
     7
100
AcDbPolyline
 90
        2
 70
     0
 43
0.2
 10
218.805702
 20
28.672593
 10
218.584037
 20
28.672593
  0
LWPOLYLINE
  5
241
330
20F
100
AcDbEntity
  8
0
  6
Continuous
 62
     7
100
AcDbPolyline
 90
        2
 70
     0
 43
0.2
 10
218.584037
 20
28.672593
 10
218.584037
 20
28.23188
  0
LWPOLYLINE
  5
242
330
20F
100
AcDbEntity
  8
0
  6
Continuous
 62
     7
100
AcDbPolyline
 90
        2
 70
     0
 43
0.2
 10
218.584037
 20
28.23188
 10
218.463391
 20
28.23188
  0
LWPOLYLINE
  5
243
330
20F
100
AcDbEntity
  8
0
  6
Continuous
 62
     7
100
AcDbPolyline
 90
        2
 70
     0
 43
0.2
 10
218.463391
 20
28.23188
 10
218.463391
 20
28.025133
  0
LWPOLYLINE
  5
244
330
20F
100
AcDbEntity
  8
0
  6
Continuous
 62
     7
100
AcDbPolyline
 90
        2
 70
     0
 43
0.2
 10
218.463391
 20
28.025133
 10
218.584037
 20
28.025133
  0
LWPOLYLINE
  5
245
330
20F
100
AcDbEntity
  8
0
  6
Continuous
 62
     7
100
AcDbPolyline
 90
        2
 70
     0
 43
0.2
 10
218.584037
 20
28.025133
 10
218.584037
 20
27.079329
  0
LWPOLYLINE
  5
246
330
20F
100
AcDbEntity
  8
0
  6
Continuous
 62
     7
100
AcDbPolyline
 90
        2
 70
     0
 43
0.2
 10
218.584037
 20
27.079329
 10
218.805702
 20
27.079329
  0
LWPOLYLINE
  5
247
330
20F
100
AcDbEntity
  8
0
  6
Continuous
 62
     7
100
AcDbPolyline
 90
        2
 70
     0
 43
0.2
 10
218.805702
 20
27.079329
 10
218.805702
 20
28.025133
  0
SPLINE
  5
248
330
20F
100
AcDbEntity
  8
0
  6
Continuous
 62
     7
100
AcDbSpline
 70
     3
 71
     3
 72
    20
 73
    16
 74
     0
 42
0.000000001
 43
0.0000001
 40
0.0
 40
0.0
 40
0.0
 40
0.0
 40
1.0
 40
1.0
 40
1.0
 40
2.0
 40
2.0
 40
2.0
 40
3.0
 40
3.0
 40
3.0
 40
4.0
 40
4.0
 40
4.0
 40
5.0
 40
5.0
 40
5.0
 40
5.0
 10
206.587712299
 20
37.4402550061
 30
0.0
 10
206.587712299
 20
37.4402550061
 30
0.0
 10
208.9040689535
 20
34.6106935839
 30
0.0
 10
208.9040689535
 20
34.6106935839
 30
0.0
 10
208.2524219001
 20
33.9585231192
 30
0.0
 10
207.4755486961
 20
33.2226068484
 30
0.0
 10
206.5043590515
 20
33.2226068484
 30
0.0
 10
205.505821167
 20
33.2226068484
 30
0.0
 10
204.5625031735
 20
34.1521852957
 30
0.0
 10
204.5625031735
 20
35.1513774442
 30
0.0
 10
204.5625031735
 20
36.1505695928
 30
0.0
 10
205.7413562466
 20
36.8571748314
 30
0.0
 10
206.4628787069
 20
37.3570326113
 30
0.0
 10
206.4628787069
 20
37.3570326113
 30
0.0
 10
206.587712299
 20
37.4402550061
 30
0.0
 10
206.587712299
 20
37.4402550061
 30
0.0
  0
SPLINE
  5
249
330
20F
100
AcDbEntity
  8
0
  6
Continuous
 62
     7
100
AcDbSpline
 70
     3
 71
     3
 72
    23
 73
    19
 74
     0
 42
0.000000001
 43
0.0000001
 40
0.0
 40
0.0
 40
0.0
 40
0.0
 40
1.0
 40
1.0
 40
1.0
 40
2.0
 40
2.0
 40
2.0
 40
3.0
 40
3.0
 40
3.0
 40
4.0
 40
4.0
 40
4.0
 40
5.0
 40
5.0
 40
5.0
 40
6.0
 40
6.0
 40
6.0
 40
6.0
 10
206.8651202816
 20
39.0780089258
 30
0.0
 10
206.8651202816
 20
39.0780089258
 30
0.0
 10
206.518622009
 20
39.5213382867
 30
0.0
 10
206.518622009
 20
39.5213382867
 30
0.0
 10
206.2128189641
 20
39.9094477566
 30
0.0
 10
205.893930637
 20
40.297949785
 30
0.0
 10
205.893930637
 20
40.8248940991
 30
0.0
 10
205.893930637
 20
41.4910658157
 30
0.0
 10
206.4352687615
 20
41.934787735
 30
0.0
 10
207.0591750166
 20
41.934787735
 30
0.0
 10
207.7529566787
 20
41.934787735
 30
0.0
 10
208.2801626984
 20
41.5325461603
 30
0.0
 10
208.2801626984
 20
40.7975458593
 30
0.0
 10
208.2801626984
 20
40.0342813488
 30
0.0
 10
207.5589019437
 20
39.604168123
 30
0.0
 10
207.0318267768
 20
39.1884487076
 30
0.0
 10
207.0318267768
 20
39.1884487076
 30
0.0
 10
206.8651202816
 20
39.0780089258
 30
0.0
 10
206.8651202816
 20
39.0780089258
 30
0.0
  0
SPLINE
  5
24A
330
20F
100
AcDbEntity
  8
0
  6
Continuous
 62
     7
100
AcDbSpline
 70
     3
 71
     3
 72
    50
 73
    46
 74
     0
 42
0.000000001
 43
0.0000001
 40
0.0
 40
0.0
 40
0.0
 40
0.0
 40
1.0
 40
1.0
 40
1.0
 40
2.0
 40
2.0
 40
2.0
 40
3.0
 40
3.0
 40
3.0
 40
4.0
 40
4.0
 40
4.0
 40
5.0
 40
5.0
 40
5.0
 40
6.0
 40
6.0
 40
6.0
 40
7.0
 40
7.0
 40
7.0
 40
8.0
 40
8.0
 40
8.0
 40
9.0
 40
9.0
 40
9.0
 40
10.0
 40
10.0
 40
10.0
 40
11.0
 40
11.0
 40
11.0
 40
12.0
 40
12.0
 40
12.0
 40
13.0
 40
13.0
 40
13.0
 40
14.0
 40
14.0
 40
14.0
 40
15.0
 40
15.0
 40
15.0
 40
15.0
 10
210.8187074445
 20
32.2794197077
 30
0.0
 10
210.8187074445
 20
32.2794197077
 30
0.0
 10
212.4279354491
 20
32.2794197077
 30
0.0
 10
212.4279354491
 20
32.2794197077
 30
0.0
 10
212.4279354491
 20
32.2794197077
 30
0.0
 10
210.5549081555
 20
34.5965614791
 30
0.0
 10
210.5549081555
 20
34.5965614791
 30
0.0
 10
210.5549081555
 20
34.5965614791
 30
0.0
 10
211.8312465809
 20
36.0940411737
 30
0.0
 10
211.8312465809
 20
36.0940411737
 30
0.0
 10
211.8312465809
 20
36.0940411737
 30
0.0
 10
210.9990226332
 20
36.9550527422
 30
0.0
 10
210.9990226332
 20
36.9550527422
 30
0.0
 10
210.9990226332
 20
36.9550527422
 30
0.0
 10
209.7784275099
 20
35.5397486198
 30
0.0
 10
209.7784275099
 20
35.5397486198
 30
0.0
 10
209.7784275099
 20
35.5397486198
 30
0.0
 10
207.6005131411
 20
38.1751244543
 30
0.0
 10
207.6005131411
 20
38.1751244543
 30
0.0
 10
208.4740865805
 20
38.8131628142
 30
0.0
 10
209.5007578217
 20
39.604168123
 30
0.0
 10
209.5007578217
 20
40.7830211961
 30
0.0
 10
209.5007578217
 20
42.1567141211
 30
0.0
 10
208.3628616819
 20
42.9611972706
 30
0.0
 10
207.087570079
 20
42.9611972706
 30
0.0
 10
205.7141388596
 20
42.9611972706
 30
0.0
 10
204.6732046608
 20
42.1149720709
 30
0.0
 10
204.6732046608
 20
40.6723197087
 30
0.0
 10
204.6732046608
 20
39.7847450173
 30
0.0
 10
205.2285440373
 20
39.0078718133
 30
0.0
 10
205.8247094942
 20
38.3834421468
 30
0.0
 10
205.8247094942
 20
38.3834421468
 30
0.0
 10
205.1728007351
 20
37.9118485765
 30
0.0
 10
205.1728007351
 20
37.9118485765
 30
0.0
 10
204.1742628507
 20
37.1905878218
 30
0.0
 10
203.3413846389
 20
36.4693270671
 30
0.0
 10
203.3413846389
 20
35.1377687508
 30
0.0
 10
203.3413846389
 20
33.3340934528
 30
0.0
 10
204.7984308115
 20
32.0574933216
 30
0.0
 10
206.5459702488
 20
32.0574933216
 30
0.0
 10
207.7808283297
 20
32.0574933216
 30
0.0
 10
208.8901985544
 20
32.7656687941
 30
0.0
 10
209.6810730104
 20
33.6942004188
 30
0.0
 10
209.6810730104
 20
33.6942004188
 30
0.0
 10
210.8187074445
 20
32.2794197077
 30
0.0
 10
210.8187074445
 20
32.2794197077
 30
0.0
  0
LINE
  5
24B
330
20F
100
AcDbEntity
  8
0
  6
Continuous
 62
     7
100
AcDbLine
 10
196.621569
 20
30.253295
 30
0.0
 11
219.03548
 21
30.253295
 31
0.0
  0
LINE
  5
24C
330
20F
100
AcDbEntity
  8
0
  6
Continuous
 62
     7
100
AcDbLine
 10
219.03548
 20
30.253295
 30
0.0
 11
219.03548
 21
52.667205
 31
0.0
  0
LINE
  5
24D
330
20F
100
AcDbEntity
  8
0
  6
Continuous
 62
     7
100
AcDbLine
 10
219.03548
 20
52.667205
 30
0.0
 11
196.621569
 21
52.667205
 31
0.0
  0
LINE
  5
24E
330
20F
100
AcDbEntity
  8
0
  6
Continuous
 62
     7
100
AcDbLine
 10
196.621569
 20
52.667205
 30
0.0
 11
196.621569
 21
30.253295
 31
0.0
  0
ENDBLK
  5
24F
330
20F
100
AcDbEntity
  8
0
  6
ByBlock
 62
     0
100
AcDbBlockEnd
  0
BLOCK
  5
26B
330
210
100
AcDbEntity
  8
0
100
AcDbBlockBegin
  2
*T5
 70
     1
 10
0.0
 20
0.0
 30
0.0
  3
*T5
  1
*T5
  0
LINE
  5
26C
330
210
100
AcDbEntity
  8
0
  6
Continuous
 62
     2
100
AcDbLine
 10
0.0
 20
0.0
 30
0.0
 11
90.0
 21
0.0
 31
0.0
  0
LINE
  5
26D
330
210
100
AcDbEntity
  8
0
  6
Continuous
 62
     2
100
AcDbLine
 10
0.0
 20
0.0
 30
0.0
 11
0.0
 21
-40.0
 31
0.0
  0
LINE
  5
26E
330
210
100
AcDbEntity
  8
0
  6
Continuous
 62
     2
100
AcDbLine
 10
30.0
 20
-6.0
 30
0.0
 11
90.0
 21
-6.0
 31
0.0
  0
LINE
  5
26F
330
210
100
AcDbEntity
  8
0
  6
Continuous
 62
     2
100
AcDbLine
 10
30.0
 20
-12.0
 30
0.0
 11
90.0
 21
-12.0
 31
0.0
  0
LINE
  5
270
330
210
100
AcDbEntity
  8
0
  6
Continuous
 62
     2
100
AcDbLine
 10
30.0
 20
-22.0
 30
0.0
 11
90.0
 21
-22.0
 31
0.0
  0
LINE
  5
271
330
210
100
AcDbEntity
  8
0
  6
Continuous
 62
     2
100
AcDbLine
 10
0.0
 20
-27.0
 30
0.0
 11
90.0
 21
-27.0
 31
0.0
  0
LINE
  5
272
330
210
100
AcDbEntity
  8
0
  6
Continuous
 62
     2
100
AcDbLine
 10
0.0
 20
-40.0
 30
0.0
 11
90.0
 21
-40.0
 31
0.0
  0
LINE
  5
273
330
210
100
AcDbEntity
  8
0
  6
Continuous
 62
     2
100
AcDbLine
 10
30.0
 20
0.0
 30
0.0
 11
30.0
 21
-27.0
 31
0.0
  0
LINE
  5
274
330
210
100
AcDbEntity
  8
0
  6
Continuous
 62
     2
100
AcDbLine
 10
70.0
 20
0.0
 30
0.0
 11
70.0
 21
-12.0
 31
0.0
  0
LINE
  5
275
330
210
100
AcDbEntity
  8
0
  6
Continuous
 62
     2
100
AcDbLine
 10
90.0
 20
0.0
 30
0.0
 11
90.0
 21
-40.0
 31
0.0
  0
MTEXT
  5
276
330
210
100
AcDbEntity
  8
9_SOLID
  6
Continuous
 62
     2
100
AcDbMText
 10
31.4875
 20
-1.5
 30
0.0
 40
3.0
 41
47.714286
 46
0.0
 71
     1
 72
     1
  1
A016_C_007
  7
TEXTSTYLE_3
 73
     1
 44
0.9
  0
MTEXT
  5
277
330
210
100
AcDbEntity
  8
9_SOLID
  6
Continuous
 62
     2
100
AcDbMText
 10
71.4875
 20
-1.25
 30
0.0
 40
3.5
 41
30.333333
 46
0.0
 71
     1
 72
     1
  1
Rev:00
  7
TEXTSTYLE_3
 73
     1
 44
0.9
  0
MTEXT
  5
278
330
210
100
AcDbEntity
  8
9_SOLID
  6
Continuous
 62
     2
100
AcDbMText
 10
31.4875
 20
-7.75
 30
0.0
 40
3.5
 41
36.5
 46
0.0
 71
     1
 72
     1
  1
Scale:1:1
  7
TEXTSTYLE_3
 73
     1
 44
0.9
  0
MTEXT
  5
279
330
210
100
AcDbEntity
  8
9_SOLID
  6
Continuous
 62
     2
100
AcDbMText
 10
71.4875
 20
-7.25
 30
0.0
 40
3.5
 41
11.5
 46
0.0
 71
     1
 72
     1
  1
A4
  7
TEXTSTYLE_3
 73
     1
 44
0.9
  0
MTEXT
  5
27A
330
210
100
AcDbEntity
  8
9_SOLID
  6
Continuous
 62
     2
100
AcDbMText
 10
31.4875
 20
-15.925
 30
0.0
 40
2.15
 41
112.311905
 46
0.0
 71
     1
 72
     1
  1
FRONT. SEMI PROFONDO TONDO COMBO2
  7
TEXTSTYLE_3
 73
     1
 44
0.9
  0
MTEXT
  5
27B
330
210
100
AcDbEntity
  8
9_SOLID
  6
Continuous
 62
     2
100
AcDbMText
 10
31.4875
 20
-23.25
 30
0.0
 40
2.5
 41
45.47619
 46
0.0
 71
     1
 72
     1
  1
DATE:10.12.19
  7
TEXTSTYLE_3
 73
     1
 44
0.9
  0
MTEXT
  5
27C
330
210
100
AcDbEntity
  8
9_SOLID
  6
Continuous
 62
     2
100
AcDbMText
 10
1.4875
 20
-27.3125
 30
0.0
 40
2.25
 41
178.607143
 46
0.0
 71
     1
 72
     1
  1
Any integral or partial reproductions are prohibited \Pwithout prior authorisation of L & L Luce & Light s.r.l., \Pin accordance with the law in force. \PAll rights reserved.
  7
TEXTSTYLE_3
 73
     1
 44
0.9
  0
ENDBLK
  5
27D
330
210
100
AcDbEntity
  8
0
  6
ByBlock
 62
     0
100
AcDbBlockEnd
  0
ENDSEC
  0
SECTION
  2
ENTITIES
  0
LWPOLYLINE
  5
27E
330
209
100
AcDbEntity
  8
0
  6
Continuous
 62
     7
100
AcDbPolyline
 90
        2
 70
     0
 43
0.5
 10
284.0
 20
13.0
 10
284.0
 20
197.0
  0
LWPOLYLINE
  5
27F
330
209
100
AcDbEntity
  8
0
  6
Continuous
 62
     7
100
AcDbPolyline
 90
        2
 70
     0
 43
0.5
 10
13.0
 20
13.0
 10
13.0
 20
197.0
  0
LWPOLYLINE
  5
280
330
209
100
AcDbEntity
  8
0
  6
Continuous
 62
     7
100
AcDbPolyline
 90
        2
 70
     0
 43
0.5
 10
13.0
 20
13.0
 10
284.0
 20
13.0
  0
LWPOLYLINE
  5
281
330
209
100
AcDbEntity
  8
0
  6
Continuous
 62
     7
100
AcDbPolyline
 90
        2
 70
     0
 43
0.1
 10
148.5
 20
197.0
 10
148.5
 20
200.0
  0
LWPOLYLINE
  5
282
330
209
100
AcDbEntity
  8
0
  6
Continuous
 62
     7
100
AcDbPolyline
 90
        2
 70
     0
 43
0.1
 10
284.0
 20
105.0
 10
287.0
 20
105.0
  0
LWPOLYLINE
  5
283
330
209
100
AcDbEntity
  8
0
  6
Continuous
 62
     7
100
AcDbPolyline
 90
        2
 70
     0
 43
0.1
 10
13.0
 20
105.0
 10
10.0
 20
105.0
  0
LWPOLYLINE
  5
284
330
209
100
AcDbEntity
  8
0
  6
Continuous
 62
     7
100
AcDbPolyline
 90
        2
 70
     0
 43
0.5
 10
13.0
 20
197.0
 10
284.0
 20
197.0
  0
LWPOLYLINE
  5
285
330
209
100
AcDbEntity
  8
0
  6
Continuous
 62
     7
100
AcDbPolyline
 90
        2
 70
     0
 43
0.1
 10
10.0
 20
200.0
 10
287.0
 20
200.0
  0
LWPOLYLINE
  5
286
330
209
100
AcDbEntity
  8
0
  6
Continuous
 62
     7
100
AcDbPolyline
 90
        2
 70
     0
 43
0.1
 10
10.0
 20
10.0
 10
10.0
 20
200.0
  0
LWPOLYLINE
  5
287
330
209
100
AcDbEntity
  8
0
  6
Continuous
 62
     7
100
AcDbPolyline
 90
        2
 70
     0
 43
0.1
 10
287.0
 20
10.0
 10
287.0
 20
200.0
  0
LWPOLYLINE
  5
288
330
209
100
AcDbEntity
  8
0
  6
Continuous
 62
     7
100
AcDbPolyline
 90
        2
 70
     0
 43
0.1
 10
10.0
 20
10.0
 10
287.0
 20
10.0
  0
LWPOLYLINE
  5
289
330
209
100
AcDbEntity
  8
0
  6
Continuous
 62
     7
100
AcDbPolyline
 90
        2
 70
     0
 43
0.1
 10
148.5
 20
13.0
 10
148.5
 20
10.0
  0
ARC
  5
28A
330
209
100
AcDbEntity
  8
7_ALL_FEATURES
  6
Continuous
 62
     7
100
AcDbCircle
 10
80.91306
 20
144.225823
 30
0.0
 40
42.5
100
AcDbArc
 50
180.0
 51
360.0
  0
ARC
  5
28B
330
209
100
AcDbEntity
  8
7_ALL_FEATURES
  6
Continuous
 62
     7
100
AcDbCircle
 10
80.91306
 20
144.225823
 30
0.0
 40
42.5
100
AcDbArc
 50
0.0
 51
180.0
  0
ARC
  5
28C
330
209
100
AcDbEntity
  8
7_ALL_FEATURES
  6
Continuous
 62
     7
100
AcDbCircle
 10
80.91306
 20
144.225823
 30
0.0
 40
17.5
100
AcDbArc
 50
180.0
 51
360.0
  0
ARC
  5
28D
330
209
100
AcDbEntity
  8
7_ALL_FEATURES
  6
Continuous
 62
     7
100
AcDbCircle
 10
80.91306
 20
144.225823
 30
0.0
 40
17.5
100
AcDbArc
 50
0.0
 51
180.0
  0
ARC
  5
28E
330
209
100
AcDbEntity
  8
7_ALL_FEATURES
  6
Continuous
 62
     9
100
AcDbCircle
 10
80.91306
 20
144.225823
 30
0.0
 40
42.410453766
100
AcDbArc
 50
180.0
 51
360.0
  0
ARC
  5
28F
330
209
100
AcDbEntity
  8
7_ALL_FEATURES
  6
Continuous
 62
     9
100
AcDbCircle
 10
80.91306
 20
144.225823
 30
0.0
 40
42.410453766
100
AcDbArc
 50
0.0
 51
180.0
  0
ARC
  5
290
330
209
100
AcDbEntity
  8
7_ALL_FEATURES
  6
Continuous
 62
     9
100
AcDbCircle
 10
80.91306
 20
144.225823
 30
0.0
 40
18.0464134305
100
AcDbArc
 50
180.0
 51
360.0
  0
ARC
  5
291
330
209
100
AcDbEntity
  8
7_ALL_FEATURES
  6
Continuous
 62
     9
100
AcDbCircle
 10
80.91306
 20
144.225823
 30
0.0
 40
37.0782628522
100
AcDbArc
 50
180.0
 51
360.0
  0
ARC
  5
292
330
209
100
AcDbEntity
  8
7_ALL_FEATURES
  6
Continuous
 62
     9
100
AcDbCircle
 10
80.91306
 20
144.225823
 30
0.0
 40
17.512181351
100
AcDbArc
 50
180.0
 51
360.0
  0
ARC
  5
293
330
209
100
AcDbEntity
  8
7_ALL_FEATURES
  6
Continuous
 62
     9
100
AcDbCircle
 10
80.91306
 20
144.225823
 30
0.0
 40
41.6607107723
100
AcDbArc
 50
0.0
 51
180.0
  0
ARC
  5
294
330
209
100
AcDbEntity
  8
7_ALL_FEATURES
  6
Continuous
 62
     9
100
AcDbCircle
 10
80.91306
 20
144.225823
 30
0.0
 40
41.6607107723
100
AcDbArc
 50
180.0
 51
360.0
  0
ARC
  5
295
330
209
100
AcDbEntity
  8
7_ALL_FEATURES
  6
Continuous
 62
     9
100
AcDbCircle
 10
80.91306
 20
144.225823
 30
0.0
 40
37.9403065089
100
AcDbArc
 50
0.0
 51
180.0
  0
ARC
  5
296
330
209
100
AcDbEntity
  8
7_ALL_FEATURES
  6
Continuous
 62
     9
100
AcDbCircle
 10
80.91306
 20
144.225823
 30
0.0
 40
37.9403065089
100
AcDbArc
 50
180.0
 51
360.0
  0
ARC
  5
297
330
209
100
AcDbEntity
  8
7_ALL_FEATURES
  6
Continuous
 62
     9
100
AcDbCircle
 10
80.91306
 20
144.225823
 30
0.0
 40
18.0464134305
100
AcDbArc
 50
0.0
 51
180.0
  0
ARC
  5
298
330
209
100
AcDbEntity
  8
7_ALL_FEATURES
  6
Continuous
 62
     9
100
AcDbCircle
 10
80.91306
 20
144.225823
 30
0.0
 40
37.0782628522
100
AcDbArc
 50
0.0
 51
180.0
  0
ARC
  5
299
330
209
100
AcDbEntity
  8
7_ALL_FEATURES
  6
Continuous
 62
     9
100
AcDbCircle
 10
80.91306
 20
144.225823
 30
0.0
 40
17.512181351
100
AcDbArc
 50
0.0
 51
180.0
  0
LINE
  5
29A
330
209
100
AcDbEntity
  8
7_ALL_FEATURES
  6
Continuous
 62
     7
100
AcDbLine
 10
56.081389
 20
81.126576
 30
0.0
 11
56.569564
 21
81.126576
 31
0.0
  0
LINE
  5
29B
330
209
100
AcDbEntity
  8
7_ALL_FEATURES
  6
Continuous
 62
     7
100
AcDbLine
 10
56.569564
 20
81.126576
 30
0.0
 11
56.983382
 21
81.126576
 31
0.0
  0
LINE
  5
29C
330
209
100
AcDbEntity
  8
7_ALL_FEATURES
  6
Continuous
 62
     7
100
AcDbLine
 10
56.983382
 20
81.126576
 30
0.0
 11
57.056885
 21
81.126576
 31
0.0
  0
LINE
  5
29D
330
209
100
AcDbEntity
  8
7_ALL_FEATURES
  6
Continuous
 62
     7
100
AcDbLine
 10
57.056885
 20
81.126576
 30
0.0
 11
57.137091
 21
81.126576
 31
0.0
  0
LINE
  5
29E
330
209
100
AcDbEntity
  8
7_ALL_FEATURES
  6
Continuous
 62
     7
100
AcDbLine
 10
57.137091
 20
81.126576
 30
0.0
 11
61.098834
 21
81.126576
 31
0.0
  0
LINE
  5
29F
330
209
100
AcDbEntity
  8
7_ALL_FEATURES
  6
Continuous
 62
     7
100
AcDbLine
 10
61.098834
 20
81.126576
 30
0.0
 11
61.482123
 21
81.126576
 31
0.0
  0
LINE
  5
2A0
330
209
100
AcDbEntity
  8
7_ALL_FEATURES
  6
Continuous
 62
     7
100
AcDbLine
 10
61.482123
 20
81.126576
 30
0.0
 11
94.889041
 21
81.126576
 31
0.0
  0
LINE
  5
2A1
330
209
100
AcDbEntity
  8
7_ALL_FEATURES
  6
Continuous
 62
     7
100
AcDbLine
 10
94.889041
 20
81.126576
 30
0.0
 11
94.911073
 21
81.126576
 31
0.0
  0
LINE
  5
2A2
330
209
100
AcDbEntity
  8
7_ALL_FEATURES
  6
Continuous
 62
     7
100
AcDbLine
 10
94.911073
 20
81.126576
 30
0.0
 11
95.141741
 21
81.126576
 31
0.0
  0
LINE
  5
2A3
330
209
100
AcDbEntity
  8
7_ALL_FEATURES
  6
Continuous
 62
     7
100
AcDbLine
 10
95.141741
 20
81.126576
 30
0.0
 11
95.265408
 21
81.126576
 31
0.0
  0
LINE
  5
2A4
330
209
100
AcDbEntity
  8
7_ALL_FEATURES
  6
Continuous
 62
     7
100
AcDbLine
 10
95.265408
 20
81.126576
 30
0.0
 11
95.279994
 21
81.126576
 31
0.0
  0
LINE
  5
2A5
330
209
100
AcDbEntity
  8
7_ALL_FEATURES
  6
Continuous
 62
     7
100
AcDbLine
 10
95.279994
 20
81.126576
 30
0.0
 11
98.122315
 21
81.126576
 31
0.0
  0
LINE
  5
2A6
330
209
100
AcDbEntity
  8
7_ALL_FEATURES
  6
Continuous
 62
     7
100
AcDbLine
 10
98.122315
 20
81.126576
 30
0.0
 11
98.240176
 21
81.126576
 31
0.0
  0
LINE
  5
2A7
330
209
100
AcDbEntity
  8
7_ALL_FEATURES
  6
Continuous
 62
     7
100
AcDbLine
 10
98.240176
 20
81.126576
 30
0.0
 11
98.340511
 21
81.126576
 31
0.0
  0
LINE
  5
2A8
330
209
100
AcDbEntity
  8
7_ALL_FEATURES
  6
Continuous
 62
     7
100
AcDbLine
 10
98.340511
 20
81.126576
 30
0.0
 11
98.859125
 21
81.126576
 31
0.0
  0
LINE
  5
2A9
330
209
100
AcDbEntity
  8
7_ALL_FEATURES
  6
Continuous
 62
     7
100
AcDbLine
 10
98.859125
 20
81.126576
 30
0.0
 11
99.268234
 21
81.126576
 31
0.0
  0
LINE
  5
2AA
330
209
100
AcDbEntity
  8
7_ALL_FEATURES
  6
Continuous
 62
     7
100
AcDbLine
 10
56.081389
 20
81.126576
 30
0.0
 11
55.756879
 21
81.126576
 31
0.0
  0
LINE
  5
2AB
330
209
100
AcDbEntity
  8
7_ALL_FEATURES
  6
Continuous
 62
     7
100
AcDbLine
 10
55.756879
 20
81.126576
 30
0.0
 11
55.589084
 21
81.126576
 31
0.0
  0
LINE
  5
2AC
330
209
100
AcDbEntity
  8
7_ALL_FEATURES
  6
Continuous
 62
     7
100
AcDbLine
 10
55.589084
 20
81.126576
 30
0.0
 11
53.832436
 21
81.126576
 31
0.0
  0
LINE
  5
2AD
330
209
100
AcDbEntity
  8
7_ALL_FEATURES
  6
Continuous
 62
     7
100
AcDbLine
 10
53.832436
 20
81.126576
 30
0.0
 11
53.601563
 21
81.126576
 31
0.0
  0
LINE
  5
2AE
330
209
100
AcDbEntity
  8
7_ALL_FEATURES
  6
Continuous
 62
     7
100
AcDbLine
 10
53.601563
 20
81.126576
 30
0.0
 11
53.520748
 21
81.126576
 31
0.0
  0
LINE
  5
2AF
330
209
100
AcDbEntity
  8
7_ALL_FEATURES
  6
Continuous
 62
     7
100
AcDbLine
 10
53.520748
 20
81.126576
 30
0.0
 11
53.493584
 21
81.126576
 31
0.0
  0
LINE
  5
2B0
330
209
100
AcDbEntity
  8
7_ALL_FEATURES
  6
Continuous
 62
     7
100
AcDbLine
 10
53.493584
 20
81.126576
 30
0.0
 11
53.473297
 21
81.126576
 31
0.0
  0
LINE
  5
2B1
330
209
100
AcDbEntity
  8
7_ALL_FEATURES
  6
Continuous
 62
     7
100
AcDbLine
 10
102.531089
 20
81.126576
 30
0.0
 11
102.667166
 21
81.126576
 31
0.0
  0
LINE
  5
2B2
330
209
100
AcDbEntity
  8
7_ALL_FEATURES
  6
Continuous
 62
     7
100
AcDbLine
 10
102.531089
 20
81.126576
 30
0.0
 11
102.425951
 21
81.126576
 31
0.0
  0
LINE
  5
2B3
330
209
100
AcDbEntity
  8
7_ALL_FEATURES
  6
Continuous
 62
     7
100
AcDbLine
 10
102.425951
 20
81.126576
 30
0.0
 11
102.402462
 21
81.126576
 31
0.0
  0
LINE
  5
2B4
330
209
100
AcDbEntity
  8
7_ALL_FEATURES
  6
Continuous
 62
     7
100
AcDbLine
 10
99.812275
 20
81.126576
 30
0.0
 11
102.402462
 21
81.126576
 31
0.0
  0
LINE
  5
2B5
330
209
100
AcDbEntity
  8
7_ALL_FEATURES
  6
Continuous
 62
     7
100
AcDbLine
 10
99.812275
 20
81.126576
 30
0.0
 11
99.616906
 21
81.126576
 31
0.0
  0
LINE
  5
2B6
330
209
100
AcDbEntity
  8
7_ALL_FEATURES
  6
Continuous
 62
     7
100
AcDbLine
 10
99.268234
 20
81.126576
 30
0.0
 11
99.616906
 21
81.126576
 31
0.0
  0
ARC
  5
2B7
330
209
100
AcDbEntity
  8
6_ALL_SURFS
  6
Continuous
 62
     7
100
AcDbCircle
 10
47.900138
 20
80.626576
 30
0.0
 40
0.5
100
AcDbArc
 50
90.0
 51
178.5
  0
LINE
  5
2B8
330
209
100
AcDbEntity
  8
7_ALL_FEATURES
  6
Continuous
 62
     7
100
AcDbLine
 10
113.925576
 20
81.126576
 30
0.0
 11
113.399785
 21
81.126576
 31
0.0
  0
LINE
  5
2B9
330
209
100
AcDbEntity
  8
7_ALL_FEATURES
  6
Continuous
 62
     7
100
AcDbLine
 10
113.399785
 20
81.126576
 30
0.0
 11
113.326101
 21
81.126576
 31
0.0
  0
LINE
  5
2BA
330
209
100
AcDbEntity
  8
7_ALL_FEATURES
  6
Continuous
 62
     7
100
AcDbLine
 10
113.326101
 20
81.126576
 30
0.0
 11
113.19523
 21
81.126576
 31
0.0
  0
LINE
  5
2BB
330
209
100
AcDbEntity
  8
7_ALL_FEATURES
  6
Continuous
 62
     7
100
AcDbLine
 10
113.19523
 20
81.126576
 30
0.0
 11
108.352822
 21
81.126576
 31
0.0
  0
LINE
  5
2BC
330
209
100
AcDbEntity
  8
7_ALL_FEATURES
  6
Continuous
 62
     7
100
AcDbLine
 10
108.352822
 20
81.126576
 30
0.0
 11
108.330102
 21
81.126576
 31
0.0
  0
LINE
  5
2BD
330
209
100
AcDbEntity
  8
7_ALL_FEATURES
  6
Continuous
 62
     7
100
AcDbLine
 10
108.330102
 20
81.126576
 30
0.0
 11
102.994666
 21
81.126576
 31
0.0
  0
LINE
  5
2BE
330
209
100
AcDbEntity
  8
7_ALL_FEATURES
  6
Continuous
 62
     7
100
AcDbLine
 10
102.994666
 20
81.126576
 30
0.0
 11
102.978505
 21
81.126576
 31
0.0
  0
LINE
  5
2BF
330
209
100
AcDbEntity
  8
7_ALL_FEATURES
  6
Continuous
 62
     7
100
AcDbLine
 10
102.978505
 20
81.126576
 30
0.0
 11
102.909738
 21
81.126576
 31
0.0
  0
LINE
  5
2C0
330
209
100
AcDbEntity
  8
7_ALL_FEATURES
  6
Continuous
 62
     7
100
AcDbLine
 10
102.909738
 20
81.126576
 30
0.0
 11
102.886932
 21
81.126576
 31
0.0
  0
LINE
  5
2C1
330
209
100
AcDbEntity
  8
7_ALL_FEATURES
  6
Continuous
 62
     7
100
AcDbLine
 10
102.886932
 20
81.126576
 30
0.0
 11
102.667166
 21
81.126576
 31
0.0
  0
ARC
  5
2C2
330
209
100
AcDbEntity
  8
6_ALL_SURFS
  6
Continuous
 62
     7
100
AcDbCircle
 10
113.925981
 20
80.626576
 30
0.0
 40
0.5
100
AcDbArc
 50
1.5
 51
90.0
  0
LINE
  5
2C3
330
209
100
AcDbEntity
  8
7_ALL_FEATURES
  6
Continuous
 62
     7
100
AcDbLine
 10
53.473297
 20
81.126576
 30
0.0
 11
53.420293
 21
81.126576
 31
0.0
  0
LINE
  5
2C4
330
209
100
AcDbEntity
  8
7_ALL_FEATURES
  6
Continuous
 62
     7
100
AcDbLine
 10
53.420293
 20
81.126576
 30
0.0
 11
48.500019
 21
81.126576
 31
0.0
  0
LINE
  5
2C5
330
209
100
AcDbEntity
  8
7_ALL_FEATURES
  6
Continuous
 62
     7
100
AcDbLine
 10
48.500019
 20
81.126576
 30
0.0
 11
48.426334
 21
81.126576
 31
0.0
  0
LINE
  5
2C6
330
209
100
AcDbEntity
  8
7_ALL_FEATURES
  6
Continuous
 62
     7
100
AcDbLine
 10
48.426334
 20
81.126576
 30
0.0
 11
47.900546
 21
81.126576
 31
0.0
  0
LINE
  5
2C7
330
209
100
AcDbEntity
  8
6_ALL_SURFS
  6
Continuous
 62
     7
100
AcDbLine
 10
47.923042
 20
81.126576
 30
0.0
 11
48.426334
 21
81.126576
 31
0.0
  0
LINE
  5
2C8
330
209
100
AcDbEntity
  8
6_ALL_SURFS
  6
Continuous
 62
     7
100
AcDbLine
 10
48.426334
 20
81.126576
 30
0.0
 11
48.500019
 21
81.126576
 31
0.0
  0
LINE
  5
2C9
330
209
100
AcDbEntity
  8
6_ALL_SURFS
  6
Continuous
 62
     7
100
AcDbLine
 10
48.500019
 20
81.126576
 30
0.0
 11
53.420293
 21
81.126576
 31
0.0
  0
LINE
  5
2CA
330
209
100
AcDbEntity
  8
6_ALL_SURFS
  6
Continuous
 62
     7
100
AcDbLine
 10
53.420293
 20
81.126576
 30
0.0
 11
53.473297
 21
81.126576
 31
0.0
  0
LINE
  5
2CB
330
209
100
AcDbEntity
  8
6_ALL_SURFS
  6
Continuous
 62
     7
100
AcDbLine
 10
102.667166
 20
81.126576
 30
0.0
 11
102.886932
 21
81.126576
 31
0.0
  0
LINE
  5
2CC
330
209
100
AcDbEntity
  8
6_ALL_SURFS
  6
Continuous
 62
     7
100
AcDbLine
 10
102.886932
 20
81.126576
 30
0.0
 11
102.909738
 21
81.126576
 31
0.0
  0
LINE
  5
2CD
330
209
100
AcDbEntity
  8
6_ALL_SURFS
  6
Continuous
 62
     7
100
AcDbLine
 10
102.909738
 20
81.126576
 30
0.0
 11
102.978505
 21
81.126576
 31
0.0
  0
LINE
  5
2CE
330
209
100
AcDbEntity
  8
6_ALL_SURFS
  6
Continuous
 62
     7
100
AcDbLine
 10
102.978505
 20
81.126576
 30
0.0
 11
102.994666
 21
81.126576
 31
0.0
  0
LINE
  5
2CF
330
209
100
AcDbEntity
  8
6_ALL_SURFS
  6
Continuous
 62
     7
100
AcDbLine
 10
102.994666
 20
81.126576
 30
0.0
 11
108.330102
 21
81.126576
 31
0.0
  0
LINE
  5
2D0
330
209
100
AcDbEntity
  8
6_ALL_SURFS
  6
Continuous
 62
     7
100
AcDbLine
 10
108.330102
 20
81.126576
 30
0.0
 11
113.326101
 21
81.126576
 31
0.0
  0
LINE
  5
2D1
330
209
100
AcDbEntity
  8
6_ALL_SURFS
  6
Continuous
 62
     7
100
AcDbLine
 10
113.326101
 20
81.126576
 30
0.0
 11
113.399785
 21
81.126576
 31
0.0
  0
LINE
  5
2D2
330
209
100
AcDbEntity
  8
6_ALL_SURFS
  6
Continuous
 62
     7
100
AcDbLine
 10
113.399785
 20
81.126576
 30
0.0
 11
113.925116
 21
81.126576
 31
0.0
  0
LINE
  5
2D3
330
209
100
AcDbEntity
  8
6_ALL_SURFS
  6
Continuous
 62
     7
100
AcDbLine
 10
47.305697
 20
77.026576
 30
0.0
 11
47.400309
 21
80.639665
 31
0.0
  0
LINE
  5
2D4
330
209
100
AcDbEntity
  8
6_ALL_SURFS
  6
Continuous
 62
     7
100
AcDbLine
 10
114.520422
 20
77.026576
 30
0.0
 11
114.42581
 21
80.639665
 31
0.0
  0
LINE
  5
2D5
330
209
100
AcDbEntity
  8
7_ALL_FEATURES
  6
Continuous
 62
     7
100
AcDbLine
 10
59.465603
 20
82.376576
 30
0.0
 11
59.860655
 21
82.376576
 31
0.0
  0
LINE
  5
2D6
330
209
100
AcDbEntity
  8
7_ALL_FEATURES
  6
Continuous
 62
     7
100
AcDbLine
 10
59.860655
 20
82.376576
 30
0.0
 11
60.248543
 21
82.376576
 31
0.0
  0
LINE
  5
2D7
330
209
100
AcDbEntity
  8
7_ALL_FEATURES
  6
Continuous
 62
     7
100
AcDbLine
 10
60.248543
 20
82.376576
 30
0.0
 11
60.514101
 21
82.376576
 31
0.0
  0
LINE
  5
2D8
330
209
100
AcDbEntity
  8
7_ALL_FEATURES
  6
Continuous
 62
     7
100
AcDbLine
 10
60.514101
 20
82.376576
 30
0.0
 11
77.263308
 21
82.376576
 31
0.0
  0
LINE
  5
2D9
330
209
100
AcDbEntity
  8
7_ALL_FEATURES
  6
Continuous
 62
     7
100
AcDbLine
 10
77.263308
 20
82.376576
 30
0.0
 11
78.000976
 21
82.376576
 31
0.0
  0
LINE
  5
2DA
330
209
100
AcDbEntity
  8
7_ALL_FEATURES
  6
Continuous
 62
     7
100
AcDbLine
 10
78.000976
 20
82.376576
 30
0.0
 11
78.083391
 21
82.376576
 31
0.0
  0
LINE
  5
2DB
330
209
100
AcDbEntity
  8
7_ALL_FEATURES
  6
Continuous
 62
     7
100
AcDbLine
 10
78.083391
 20
82.376576
 30
0.0
 11
78.52935
 21
82.376576
 31
0.0
  0
LINE
  5
2DC
330
209
100
AcDbEntity
  8
7_ALL_FEATURES
  6
Continuous
 62
     7
100
AcDbLine
 10
78.52935
 20
82.376576
 30
0.0
 11
78.624088
 21
82.376576
 31
0.0
  0
LINE
  5
2DD
330
209
100
AcDbEntity
  8
7_ALL_FEATURES
  6
Continuous
 62
     7
100
AcDbLine
 10
78.624088
 20
82.376576
 30
0.0
 11
79.072157
 21
82.376576
 31
0.0
  0
LINE
  5
2DE
330
209
100
AcDbEntity
  8
7_ALL_FEATURES
  6
Continuous
 62
     7
100
AcDbLine
 10
79.072157
 20
82.376576
 30
0.0
 11
101.914769
 21
82.376576
 31
0.0
  0
LINE
  5
2DF
330
209
100
AcDbEntity
  8
7_ALL_FEATURES
  6
Continuous
 62
     7
100
AcDbLine
 10
101.914769
 20
82.376576
 30
0.0
 11
101.965297
 21
82.376576
 31
0.0
  0
LINE
  5
2E0
330
209
100
AcDbEntity
  8
7_ALL_FEATURES
  6
Continuous
 62
     7
100
AcDbLine
 10
101.965297
 20
82.376576
 30
0.0
 11
102.360516
 21
82.376576
 31
0.0
  0
LINE
  5
2E1
330
209
100
AcDbEntity
  8
7_ALL_FEATURES
  6
Continuous
 62
     7
100
AcDbLine
 10
39.252349
 20
72.876576
 30
0.0
 11
42.972753
 21
72.876576
 31
0.0
  0
LINE
  5
2E2
330
209
100
AcDbEntity
  8
7_ALL_FEATURES
  6
Continuous
 62
     7
100
AcDbLine
 10
42.972753
 20
72.876576
 30
0.0
 11
118.853366
 21
72.876576
 31
0.0
  0
LINE
  5
2E3
330
209
100
AcDbEntity
  8
7_ALL_FEATURES
  6
Continuous
 62
     7
100
AcDbLine
 10
118.853366
 20
72.876576
 30
0.0
 11
122.57377
 21
72.876576
 31
0.0
  0
ARC
  5
2E4
330
209
100
AcDbEntity
  8
7_ALL_FEATURES
  6
Continuous
 62
     7
100
AcDbCircle
 10
59.465603
 20
81.876576
 30
0.0
 40
0.5
100
AcDbArc
 50
90.0
 51
178.5
  0
ARC
  5
2E5
330
209
100
AcDbEntity
  8
7_ALL_FEATURES
  6
Continuous
 62
     7
100
AcDbCircle
 10
102.360516
 20
81.876576
 30
0.0
 40
0.5
100
AcDbArc
 50
1.5
 51
90.0
  0
LINE
  5
2E6
330
209
100
AcDbEntity
  8
7_ALL_FEATURES
  6
Continuous
 62
     7
100
AcDbLine
 10
58.945792
 20
81.126576
 30
0.0
 11
58.965774
 21
81.889665
 31
0.0
  0
LINE
  5
2E7
330
209
100
AcDbEntity
  8
7_ALL_FEATURES
  6
Continuous
 62
     7
100
AcDbLine
 10
102.880332
 20
81.126403
 30
0.0
 11
102.860345
 21
81.889665
 31
0.0
  0
LINE
  5
2E8
330
209
100
AcDbEntity
  8
7_ALL_FEATURES
  6
Continuous
 62
     7
100
AcDbLine
 10
38.41306
 20
77.026576
 30
0.0
 11
39.425981
 21
77.026576
 31
0.0
  0
LINE
  5
2E9
330
209
100
AcDbEntity
  8
7_ALL_FEATURES
  6
Continuous
 62
     7
100
AcDbLine
 10
39.425981
 20
77.026576
 30
0.0
 11
49.969864
 21
77.026576
 31
0.0
  0
LINE
  5
2EA
330
209
100
AcDbEntity
  8
7_ALL_FEATURES
  6
Continuous
 62
     7
100
AcDbLine
 10
49.969864
 20
77.026576
 30
0.0
 11
53.559305
 21
77.026576
 31
0.0
  0
LINE
  5
2EB
330
209
100
AcDbEntity
  8
7_ALL_FEATURES
  6
Continuous
 62
     7
100
AcDbLine
 10
53.559305
 20
77.026576
 30
0.0
 11
53.666553
 21
77.026576
 31
0.0
  0
LINE
  5
2EC
330
209
100
AcDbEntity
  8
7_ALL_FEATURES
  6
Continuous
 62
     7
100
AcDbLine
 10
53.666553
 20
77.026576
 30
0.0
 11
54.434393
 21
77.026576
 31
0.0
  0
LINE
  5
2ED
330
209
100
AcDbEntity
  8
7_ALL_FEATURES
  6
Continuous
 62
     7
100
AcDbLine
 10
54.434393
 20
77.026576
 30
0.0
 11
56.264393
 21
77.026576
 31
0.0
  0
LINE
  5
2EE
330
209
100
AcDbEntity
  8
7_ALL_FEATURES
  6
Continuous
 62
     7
100
AcDbLine
 10
56.264393
 20
77.026576
 30
0.0
 11
56.331062
 21
77.026576
 31
0.0
  0
LINE
  5
2EF
330
209
100
AcDbEntity
  8
7_ALL_FEATURES
  6
Continuous
 62
     7
100
AcDbLine
 10
56.331062
 20
77.026576
 30
0.0
 11
56.387023
 21
77.026576
 31
0.0
  0
LINE
  5
2F0
330
209
100
AcDbEntity
  8
7_ALL_FEATURES
  6
Continuous
 62
     7
100
AcDbLine
 10
56.387023
 20
77.026576
 30
0.0
 11
56.401798
 21
77.026576
 31
0.0
  0
LINE
  5
2F1
330
209
100
AcDbEntity
  8
7_ALL_FEATURES
  6
Continuous
 62
     7
100
AcDbLine
 10
56.401798
 20
77.026576
 30
0.0
 11
56.644457
 21
77.026576
 31
0.0
  0
LINE
  5
2F2
330
209
100
AcDbEntity
  8
7_ALL_FEATURES
  6
Continuous
 62
     7
100
AcDbLine
 10
56.644457
 20
77.026576
 30
0.0
 11
56.928376
 21
77.026576
 31
0.0
  0
LINE
  5
2F3
330
209
100
AcDbEntity
  8
7_ALL_FEATURES
  6
Continuous
 62
     7
100
AcDbLine
 10
56.928376
 20
77.026576
 30
0.0
 11
56.94646
 21
77.026576
 31
0.0
  0
LINE
  5
2F4
330
209
100
AcDbEntity
  8
7_ALL_FEATURES
  6
Continuous
 62
     7
100
AcDbLine
 10
56.94646
 20
77.026576
 30
0.0
 11
56.998444
 21
77.026576
 31
0.0
  0
LINE
  5
2F5
330
209
100
AcDbEntity
  8
7_ALL_FEATURES
  6
Continuous
 62
     7
100
AcDbLine
 10
56.998444
 20
77.026576
 30
0.0
 11
59.860693
 21
77.026576
 31
0.0
  0
LINE
  5
2F6
330
209
100
AcDbEntity
  8
7_ALL_FEATURES
  6
Continuous
 62
     7
100
AcDbLine
 10
59.860693
 20
77.026576
 30
0.0
 11
95.148679
 21
77.026576
 31
0.0
  0
LINE
  5
2F7
330
209
100
AcDbEntity
  8
7_ALL_FEATURES
  6
Continuous
 62
     7
100
AcDbLine
 10
95.148679
 20
77.026576
 30
0.0
 11
95.378656
 21
77.026576
 31
0.0
  0
LINE
  5
2F8
330
209
100
AcDbEntity
  8
7_ALL_FEATURES
  6
Continuous
 62
     7
100
AcDbLine
 10
95.378656
 20
77.026576
 30
0.0
 11
99.060661
 21
77.026576
 31
0.0
  0
LINE
  5
2F9
330
209
100
AcDbEntity
  8
7_ALL_FEATURES
  6
Continuous
 62
     7
100
AcDbLine
 10
99.060661
 20
77.026576
 30
0.0
 11
99.084565
 21
77.026576
 31
0.0
  0
LINE
  5
2FA
330
209
100
AcDbEntity
  8
7_ALL_FEATURES
  6
Continuous
 62
     7
100
AcDbLine
 10
99.084565
 20
77.026576
 30
0.0
 11
99.137826
 21
77.026576
 31
0.0
  0
LINE
  5
2FB
330
209
100
AcDbEntity
  8
7_ALL_FEATURES
  6
Continuous
 62
     7
100
AcDbLine
 10
99.137826
 20
77.026576
 30
0.0
 11
99.256281
 21
77.026576
 31
0.0
  0
LINE
  5
2FC
330
209
100
AcDbEntity
  8
7_ALL_FEATURES
  6
Continuous
 62
     7
100
AcDbLine
 10
99.256281
 20
77.026576
 30
0.0
 11
99.45298
 21
77.026576
 31
0.0
  0
LINE
  5
2FD
330
209
100
AcDbEntity
  8
7_ALL_FEATURES
  6
Continuous
 62
     7
100
AcDbLine
 10
99.45298
 20
77.026576
 30
0.0
 11
99.514847
 21
77.026576
 31
0.0
  0
LINE
  5
2FE
330
209
100
AcDbEntity
  8
7_ALL_FEATURES
  6
Continuous
 62
     7
100
AcDbLine
 10
99.514847
 20
77.026576
 30
0.0
 11
99.954314
 21
77.026576
 31
0.0
  0
LINE
  5
2FF
330
209
100
AcDbEntity
  8
7_ALL_FEATURES
  6
Continuous
 62
     7
100
AcDbLine
 10
99.954314
 20
77.026576
 30
0.0
 11
100.005992
 21
77.026576
 31
0.0
  0
LINE
  5
300
330
209
100
AcDbEntity
  8
7_ALL_FEATURES
  6
Continuous
 62
     7
100
AcDbLine
 10
100.005992
 20
77.026576
 30
0.0
 11
101.947328
 21
77.026576
 31
0.0
  0
LINE
  5
301
330
209
100
AcDbEntity
  8
7_ALL_FEATURES
  6
Continuous
 62
     7
100
AcDbLine
 10
101.947328
 20
77.026576
 30
0.0
 11
103.340352
 21
77.026576
 31
0.0
  0
LINE
  5
302
330
209
100
AcDbEntity
  8
7_ALL_FEATURES
  6
Continuous
 62
     7
100
AcDbLine
 10
103.340352
 20
77.026576
 30
0.0
 11
103.590786
 21
77.026576
 31
0.0
  0
LINE
  5
303
330
209
100
AcDbEntity
  8
7_ALL_FEATURES
  6
Continuous
 62
     7
100
AcDbLine
 10
103.590786
 20
77.026576
 30
0.0
 11
111.856255
 21
77.026576
 31
0.0
  0
LINE
  5
304
330
209
100
AcDbEntity
  8
7_ALL_FEATURES
  6
Continuous
 62
     7
100
AcDbLine
 10
111.856255
 20
77.026576
 30
0.0
 11
122.400138
 21
77.026576
 31
0.0
  0
LINE
  5
305
330
209
100
AcDbEntity
  8
7_ALL_FEATURES
  6
Continuous
 62
     7
100
AcDbLine
 10
122.400138
 20
77.026576
 30
0.0
 11
123.41306
 21
77.026576
 31
0.0
  0
LINE
  5
306
330
209
100
AcDbEntity
  8
7_ALL_FEATURES
  6
Continuous
 62
     7
100
AcDbLine
 10
123.323513
 20
73.606943
 30
0.0
 11
123.41306
 21
77.026576
 31
0.0
  0
LINE
  5
307
330
209
100
AcDbEntity
  8
7_ALL_FEATURES
  6
Continuous
 62
     7
100
AcDbLine
 10
38.502606
 20
73.606943
 30
0.0
 11
38.41306
 21
77.026576
 31
0.0
  0
SPLINE
  5
308
330
209
100
AcDbEntity
  8
7_ALL_FEATURES
  6
Continuous
 62
     7
100
AcDbSpline
 70
     0
 71
     3
 72
    13
 73
     9
 74
     0
 42
0.000000001
 43
0.0000001
 40
0.0
 40
0.0
 40
0.0
 40
0.0
 40
0.272253026
 40
0.3892728214
 40
0.5
 40
0.6107271786
 40
0.727746974
 40
1.0
 40
1.0
 40
1.0
 40
1.0
 10
38.5026057779
 20
73.6069434648
 30
0.0
 10
38.505433513
 20
73.4989566168
 30
0.0
 10
38.5261525315
 20
73.342119884
 30
0.0
 10
38.6111175692
 20
73.1612345814
 30
0.0
 10
38.6957484354
 20
73.0552099486
 30
0.0
 10
38.803952114
 20
72.9733834846
 30
0.0
 10
38.9869995571
 20
72.8931825876
 30
0.0
 10
39.1443249065
 20
72.876576176
 30
0.0
 10
39.2523487716
 20
72.876576176
 30
0.0
  0
SPLINE
  5
309
330
209
100
AcDbEntity
  8
7_ALL_FEATURES
  6
Continuous
 62
     7
100
AcDbSpline
 70
     0
 71
     3
 72
    13
 73
     9
 74
     0
 42
0.000000001
 43
0.0000001
 40
0.0
 40
0.0
 40
0.0
 40
0.0
 40
0.272253026
 40
0.3892728214
 40
0.5
 40
0.6107271786
 40
0.727746974
 40
1.0
 40
1.0
 40
1.0
 40
1.0
 10
123.3235133099
 20
73.6069434648
 30
0.0
 10
123.3206855748
 20
73.4989566168
 30
0.0
 10
123.2999665563
 20
73.342119884
 30
0.0
 10
123.2150015187
 20
73.1612345814
 30
0.0
 10
123.1303706524
 20
73.0552099486
 30
0.0
 10
123.0221669738
 20
72.9733834846
 30
0.0
 10
122.8391195307
 20
72.8931825876
 30
0.0
 10
122.6817941813
 20
72.876576176
 30
0.0
 10
122.5737703162
 20
72.876576176
 30
0.0
  0
LINE
  5
30A
330
209
100
AcDbEntity
  8
7_ALL_FEATURES
  6
Continuous
 62
     9
100
AcDbLine
 10
47.400309
 20
80.639665
 30
0.0
 11
52.868423
 21
80.639665
 31
0.0
  0
LINE
  5
30B
330
209
100
AcDbEntity
  8
7_ALL_FEATURES
  6
Continuous
 62
     9
100
AcDbLine
 10
58.965774
 20
81.889665
 30
0.0
 11
102.860345
 21
81.889665
 31
0.0
  0
SPLINE
  5
30C
330
209
100
AcDbEntity
  8
7_ALL_FEATURES
  6
Continuous
 62
     9
100
AcDbSpline
 70
     0
 71
     3
 72
     9
 73
     5
 74
     0
 42
0.000000001
 43
0.0000001
 40
0.0
 40
0.0
 40
0.0
 40
0.0
 40
0.3483503604
 40
1.0
 40
1.0
 40
1.0
 40
1.0
 10
52.8684231052
 20
80.63966465
 30
0.0
 10
52.8857868716
 20
80.6394901455
 30
0.0
 10
52.9356287666
 20
80.6391749286
 30
0.0
 10
52.9854996555
 20
80.638577967
 30
0.0
 10
53.0179650444
 20
80.6396646498
 30
0.0
  0
SPLINE
  5
30D
330
209
100
AcDbEntity
  8
7_ALL_FEATURES
  6
Continuous
 62
     9
100
AcDbSpline
 70
     0
 71
     3
 72
     9
 73
     5
 74
     0
 42
0.000000001
 43
0.0000001
 40
0.0
 40
0.0
 40
0.0
 40
0.0
 40
0.2200256833
 40
1.0
 40
1.0
 40
1.0
 40
1.0
 10
55.9329854699
 20
80.6396646499
 30
0.0
 10
55.9086828209
 20
80.6394641511
 30
0.0
 10
55.7982267372
 20
80.6388455961
 30
0.0
 10
55.6877671331
 20
80.6391440382
 30
0.0
 10
55.6016147318
 20
80.6396646498
 30
0.0
  0
ARC
  5
30E
330
209
100
AcDbEntity
  8
7_ALL_FEATURES
  6
Continuous
 62
     9
100
AcDbCircle
 10
55.375828
 20
38.317523
 30
0.0
 40
42.3224732649
100
AcDbArc
 50
89.772905
 51
90.227204
  0
SPLINE
  5
30F
330
209
100
AcDbEntity
  8
7_ALL_FEATURES
  6
Continuous
 62
     9
100
AcDbSpline
 70
     0
 71
     3
 72
     9
 73
     5
 74
     0
 42
0.000000001
 43
0.0000001
 40
0.0
 40
0.0
 40
0.0
 40
0.0
 40
0.151547743
 40
1.0
 40
1.0
 40
1.0
 40
1.0
 10
53.0289390977
 20
80.6396640391
 30
0.0
 10
53.0371029985
 20
80.639793341
 30
0.0
 10
53.0909797862
 20
80.6401630409
 30
0.0
 10
53.144857175
 20
80.6398904805
 30
0.0
 10
53.1905686026
 20
80.6396639519
 30
0.0
  0
SPLINE
  5
310
330
209
100
AcDbEntity
  8
7_ALL_FEATURES
  6
Continuous
 62
     9
100
AcDbSpline
 70
     0
 71
     3
 72
     9
 73
     5
 74
     0
 42
0.000000001
 43
0.0000001
 40
0.0
 40
0.0
 40
0.0
 40
0.0
 40
0.3006645934
 40
1.0
 40
1.0
 40
1.0
 40
1.0
 10
102.7258435681
 20
80.6396639487
 30
0.0
 10
102.7516253842
 20
80.6397593018
 30
0.0
 10
102.8373748085
 20
80.64000671
 30
0.0
 10
102.9231264199
 20
80.6400604309
 30
0.0
 10
102.9830931292
 20
80.639664041
 30
0.0
  0
ARC
  5
311
330
209
100
AcDbEntity
  8
7_ALL_FEATURES
  6
Continuous
 62
     9
100
AcDbCircle
 10
99.90126
 20
15.057692
 30
0.0
 40
65.5822633826
100
AcDbArc
 50
89.829275
 51
90.17063
  0
LINE
  5
312
330
209
100
AcDbEntity
  8
7_ALL_FEATURES
  6
Continuous
 62
     9
100
AcDbLine
 10
38.502606
 20
73.606943
 30
0.0
 11
123.323513
 21
73.606943
 31
0.0
  0
ARC
  5
313
330
209
100
AcDbEntity
  8
7_ALL_FEATURES
  6
Continuous
 62
     9
100
AcDbCircle
 10
53.473037
 20
80.354247
 30
0.0
 40
0.7723291909
100
AcDbArc
 50
89.980656
 51
96.90171
  0
SPLINE
  5
314
330
209
100
AcDbEntity
  8
7_ALL_FEATURES
  6
Continuous
 62
     9
100
AcDbSpline
 70
     0
 71
     3
 72
    11
 73
     7
 74
     0
 42
0.000000001
 43
0.0000001
 40
0.0
 40
0.0
 40
0.0
 40
0.0
 40
0.250394359
 40
0.500593985
 40
0.7504072892
 40
1.0
 40
1.0
 40
1.0
 40
1.0
 10
53.3802285509
 20
81.1209797348
 30
0.0
 10
53.3171356642
 20
81.1133065585
 30
0.0
 10
53.1921825115
 20
81.0817943203
 30
0.0
 10
53.0261525108
 20
80.9820576335
 30
0.0
 10
52.903821757
 20
80.8303481977
 30
0.0
 10
52.8703655128
 20
80.7029891526
 30
0.0
 10
52.8684231052
 20
80.6396646502
 30
0.0
  0
LINE
  5
315
330
209
100
AcDbEntity
  8
7_ALL_FEATURES
  6
Continuous
 62
     9
100
AcDbLine
 10
55.932985
 20
80.639665
 30
0.0
 11
58.824391
 21
80.639665
 31
0.0
  0
LINE
  5
316
330
209
100
AcDbEntity
  8
7_ALL_FEATURES
  6
Continuous
 62
     9
100
AcDbLine
 10
58.824391
 20
80.639665
 30
0.0
 11
94.38921
 21
80.639665
 31
0.0
  0
LINE
  5
317
330
209
100
AcDbEntity
  8
7_ALL_FEATURES
  6
Continuous
 62
     9
100
AcDbLine
 10
94.38921
 20
80.639665
 30
0.0
 11
96.370271
 21
80.639665
 31
0.0
  0
LINE
  5
318
330
209
100
AcDbEntity
  8
7_ALL_FEATURES
  6
Continuous
 62
     9
100
AcDbLine
 10
96.370271
 20
80.639665
 30
0.0
 11
99.443252
 21
80.639665
 31
0.0
  0
SPLINE
  5
319
330
209
100
AcDbEntity
  8
6_ALL_SURFS
  6
Continuous
 62
     7
100
AcDbSpline
 70
     0
 71
     3
 72
    14
 73
    10
 74
     0
 42
0.000000001
 43
0.0000001
 40
0.0
 40
0.0
 40
0.0
 40
0.0
 40
0.0618434123
 40
0.1378782645
 40
0.2347891502
 40
0.3539469115
 40
0.4940971659
 40
0.6519156609
 40
1.0
 40
1.0
 40
1.0
 40
1.0
 10
99.2682343452
 20
81.126576176
 30
0.0
 10
99.2795075246
 20
81.126576176
 30
0.0
 10
99.3047092226
 20
81.1186201032
 30
0.0
 10
99.3367303687
 20
81.0891157996
 30
0.0
 10
99.3657619893
 20
81.044082484
 30
0.0
 10
99.3915209985
 20
80.9842494911
 30
0.0
 10
99.4130908862
 20
80.9111914235
 30
0.0
 10
99.435810193
 20
80.7955232978
 30
0.0
 10
99.442661339
 20
80.7031127554
 30
0.0
 10
99.4432517424
 20
80.6396646502
 30
0.0
  0
SPLINE
  5
31A
330
209
100
AcDbEntity
  8
7_ALL_FEATURES
  6
Continuous
 62
     9
100
AcDbSpline
 70
     0
 71
     3
 72
    12
 73
     8
 74
     0
 42
0.000000001
 43
0.0000001
 40
0.0
 40
0.0
 40
0.0
 40
0.0
 40
0.3885053518
 40
0.6966325473
 40
0.8101222989
 40
0.8964016213
 40
1.0
 40
1.0
 40
1.0
 40
1.0
 10
55.9329854699
 20
80.6396646502
 30
0.0
 10
55.9335942996
 20
80.7080986345
 30
0.0
 10
55.9431834421
 20
80.8310022587
 30
0.0
 10
55.9741152052
 20
80.9706379185
 30
0.0
 10
56.0086493003
 20
81.0543220282
 30
0.0
 10
56.03462831
 20
81.0991388178
 30
0.0
 10
56.0631398692
 20
81.1265646783
 30
0.0
 10
56.0813891132
 20
81.126576176
 30
0.0
  0
SPLINE
  5
31B
330
209
100
AcDbEntity
  8
6_ALL_SURFS
  6
Continuous
 62
     7
100
AcDbSpline
 70
     0
 71
     3
 72
    11
 73
     7
 74
     0
 42
0.000000001
 43
0.0000001
 40
0.0
 40
0.0
 40
0.0
 40
0.0
 40
0.2725707792
 40
0.5315044569
 40
0.7719712745
 40
1.0
 40
1.0
 40
1.0
 40
1.0
 10
103.0893744038
 20
80.6396646502
 30
0.0
 10
103.0879595889
 20
80.7040233963
 30
0.0
 10
103.0647266722
 20
80.830135728
 30
0.0
 10
102.9717865757
 20
80.9914245514
 30
0.0
 10
102.8330706664
 20
81.1006003703
 30
0.0
 10
102.7210202751
 20
81.126576176
 30
0.0
 10
102.6671656816
 20
81.126576176
 30
0.0
  0
LINE
  5
31C
330
209
100
AcDbEntity
  8
7_ALL_FEATURES
  6
Continuous
 62
     9
100
AcDbLine
 10
103.089374
 20
80.639665
 30
0.0
 11
114.42581
 21
80.639665
 31
0.0
  0
LINE
  5
31D
330
209
100
AcDbEntity
  8
7_ALL_FEATURES
  6
Continuous
 62
     7
100
AcDbLine
 10
103.168715
 20
77.026576
 30
0.0
 11
103.089374
 21
80.639665
 31
0.0
  0
LINE
  5
31E
330
209
100
AcDbEntity
  8
7_ALL_FEATURES
  6
Continuous
 62
     9
100
AcDbLine
 10
52.868423
 20
80.639665
 30
0.0
 11
52.778721
 21
77.026576
 31
0.0
  0
LINE
  5
31F
330
209
100
AcDbEntity
  8
7_ALL_FEATURES
  6
Continuous
 62
     9
100
AcDbLine
 10
55.875292
 20
77.026576
 30
0.0
 11
55.932985
 21
80.639665
 31
0.0
  0
LINE
  5
320
330
209
100
AcDbEntity
  8
7_ALL_FEATURES
  6
Continuous
 62
     7
100
AcDbLine
 10
99.443252
 20
80.639665
 30
0.0
 11
99.476962
 21
77.026576
 31
0.0
  0
LINE
  5
321
330
209
100
AcDbEntity
  8
7_ALL_FEATURES
  6
Continuous
 62
     9
100
AcDbLine
 10
100.133287
 20
77.026576
 30
0.0
 11
100.096693
 21
80.639665
 31
0.0
  0
LINE
  5
322
330
209
100
AcDbEntity
  8
7_ALL_FEATURES
  6
Continuous
 62
     9
100
AcDbLine
 10
100.096693
 20
80.639665
 30
0.0
 11
102.725861
 21
80.639665
 31
0.0
  0
LINE
  5
323
330
209
100
AcDbEntity
  8
7_ALL_FEATURES
  6
Continuous
 62
     9
100
AcDbLine
 10
102.803058
 20
77.026576
 30
0.0
 11
102.725861
 21
80.639665
 31
0.0
  0
LINE
  5
324
330
209
100
AcDbEntity
  8
7_ALL_FEATURES
  6
Continuous
 62
     9
100
AcDbLine
 10
103.057389
 20
77.026576
 30
0.0
 11
102.983114
 21
80.639665
 31
0.0
  0
LINE
  5
325
330
209
100
AcDbEntity
  8
7_ALL_FEATURES
  6
Continuous
 62
     9
100
AcDbLine
 10
102.983114
 20
80.639665
 30
0.0
 11
103.089374
 21
80.639665
 31
0.0
  0
LINE
  5
326
330
209
100
AcDbEntity
  8
7_ALL_FEATURES
  6
Continuous
 62
     9
100
AcDbLine
 10
99.443252
 20
80.639665
 30
0.0
 11
99.705958
 21
80.639665
 31
0.0
  0
LINE
  5
327
330
209
100
AcDbEntity
  8
7_ALL_FEATURES
  6
Continuous
 62
     9
100
AcDbLine
 10
99.748671
 20
77.026576
 30
0.0
 11
99.705958
 21
80.639665
 31
0.0
  0
SPLINE
  5
328
330
209
100
AcDbEntity
  8
7_ALL_FEATURES
  6
Continuous
 62
     9
100
AcDbSpline
 70
     0
 71
     3
 72
    13
 73
     9
 74
     0
 42
0.000000001
 43
0.0000001
 40
0.0
 40
0.0
 40
0.0
 40
0.0
 40
0.3697459475
 40
0.6833455582
 40
0.8051054401
 40
0.8984000952
 40
0.9616561955
 40
1.0
 40
1.0
 40
1.0
 40
1.0
 10
99.7059564839
 20
80.6396646502
 30
0.0
 10
99.7056650141
 20
80.7021418018
 30
0.0
 10
99.7013727369
 20
80.8175973687
 30
0.0
 10
99.6862587385
 20
80.9530896324
 30
0.0
 10
99.6679296531
 20
81.0405423777
 30
0.0
 10
99.65315596
 20
81.0854862803
 30
0.0
 10
99.6389378875
 20
81.1149306076
 30
0.0
 10
99.6233855808
 20
81.126576176
 30
0.0
 10
99.6169064354
 20
81.126576176
 30
0.0
  0
SPLINE
  5
329
330
209
100
AcDbEntity
  8
7_ALL_FEATURES
  6
Continuous
 62
     9
100
AcDbSpline
 70
     0
 71
     3
 72
    11
 73
     7
 74
     0
 42
0.000000001
 43
0.0000001
 40
0.0
 40
0.0
 40
0.0
 40
0.0
 40
0.2614818654
 40
0.5162342842
 40
0.7615290889
 40
1.0
 40
1.0
 40
1.0
 40
1.0
 10
102.9831141684
 20
80.6396646502
 30
0.0
 10
102.9816064594
 20
80.7033305507
 30
0.0
 10
102.9566096849
 20
80.8296596024
 30
0.0
 10
102.8569888094
 20
80.9909706969
 30
0.0
 10
102.7083930147
 20
81.1004802028
 30
0.0
 10
102.5891681695
 20
81.126576176
 30
0.0
 10
102.531088723
 20
81.126576176
 30
0.0
  0
SPLINE
  5
32A
330
209
100
AcDbEntity
  8
7_ALL_FEATURES
  6
Continuous
 62
     9
100
AcDbSpline
 70
     0
 71
     3
 72
    12
 73
     8
 74
     0
 42
0.000000001
 43
0.0000001
 40
0.0
 40
0.0
 40
0.0
 40
0.0
 40
0.308655085
 40
0.5858961796
 40
0.7067063935
 40
0.8147512432
 40
1.0
 40
1.0
 40
1.0
 40
1.0
 10
100.0966934008
 20
80.6396646502
 30
0.0
 10
100.0957558185
 20
80.7025862118
 30
0.0
 10
100.0813299288
 20
80.8221669528
 30
0.0
 10
100.0308483062
 20
80.959329685
 30
0.0
 10
99.9714576322
 20
81.0445468355
 30
0.0
 10
99.9103493615
 20
81.1031289275
 30
0.0
 10
99.8500433844
 20
81.126576176
 30
0.0
 10
99.8122748992
 20
81.126576176
 30
0.0
  0
SPLINE
  5
32B
330
209
100
AcDbEntity
  8
7_ALL_FEATURES
  6
Continuous
 62
     9
100
AcDbSpline
 70
     0
 71
     3
 72
     9
 73
     5
 74
     0
 42
0.000000001
 43
0.0000001
 40
0.0
 40
0.0
 40
0.0
 40
0.0
 40
0.2852044628
 40
1.0
 40
1.0
 40
1.0
 40
1.0
 10
102.725860901
 20
80.6396646502
 30
0.0
 10
102.7250450924
 20
80.6878157254
 30
0.0
 10
102.7074874484
 20
80.8536457226
 30
0.0
 10
102.6238660765
 20
81.0295606165
 30
0.0
 10
102.5206005357
 20
81.0920411441
 30
0.0
  0
SPLINE
  5
32C
330
209
100
AcDbEntity
  8
7_ALL_FEATURES
  6
Continuous
 62
     9
100
AcDbSpline
 70
     0
 71
     3
 72
     9
 73
     5
 74
     0
 42
0.000000001
 43
0.0000001
 40
0.0
 40
0.0
 40
0.0
 40
0.0
 40
0.2596392874
 40
1.0
 40
1.0
 40
1.0
 40
1.0
 10
102.5206005357
 20
81.0920411441
 30
0.0
 10
102.513014205
 20
81.0966312324
 30
0.0
 10
102.482956772
 20
81.112855916
 30
0.0
 10
102.4493660279
 20
81.1227683725
 30
0.0
 10
102.4242220738
 20
81.1254243901
 30
0.0
  0
ARC
  5
32D
330
209
100
AcDbEntity
  8
7_ALL_FEATURES
  6
Continuous
 62
     9
100
AcDbCircle
 10
102.4024
 20
80.919287
 30
0.0
 40
0.2072894038
100
AcDbArc
 50
83.957203
 51
89.982964
  0
SPLINE
  5
32E
330
209
100
AcDbEntity
  8
7_ALL_FEATURES
  6
Continuous
 62
     9
100
AcDbSpline
 70
     0
 71
     3
 72
    11
 73
     7
 74
     0
 42
0.000000001
 43
0.0000001
 40
0.0
 40
0.0
 40
0.0
 40
0.0
 40
0.2518578011
 40
0.5026060216
 40
0.7518357487
 40
1.0
 40
1.0
 40
1.0
 40
1.0
 10
53.0289161321
 20
80.6396646502
 30
0.0
 10
53.0305624028
 20
80.7035552996
 30
0.0
 10
53.0584783969
 20
80.8317439585
 30
0.0
 10
53.1684057068
 20
80.9932575025
 30
0.0
 10
53.3301884522
 20
81.1012881666
 30
0.0
 10
53.4577736232
 20
81.126576176
 30
0.0
 10
53.5207481975
 20
81.126576176
 30
0.0
  0
ARC
  5
32F
330
209
100
AcDbEntity
  8
7_ALL_FEATURES
  6
Continuous
 62
     9
100
AcDbCircle
 10
53.473355
 20
80.699602
 30
0.0
 40
0.4269739117
100
AcDbArc
 50
90.007792
 51
99.286837
  0
SPLINE
  5
330
330
209
100
AcDbEntity
  8
7_ALL_FEATURES
  6
Continuous
 62
     9
100
AcDbSpline
 70
     0
 71
     3
 72
    11
 73
     7
 74
     0
 42
0.000000001
 43
0.0000001
 40
0.0
 40
0.0
 40
0.0
 40
0.0
 40
0.2197973361
 40
0.4592212713
 40
0.7213431537
 40
1.0
 40
1.0
 40
1.0
 40
1.0
 10
53.4044516234
 20
81.120979755
 30
0.0
 10
53.3563011514
 20
81.1130918402
 30
0.0
 10
53.257833265
 20
81.0785714662
 30
0.0
 10
53.1319902558
 20
80.9743600031
 30
0.0
 10
53.0426011701
 20
80.8220929088
 30
0.0
 10
53.0194269179
 20
80.7015057417
 30
0.0
 10
53.0179650444
 20
80.6396646502
 30
0.0
  0
SPLINE
  5
331
330
209
100
AcDbEntity
  8
7_ALL_FEATURES
  6
Continuous
 62
     9
100
AcDbSpline
 70
     0
 71
     3
 72
    10
 73
     6
 74
     0
 42
0.000000001
 43
0.0000001
 40
0.0
 40
0.0
 40
0.0
 40
0.0
 40
0.5734551004
 40
0.8109786886
 40
1.0
 40
1.0
 40
1.0
 40
1.0
 10
55.5435676674
 20
80.6396646502
 30
0.0
 10
55.5445887365
 20
80.7310334595
 30
0.0
 10
55.5599745592
 20
80.8617121322
 30
0.0
 10
55.6161571299
 20
81.0112997495
 30
0.0
 10
55.6546907727
 20
81.069000695
 30
0.0
 10
55.6765132102
 20
81.0897592641
 30
0.0
  0
SPLINE
  5
332
330
209
100
AcDbEntity
  8
7_ALL_FEATURES
  6
Continuous
 62
     9
100
AcDbSpline
 70
     0
 71
     3
 72
     9
 73
     5
 74
     0
 42
0.000000001
 43
0.0000001
 40
0.0
 40
0.0
 40
0.0
 40
0.0
 40
0.2812768443
 40
1.0
 40
1.0
 40
1.0
 40
1.0
 10
55.6765132102
 20
81.0897592641
 30
0.0
 10
55.6825965977
 20
81.0955460797
 30
0.0
 10
55.7053687891
 20
81.1146850062
 30
0.0
 10
55.7354250117
 20
81.126576176
 30
0.0
 10
55.7568789146
 20
81.126576176
 30
0.0
  0
SPLINE
  5
333
330
209
100
AcDbEntity
  8
7_ALL_FEATURES
  6
Continuous
 62
     9
100
AcDbSpline
 70
     0
 71
     3
 72
    10
 73
     6
 74
     0
 42
0.000000001
 43
0.0000001
 40
0.0
 40
0.0
 40
0.0
 40
0.0
 40
0.523518276
 40
0.7675866834
 40
1.0
 40
1.0
 40
1.0
 40
1.0
 10
55.6016147318
 20
80.6396646502
 30
0.0
 10
55.6038064734
 20
80.7345270867
 30
0.0
 10
55.6437342722
 20
80.8772679094
 30
0.0
 10
55.7621198086
 20
81.0170654077
 30
0.0
 10
55.8357313064
 20
81.0649825418
 30
0.0
 10
55.8739538906
 20
81.0826897392
 30
0.0
  0
SPLINE
  5
334
330
209
100
AcDbEntity
  8
7_ALL_FEATURES
  6
Continuous
 62
     9
100
AcDbSpline
 70
     0
 71
     3
 72
     8
 73
     4
 74
     0
 42
0.000000001
 43
0.0000001
 40
0.0
 40
0.0
 40
0.0
 40
0.0
 40
1.0
 40
1.0
 40
1.0
 40
1.0
 10
55.8739538906
 20
81.0826897392
 30
0.0
 10
55.9380822839
 20
81.1123981994
 30
0.0
 10
56.0107134927
 20
81.12656597
 30
0.0
 10
56.0813891132
 20
81.126576176
 30
0.0
  0
SPLINE
  5
335
330
209
100
AcDbEntity
  8
7_ALL_FEATURES
  6
Continuous
 62
     9
100
AcDbSpline
 70
     0
 71
     3
 72
    11
 73
     7
 74
     0
 42
0.000000001
 43
0.0000001
 40
0.0
 40
0.0
 40
0.0
 40
0.0
 40
0.2802275162
 40
0.5433849441
 40
0.7813441465
 40
1.0
 40
1.0
 40
1.0
 40
1.0
 10
55.2079778502
 20
80.6396646502
 30
0.0
 10
55.2092419265
 20
80.7029754056
 30
0.0
 10
55.2294550294
 20
80.8262446969
 30
0.0
 10
55.3110155322
 20
80.9863758668
 30
0.0
 10
55.4351848293
 20
81.0984042131
 30
0.0
 10
55.539674056
 20
81.126576176
 30
0.0
 10
55.5890840014
 20
81.126576176
 30
0.0
  0
SPLINE
  5
336
330
209
100
AcDbEntity
  8
7_ALL_FEATURES
  6
Continuous
 62
     9
100
AcDbSpline
 70
     0
 71
     3
 72
    10
 73
     6
 74
     0
 42
0.000000001
 43
0.0000001
 40
0.0
 40
0.0
 40
0.0
 40
0.0
 40
0.5226613781
 40
0.7682450861
 40
1.0
 40
1.0
 40
1.0
 40
1.0
 10
53.1905466715
 20
80.6396646502
 30
0.0
 10
53.1926984112
 20
80.7395921763
 30
0.0
 10
53.2335073944
 20
80.8904368748
 30
0.0
 10
53.357509944
 20
81.0389579872
 30
0.0
 10
53.4371987192
 20
81.0879312049
 30
0.0
 10
53.4786307526
 20
81.1036665169
 30
0.0
  0
ARC
  5
337
330
209
100
AcDbEntity
  8
7_ALL_FEATURES
  6
Continuous
 62
     9
100
AcDbCircle
 10
53.605365
 20
80.770209
 30
0.0
 40
0.3567288867
100
AcDbArc
 50
103.245003
 51
110.809826
  0
SPLINE
  5
338
330
209
100
AcDbEntity
  8
7_ALL_FEATURES
  6
Continuous
 62
     9
100
AcDbSpline
 70
     0
 71
     3
 72
     8
 73
     4
 74
     0
 42
0.000000001
 43
0.0000001
 40
0.0
 40
0.0
 40
0.0
 40
0.0
 40
1.0
 40
1.0
 40
1.0
 40
1.0
 10
53.5236327368
 20
81.1174485525
 30
0.0
 10
53.5490937898
 20
81.1234311724
 30
0.0
 10
53.5754089872
 20
81.126576176
 30
0.0
 10
53.6015634698
 20
81.126576176
 30
0.0
  0
LINE
  5
339
330
209
100
AcDbEntity
  8
7_ALL_FEATURES
  6
Continuous
 62
     9
100
AcDbLine
 10
55.547538
 20
77.026576
 30
0.0
 11
55.601615
 21
80.639665
 31
0.0
  0
LINE
  5
33A
330
209
100
AcDbEntity
  8
7_ALL_FEATURES
  6
Continuous
 62
     9
100
AcDbLine
 10
55.601615
 20
80.639665
 30
0.0
 11
55.543568
 21
80.639665
 31
0.0
  0
LINE
  5
33B
330
209
100
AcDbEntity
  8
7_ALL_FEATURES
  6
Continuous
 62
     9
100
AcDbLine
 10
55.543568
 20
80.639665
 30
0.0
 11
55.479445
 21
77.026576
 31
0.0
  0
LINE
  5
33C
330
209
100
AcDbEntity
  8
7_ALL_FEATURES
  6
Continuous
 62
     9
100
AcDbLine
 10
53.028916
 20
80.639665
 30
0.0
 11
52.940576
 21
77.026576
 31
0.0
  0
LINE
  5
33D
330
209
100
AcDbEntity
  8
7_ALL_FEATURES
  6
Continuous
 62
     9
100
AcDbLine
 10
53.028916
 20
80.639665
 30
0.0
 11
53.017965
 21
80.639665
 31
0.0
  0
LINE
  5
33E
330
209
100
AcDbEntity
  8
7_ALL_FEATURES
  6
Continuous
 62
     9
100
AcDbLine
 10
53.017965
 20
80.639665
 30
0.0
 11
52.927359
 21
77.026576
 31
0.0
  0
LINE
  5
33F
330
209
100
AcDbEntity
  8
7_ALL_FEATURES
  6
Continuous
 62
     9
100
AcDbLine
 10
55.207978
 20
80.639665
 30
0.0
 11
55.149407
 21
77.026576
 31
0.0
  0
LINE
  5
340
330
209
100
AcDbEntity
  8
7_ALL_FEATURES
  6
Continuous
 62
     9
100
AcDbLine
 10
55.207978
 20
80.639665
 30
0.0
 11
53.190547
 21
80.639665
 31
0.0
  0
LINE
  5
341
330
209
100
AcDbEntity
  8
7_ALL_FEATURES
  6
Continuous
 62
     9
100
AcDbLine
 10
53.190547
 20
80.639665
 30
0.0
 11
53.100823
 21
77.026576
 31
0.0
  0
LWPOLYLINE
  5
342
330
209
100
AcDbEntity
  8
7_ALL_FEATURES
  6
Continuous
 62
     7
100
AcDbPolyline
 90
        7
 70
     0
 43
0.0
 10
220.538966
 20
82.376576
 10
220.536332
 20
82.376591
 10
220.527648
 20
82.376592
 10
220.518781
 20
82.376578
 10
220.508439
 20
82.376581
 10
220.493471
 20
82.37659
 10
220.475244
 20
82.376576
  0
LWPOLYLINE
  5
343
330
209
100
AcDbEntity
  8
7_ALL_FEATURES
  6
Continuous
 62
     7
100
AcDbPolyline
 90
        3
 70
     0
 43
0.0
 10
220.475244
 20
82.376576
 10
220.475229
 20
82.376576
 10
220.451831
 20
82.376583
  0
LWPOLYLINE
  5
344
330
209
100
AcDbEntity
  8
7_ALL_FEATURES
  6
Continuous
 62
     7
100
AcDbPolyline
 90
        5
 70
     0
 43
0.0
 10
220.451831
 20
82.376583
 10
220.42105
 20
82.376577
 10
220.37912
 20
82.376577
 10
220.324536
 20
82.376577
 10
220.317949
 20
82.376577
  0
LINE
  5
345
330
209
100
AcDbEntity
  8
7_ALL_FEATURES
  6
Continuous
 62
     7
100
AcDbLine
 10
221.332337
 20
81.126576
 30
0.0
 11
221.19626
 21
81.126576
 31
0.0
  0
LINE
  5
346
330
209
100
AcDbEntity
  8
7_ALL_FEATURES
  6
Continuous
 62
     7
100
AcDbLine
 10
221.19626
 20
81.126576
 30
0.0
 11
221.091122
 21
81.126576
 31
0.0
  0
LINE
  5
347
330
209
100
AcDbEntity
  8
7_ALL_FEATURES
  6
Continuous
 62
     7
100
AcDbLine
 10
221.091122
 20
81.126576
 30
0.0
 11
221.067633
 21
81.126576
 31
0.0
  0
LINE
  5
348
330
209
100
AcDbEntity
  8
7_ALL_FEATURES
  6
Continuous
 62
     7
100
AcDbLine
 10
221.067633
 20
81.126576
 30
0.0
 11
218.477446
 21
81.126576
 31
0.0
  0
LINE
  5
349
330
209
100
AcDbEntity
  8
7_ALL_FEATURES
  6
Continuous
 62
     7
100
AcDbLine
 10
218.477446
 20
81.126576
 30
0.0
 11
218.282077
 21
81.126576
 31
0.0
  0
LINE
  5
34A
330
209
100
AcDbEntity
  8
7_ALL_FEATURES
  6
Continuous
 62
     7
100
AcDbLine
 10
218.282077
 20
81.126576
 30
0.0
 11
217.933405
 21
81.126576
 31
0.0
  0
LINE
  5
34B
330
209
100
AcDbEntity
  8
7_ALL_FEATURES
  6
Continuous
 62
     7
100
AcDbLine
 10
174.42205
 20
81.126576
 30
0.0
 11
174.74656
 21
81.126576
 31
0.0
  0
LINE
  5
34C
330
209
100
AcDbEntity
  8
7_ALL_FEATURES
  6
Continuous
 62
     7
100
AcDbLine
 10
174.42205
 20
81.126576
 30
0.0
 11
174.254255
 21
81.126576
 31
0.0
  0
LINE
  5
34D
330
209
100
AcDbEntity
  8
7_ALL_FEATURES
  6
Continuous
 62
     7
100
AcDbLine
 10
172.266735
 20
81.126576
 30
0.0
 11
172.497607
 21
81.126576
 31
0.0
  0
LINE
  5
34E
330
209
100
AcDbEntity
  8
7_ALL_FEATURES
  6
Continuous
 62
     7
100
AcDbLine
 10
172.497607
 20
81.126576
 30
0.0
 11
174.254255
 21
81.126576
 31
0.0
  0
LINE
  5
34F
330
209
100
AcDbEntity
  8
7_ALL_FEATURES
  6
Continuous
 62
     7
100
AcDbLine
 10
172.266735
 20
81.126576
 30
0.0
 11
172.203468
 21
81.126576
 31
0.0
  0
LINE
  5
350
330
209
100
AcDbEntity
  8
7_ALL_FEATURES
  6
Continuous
 62
     7
100
AcDbLine
 10
172.203468
 20
81.126576
 30
0.0
 11
172.185919
 21
81.126576
 31
0.0
  0
LINE
  5
351
330
209
100
AcDbEntity
  8
7_ALL_FEATURES
  6
Continuous
 62
     7
100
AcDbLine
 10
172.138468
 20
81.126576
 30
0.0
 11
172.185919
 21
81.126576
 31
0.0
  0
ARC
  5
352
330
209
100
AcDbEntity
  8
7_ALL_FEATURES
  6
Continuous
 62
     7
100
AcDbCircle
 10
221.025687
 20
81.876576
 30
0.0
 40
0.5
100
AcDbArc
 50
1.5
 51
90.0
  0
LINE
  5
353
330
209
100
AcDbEntity
  8
7_ALL_FEATURES
  6
Continuous
 62
     7
100
AcDbLine
 10
220.965716
 20
82.376576
 30
0.0
 11
221.025687
 21
82.376576
 31
0.0
  0
LINE
  5
354
330
209
100
AcDbEntity
  8
7_ALL_FEATURES
  6
Continuous
 62
     7
100
AcDbLine
 10
199.578231
 20
82.376576
 30
0.0
 11
218.982604
 21
82.376576
 31
0.0
  0
LINE
  5
355
330
209
100
AcDbEntity
  8
7_ALL_FEATURES
  6
Continuous
 62
     7
100
AcDbLine
 10
218.982604
 20
82.376576
 30
0.0
 11
219.053788
 21
82.376576
 31
0.0
  0
LINE
  5
356
330
209
100
AcDbEntity
  8
7_ALL_FEATURES
  6
Continuous
 62
     7
100
AcDbLine
 10
219.053788
 20
82.376576
 30
0.0
 11
219.608611
 21
82.376576
 31
0.0
  0
LINE
  5
357
330
209
100
AcDbEntity
  8
7_ALL_FEATURES
  6
Continuous
 62
     7
100
AcDbLine
 10
219.608611
 20
82.376576
 30
0.0
 11
219.679733
 21
82.376576
 31
0.0
  0
LINE
  5
358
330
209
100
AcDbEntity
  8
7_ALL_FEATURES
  6
Continuous
 62
     7
100
AcDbLine
 10
219.679733
 20
82.376576
 30
0.0
 11
220.304675
 21
82.376576
 31
0.0
  0
LINE
  5
359
330
209
100
AcDbEntity
  8
7_ALL_FEATURES
  6
Continuous
 62
     7
100
AcDbLine
 10
220.304675
 20
82.376576
 30
0.0
 11
220.309366
 21
82.376576
 31
0.0
  0
LINE
  5
35A
330
209
100
AcDbEntity
  8
7_ALL_FEATURES
  6
Continuous
 62
     7
100
AcDbLine
 10
220.309366
 20
82.376576
 30
0.0
 11
220.318776
 21
82.376576
 31
0.0
  0
LINE
  5
35B
330
209
100
AcDbEntity
  8
7_ALL_FEATURES
  6
Continuous
 62
     7
100
AcDbLine
 10
220.318776
 20
82.376576
 30
0.0
 11
220.541863
 21
82.376576
 31
0.0
  0
LINE
  5
35C
330
209
100
AcDbEntity
  8
7_ALL_FEATURES
  6
Continuous
 62
     7
100
AcDbLine
 10
220.541863
 20
82.376576
 30
0.0
 11
220.546314
 21
82.376576
 31
0.0
  0
LINE
  5
35D
330
209
100
AcDbEntity
  8
7_ALL_FEATURES
  6
Continuous
 62
     7
100
AcDbLine
 10
220.546314
 20
82.376576
 30
0.0
 11
220.550132
 21
82.376576
 31
0.0
  0
LINE
  5
35E
330
209
100
AcDbEntity
  8
7_ALL_FEATURES
  6
Continuous
 62
     7
100
AcDbLine
 10
220.550132
 20
82.376576
 30
0.0
 11
220.577241
 21
82.376576
 31
0.0
  0
LINE
  5
35F
330
209
100
AcDbEntity
  8
7_ALL_FEATURES
  6
Continuous
 62
     7
100
AcDbLine
 10
220.577241
 20
82.376576
 30
0.0
 11
220.63112
 21
82.376576
 31
0.0
  0
LINE
  5
360
330
209
100
AcDbEntity
  8
7_ALL_FEATURES
  6
Continuous
 62
     7
100
AcDbLine
 10
220.63112
 20
82.376576
 30
0.0
 11
220.761593
 21
82.376576
 31
0.0
  0
LINE
  5
361
330
209
100
AcDbEntity
  8
7_ALL_FEATURES
  6
Continuous
 62
     7
100
AcDbLine
 10
220.761593
 20
82.376576
 30
0.0
 11
221.025687
 21
82.376576
 31
0.0
  0
LINE
  5
362
330
209
100
AcDbEntity
  8
7_ALL_FEATURES
  6
Continuous
 62
     7
100
AcDbLine
 10
199.578231
 20
82.376576
 30
0.0
 11
218.982604
 21
82.376576
 31
0.0
  0
LINE
  5
363
330
209
100
AcDbEntity
  8
7_ALL_FEATURES
  6
Continuous
 62
     7
100
AcDbLine
 10
218.982604
 20
82.376576
 30
0.0
 11
219.053788
 21
82.376576
 31
0.0
  0
LINE
  5
364
330
209
100
AcDbEntity
  8
7_ALL_FEATURES
  6
Continuous
 62
     7
100
AcDbLine
 10
219.053788
 20
82.376576
 30
0.0
 11
219.608611
 21
82.376576
 31
0.0
  0
LINE
  5
365
330
209
100
AcDbEntity
  8
7_ALL_FEATURES
  6
Continuous
 62
     7
100
AcDbLine
 10
219.608611
 20
82.376576
 30
0.0
 11
219.679733
 21
82.376576
 31
0.0
  0
LINE
  5
366
330
209
100
AcDbEntity
  8
7_ALL_FEATURES
  6
Continuous
 62
     7
100
AcDbLine
 10
219.679733
 20
82.376576
 30
0.0
 11
220.304675
 21
82.376576
 31
0.0
  0
LINE
  5
367
330
209
100
AcDbEntity
  8
7_ALL_FEATURES
  6
Continuous
 62
     7
100
AcDbLine
 10
220.304675
 20
82.376576
 30
0.0
 11
220.309366
 21
82.376576
 31
0.0
  0
LINE
  5
368
330
209
100
AcDbEntity
  8
7_ALL_FEATURES
  6
Continuous
 62
     7
100
AcDbLine
 10
220.309366
 20
82.376576
 30
0.0
 11
220.318776
 21
82.376576
 31
0.0
  0
LINE
  5
369
330
209
100
AcDbEntity
  8
7_ALL_FEATURES
  6
Continuous
 62
     7
100
AcDbLine
 10
220.318776
 20
82.376576
 30
0.0
 11
220.541863
 21
82.376576
 31
0.0
  0
LINE
  5
36A
330
209
100
AcDbEntity
  8
7_ALL_FEATURES
  6
Continuous
 62
     7
100
AcDbLine
 10
220.541863
 20
82.376576
 30
0.0
 11
220.546314
 21
82.376576
 31
0.0
  0
LINE
  5
36B
330
209
100
AcDbEntity
  8
7_ALL_FEATURES
  6
Continuous
 62
     7
100
AcDbLine
 10
220.546314
 20
82.376576
 30
0.0
 11
220.550132
 21
82.376576
 31
0.0
  0
LINE
  5
36C
330
209
100
AcDbEntity
  8
7_ALL_FEATURES
  6
Continuous
 62
     7
100
AcDbLine
 10
220.550132
 20
82.376576
 30
0.0
 11
220.577241
 21
82.376576
 31
0.0
  0
LINE
  5
36D
330
209
100
AcDbEntity
  8
7_ALL_FEATURES
  6
Continuous
 62
     7
100
AcDbLine
 10
220.577241
 20
82.376576
 30
0.0
 11
220.965716
 21
82.376576
 31
0.0
  0
LINE
  5
36E
330
209
100
AcDbEntity
  8
7_ALL_FEATURES
  6
Continuous
 62
     7
100
AcDbLine
 10
178.130774
 20
82.376576
 30
0.0
 11
178.52593
 21
82.376576
 31
0.0
  0
LINE
  5
36F
330
209
100
AcDbEntity
  8
7_ALL_FEATURES
  6
Continuous
 62
     7
100
AcDbLine
 10
178.52593
 20
82.376576
 30
0.0
 11
178.553553
 21
82.376576
 31
0.0
  0
LINE
  5
370
330
209
100
AcDbEntity
  8
7_ALL_FEATURES
  6
Continuous
 62
     7
100
AcDbLine
 10
178.553553
 20
82.376576
 30
0.0
 11
199.578231
 21
82.376576
 31
0.0
  0
ARC
  5
371
330
209
100
AcDbEntity
  8
7_ALL_FEATURES
  6
Continuous
 62
     7
100
AcDbCircle
 10
178.130774
 20
81.876576
 30
0.0
 40
0.5
100
AcDbArc
 50
90.0
 51
178.5
  0
LINE
  5
372
330
209
100
AcDbEntity
  8
7_ALL_FEATURES
  6
Continuous
 62
     7
100
AcDbLine
 10
178.130774
 20
82.376576
 30
0.0
 11
178.52593
 21
82.376576
 31
0.0
  0
LINE
  5
373
330
209
100
AcDbEntity
  8
7_ALL_FEATURES
  6
Continuous
 62
     7
100
AcDbLine
 10
178.52593
 20
82.376576
 30
0.0
 11
178.553553
 21
82.376576
 31
0.0
  0
LINE
  5
374
330
209
100
AcDbEntity
  8
7_ALL_FEATURES
  6
Continuous
 62
     7
100
AcDbLine
 10
178.553553
 20
82.376576
 30
0.0
 11
199.578231
 21
82.376576
 31
0.0
  0
LINE
  5
375
330
209
100
AcDbEntity
  8
7_ALL_FEATURES
  6
Continuous
 62
     7
100
AcDbLine
 10
235.657464
 20
72.876576
 30
0.0
 11
237.518537
 21
72.876576
 31
0.0
  0
LINE
  5
376
330
209
100
AcDbEntity
  8
7_ALL_FEATURES
  6
Continuous
 62
     7
100
AcDbLine
 10
237.518537
 20
72.876576
 30
0.0
 11
241.238941
 21
72.876576
 31
0.0
  0
LINE
  5
377
330
209
100
AcDbEntity
  8
7_ALL_FEATURES
  6
Continuous
 62
     7
100
AcDbLine
 10
199.578231
 20
72.876576
 30
0.0
 11
235.657464
 21
72.876576
 31
0.0
  0
LINE
  5
378
330
209
100
AcDbEntity
  8
7_ALL_FEATURES
  6
Continuous
 62
     7
100
AcDbLine
 10
235.657464
 20
72.876576
 30
0.0
 11
237.518537
 21
72.876576
 31
0.0
  0
LINE
  5
379
330
209
100
AcDbEntity
  8
7_ALL_FEATURES
  6
Continuous
 62
     7
100
AcDbLine
 10
237.518537
 20
72.876576
 30
0.0
 11
241.238602
 21
72.876576
 31
0.0
  0
LINE
  5
37A
330
209
100
AcDbEntity
  8
7_ALL_FEATURES
  6
Continuous
 62
     7
100
AcDbLine
 10
199.578231
 20
72.876576
 30
0.0
 11
235.657464
 21
72.876576
 31
0.0
  0
SPLINE
  5
37B
330
209
100
AcDbEntity
  8
7_ALL_FEATURES
  6
Continuous
 62
     7
100
AcDbSpline
 70
     0
 71
     3
 72
    13
 73
     9
 74
     0
 42
0.000000001
 43
0.0000001
 40
0.0
 40
0.0
 40
0.0
 40
0.0
 40
0.272253026
 40
0.3892728214
 40
0.5
 40
0.6107271786
 40
0.727746974
 40
1.0
 40
1.0
 40
1.0
 40
1.0
 10
241.2389413466
 20
72.876576176
 30
0.0
 10
241.3469652117
 20
72.876576176
 30
0.0
 10
241.5042905611
 20
72.8931825876
 30
0.0
 10
241.6873380042
 20
72.9733834846
 30
0.0
 10
241.7955416829
 20
73.0552099486
 30
0.0
 10
241.8801725491
 20
73.1612345814
 30
0.0
 10
241.9651375867
 20
73.342119884
 30
0.0
 10
241.9858566052
 20
73.4989566168
 30
0.0
 10
241.9886843404
 20
73.6069434648
 30
0.0
  0
LINE
  5
37C
330
209
100
AcDbEntity
  8
7_ALL_FEATURES
  6
Continuous
 62
     7
100
AcDbLine
 10
157.91752
 20
72.876576
 30
0.0
 11
161.637924
 21
72.876576
 31
0.0
  0
LINE
  5
37D
330
209
100
AcDbEntity
  8
7_ALL_FEATURES
  6
Continuous
 62
     7
100
AcDbLine
 10
161.637924
 20
72.876576
 30
0.0
 11
172.750383
 21
72.876576
 31
0.0
  0
LINE
  5
37E
330
209
100
AcDbEntity
  8
7_ALL_FEATURES
  6
Continuous
 62
     7
100
AcDbLine
 10
172.750383
 20
72.876576
 30
0.0
 11
199.578231
 21
72.876576
 31
0.0
  0
LINE
  5
37F
330
209
100
AcDbEntity
  8
7_ALL_FEATURES
  6
Continuous
 62
     7
100
AcDbLine
 10
157.91786
 20
72.876576
 30
0.0
 11
161.637924
 21
72.876576
 31
0.0
  0
LINE
  5
380
330
209
100
AcDbEntity
  8
7_ALL_FEATURES
  6
Continuous
 62
     7
100
AcDbLine
 10
161.637924
 20
72.876576
 30
0.0
 11
163.498997
 21
72.876576
 31
0.0
  0
LINE
  5
381
330
209
100
AcDbEntity
  8
7_ALL_FEATURES
  6
Continuous
 62
     7
100
AcDbLine
 10
163.498997
 20
72.876576
 30
0.0
 11
172.750383
 21
72.876576
 31
0.0
  0
LINE
  5
382
330
209
100
AcDbEntity
  8
7_ALL_FEATURES
  6
Continuous
 62
     7
100
AcDbLine
 10
172.750383
 20
72.876576
 30
0.0
 11
199.578231
 21
72.876576
 31
0.0
  0
SPLINE
  5
383
330
209
100
AcDbEntity
  8
7_ALL_FEATURES
  6
Continuous
 62
     7
100
AcDbSpline
 70
     0
 71
     3
 72
    13
 73
     9
 74
     0
 42
0.000000001
 43
0.0000001
 40
0.0
 40
0.0
 40
0.0
 40
0.0
 40
0.272253026
 40
0.3892728214
 40
0.5
 40
0.6107271786
 40
0.727746974
 40
1.0
 40
1.0
 40
1.0
 40
1.0
 10
157.917519802
 20
72.876576176
 30
0.0
 10
157.8094959369
 20
72.876576176
 30
0.0
 10
157.6521705875
 20
72.8931825876
 30
0.0
 10
157.4691231444
 20
72.9733834846
 30
0.0
 10
157.3609194658
 20
73.0552099486
 30
0.0
 10
157.2762885996
 20
73.1612345814
 30
0.0
 10
157.1913235619
 20
73.342119884
 30
0.0
 10
157.1706045434
 20
73.4989566168
 30
0.0
 10
157.1677768083
 20
73.6069434648
 30
0.0
  0
LINE
  5
384
330
209
100
AcDbEntity
  8
7_ALL_FEATURES
  6
Continuous
 62
     7
100
AcDbLine
 10
166.565348
 20
81.126576
 30
0.0
 11
166.973381
 21
81.126576
 31
0.0
  0
LINE
  5
385
330
209
100
AcDbEntity
  8
7_ALL_FEATURES
  6
Continuous
 62
     7
100
AcDbLine
 10
166.973381
 20
81.126576
 30
0.0
 11
167.091196
 21
81.126576
 31
0.0
  0
LINE
  5
386
330
209
100
AcDbEntity
  8
7_ALL_FEATURES
  6
Continuous
 62
     7
100
AcDbLine
 10
167.091196
 20
81.126576
 30
0.0
 11
167.16519
 21
81.126576
 31
0.0
  0
LINE
  5
387
330
209
100
AcDbEntity
  8
7_ALL_FEATURES
  6
Continuous
 62
     7
100
AcDbLine
 10
167.16519
 20
81.126576
 30
0.0
 11
172.094152
 21
81.126576
 31
0.0
  0
LINE
  5
388
330
209
100
AcDbEntity
  8
7_ALL_FEATURES
  6
Continuous
 62
     7
100
AcDbLine
 10
172.094152
 20
81.126576
 30
0.0
 11
172.138468
 21
81.126576
 31
0.0
  0
ARC
  5
389
330
209
100
AcDbEntity
  8
6_ALL_SURFS
  6
Continuous
 62
     7
100
AcDbCircle
 10
166.565309
 20
80.626576
 30
0.0
 40
0.5
100
AcDbArc
 50
90.0
 51
178.5
  0
ARC
  5
38A
330
209
100
AcDbEntity
  8
6_ALL_SURFS
  6
Continuous
 62
     7
100
AcDbCircle
 10
232.591152
 20
80.626576
 30
0.0
 40
0.5
100
AcDbArc
 50
1.5
 51
90.0
  0
LINE
  5
38B
330
209
100
AcDbEntity
  8
6_ALL_SURFS
  6
Continuous
 62
     7
100
AcDbLine
 10
232.329704
 20
81.126576
 30
0.0
 11
232.590946
 21
81.126576
 31
0.0
  0
LINE
  5
38C
330
209
100
AcDbEntity
  8
7_ALL_FEATURES
  6
Continuous
 62
     7
100
AcDbLine
 10
221.332337
 20
81.126576
 30
0.0
 11
221.450675
 21
81.126576
 31
0.0
  0
LINE
  5
38D
330
209
100
AcDbEntity
  8
7_ALL_FEATURES
  6
Continuous
 62
     7
100
AcDbLine
 10
221.450675
 20
81.126576
 30
0.0
 11
221.552101
 21
81.126576
 31
0.0
  0
LINE
  5
38E
330
209
100
AcDbEntity
  8
7_ALL_FEATURES
  6
Continuous
 62
     7
100
AcDbLine
 10
221.552101
 20
81.126576
 30
0.0
 11
221.575415
 21
81.126576
 31
0.0
  0
LINE
  5
38F
330
209
100
AcDbEntity
  8
7_ALL_FEATURES
  6
Continuous
 62
     7
100
AcDbLine
 10
221.575415
 20
81.126576
 30
0.0
 11
221.648432
 21
81.126576
 31
0.0
  0
LINE
  5
390
330
209
100
AcDbEntity
  8
7_ALL_FEATURES
  6
Continuous
 62
     7
100
AcDbLine
 10
221.648432
 20
81.126576
 30
0.0
 11
221.659629
 21
81.126576
 31
0.0
  0
LINE
  5
391
330
209
100
AcDbEntity
  8
7_ALL_FEATURES
  6
Continuous
 62
     7
100
AcDbLine
 10
221.659629
 20
81.126576
 30
0.0
 11
226.995273
 21
81.126576
 31
0.0
  0
LINE
  5
392
330
209
100
AcDbEntity
  8
7_ALL_FEATURES
  6
Continuous
 62
     7
100
AcDbLine
 10
226.995273
 20
81.126576
 30
0.0
 11
227.017993
 21
81.126576
 31
0.0
  0
LINE
  5
393
330
209
100
AcDbEntity
  8
7_ALL_FEATURES
  6
Continuous
 62
     7
100
AcDbLine
 10
227.017993
 20
81.126576
 30
0.0
 11
231.991272
 21
81.126576
 31
0.0
  0
LINE
  5
394
330
209
100
AcDbEntity
  8
7_ALL_FEATURES
  6
Continuous
 62
     7
100
AcDbLine
 10
231.991272
 20
81.126576
 30
0.0
 11
232.065266
 21
81.126576
 31
0.0
  0
LINE
  5
395
330
209
100
AcDbEntity
  8
7_ALL_FEATURES
  6
Continuous
 62
     7
100
AcDbLine
 10
232.065266
 20
81.126576
 30
0.0
 11
232.309042
 21
81.126576
 31
0.0
  0
LINE
  5
396
330
209
100
AcDbEntity
  8
7_ALL_FEATURES
  6
Continuous
 62
     7
100
AcDbLine
 10
232.309042
 20
81.126576
 30
0.0
 11
232.591113
 21
81.126576
 31
0.0
  0
LINE
  5
397
330
209
100
AcDbEntity
  8
6_ALL_SURFS
  6
Continuous
 62
     7
100
AcDbLine
 10
221.332337
 20
81.126576
 30
0.0
 11
221.450675
 21
81.126576
 31
0.0
  0
LINE
  5
398
330
209
100
AcDbEntity
  8
6_ALL_SURFS
  6
Continuous
 62
     7
100
AcDbLine
 10
221.450675
 20
81.126576
 30
0.0
 11
221.552101
 21
81.126576
 31
0.0
  0
LINE
  5
399
330
209
100
AcDbEntity
  8
6_ALL_SURFS
  6
Continuous
 62
     7
100
AcDbLine
 10
221.552101
 20
81.126576
 30
0.0
 11
221.575415
 21
81.126576
 31
0.0
  0
LINE
  5
39A
330
209
100
AcDbEntity
  8
6_ALL_SURFS
  6
Continuous
 62
     7
100
AcDbLine
 10
221.575415
 20
81.126576
 30
0.0
 11
221.648432
 21
81.126576
 31
0.0
  0
LINE
  5
39B
330
209
100
AcDbEntity
  8
6_ALL_SURFS
  6
Continuous
 62
     7
100
AcDbLine
 10
221.648432
 20
81.126576
 30
0.0
 11
221.659629
 21
81.126576
 31
0.0
  0
LINE
  5
39C
330
209
100
AcDbEntity
  8
6_ALL_SURFS
  6
Continuous
 62
     7
100
AcDbLine
 10
221.659629
 20
81.126576
 30
0.0
 11
231.991272
 21
81.126576
 31
0.0
  0
LINE
  5
39D
330
209
100
AcDbEntity
  8
6_ALL_SURFS
  6
Continuous
 62
     7
100
AcDbLine
 10
231.991272
 20
81.126576
 30
0.0
 11
232.329704
 21
81.126576
 31
0.0
  0
LINE
  5
39E
330
209
100
AcDbEntity
  8
6_ALL_SURFS
  6
Continuous
 62
     7
100
AcDbLine
 10
166.567145
 20
81.126576
 30
0.0
 11
167.16519
 21
81.126576
 31
0.0
  0
LINE
  5
39F
330
209
100
AcDbEntity
  8
6_ALL_SURFS
  6
Continuous
 62
     7
100
AcDbLine
 10
167.16519
 20
81.126576
 30
0.0
 11
167.325214
 21
81.126576
 31
0.0
  0
LINE
  5
3A0
330
209
100
AcDbEntity
  8
6_ALL_SURFS
  6
Continuous
 62
     7
100
AcDbLine
 10
167.325214
 20
81.126576
 30
0.0
 11
172.094152
 21
81.126576
 31
0.0
  0
LINE
  5
3A1
330
209
100
AcDbEntity
  8
6_ALL_SURFS
  6
Continuous
 62
     7
100
AcDbLine
 10
172.094152
 20
81.126576
 30
0.0
 11
172.138468
 21
81.126576
 31
0.0
  0
LINE
  5
3A2
330
209
100
AcDbEntity
  8
6_ALL_SURFS
  6
Continuous
 62
     7
100
AcDbLine
 10
165.970868
 20
77.026576
 30
0.0
 11
166.06548
 21
80.639665
 31
0.0
  0
LINE
  5
3A3
330
209
100
AcDbEntity
  8
6_ALL_SURFS
  6
Continuous
 62
     7
100
AcDbLine
 10
233.185593
 20
77.026576
 30
0.0
 11
233.090981
 21
80.639665
 31
0.0
  0
LINE
  5
3A4
330
209
100
AcDbEntity
  8
7_ALL_FEATURES
  6
Continuous
 62
     7
100
AcDbLine
 10
157.167777
 20
73.606943
 30
0.0
 11
157.078231
 21
77.026576
 31
0.0
  0
LINE
  5
3A5
330
209
100
AcDbEntity
  8
7_ALL_FEATURES
  6
Continuous
 62
     7
100
AcDbLine
 10
241.988684
 20
73.606943
 30
0.0
 11
242.078231
 21
77.026576
 31
0.0
  0
LINE
  5
3A6
330
209
100
AcDbEntity
  8
7_ALL_FEATURES
  6
Continuous
 62
     7
100
AcDbLine
 10
177.61096
 20
81.126445
 30
0.0
 11
177.630945
 21
81.889665
 31
0.0
  0
LINE
  5
3A7
330
209
100
AcDbEntity
  8
7_ALL_FEATURES
  6
Continuous
 62
     7
100
AcDbLine
 10
221.545503
 20
81.126403
 30
0.0
 11
221.525516
 21
81.889665
 31
0.0
  0
LINE
  5
3A8
330
209
100
AcDbEntity
  8
7_ALL_FEATURES
  6
Continuous
 62
     7
100
AcDbLine
 10
217.933405
 20
81.126576
 30
0.0
 11
217.524296
 21
81.126576
 31
0.0
  0
LINE
  5
3A9
330
209
100
AcDbEntity
  8
7_ALL_FEATURES
  6
Continuous
 62
     7
100
AcDbLine
 10
217.524296
 20
81.126576
 30
0.0
 11
216.999639
 21
81.126576
 31
0.0
  0
LINE
  5
3AA
330
209
100
AcDbEntity
  8
7_ALL_FEATURES
  6
Continuous
 62
     7
100
AcDbLine
 10
216.999639
 20
81.126576
 30
0.0
 11
216.907029
 21
81.126576
 31
0.0
  0
LINE
  5
3AB
330
209
100
AcDbEntity
  8
7_ALL_FEATURES
  6
Continuous
 62
     7
100
AcDbLine
 10
216.907029
 20
81.126576
 30
0.0
 11
213.967985
 21
81.126576
 31
0.0
  0
LINE
  5
3AC
330
209
100
AcDbEntity
  8
7_ALL_FEATURES
  6
Continuous
 62
     7
100
AcDbLine
 10
213.967985
 20
81.126576
 30
0.0
 11
213.93058
 21
81.126576
 31
0.0
  0
LINE
  5
3AD
330
209
100
AcDbEntity
  8
7_ALL_FEATURES
  6
Continuous
 62
     7
100
AcDbLine
 10
213.93058
 20
81.126576
 30
0.0
 11
213.586529
 21
81.126576
 31
0.0
  0
LINE
  5
3AE
330
209
100
AcDbEntity
  8
7_ALL_FEATURES
  6
Continuous
 62
     7
100
AcDbLine
 10
213.586529
 20
81.126576
 30
0.0
 11
213.554209
 21
81.126576
 31
0.0
  0
LINE
  5
3AF
330
209
100
AcDbEntity
  8
7_ALL_FEATURES
  6
Continuous
 62
     7
100
AcDbLine
 10
213.554209
 20
81.126576
 30
0.0
 11
213.347045
 21
81.126576
 31
0.0
  0
LINE
  5
3B0
330
209
100
AcDbEntity
  8
7_ALL_FEATURES
  6
Continuous
 62
     7
100
AcDbLine
 10
213.347045
 20
81.126576
 30
0.0
 11
180.147384
 21
81.126576
 31
0.0
  0
LINE
  5
3B1
330
209
100
AcDbEntity
  8
7_ALL_FEATURES
  6
Continuous
 62
     7
100
AcDbLine
 10
180.147384
 20
81.126576
 30
0.0
 11
180.098232
 21
81.126576
 31
0.0
  0
LINE
  5
3B2
330
209
100
AcDbEntity
  8
7_ALL_FEATURES
  6
Continuous
 62
     7
100
AcDbLine
 10
180.098232
 20
81.126576
 30
0.0
 11
179.718914
 21
81.126576
 31
0.0
  0
LINE
  5
3B3
330
209
100
AcDbEntity
  8
7_ALL_FEATURES
  6
Continuous
 62
     7
100
AcDbLine
 10
179.718914
 20
81.126576
 30
0.0
 11
175.794403
 21
81.126576
 31
0.0
  0
LINE
  5
3B4
330
209
100
AcDbEntity
  8
7_ALL_FEATURES
  6
Continuous
 62
     7
100
AcDbLine
 10
175.794403
 20
81.126576
 30
0.0
 11
175.718314
 21
81.126576
 31
0.0
  0
LINE
  5
3B5
330
209
100
AcDbEntity
  8
7_ALL_FEATURES
  6
Continuous
 62
     7
100
AcDbLine
 10
175.718314
 20
81.126576
 30
0.0
 11
175.654382
 21
81.126576
 31
0.0
  0
LINE
  5
3B6
330
209
100
AcDbEntity
  8
7_ALL_FEATURES
  6
Continuous
 62
     7
100
AcDbLine
 10
175.654382
 20
81.126576
 30
0.0
 11
175.234735
 21
81.126576
 31
0.0
  0
LINE
  5
3B7
330
209
100
AcDbEntity
  8
7_ALL_FEATURES
  6
Continuous
 62
     7
100
AcDbLine
 10
175.234735
 20
81.126576
 30
0.0
 11
174.74656
 21
81.126576
 31
0.0
  0
LINE
  5
3B8
330
209
100
AcDbEntity
  8
7_ALL_FEATURES
  6
Continuous
 62
     7
100
AcDbLine
 10
199.578231
 20
77.026576
 30
0.0
 11
214.043827
 21
77.026576
 31
0.0
  0
LINE
  5
3B9
330
209
100
AcDbEntity
  8
7_ALL_FEATURES
  6
Continuous
 62
     7
100
AcDbLine
 10
214.043827
 20
77.026576
 30
0.0
 11
217.727216
 21
77.026576
 31
0.0
  0
LINE
  5
3BA
330
209
100
AcDbEntity
  8
7_ALL_FEATURES
  6
Continuous
 62
     7
100
AcDbLine
 10
217.727216
 20
77.026576
 30
0.0
 11
217.749736
 21
77.026576
 31
0.0
  0
LINE
  5
3BB
330
209
100
AcDbEntity
  8
7_ALL_FEATURES
  6
Continuous
 62
     7
100
AcDbLine
 10
217.749736
 20
77.026576
 30
0.0
 11
217.802997
 21
77.026576
 31
0.0
  0
LINE
  5
3BC
330
209
100
AcDbEntity
  8
7_ALL_FEATURES
  6
Continuous
 62
     7
100
AcDbLine
 10
217.802997
 20
77.026576
 30
0.0
 11
217.921452
 21
77.026576
 31
0.0
  0
LINE
  5
3BD
330
209
100
AcDbEntity
  8
7_ALL_FEATURES
  6
Continuous
 62
     7
100
AcDbLine
 10
217.921452
 20
77.026576
 30
0.0
 11
218.118151
 21
77.026576
 31
0.0
  0
LINE
  5
3BE
330
209
100
AcDbEntity
  8
7_ALL_FEATURES
  6
Continuous
 62
     7
100
AcDbLine
 10
218.118151
 20
77.026576
 30
0.0
 11
218.180018
 21
77.026576
 31
0.0
  0
LINE
  5
3BF
330
209
100
AcDbEntity
  8
7_ALL_FEATURES
  6
Continuous
 62
     7
100
AcDbLine
 10
218.180018
 20
77.026576
 30
0.0
 11
218.619486
 21
77.026576
 31
0.0
  0
LINE
  5
3C0
330
209
100
AcDbEntity
  8
7_ALL_FEATURES
  6
Continuous
 62
     7
100
AcDbLine
 10
218.619486
 20
77.026576
 30
0.0
 11
218.671163
 21
77.026576
 31
0.0
  0
LINE
  5
3C1
330
209
100
AcDbEntity
  8
7_ALL_FEATURES
  6
Continuous
 62
     7
100
AcDbLine
 10
218.671163
 20
77.026576
 30
0.0
 11
220.612501
 21
77.026576
 31
0.0
  0
LINE
  5
3C2
330
209
100
AcDbEntity
  8
7_ALL_FEATURES
  6
Continuous
 62
     7
100
AcDbLine
 10
220.612501
 20
77.026576
 30
0.0
 11
222.005523
 21
77.026576
 31
0.0
  0
LINE
  5
3C3
330
209
100
AcDbEntity
  8
7_ALL_FEATURES
  6
Continuous
 62
     7
100
AcDbLine
 10
222.005523
 20
77.026576
 30
0.0
 11
222.255957
 21
77.026576
 31
0.0
  0
LINE
  5
3C4
330
209
100
AcDbEntity
  8
7_ALL_FEATURES
  6
Continuous
 62
     7
100
AcDbLine
 10
222.255957
 20
77.026576
 30
0.0
 11
230.521426
 21
77.026576
 31
0.0
  0
LINE
  5
3C5
330
209
100
AcDbEntity
  8
7_ALL_FEATURES
  6
Continuous
 62
     7
100
AcDbLine
 10
230.521426
 20
77.026576
 30
0.0
 11
230.641118
 21
77.026576
 31
0.0
  0
LINE
  5
3C6
330
209
100
AcDbEntity
  8
7_ALL_FEATURES
  6
Continuous
 62
     7
100
AcDbLine
 10
230.641118
 20
77.026576
 30
0.0
 11
241.064971
 21
77.026576
 31
0.0
  0
LINE
  5
3C7
330
209
100
AcDbEntity
  8
7_ALL_FEATURES
  6
Continuous
 62
     7
100
AcDbLine
 10
241.064971
 20
77.026576
 30
0.0
 11
242.077489
 21
77.026576
 31
0.0
  0
LINE
  5
3C8
330
209
100
AcDbEntity
  8
7_ALL_FEATURES
  6
Continuous
 62
     7
100
AcDbLine
 10
199.578231
 20
77.026576
 30
0.0
 11
178.525864
 21
77.026576
 31
0.0
  0
LINE
  5
3C9
330
209
100
AcDbEntity
  8
7_ALL_FEATURES
  6
Continuous
 62
     7
100
AcDbLine
 10
178.525864
 20
77.026576
 30
0.0
 11
175.663615
 21
77.026576
 31
0.0
  0
LINE
  5
3CA
330
209
100
AcDbEntity
  8
7_ALL_FEATURES
  6
Continuous
 62
     7
100
AcDbLine
 10
175.663615
 20
77.026576
 30
0.0
 11
175.611654
 21
77.026576
 31
0.0
  0
LINE
  5
3CB
330
209
100
AcDbEntity
  8
7_ALL_FEATURES
  6
Continuous
 62
     7
100
AcDbLine
 10
175.611654
 20
77.026576
 30
0.0
 11
175.593547
 21
77.026576
 31
0.0
  0
LINE
  5
3CC
330
209
100
AcDbEntity
  8
7_ALL_FEATURES
  6
Continuous
 62
     7
100
AcDbLine
 10
175.593547
 20
77.026576
 30
0.0
 11
175.309628
 21
77.026576
 31
0.0
  0
LINE
  5
3CD
330
209
100
AcDbEntity
  8
7_ALL_FEATURES
  6
Continuous
 62
     7
100
AcDbLine
 10
175.309628
 20
77.026576
 30
0.0
 11
175.052194
 21
77.026576
 31
0.0
  0
LINE
  5
3CE
330
209
100
AcDbEntity
  8
7_ALL_FEATURES
  6
Continuous
 62
     7
100
AcDbLine
 10
175.052194
 20
77.026576
 30
0.0
 11
174.996233
 21
77.026576
 31
0.0
  0
LINE
  5
3CF
330
209
100
AcDbEntity
  8
7_ALL_FEATURES
  6
Continuous
 62
     7
100
AcDbLine
 10
174.996233
 20
77.026576
 30
0.0
 11
174.929543
 21
77.026576
 31
0.0
  0
LINE
  5
3D0
330
209
100
AcDbEntity
  8
7_ALL_FEATURES
  6
Continuous
 62
     7
100
AcDbLine
 10
174.929543
 20
77.026576
 30
0.0
 11
173.099564
 21
77.026576
 31
0.0
  0
LINE
  5
3D1
330
209
100
AcDbEntity
  8
7_ALL_FEATURES
  6
Continuous
 62
     7
100
AcDbLine
 10
173.099564
 20
77.026576
 30
0.0
 11
172.331724
 21
77.026576
 31
0.0
  0
LINE
  5
3D2
330
209
100
AcDbEntity
  8
7_ALL_FEATURES
  6
Continuous
 62
     7
100
AcDbLine
 10
172.331724
 20
77.026576
 30
0.0
 11
172.224476
 21
77.026576
 31
0.0
  0
LINE
  5
3D3
330
209
100
AcDbEntity
  8
7_ALL_FEATURES
  6
Continuous
 62
     7
100
AcDbLine
 10
172.224476
 20
77.026576
 30
0.0
 11
168.984309
 21
77.026576
 31
0.0
  0
LINE
  5
3D4
330
209
100
AcDbEntity
  8
7_ALL_FEATURES
  6
Continuous
 62
     7
100
AcDbLine
 10
168.984309
 20
77.026576
 30
0.0
 11
168.635035
 21
77.026576
 31
0.0
  0
LINE
  5
3D5
330
209
100
AcDbEntity
  8
7_ALL_FEATURES
  6
Continuous
 62
     7
100
AcDbLine
 10
168.635035
 20
77.026576
 30
0.0
 11
168.515343
 21
77.026576
 31
0.0
  0
LINE
  5
3D6
330
209
100
AcDbEntity
  8
7_ALL_FEATURES
  6
Continuous
 62
     7
100
AcDbLine
 10
168.515343
 20
77.026576
 30
0.0
 11
158.091152
 21
77.026576
 31
0.0
  0
LINE
  5
3D7
330
209
100
AcDbEntity
  8
7_ALL_FEATURES
  6
Continuous
 62
     7
100
AcDbLine
 10
158.091152
 20
77.026576
 30
0.0
 11
157.078972
 21
77.026576
 31
0.0
  0
LINE
  5
3D8
330
209
100
AcDbEntity
  8
7_ALL_FEATURES
  6
Continuous
 62
     9
100
AcDbLine
 10
166.06548
 20
80.639665
 30
0.0
 11
171.533594
 21
80.639665
 31
0.0
  0
LINE
  5
3D9
330
209
100
AcDbEntity
  8
7_ALL_FEATURES
  6
Continuous
 62
     9
100
AcDbLine
 10
157.167777
 20
73.606943
 30
0.0
 11
199.578231
 21
73.606943
 31
0.0
  0
LINE
  5
3DA
330
209
100
AcDbEntity
  8
7_ALL_FEATURES
  6
Continuous
 62
     9
100
AcDbLine
 10
177.630945
 20
81.889665
 30
0.0
 11
199.578231
 21
81.889665
 31
0.0
  0
ARC
  5
3DB
330
209
100
AcDbEntity
  8
7_ALL_FEATURES
  6
Continuous
 62
     9
100
AcDbCircle
 10
218.116534
 20
111.303847
 30
0.0
 40
30.664781049
100
AcDbArc
 50
269.642067
 51
270.357933
  0
SPLINE
  5
3DC
330
209
100
AcDbEntity
  8
7_ALL_FEATURES
  6
Continuous
 62
     9
100
AcDbSpline
 70
     0
 71
     3
 72
     9
 73
     5
 74
     0
 42
0.000000001
 43
0.0000001
 40
0.0
 40
0.0
 40
0.0
 40
0.0
 40
0.30157682
 40
1.0
 40
1.0
 40
1.0
 40
1.0
 10
221.9187839926
 20
80.6396646499
 30
0.0
 10
221.8942956651
 20
80.6394839144
 30
0.0
 10
221.8130947118
 20
80.6390198666
 30
0.0
 10
221.7318854368
 20
80.6389112489
 30
0.0
 10
221.6751762633
 20
80.6396646498
 30
0.0
  0
SPLINE
  5
3DD
330
209
100
AcDbEntity
  8
7_ALL_FEATURES
  6
Continuous
 62
     9
100
AcDbSpline
 70
     0
 71
     3
 72
     9
 73
     5
 74
     0
 42
0.000000001
 43
0.0000001
 40
0.0
 40
0.0
 40
0.0
 40
0.0
 40
0.2200256845
 40
1.0
 40
1.0
 40
1.0
 40
1.0
 10
174.5981565
 20
80.6396646532
 30
0.0
 10
174.5738538511
 20
80.6394641476
 30
0.0
 10
174.4633977675
 20
80.6388455734
 30
0.0
 10
174.3529381634
 20
80.6391440251
 30
0.0
 10
174.2667857623
 20
80.6396646552
 30
0.0
  0
SPLINE
  5
3DE
330
209
100
AcDbEntity
  8
7_ALL_FEATURES
  6
Continuous
 62
     9
100
AcDbSpline
 70
     0
 71
     3
 72
     9
 73
     5
 74
     0
 42
0.000000001
 43
0.0000001
 40
0.0
 40
0.0
 40
0.0
 40
0.0
 40
0.3483503604
 40
1.0
 40
1.0
 40
1.0
 40
1.0
 10
171.5335941357
 20
80.6396646526
 30
0.0
 10
171.550957902
 20
80.6394901487
 30
0.0
 10
171.6007997971
 20
80.639174933
 30
0.0
 10
171.650670686
 20
80.6385779738
 30
0.0
 10
171.6831360749
 20
80.6396646548
 30
0.0
  0
SPLINE
  5
3DF
330
209
100
AcDbEntity
  8
7_ALL_FEATURES
  6
Continuous
 62
     9
100
AcDbSpline
 70
     0
 71
     3
 72
     9
 73
     5
 74
     0
 42
0.000000001
 43
0.0000001
 40
0.0
 40
0.0
 40
0.0
 40
0.0
 40
0.3006551082
 40
1.0
 40
1.0
 40
1.0
 40
1.0
 10
221.391012388
 20
80.6396638593
 30
0.0
 10
221.4167940889
 20
80.6397592244
 30
0.0
 10
221.502545835
 20
80.6400065677
 30
0.0
 10
221.5882997709
 20
80.6400608043
 30
0.0
 10
221.6482689162
 20
80.6396641787
 30
0.0
  0
ARC
  5
3E0
330
209
100
AcDbEntity
  8
7_ALL_FEATURES
  6
Continuous
 62
     9
100
AcDbCircle
 10
218.566472
 20
15.039351
 30
0.0
 40
65.6006036213
100
AcDbArc
 50
89.829356
 51
90.170618
  0
ARC
  5
3E1
330
209
100
AcDbEntity
  8
7_ALL_FEATURES
  6
Continuous
 62
     9
100
AcDbCircle
 10
174.040971
 20
38.322073
 30
0.0
 40
42.3179237241
100
AcDbArc
 50
89.772839
 51
90.227193
  0
SPLINE
  5
3E2
330
209
100
AcDbEntity
  8
7_ALL_FEATURES
  6
Continuous
 62
     9
100
AcDbSpline
 70
     0
 71
     3
 72
     9
 73
     5
 74
     0
 42
0.000000001
 43
0.0000001
 40
0.0
 40
0.0
 40
0.0
 40
0.0
 40
0.1515445499
 40
1.0
 40
1.0
 40
1.0
 40
1.0
 10
171.6941047734
 20
80.6396641815
 30
0.0
 10
171.7022689228
 20
80.639793572
 30
0.0
 10
171.7561485014
 20
80.6401629509
 30
0.0
 10
171.8100286716
 20
80.6398904297
 30
0.0
 10
171.8557426344
 20
80.6396638563
 30
0.0
  0
LINE
  5
3E3
330
209
100
AcDbEntity
  8
7_ALL_FEATURES
  6
Continuous
 62
     9
100
AcDbLine
 10
199.578231
 20
81.889665
 30
0.0
 11
219.82462
 21
81.889665
 31
0.0
  0
LINE
  5
3E4
330
209
100
AcDbEntity
  8
7_ALL_FEATURES
  6
Continuous
 62
     9
100
AcDbLine
 10
219.82462
 20
81.889665
 30
0.0
 11
221.525516
 21
81.889665
 31
0.0
  0
SPLINE
  5
3E5
330
209
100
AcDbEntity
  8
7_ALL_FEATURES
  6
Continuous
 62
     9
100
AcDbSpline
 70
     0
 71
     3
 72
    12
 73
     8
 74
     0
 42
0.000000001
 43
0.0000001
 40
0.0
 40
0.0
 40
0.0
 40
0.0
 40
0.3881459017
 40
0.6960480736
 40
0.8955055752
 40
0.9588711303
 40
1.0
 40
1.0
 40
1.0
 40
1.0
 10
174.5981565003
 20
80.6396646502
 30
0.0
 10
174.5987849105
 20
80.7080962715
 30
0.0
 10
174.608056775
 20
80.8313602878
 30
0.0
 10
174.6432561262
 20
80.9846744081
 30
0.0
 10
174.6833955244
 20
81.0801971284
 30
0.0
 10
174.7217351126
 20
81.11791099
 30
0.0
 10
174.7393103481
 20
81.1264196851
 30
0.0
 10
174.7465601436
 20
81.126576176
 30
0.0
  0
LINE
  5
3E6
330
209
100
AcDbEntity
  8
7_ALL_FEATURES
  6
Continuous
 62
     9
100
AcDbLine
 10
174.598157
 20
80.639665
 30
0.0
 11
177.489562
 21
80.639665
 31
0.0
  0
LINE
  5
3E7
330
209
100
AcDbEntity
  8
7_ALL_FEATURES
  6
Continuous
 62
     9
100
AcDbLine
 10
177.489562
 20
80.639665
 30
0.0
 11
213.054381
 21
80.639665
 31
0.0
  0
LINE
  5
3E8
330
209
100
AcDbEntity
  8
7_ALL_FEATURES
  6
Continuous
 62
     9
100
AcDbLine
 10
213.054381
 20
80.639665
 30
0.0
 11
213.2891
 21
80.639665
 31
0.0
  0
LINE
  5
3E9
330
209
100
AcDbEntity
  8
7_ALL_FEATURES
  6
Continuous
 62
     9
100
AcDbLine
 10
213.2891
 20
80.639665
 30
0.0
 11
215.035447
 21
80.639665
 31
0.0
  0
LINE
  5
3EA
330
209
100
AcDbEntity
  8
7_ALL_FEATURES
  6
Continuous
 62
     9
100
AcDbLine
 10
215.035447
 20
80.639665
 30
0.0
 11
217.924969
 21
80.639665
 31
0.0
  0
SPLINE
  5
3EB
330
209
100
AcDbEntity
  8
7_ALL_FEATURES
  6
Continuous
 62
     9
100
AcDbSpline
 70
     0
 71
     3
 72
    14
 73
    10
 74
     0
 42
0.000000001
 43
0.0000001
 40
0.0
 40
0.0
 40
0.0
 40
0.0
 40
0.0190508225
 40
0.0661095211
 40
0.1454023775
 40
0.2583059537
 40
0.404589334
 40
0.5816575639
 40
1.0
 40
1.0
 40
1.0
 40
1.0
 10
217.9334053756
 20
81.126576176
 30
0.0
 10
217.9302988766
 20
81.1265707008
 30
0.0
 10
217.9252521094
 20
81.1131688977
 30
0.0
 10
217.9236213581
 20
81.0922683027
 30
0.0
 10
217.9215309592
 20
81.0517446409
 30
0.0
 10
217.9216596197
 20
80.9972330996
 30
0.0
 10
217.9223151156
 20
80.9258309073
 30
0.0
 10
217.9240702271
 20
80.8050249879
 30
0.0
 10
217.924901252
 20
80.7078812202
 30
0.0
 10
217.9249685623
 20
80.6396646502
 30
0.0
  0
LINE
  5
3EC
330
209
100
AcDbEntity
  8
7_ALL_FEATURES
  6
Continuous
 62
     9
100
AcDbLine
 10
221.918784
 20
80.639665
 30
0.0
 11
233.090981
 21
80.639665
 31
0.0
  0
SPLINE
  5
3ED
330
209
100
AcDbEntity
  8
7_ALL_FEATURES
  6
Continuous
 62
     9
100
AcDbSpline
 70
     0
 71
     3
 72
    11
 73
     7
 74
     0
 42
0.000000001
 43
0.0000001
 40
0.0
 40
0.0
 40
0.0
 40
0.0
 40
0.252834869
 40
0.5026637215
 40
0.7509141331
 40
1.0
 40
1.0
 40
1.0
 40
1.0
 10
221.9187839926
 20
80.6396646502
 30
0.0
 10
221.9167076207
 20
80.7103599936
 30
0.0
 10
221.8773785849
 20
80.8519627978
 30
0.0
 10
221.7334996439
 20
81.0132703284
 30
0.0
 10
221.5421555043
 20
81.1073863076
 30
0.0
 10
221.4020138273
 20
81.1265674939
 30
0.0
 10
221.332336712
 20
81.126576176
 30
0.0
  0
SPLINE
  5
3EE
330
209
100
AcDbEntity
  8
7_ALL_FEATURES
  6
Continuous
 62
     9
100
AcDbSpline
 70
     0
 71
     3
 72
    11
 73
     7
 74
     0
 42
0.000000001
 43
0.0000001
 40
0.0
 40
0.0
 40
0.0
 40
0.0
 40
0.2504930861
 40
0.5009598416
 40
0.7508536955
 40
1.0
 40
1.0
 40
1.0
 40
1.0
 10
172.138468399
 20
81.126576176
 30
0.0
 10
172.0672105629
 20
81.1264522149
 30
0.0
 10
171.9237537283
 20
81.1072276971
 30
0.0
 10
171.7272266203
 20
81.0136988855
 30
0.0
 10
171.5776105473
 20
80.8533174248
 30
0.0
 10
171.5357779548
 20
80.7105058219
 30
0.0
 10
171.5335941356
 20
80.6396646502
 30
0.0
  0
LINE
  5
3EF
330
209
100
AcDbEntity
  8
7_ALL_FEATURES
  6
Continuous
 62
     9
100
AcDbLine
 10
199.578231
 20
73.606943
 30
0.0
 11
241.988684
 21
73.606943
 31
0.0
  0
SPLINE
  5
3F0
330
209
100
AcDbEntity
  8
7_ALL_FEATURES
  6
Continuous
 62
     9
100
AcDbSpline
 70
     0
 71
     3
 72
    10
 73
     6
 74
     0
 42
0.000000001
 43
0.0000001
 40
0.0
 40
0.0
 40
0.0
 40
0.0
 40
0.5734552708
 40
0.8109788208
 40
1.0
 40
1.0
 40
1.0
 40
1.0
 10
174.2087386971
 20
80.6396646502
 30
0.0
 10
174.2097597637
 20
80.7310335577
 30
0.0
 10
174.2251456097
 20
80.8617123602
 30
0.0
 10
174.2813282992
 20
81.0113000667
 30
0.0
 10
174.3198620281
 20
81.0690009978
 30
0.0
 10
174.3416845087
 20
81.0897595251
 30
0.0
  0
SPLINE
  5
3F1
330
209
100
AcDbEntity
  8
7_ALL_FEATURES
  6
Continuous
 62
     9
100
AcDbSpline
 70
     0
 71
     3
 72
     9
 73
     5
 74
     0
 42
0.000000001
 43
0.0000001
 40
0.0
 40
0.0
 40
0.0
 40
0.0
 40
0.2812766678
 40
1.0
 40
1.0
 40
1.0
 40
1.0
 10
174.3416845087
 20
81.0897595251
 30
0.0
 10
174.3477678793
 20
81.0955463014
 30
0.0
 10
174.3705400178
 20
81.1146851064
 30
0.0
 10
174.4005961236
 20
81.126576176
 30
0.0
 10
174.4220499451
 20
81.126576176
 30
0.0
  0
SPLINE
  5
3F2
330
209
100
AcDbEntity
  8
7_ALL_FEATURES
  6
Continuous
 62
     9
100
AcDbSpline
 70
     0
 71
     3
 72
    10
 73
     6
 74
     0
 42
0.000000001
 43
0.0000001
 40
0.0
 40
0.0
 40
0.0
 40
0.0
 40
0.5231661501
 40
0.7674345063
 40
1.0
 40
1.0
 40
1.0
 40
1.0
 10
174.2667857622
 20
80.6396646502
 30
0.0
 10
174.2689451302
 20
80.7337853711
 30
0.0
 10
174.3081778909
 20
80.8754398151
 30
0.0
 10
174.4249772237
 20
81.0148421858
 30
0.0
 10
174.4977229795
 20
81.0629758882
 30
0.0
 10
174.5355082338
 20
81.0809696434
 30
0.0
  0
SPLINE
  5
3F3
330
209
100
AcDbEntity
  8
7_ALL_FEATURES
  6
Continuous
 62
     9
100
AcDbSpline
 70
     0
 71
     3
 72
     9
 73
     5
 74
     0
 42
0.000000001
 43
0.0000001
 40
0.0
 40
0.0
 40
0.0
 40
0.0
 40
0.7451841168
 40
1.0
 40
1.0
 40
1.0
 40
1.0
 10
174.5355082338
 20
81.0809696434
 30
0.0
 10
174.5841472104
 20
81.104132061
 30
0.0
 10
174.6559361359
 20
81.1230026658
 30
0.0
 10
174.7281385676
 20
81.1265037564
 30
0.0
 10
174.7465601436
 20
81.126576176
 30
0.0
  0
SPLINE
  5
3F4
330
209
100
AcDbEntity
  8
7_ALL_FEATURES
  6
Continuous
 62
     9
100
AcDbSpline
 70
     0
 71
     3
 72
    11
 73
     7
 74
     0
 42
0.000000001
 43
0.0000001
 40
0.0
 40
0.0
 40
0.0
 40
0.0
 40
0.2518577957
 40
0.5026060091
 40
0.7518357375
 40
1.0
 40
1.0
 40
1.0
 40
1.0
 10
171.6940871624
 20
80.6396646502
 30
0.0
 10
171.6957334326
 20
80.7035552983
 30
0.0
 10
171.7236494245
 20
80.8317439545
 30
0.0
 10
171.8335767308
 20
80.9932574977
 30
0.0
 10
171.9953594763
 20
81.1012881645
 30
0.0
 10
172.1229446507
 20
81.126576176
 30
0.0
 10
172.1859192279
 20
81.126576176
 30
0.0
  0
SPLINE
  5
3F5
330
209
100
AcDbEntity
  8
7_ALL_FEATURES
  6
Continuous
 62
     9
100
AcDbSpline
 70
     0
 71
     3
 72
    11
 73
     7
 74
     0
 42
0.000000001
 43
0.0000001
 40
0.0
 40
0.0
 40
0.0
 40
0.0
 40
0.2176299148
 40
0.4546877407
 40
0.7174930772
 40
1.0
 40
1.0
 40
1.0
 40
1.0
 10
172.138468399
 20
81.126576176
 30
0.0
 10
172.0852337714
 20
81.1264477719
 30
0.0
 10
171.9728580578
 20
81.1052347674
 30
0.0
 10
171.822755078
 20
81.0056940065
 30
0.0
 10
171.7132276075
 20
80.8430126062
 30
0.0
 10
171.6847736739
 20
80.7087496894
 30
0.0
 10
171.6831360748
 20
80.6396646502
 30
0.0
  0
SPLINE
  5
3F6
330
209
100
AcDbEntity
  8
7_ALL_FEATURES
  6
Continuous
 62
     9
100
AcDbSpline
 70
     0
 71
     3
 72
    11
 73
     7
 74
     0
 42
0.000000001
 43
0.0000001
 40
0.0
 40
0.0
 40
0.0
 40
0.0
 40
0.2802275095
 40
0.5433849307
 40
0.7813441349
 40
1.0
 40
1.0
 40
1.0
 40
1.0
 10
173.8731488816
 20
80.6396646502
 30
0.0
 10
173.8744129548
 20
80.7029754045
 30
0.0
 10
173.8946260526
 20
80.8262446949
 30
0.0
 10
173.9761865532
 20
80.9863758648
 30
0.0
 10
174.1003558528
 20
81.0984042126
 30
0.0
 10
174.2048450834
 20
81.126576176
 30
0.0
 10
174.2542550319
 20
81.126576176
 30
0.0
  0
SPLINE
  5
3F7
330
209
100
AcDbEntity
  8
7_ALL_FEATURES
  6
Continuous
 62
     9
100
AcDbSpline
 70
     0
 71
     3
 72
    10
 73
     6
 74
     0
 42
0.000000001
 43
0.0000001
 40
0.0
 40
0.0
 40
0.0
 40
0.0
 40
0.5226613781
 40
0.7682450874
 40
1.0
 40
1.0
 40
1.0
 40
1.0
 10
171.8557177028
 20
80.6396646502
 30
0.0
 10
171.857869438
 20
80.7395921744
 30
0.0
 10
171.8986784165
 20
80.8904368726
 30
0.0
 10
172.0226809635
 20
81.038957982
 30
0.0
 10
172.1023697356
 20
81.0879312006
 30
0.0
 10
172.1438017675
 20
81.1036665135
 30
0.0
  0
ARC
  5
3F8
330
209
100
AcDbEntity
  8
7_ALL_FEATURES
  6
Continuous
 62
     9
100
AcDbCircle
 10
172.270536
 20
80.770209
 30
0.0
 40
0.3567288562
100
AcDbArc
 50
103.245004
 51
110.809828
  0
SPLINE
  5
3F9
330
209
100
AcDbEntity
  8
7_ALL_FEATURES
  6
Continuous
 62
     9
100
AcDbSpline
 70
     0
 71
     3
 72
     8
 73
     4
 74
     0
 42
0.000000001
 43
0.0000001
 40
0.0
 40
0.0
 40
0.0
 40
0.0
 40
1.0
 40
1.0
 40
1.0
 40
1.0
 10
172.188803753
 20
81.1174485506
 30
0.0
 10
172.2142648106
 20
81.123431172
 30
0.0
 10
172.2405800128
 20
81.126576176
 30
0.0
 10
172.2667345002
 20
81.126576176
 30
0.0
  0
LINE
  5
3FA
330
209
100
AcDbEntity
  8
7_ALL_FEATURES
  6
Continuous
 62
     9
100
AcDbLine
 10
174.212709
 20
77.026576
 30
0.0
 11
174.266786
 21
80.639665
 31
0.0
  0
LINE
  5
3FB
330
209
100
AcDbEntity
  8
7_ALL_FEATURES
  6
Continuous
 62
     9
100
AcDbLine
 10
174.208737
 20
80.639665
 30
0.0
 11
174.266786
 21
80.639665
 31
0.0
  0
LINE
  5
3FC
330
209
100
AcDbEntity
  8
7_ALL_FEATURES
  6
Continuous
 62
     9
100
AcDbLine
 10
174.144616
 20
77.026576
 30
0.0
 11
174.208737
 21
80.639665
 31
0.0
  0
LINE
  5
3FD
330
209
100
AcDbEntity
  8
7_ALL_FEATURES
  6
Continuous
 62
     9
100
AcDbLine
 10
171.605747
 20
77.026576
 30
0.0
 11
171.694087
 21
80.639665
 31
0.0
  0
LINE
  5
3FE
330
209
100
AcDbEntity
  8
7_ALL_FEATURES
  6
Continuous
 62
     9
100
AcDbLine
 10
171.683136
 20
80.639665
 30
0.0
 11
171.694087
 21
80.639665
 31
0.0
  0
LINE
  5
3FF
330
209
100
AcDbEntity
  8
7_ALL_FEATURES
  6
Continuous
 62
     9
100
AcDbLine
 10
171.683136
 20
80.639665
 30
0.0
 11
171.59253
 21
77.026576
 31
0.0
  0
LINE
  5
400
330
209
100
AcDbEntity
  8
7_ALL_FEATURES
  6
Continuous
 62
     9
100
AcDbLine
 10
173.814579
 20
77.026576
 30
0.0
 11
173.873149
 21
80.639665
 31
0.0
  0
LINE
  5
401
330
209
100
AcDbEntity
  8
7_ALL_FEATURES
  6
Continuous
 62
     9
100
AcDbLine
 10
171.855717
 20
80.639665
 30
0.0
 11
173.873149
 21
80.639665
 31
0.0
  0
LINE
  5
402
330
209
100
AcDbEntity
  8
7_ALL_FEATURES
  6
Continuous
 62
     9
100
AcDbLine
 10
171.765992
 20
77.026576
 30
0.0
 11
171.855717
 21
80.639665
 31
0.0
  0
LINE
  5
403
330
209
100
AcDbEntity
  8
7_ALL_FEATURES
  6
Continuous
 62
     9
100
AcDbLine
 10
171.533594
 20
80.639665
 30
0.0
 11
171.443892
 21
77.026576
 31
0.0
  0
LINE
  5
404
330
209
100
AcDbEntity
  8
7_ALL_FEATURES
  6
Continuous
 62
     9
100
AcDbLine
 10
174.540463
 20
77.026576
 30
0.0
 11
174.598157
 21
80.639665
 31
0.0
  0
LINE
  5
405
330
209
100
AcDbEntity
  8
7_ALL_FEATURES
  6
Continuous
 62
     9
100
AcDbLine
 10
217.924969
 20
80.639665
 30
0.0
 11
217.960662
 21
77.026576
 31
0.0
  0
LINE
  5
406
330
209
100
AcDbEntity
  8
7_ALL_FEATURES
  6
Continuous
 62
     9
100
AcDbLine
 10
221.996192
 20
77.026576
 30
0.0
 11
221.918784
 21
80.639665
 31
0.0
  0
SPLINE
  5
407
330
209
100
AcDbEntity
  8
7_ALL_FEATURES
  6
Continuous
 62
     9
100
AcDbSpline
 70
     0
 71
     3
 72
    13
 73
     9
 74
     0
 42
0.000000001
 43
0.0000001
 40
0.0
 40
0.0
 40
0.0
 40
0.0
 40
0.3697459496
 40
0.6833455622
 40
0.8051054407
 40
0.8984000929
 40
0.9616561917
 40
1.0
 40
1.0
 40
1.0
 40
1.0
 10
218.3711275151
 20
80.6396646502
 30
0.0
 10
218.370836048
 20
80.7021418028
 30
0.0
 10
218.3665437744
 20
80.8175973719
 30
0.0
 10
218.3514297781
 20
80.9530896373
 30
0.0
 10
218.3331006906
 20
81.0405423829
 30
0.0
 10
218.3183269961
 20
81.0854862835
 30
0.0
 10
218.3041089214
 20
81.1149306118
 30
0.0
 10
218.2885566119
 20
81.126576176
 30
0.0
 10
218.2820774658
 20
81.126576176
 30
0.0
  0
SPLINE
  5
408
330
209
100
AcDbEntity
  8
7_ALL_FEATURES
  6
Continuous
 62
     9
100
AcDbSpline
 70
     0
 71
     3
 72
     9
 73
     5
 74
     0
 42
0.000000001
 43
0.0000001
 40
0.0
 40
0.0
 40
0.0
 40
0.0
 40
0.4852472457
 40
1.0
 40
1.0
 40
1.0
 40
1.0
 10
217.9334053756
 20
81.126576176
 30
0.0
 10
217.9767539697
 20
81.1265687154
 30
0.0
 10
218.0674298829
 20
81.1097272568
 30
0.0
 10
218.1420396398
 20
81.0549920293
 30
0.0
 10
218.1734040938
 20
81.0213641088
 30
0.0
  0
SPLINE
  5
409
330
209
100
AcDbEntity
  8
7_ALL_FEATURES
  6
Continuous
 62
     9
100
AcDbSpline
 70
     0
 71
     3
 72
     9
 73
     5
 74
     0
 42
0.000000001
 43
0.0000001
 40
0.0
 40
0.0
 40
0.0
 40
0.0
 40
0.2223069473
 40
1.0
 40
1.0
 40
1.0
 40
1.0
 10
218.1734040938
 20
81.0213641088
 30
0.0
 10
218.1941231001
 20
80.9991498819
 30
0.0
 10
218.275119791
 20
80.8878556744
 30
0.0
 10
218.3062299546
 20
80.7459148745
 30
0.0
 10
218.3080984361
 20
80.6396646502
 30
0.0
  0
SPLINE
  5
40A
330
209
100
AcDbEntity
  8
7_ALL_FEATURES
  6
Continuous
 62
     9
100
AcDbSpline
 70
     0
 71
     3
 72
    11
 73
     7
 74
     0
 42
0.000000001
 43
0.0000001
 40
0.0
 40
0.0
 40
0.0
 40
0.0
 40
0.2614818591
 40
0.5162342703
 40
0.7615290767
 40
1.0
 40
1.0
 40
1.0
 40
1.0
 10
221.6482851992
 20
80.6396646502
 30
0.0
 10
221.6467774913
 20
80.7033305494
 30
0.0
 10
221.6217807198
 20
80.8296595987
 30
0.0
 10
221.5221598477
 20
80.9909706925
 30
0.0
 10
221.3735640521
 20
81.1004802009
 30
0.0
 10
221.254339203
 20
81.126576176
 30
0.0
 10
221.1962597534
 20
81.126576176
 30
0.0
  0
SPLINE
  5
40B
330
209
100
AcDbEntity
  8
7_ALL_FEATURES
  6
Continuous
 62
     9
100
AcDbSpline
 70
     0
 71
     3
 72
    11
 73
     7
 74
     0
 42
0.000000001
 43
0.0000001
 40
0.0
 40
0.0
 40
0.0
 40
0.0
 40
0.3163572106
 40
0.5926268914
 40
0.8160731669
 40
1.0
 40
1.0
 40
1.0
 40
1.0
 10
221.6751762633
 20
80.6396646502
 30
0.0
 10
221.6739232358
 20
80.7081979663
 30
0.0
 10
221.653321605
 20
80.837191141
 30
0.0
 10
221.5730902911
 20
80.998174026
 30
0.0
 10
221.461291708
 20
81.1016420559
 30
0.0
 10
221.3721879362
 20
81.1265670267
 30
0.0
 10
221.332336712
 20
81.126576176
 30
0.0
  0
SPLINE
  5
40C
330
209
100
AcDbEntity
  8
7_ALL_FEATURES
  6
Continuous
 62
     9
100
AcDbSpline
 70
     0
 71
     3
 72
     9
 73
     5
 74
     0
 42
0.000000001
 43
0.0000001
 40
0.0
 40
0.0
 40
0.0
 40
0.0
 40
0.5473248846
 40
1.0
 40
1.0
 40
1.0
 40
1.0
 10
221.3910319301
 20
80.6396646502
 30
0.0
 10
221.3894649617
 20
80.732151391
 30
0.0
 10
221.3584896737
 20
80.9017964896
 30
0.0
 10
221.2542779659
 20
81.049099712
 30
0.0
 10
221.1894737257
 20
81.0897598617
 30
0.0
  0
SPLINE
  5
40D
330
209
100
AcDbEntity
  8
7_ALL_FEATURES
  6
Continuous
 62
     9
100
AcDbSpline
 70
     0
 71
     3
 72
     9
 73
     5
 74
     0
 42
0.000000001
 43
0.0000001
 40
0.0
 40
0.0
 40
0.0
 40
0.0
 40
0.2602185746
 40
1.0
 40
1.0
 40
1.0
 40
1.0
 10
221.1894737257
 20
81.0897598617
 30
0.0
 10
221.1816298838
 20
81.0946813266
 30
0.0
 10
221.1505620364
 20
81.1120456827
 30
0.0
 10
221.1155727849
 20
81.1226589661
 30
0.0
 10
221.0893931124
 20
81.1254243895
 30
0.0
  0
ARC
  5
40E
330
209
100
AcDbEntity
  8
7_ALL_FEATURES
  6
Continuous
 62
     9
100
AcDbCircle
 10
221.067571
 20
80.919287
 30
0.0
 40
0.2072894542
100
AcDbArc
 50
83.957202
 51
89.982964
  0
SPLINE
  5
40F
330
209
100
AcDbEntity
  8
7_ALL_FEATURES
  6
Continuous
 62
     9
100
AcDbSpline
 70
     0
 71
     3
 72
    12
 73
     8
 74
     0
 42
0.000000001
 43
0.0000001
 40
0.0
 40
0.0
 40
0.0
 40
0.0
 40
0.3086550763
 40
0.5858961628
 40
0.7067063766
 40
0.814751229
 40
1.0
 40
1.0
 40
1.0
 40
1.0
 10
218.76186443
 20
80.6396646502
 30
0.0
 10
218.7609268517
 20
80.7025862107
 30
0.0
 10
218.7465009684
 20
80.8221669508
 30
0.0
 10
218.6960193478
 20
80.9593296818
 30
0.0
 10
218.6366286747
 20
81.0445468332
 30
0.0
 10
218.5755203994
 20
81.1031289268
 30
0.0
 10
218.5152144181
 20
81.126576176
 30
0.0
 10
218.4774459296
 20
81.126576176
 30
0.0
  0
LINE
  5
410
330
209
100
AcDbEntity
  8
7_ALL_FEATURES
  6
Continuous
 62
     9
100
AcDbLine
 10
221.754488
 20
77.026576
 30
0.0
 11
221.675176
 21
80.639665
 31
0.0
  0
LINE
  5
411
330
209
100
AcDbEntity
  8
7_ALL_FEATURES
  6
Continuous
 62
     9
100
AcDbLine
 10
221.675176
 20
80.639665
 30
0.0
 11
221.648285
 21
80.639665
 31
0.0
  0
LINE
  5
412
330
209
100
AcDbEntity
  8
7_ALL_FEATURES
  6
Continuous
 62
     9
100
AcDbLine
 10
221.648285
 20
80.639665
 30
0.0
 11
221.72256
 21
77.026576
 31
0.0
  0
LINE
  5
413
330
209
100
AcDbEntity
  8
7_ALL_FEATURES
  6
Continuous
 62
     9
100
AcDbLine
 10
218.371128
 20
80.639665
 30
0.0
 11
218.413842
 21
77.026576
 31
0.0
  0
LINE
  5
414
330
209
100
AcDbEntity
  8
7_ALL_FEATURES
  6
Continuous
 62
     9
100
AcDbLine
 10
218.371128
 20
80.639665
 30
0.0
 11
218.308098
 21
80.639665
 31
0.0
  0
LINE
  5
415
330
209
100
AcDbEntity
  8
7_ALL_FEATURES
  6
Continuous
 62
     9
100
AcDbLine
 10
218.308098
 20
80.639665
 30
0.0
 11
218.339806
 21
77.026576
 31
0.0
  0
LINE
  5
416
330
209
100
AcDbEntity
  8
7_ALL_FEATURES
  6
Continuous
 62
     9
100
AcDbLine
 10
221.391032
 20
80.639665
 30
0.0
 11
221.468227
 21
77.026576
 31
0.0
  0
LINE
  5
417
330
209
100
AcDbEntity
  8
7_ALL_FEATURES
  6
Continuous
 62
     9
100
AcDbLine
 10
221.391032
 20
80.639665
 30
0.0
 11
218.761864
 21
80.639665
 31
0.0
  0
LINE
  5
418
330
209
100
AcDbEntity
  8
7_ALL_FEATURES
  6
Continuous
 62
     9
100
AcDbLine
 10
218.761864
 20
80.639665
 30
0.0
 11
218.79846
 21
77.026576
 31
0.0
  0
SPLINE
  5
419
330
209
100
AcDbEntity
  8
7_ALL_FEATURES
  6
Continuous
 62
     7
100
AcDbSpline
 70
     0
 71
     3
 72
    15
 73
    11
 74
     0
 42
0.000000001
 43
0.0000001
 40
0.0
 40
0.0
 40
0.0
 40
0.0
 40
0.1171954035
 40
0.240984336
 40
0.3693147814
 40
0.4999610006
 40
0.6306123289
 40
0.7589579211
 40
0.8827714757
 40
1.0
 40
1.0
 40
1.0
 40
1.0
 10
223.3484229442
 20
146.343451024
 30
0.0
 10
222.4578129737
 20
146.0327113382
 30
0.0
 10
220.592535937
 20
145.4884962123
 30
0.0
 10
217.6735891753
 20
144.9100099921
 30
0.0
 10
214.6098864994
 20
144.556910952
 30
0.0
 10
211.4731725738
 20
144.4379146446
 30
0.0
 10
208.3362980116
 20
144.5558803196
 30
0.0
 10
205.2721172234
 20
144.9079742231
 30
0.0
 10
202.3523851169
 20
145.4855062205
 30
0.0
 10
200.4864441184
 20
146.0290937763
 30
0.0
 10
199.5954458343
 20
146.3395294467
 30
0.0
  0
SPLINE
  5
41A
330
209
100
AcDbEntity
  8
7_ALL_FEATURES
  6
Continuous
 62
     7
100
AcDbSpline
 70
     0
 71
     3
 72
    15
 73
    11
 74
     0
 42
0.000000001
 43
0.0000001
 40
0.0
 40
0.0
 40
0.0
 40
0.0
 40
0.1524832913
 40
0.2958564191
 40
0.43007324
 40
0.5555867305
 40
0.6733178298
 40
0.7848601611
 40
0.8925693345
 40
1.0
 40
1.0
 40
1.0
 40
1.0
 10
241.2907947954
 20
131.928310291
 30
0.0
 10
242.2273164739
 20
132.3965805322
 30
0.0
 10
244.0115413392
 20
133.3735712416
 30
0.0
 10
246.4726849263
 20
135.0131600029
 30
0.0
 10
248.6171023586
 20
136.7716688908
 30
0.0
 10
250.4255030628
 20
138.6375386984
 30
0.0
 10
251.8806897867
 20
140.6015530211
 30
0.0
 10
252.9651896494
 20
142.6572147139
 30
0.0
 10
253.662159876
 20
144.8015898614
 30
0.0
 10
253.8489749735
 20
146.2777853427
 30
0.0
 10
253.8717119809
 20
147.0151362429
 30
0.0
  0
LINE
  5
41B
330
209
100
AcDbEntity
  8
7_ALL_FEATURES
  6
Continuous
 62
     7
100
AcDbLine
 10
169.06089
 20
147.015444
 30
0.0
 11
169.060703
 21
147.021592
 31
0.0
  0
SPLINE
  5
41C
330
209
100
AcDbEntity
  8
7_ALL_FEATURES
  6
Continuous
 62
     7
100
AcDbSpline
 70
     0
 71
     3
 72
    26
 73
    22
 74
     0
 42
0.000000001
 43
0.0000001
 40
0.0
 40
0.0
 40
0.0
 40
0.0
 40
0.0204976985
 40
0.0408850109
 40
0.0616044162
 40
0.082980314
 40
0.1052548148
 40
0.1286057735
 40
0.1789461961
 40
0.2345232364
 40
0.2952568178
 40
0.3606832328
 40
0.4300635971
 40
0.5024631475
 40
0.5768136177
 40
0.6519663299
 40
0.7267408133
 40
0.7999711927
 40
0.8705555153
 40
0.9375008569
 40
1.0
 40
1.0
 40
1.0
 40
1.0
 10
169.0608438751
 20
147.0151623895
 30
0.0
 10
169.078092075
 20
146.4571257402
 30
0.0
 10
169.1924342127
 20
145.3448109049
 30
0.0
 10
169.6018413186
 20
143.7122299582
 30
0.0
 10
170.2366994008
 20
142.1279377309
 30
0.0
 10
171.0892893315
 20
140.5911727045
 30
0.0
 10
172.1531599784
 20
139.1039265637
 30
0.0
 10
173.8873766185
 20
137.1430452824
 30
0.0
 10
176.5825665671
 20
134.8490100562
 30
0.0
 10
180.4454713585
 20
132.4417914427
 30
0.0
 10
184.9420895393
 20
130.3473315966
 30
0.0
 10
189.9829942681
 20
128.6034210923
 30
0.0
 10
195.4673367931
 20
127.2428795259
 30
0.0
 10
201.2830625657
 20
126.2928413285
 30
0.0
 10
207.3102408662
 20
125.7725891702
 30
0.0
 10
213.4238182457
 20
125.6928193415
 30
0.0
 10
219.4967026706
 20
126.0552017813
 30
0.0
 10
225.4027103862
 20
126.852196292
 30
0.0
 10
231.0198935244
 20
128.067727313
 30
0.0
 10
236.232367165
 20
129.6768314174
 30
0.0
 10
239.4911105641
 20
131.0434081948
 30
0.0
 10
241.0191501087
 20
131.7937145546
 30
0.0
  0
ARC
  5
41D
330
209
100
AcDbEntity
  8
7_ALL_FEATURES
  6
Continuous
 62
     7
100
AcDbCircle
 10
222.447035
 20
169.617805
 30
0.0
 40
42.1376944604
100
AcDbArc
 50
296.151632
 51
296.563896
  0
LINE
  5
41E
330
209
100
AcDbEntity
  8
7_ALL_FEATURES
  6
Continuous
 62
     7
100
AcDbLine
 10
228.975732
 20
152.524391
 30
0.0
 11
228.976489
 21
152.501358
 31
0.0
  0
SPLINE
  5
41F
330
209
100
AcDbEntity
  8
7_ALL_FEATURES
  6
Continuous
 62
     7
100
AcDbSpline
 70
     0
 71
     3
 72
    23
 73
    19
 74
     0
 42
0.000000001
 43
0.0000001
 40
0.0
 40
0.0
 40
0.0
 40
0.0
 40
0.0627756122
 40
0.1305264298
 40
0.2023163045
 40
0.2770561685
 40
0.3535474085
 40
0.4305352261
 40
0.5067475695
 40
0.5809381961
 40
0.6519292492
 40
0.7186581287
 40
0.7802313174
 40
0.8359900257
 40
0.8855948652
 40
0.9290979119
 40
0.9670802168
 40
1.0
 40
1.0
 40
1.0
 40
1.0
 10
198.9122589915
 20
158.1694468574
 30
0.0
 10
199.5428079426
 20
158.4846930156
 30
0.0
 10
200.8941692688
 20
159.0611586026
 30
0.0
 10
203.0642293678
 20
159.7438410393
 30
0.0
 10
205.4163385639
 20
160.2649935023
 30
0.0
 10
207.8990910752
 20
160.6122330309
 30
0.0
 10
210.4589273952
 20
160.7775110038
 30
0.0
 10
213.0404994808
 20
160.7570301837
 30
0.0
 10
215.5880860977
 20
160.5512518761
 30
0.0
 10
218.0466398233
 20
160.1649299383
 30
0.0
 10
220.3629445334
 20
159.607049458
 30
0.0
 10
222.4867953129
 20
158.8907704247
 30
0.0
 10
224.3720179271
 20
158.0332435706
 30
0.0
 10
225.9781090515
 20
157.0557546641
 30
0.0
 10
227.2695320038
 20
155.9830021335
 30
0.0
 10
228.2208946673
 20
154.845762227
 30
0.0
 10
228.8044533352
 20
153.6869237479
 30
0.0
 10
228.9625069816
 20
152.8933394446
 30
0.0
 10
228.9759840044
 20
152.5239000163
 30
0.0
  0
SPLINE
  5
420
330
209
100
AcDbEntity
  8
7_ALL_FEATURES
  6
Continuous
 62
     7
100
AcDbSpline
 70
     0
 71
     3
 72
    13
 73
     9
 74
     0
 42
0.000000001
 43
0.0000001
 40
0.0
 40
0.0
 40
0.0
 40
0.0
 40
0.189501349
 40
0.2981021056
 40
0.4166095122
 40
0.5458583683
 40
0.6862214092
 40
1.0
 40
1.0
 40
1.0
 40
1.0
 10
193.9564081545
 20
152.5155265732
 30
0.0
 10
193.972969411
 20
152.9986210877
 30
0.0
 10
194.1600949979
 20
153.7576734981
 30
0.0
 10
194.6555356025
 20
154.70008364
 30
0.0
 10
195.1951222999
 20
155.4359209824
 30
0.0
 10
195.8806185675
 20
156.1534081004
 30
0.0
 10
197.0249671836
 20
157.1084319505
 30
0.0
 10
198.0225199927
 20
157.7127589381
 30
0.0
 10
198.7341510344
 20
158.0790854235
 30
0.0
  0
ARC
  5
421
330
209
100
AcDbEntity
  8
7_ALL_FEATURES
  6
Continuous
 62
     7
100
AcDbCircle
 10
206.531034
 20
142.931818
 30
0.0
 40
17.0361703855
100
AcDbArc
 50
116.565236
 51
117.236627
  0
LINE
  5
422
330
209
100
AcDbEntity
  8
7_ALL_FEATURES
  6
Continuous
 62
     7
100
AcDbLine
 10
169.060703
 20
147.021592
 30
0.0
 11
168.971167
 21
149.982404
 31
0.0
  0
LINE
  5
423
330
209
100
AcDbEntity
  8
7_ALL_FEATURES
  6
Continuous
 62
     7
100
AcDbLine
 10
253.871916
 20
147.021592
 30
0.0
 11
253.871724
 21
147.015321
 31
0.0
  0
LINE
  5
424
330
209
100
AcDbEntity
  8
7_ALL_FEATURES
  6
Continuous
 62
     7
100
AcDbLine
 10
253.871916
 20
147.021592
 30
0.0
 11
253.961452
 21
149.982404
 31
0.0
  0
ARC
  5
425
330
209
100
AcDbEntity
  8
7_ALL_FEATURES
  6
Continuous
 62
     7
100
AcDbCircle
 10
198.34481
 20
152.771526
 30
0.0
 40
4.3784812405
100
AcDbArc
 50
178.264521
 51
180.739245
  0
ARC
  5
426
330
209
100
AcDbEntity
  8
7_ALL_FEATURES
  6
Continuous
 62
     7
100
AcDbCircle
 10
198.346067
 20
152.77163
 30
0.0
 40
4.3797398209
100
AcDbArc
 50
180.740393
 51
183.340356
  0
LINE
  5
427
330
209
100
AcDbEntity
  8
7_ALL_FEATURES
  6
Continuous
 62
     7
100
AcDbLine
 10
193.973768
 20
152.516435
 30
0.0
 11
193.974642
 21
152.501885
 31
0.0
  0
LINE
  5
428
330
209
100
AcDbEntity
  8
7_ALL_FEATURES
  6
Continuous
 62
     7
100
AcDbLine
 10
193.978434
 20
152.516503
 30
0.0
 11
193.978813
 21
152.501949
 31
0.0
  0
ARC
  5
429
330
209
100
AcDbEntity
  8
7_ALL_FEATURES
  6
Continuous
 62
     7
100
AcDbCircle
 10
198.358816
 20
152.77239
 30
0.0
 40
4.3925108696
100
AcDbArc
 50
183.530697
 51
184.716523
  0
SPLINE
  5
42A
330
209
100
AcDbEntity
  8
7_ALL_FEATURES
  6
Continuous
 62
     7
100
AcDbSpline
 70
     0
 71
     3
 72
    23
 73
    19
 74
     0
 42
0.000000001
 43
0.0000001
 40
0.0
 40
0.0
 40
0.0
 40
0.0
 40
0.0384037859
 40
0.0795901055
 40
0.1250948256
 40
0.1757602424
 40
0.2318353676
 40
0.2931165438
 40
0.3590668955
 40
0.4289085797
 40
0.5016873041
 40
0.5763324512
 40
0.6517008476
 40
0.7266234979
 40
0.79994938
 40
0.870581659
 40
0.9375423309
 40
1.0
 40
1.0
 40
1.0
 40
1.0
 10
193.9811789475
 20
152.411211753
 30
0.0
 10
194.0163460266
 20
151.9849501196
 30
0.0
 10
194.2216605941
 20
151.1085524466
 30
0.0
 10
194.8906682359
 20
149.8718458072
 30
0.0
 10
195.8993312465
 20
148.7085767645
 30
0.0
 10
197.2222950265
 20
147.6370531255
 30
0.0
 10
198.8326194269
 20
146.6738526954
 30
0.0
 10
200.698698182
 20
145.8362524804
 30
0.0
 10
202.7836104198
 20
145.1402905787
 30
0.0
 10
205.0455079365
 20
144.5998528375
 30
0.0
 10
207.4385699814
 20
144.2259391119
 30
0.0
 10
209.9140087204
 20
144.0262341741
 30
0.0
 10
212.4212126169
 20
144.0048583677
 30
0.0
 10
214.9088864235
 20
144.1622434939
 30
0.0
 10
217.3260826488
 20
144.4951618504
 30
0.0
 10
219.6236747736
 20
144.9967330381
 30
0.0
 10
221.7546004431
 20
145.6566581429
 30
0.0
 10
223.0869068937
 20
146.2148810328
 30
0.0
 10
223.7116268111
 20
146.5208017715
 30
0.0
  0
ARC
  5
42B
330
209
100
AcDbEntity
  8
7_ALL_FEATURES
  6
Continuous
 62
     7
100
AcDbCircle
 10
216.063839
 20
162.138877
 30
0.0
 40
17.390023644
100
AcDbArc
 50
296.089856
 51
296.564254
  0
LINE
  5
42C
330
209
100
AcDbEntity
  8
7_ALL_FEATURES
  6
Continuous
 62
     7
100
AcDbLine
 10
193.956129
 20
152.501358
 30
0.0
 11
193.956594
 21
152.515934
 31
0.0
  0
ARC
  5
42D
330
209
100
AcDbEntity
  8
7_ALL_FEATURES
  6
Continuous
 62
     7
100
AcDbCircle
 10
224.589943
 20
152.77215
 30
0.0
 40
4.3763475584
100
AcDbArc
 50
359.982528
 51
1.728149
  0
ARC
  5
42E
330
209
100
AcDbEntity
  8
7_ALL_FEATURES
  6
Continuous
 62
     7
100
AcDbCircle
 10
224.582226
 20
152.772268
 30
0.0
 40
4.384064033
100
AcDbArc
 50
356.82652
 51
359.981028
  0
LINE
  5
42F
330
209
100
AcDbEntity
  8
7_ALL_FEATURES
  6
Continuous
 62
     7
100
AcDbLine
 10
228.959567
 20
152.529569
 30
0.0
 11
228.958247
 21
152.506823
 31
0.0
  0
LINE
  5
430
330
209
100
AcDbEntity
  8
7_ALL_FEATURES
  6
Continuous
 62
     7
100
AcDbLine
 10
228.92361
 20
152.530067
 30
0.0
 11
228.92114
 21
152.507385
 31
0.0
  0
SPLINE
  5
431
330
209
100
AcDbEntity
  8
7_ALL_FEATURES
  6
Continuous
 62
     7
100
AcDbSpline
 70
     0
 71
     3
 72
    13
 73
     9
 74
     0
 42
0.000000001
 43
0.0000001
 40
0.0
 40
0.0
 40
0.0
 40
0.0
 40
0.1019175553
 40
0.2072717406
 40
0.3182832336
 40
0.4366751696
 40
0.6994103068
 40
1.0
 40
1.0
 40
1.0
 40
1.0
 10
228.9582471578
 20
152.5068225099
 30
0.0
 10
228.9414436253
 20
152.2296750004
 30
0.0
 10
228.8531824054
 20
151.6680124208
 30
0.0
 10
228.5640701395
 20
150.8461028959
 30
0.0
 10
228.1218357313
 20
150.0441662981
 30
0.0
 10
227.3066923548
 20
148.974572535
 30
0.0
 10
225.9012944916
 20
147.734274938
 30
0.0
 10
224.5731276419
 20
146.9508835041
 30
0.0
 10
223.8406778873
 20
146.5846586268
 30
0.0
  0
SPLINE
  5
432
330
209
100
AcDbEntity
  8
7_ALL_FEATURES
  6
Continuous
 62
     7
100
AcDbSpline
 70
     0
 71
     3
 72
    26
 73
    22
 74
     0
 42
0.000000001
 43
0.0000001
 40
0.0
 40
0.0
 40
0.0
 40
0.0
 40
0.0627646521
 40
0.130236117
 40
0.201541315
 40
0.27562446
 40
0.3513161568
 40
0.4273821978
 40
0.5025741552
 40
0.5756774803
 40
0.645562396
 40
0.7112382191
 40
0.7719192194
 40
0.8271049523
 40
0.8766910864
 40
0.8995245614
 40
0.9211778829
 40
0.9418161445
 40
0.9616537567
 40
0.980950401
 40
1.0
 40
1.0
 40
1.0
 40
1.0
 10
181.4142710161
 20
165.3296896616
 30
0.0
 10
182.9618897073
 20
166.1034990072
 30
0.0
 10
186.2731412517
 20
167.5132540525
 30
0.0
 10
191.5835548568
 20
169.1718814999
 30
0.0
 10
197.3236502333
 20
170.4243052418
 30
0.0
 10
203.3692559034
 20
171.2429299303
 30
0.0
 10
209.5901534487
 20
171.6100977305
 30
0.0
 10
215.8516624302
 20
171.5177187213
 30
0.0
 10
222.0182279847
 20
170.9678229433
 30
0.0
 10
227.9565087682
 20
169.9724476108
 30
0.0
 10
233.5386163841
 20
168.5531736025
 30
0.0
 10
238.6450348603
 20
166.7405872904
 30
0.0
 10
243.1681688608
 20
164.5722041614
 30
0.0
 10
247.0124848809
 20
162.0925390052
 30
0.0
 10
249.6553446283
 20
159.7403008759
 30
0.0
 10
251.3176030161
 20
157.7440875428
 30
0.0
 10
252.3122481309
 20
156.2446592642
 30
0.0
 10
253.0826639274
 20
154.709882281
 30
0.0
 10
253.6234959919
 20
153.1478291104
 30
0.0
 10
253.9304411789
 20
151.5680109256
 30
0.0
 10
253.9773064886
 20
150.5073210672
 30
0.0
 10
253.9614184063
 20
149.9824038249
 30
0.0
  0
SPLINE
  5
433
330
209
100
AcDbEntity
  8
7_ALL_FEATURES
  6
Continuous
 62
     7
100
AcDbSpline
 70
     0
 71
     3
 72
    15
 73
    11
 74
     0
 42
0.000000001
 43
0.0000001
 40
0.0
 40
0.0
 40
0.0
 40
0.0
 40
0.1564569126
 40
0.3028484048
 40
0.439032831
 40
0.5654160776
 40
0.6828821013
 40
0.7929405928
 40
0.8977450125
 40
1.0
 40
1.0
 40
1.0
 40
1.0
 10
181.4142710161
 20
165.3296896616
 30
0.0
 10
180.4428990802
 20
164.8440036937
 30
0.0
 10
178.5977671773
 20
163.8306003348
 30
0.0
 10
176.0659563609
 20
162.1261797634
 30
0.0
 10
173.8836639966
 20
160.3014408461
 30
0.0
 10
172.0728401981
 20
158.3730187997
 30
0.0
 10
170.6526658539
 20
156.357188021
 30
0.0
 10
169.6405723941
 20
154.2713261597
 30
0.0
 10
169.0520552994
 20
152.1369350537
 30
0.0
 10
168.9497479033
 20
150.691870743
 30
0.0
 10
168.9711758047
 20
149.982403564
 30
0.0
  0
SPLINE
  5
434
330
209
100
AcDbEntity
  8
7_ALL_FEATURES
  6
Continuous
 62
     9
100
AcDbSpline
 70
     0
 71
     3
 72
    15
 73
    11
 74
     0
 42
0.000000001
 43
0.0000001
 40
0.0
 40
0.0
 40
0.0
 40
0.0
 40
0.1022548137
 40
0.207059354
 40
0.3171178811
 40
0.4345837941
 40
0.5609671716
 40
0.6971515892
 40
0.8435430403
 40
1.0
 40
1.0
 40
1.0
 40
1.0
 10
169.0607112322
 20
147.021591689
 30
0.0
 10
169.0393276805
 20
147.7295628133
 30
0.0
 10
169.1414199815
 20
149.1715822533
 30
0.0
 10
169.7286990277
 20
151.3014753354
 30
0.0
 10
170.7386568653
 20
153.3829442233
 30
0.0
 10
172.1558408927
 20
155.3945270395
 30
0.0
 10
173.9628490415
 20
157.3188861287
 30
0.0
 10
176.1405432296
 20
159.1397815481
 30
0.0
 10
178.6670200971
 20
160.8406101897
 30
0.0
 10
180.5082641889
 20
161.8518786992
 30
0.0
 10
181.4775897654
 20
162.3365414874
 30
0.0
  0
SPLINE
  5
435
330
209
100
AcDbEntity
  8
7_ALL_FEATURES
  6
Continuous
 62
     9
100
AcDbSpline
 70
     0
 71
     3
 72
    14
 73
    10
 74
     0
 42
0.000000001
 43
0.0000001
 40
0.0
 40
0.0
 40
0.0
 40
0.0
 40
0.1028395054
 40
0.2081396751
 40
0.3185339462
 40
0.4361395943
 40
0.5624399866
 40
0.6983623403
 40
1.0
 40
1.0
 40
1.0
 40
1.0
 10
228.9764787091
 20
152.5013576105
 30
0.0
 10
228.9851302434
 20
152.2145819669
 30
0.0
 10
228.9449471891
 20
151.6308525481
 30
0.0
 10
228.7122399239
 20
150.7680327412
 30
0.0
 10
228.3114552764
 20
149.9239244375
 30
0.0
 10
227.7483364327
 20
149.10715799
 30
0.0
 10
227.0298311739
 20
148.3241924044
 30
0.0
 10
225.8328248659
 20
147.2992289188
 30
0.0
 10
224.7834735761
 20
146.6575543616
 30
0.0
 10
224.0354696914
 20
146.2720038679
 30
0.0
  0
ARC
  5
436
330
209
100
AcDbEntity
  8
7_ALL_FEATURES
  6
Continuous
 62
     9
100
AcDbCircle
 10
216.242483
 20
161.392094
 30
0.0
 40
17.0102252441
100
AcDbArc
 50
296.563561
 51
297.266855
  0
SPLINE
  5
437
330
209
100
AcDbEntity
  8
7_ALL_FEATURES
  6
Continuous
 62
     9
100
AcDbSpline
 70
     0
 71
     3
 72
    11
 73
     7
 74
     0
 42
0.000000001
 43
0.0000001
 40
0.0
 40
0.0
 40
0.0
 40
0.0
 40
0.2454518368
 40
0.5005908
 40
0.7554272106
 40
1.0
 40
1.0
 40
1.0
 40
1.0
 10
220.4669759466
 20
145.2767033667
 30
0.0
 10
219.0033059365
 20
144.9202385957
 30
0.0
 10
215.9660970277
 20
144.3973271347
 30
0.0
 10
211.3266960486
 20
144.150453748
 30
0.0
 10
206.6944554811
 20
144.428549508
 30
0.0
 10
203.668179706
 20
144.9724595811
 30
0.0
 10
202.2126627657
 20
145.3393949897
 30
0.0
  0
SPLINE
  5
438
330
209
100
AcDbEntity
  8
7_ALL_FEATURES
  6
Continuous
 62
     9
100
AcDbSpline
 70
     0
 71
     3
 72
    11
 73
     7
 74
     0
 42
0.000000001
 43
0.0000001
 40
0.0
 40
0.0
 40
0.0
 40
0.0
 40
0.2264827669
 40
0.4715139559
 40
0.7310006229
 40
1.0
 40
1.0
 40
1.0
 40
1.0
 10
185.2480181191
 20
159.9283812095
 30
0.0
 10
186.7681045899
 20
160.6884244449
 30
0.0
 10
190.0434158321
 20
162.0538896558
 30
0.0
 10
195.3152803927
 20
163.600506576
 30
0.0
 10
201.0235268782
 20
164.6957059681
 30
0.0
 10
204.9741932033
 20
165.100129812
 30
0.0
 10
206.9890184309
 20
165.2226922352
 30
0.0
  0
LINE
  5
439
330
209
100
AcDbEntity
  8
7_ALL_FEATURES
  6
Continuous
 62
     9
100
AcDbLine
 10
206.989018
 20
165.222692
 30
0.0
 11
207.12721
 21
165.230967
 31
0.0
  0
ARC
  5
43A
330
209
100
AcDbEntity
  8
7_ALL_FEATURES
  6
Continuous
 62
     9
100
AcDbCircle
 10
211.429039
 20
92.228204
 30
0.0
 40
73.1294000601
100
AcDbArc
 50
93.117767
 51
93.372365
  0
ARC
  5
43B
330
209
100
AcDbEntity
  8
7_ALL_FEATURES
  6
Continuous
 62
     9
100
AcDbCircle
 10
211.442866
 20
91.967402
 30
0.0
 40
73.3905683017
100
AcDbArc
 50
92.276505
 51
93.117472
  0
ARC
  5
43C
330
209
100
AcDbEntity
  8
7_ALL_FEATURES
  6
Continuous
 62
     9
100
AcDbCircle
 10
211.450367
 20
91.788956
 30
0.0
 40
73.5691710272
100
AcDbArc
 50
92.110466
 51
92.276822
  0
LINE
  5
43D
330
209
100
AcDbEntity
  8
7_ALL_FEATURES
  6
Continuous
 62
     9
100
AcDbLine
 10
208.74109
 20
165.308224
 30
0.0
 11
208.821176
 21
165.311132
 31
0.0
  0
LINE
  5
43E
330
209
100
AcDbEntity
  8
7_ALL_FEATURES
  6
Continuous
 62
     9
100
AcDbLine
 10
208.741506
 20
165.305404
 30
0.0
 11
208.821176
 21
165.311132
 31
0.0
  0
SPLINE
  5
43F
330
209
100
AcDbEntity
  8
7_ALL_FEATURES
  6
Continuous
 62
     9
100
AcDbSpline
 70
     0
 71
     3
 72
    15
 73
    11
 74
     0
 42
0.000000001
 43
0.0000001
 40
0.0
 40
0.0
 40
0.0
 40
0.0
 40
0.1439168969
 40
0.2865629345
 40
0.4255647363
 40
0.5586989563
 40
0.6840001539
 40
0.7998862875
 40
0.9053162161
 40
1.0
 40
1.0
 40
1.0
 40
1.0
 10
208.8211762606
 20
165.3111315059
 30
0.0
 10
210.6734841558
 20
165.377372056
 30
0.0
 10
214.3681725877
 20
165.3706976563
 30
0.0
 10
219.8378629033
 20
164.9504198394
 30
0.0
 10
225.1221239907
 20
164.1293487061
 30
0.0
 10
230.1037910309
 20
162.925745239
 30
0.0
 10
234.6734523774
 20
161.3663153726
 30
0.0
 10
238.7323681747
 20
159.4840817945
 30
0.0
 10
242.1921850502
 20
157.3194847189
 30
0.0
 10
244.1543214192
 20
155.6245492375
 30
0.0
 10
244.9917727862
 20
154.7381697461
 30
0.0
  0
ARC
  5
440
330
209
100
AcDbEntity
  8
7_ALL_FEATURES
  6
Continuous
 62
     9
100
AcDbCircle
 10
232.055115
 20
142.515565
 30
0.0
 40
17.797448546
100
AcDbArc
 50
43.157865
 51
43.374307
  0
ARC
  5
441
330
209
100
AcDbEntity
  8
7_ALL_FEATURES
  6
Continuous
 62
     9
100
AcDbCircle
 10
232.153378
 20
142.607666
 30
0.0
 40
17.6627708686
100
AcDbArc
 50
42.868518
 51
43.157956
  0
SPLINE
  5
442
330
209
100
AcDbEntity
  8
7_ALL_FEATURES
  6
Continuous
 62
     9
100
AcDbSpline
 70
     0
 71
     3
 72
    19
 73
    15
 74
     0
 42
0.000000001
 43
0.0000001
 40
0.0
 40
0.0
 40
0.0
 40
0.0
 40
0.1291509985
 40
0.1893906834
 40
0.2473119231
 40
0.3035212957
 40
0.3587122665
 40
0.4136379925
 40
0.469066549
 40
0.5257365761
 40
0.5843172465
 40
0.7092198397
 40
0.8472483134
 40
1.0
 40
1.0
 40
1.0
 40
1.0
 10
245.0987199374
 20
154.6239710086
 30
0.0
 10
245.7757286653
 20
153.8946142395
 30
0.0
 10
246.6827716866
 20
152.7349821836
 30
0.0
 10
247.5928815617
 20
151.0568788548
 30
0.0
 10
248.090113693
 20
149.8049021618
 30
0.0
 10
248.4143851491
 20
148.5373419084
 30
0.0
 10
248.5633001685
 20
147.2604330794
 30
0.0
 10
248.535957341
 20
145.9811253036
 30
0.0
 10
248.3323862626
 20
144.7064078065
 30
0.0
 10
247.9541600958
 20
143.4429747313
 30
0.0
 10
247.2048055556
 20
141.7464962883
 30
0.0
 10
245.8077836897
 20
139.6753137281
 30
0.0
 10
243.5346982702
 20
137.398567941
 30
0.0
 10
241.7194864865
 20
136.070440216
 30
0.0
 10
240.7292716122
 20
135.4342203912
 30
0.0
  0
SPLINE
  5
443
330
209
100
AcDbEntity
  8
7_ALL_FEATURES
  6
Continuous
 62
     9
100
AcDbSpline
 70
     0
 71
     3
 72
     9
 73
     5
 74
     0
 42
0.000000001
 43
0.0000001
 40
0.0
 40
0.0
 40
0.0
 40
0.0
 40
0.2426257379
 40
1.0
 40
1.0
 40
1.0
 40
1.0
 10
240.7292716122
 20
135.4342203912
 30
0.0
 10
240.4911328804
 20
135.2812146283
 30
0.0
 10
239.5003611244
 20
134.6650630401
 30
0.0
 10
238.4748991765
 20
134.1052395434
 30
0.0
 10
237.6846003139
 20
133.7100901121
 30
0.0
  0
ARC
  5
444
330
209
100
AcDbEntity
  8
7_ALL_FEATURES
  6
Continuous
 62
     9
100
AcDbCircle
 10
206.748076
 20
142.058288
 30
0.0
 40
17.9844184972
100
AcDbArc
 50
115.954391
 51
116.563737
  0
SPLINE
  5
445
330
209
100
AcDbEntity
  8
7_ALL_FEATURES
  6
Continuous
 62
     9
100
AcDbSpline
 70
     0
 71
     3
 72
    31
 73
    27
 74
     0
 42
0.000000001
 43
0.0000001
 40
0.0
 40
0.0
 40
0.0
 40
0.0
 40
0.0681450636
 40
0.1424150968
 40
0.2210063281
 40
0.3017712734
 40
0.3824177344
 40
0.4606599876
 40
0.5343803693
 40
0.6018054747
 40
0.6327767654
 40
0.6617847246
 40
0.6888183903
 40
0.7139480945
 40
0.7373410327
 40
0.7592798664
 40
0.7801646318
 40
0.8005014077
 40
0.8208579899
 40
0.8417997486
 40
0.8638263032
 40
0.8873315481
 40
0.9125849354
 40
0.939751606
 40
0.9689057292
 40
1.0
 40
1.0
 40
1.0
 40
1.0
 10
198.8770951649
 20
158.2288474622
 30
0.0
 10
199.7653465004
 20
158.661226756
 30
0.0
 10
201.6950589419
 20
159.4171500735
 30
0.0
 10
204.8056204889
 20
160.2106932282
 30
0.0
 10
208.1642754959
 20
160.6922710931
 30
0.0
 10
211.6457674817
 20
160.8431814701
 30
0.0
 10
215.1205679484
 20
160.6578975436
 30
0.0
 10
218.4594416563
 20
160.1433276764
 30
0.0
 10
221.5380313929
 20
159.3189764562
 30
0.0
 10
223.8571719049
 20
158.3733875042
 30
0.0
 10
225.4736404361
 20
157.4757754099
 30
0.0
 10
226.5192640669
 20
156.7667586053
 30
0.0
 10
227.4228861493
 20
156.0093574144
 30
0.0
 10
228.1759694719
 20
155.2099515009
 30
0.0
 10
228.7707633458
 20
154.3750259653
 30
0.0
 10
229.2006251318
 20
153.511704924
 30
0.0
 10
229.4591733736
 20
152.6278422737
 30
0.0
 10
229.54191874
 20
151.7332185193
 30
0.0
 10
229.4470942315
 20
150.8389710904
 30
0.0
 10
229.1765704963
 20
149.9562616404
 30
0.0
 10
228.7353447337
 20
149.0945685821
 30
0.0
 10
228.1293813916
 20
148.261961515
 30
0.0
 10
227.3658785115
 20
147.4651614695
 30
0.0
 10
226.4521579794
 20
146.7107675629
 30
0.0
 10
225.3971306725
 20
146.0054979615
 30
0.0
 10
224.6302342949
 20
145.5850764112
 30
0.0
 10
224.2270505294
 20
145.3834845284
 30
0.0
  0
SPLINE
  5
446
330
209
100
AcDbEntity
  8
7_ALL_FEATURES
  6
Continuous
 62
     9
100
AcDbSpline
 70
     0
 71
     3
 72
    35
 73
    31
 74
     0
 42
0.000000001
 43
0.0000001
 40
0.0
 40
0.0
 40
0.0
 40
0.0
 40
0.0329728041
 40
0.0677036473
 40
0.103999257
 40
0.1416551105
 40
0.2200308091
 40
0.3007147647
 40
0.3813986562
 40
0.4597742557
 40
0.4974298976
 40
0.5337275088
 40
0.5684536019
 40
0.6014296303
 40
0.6325203255
 40
0.6616434075
 40
0.6887826147
 40
0.7140036612
 40
0.7374704551
 40
0.7594607181
 40
0.7803734397
 40
0.8007149607
 40
0.8210564886
 40
0.8419693608
 40
0.8639595599
 40
0.8874262884
 40
0.9126475943
 40
0.9397853232
 40
0.9689129205
 40
1.0
 40
1.0
 40
1.0
 40
1.0
 10
238.2941572293
 20
133.2957411293
 30
0.0
 10
237.3912249097
 20
132.8442749695
 30
0.0
 10
235.4993627513
 20
131.9916451299
 30
0.0
 10
232.5101635707
 20
130.8885305887
 30
0.0
 10
229.319505152
 20
129.9366240998
 30
0.0
 10
224.7778170506
 20
128.8672496019
 30
0.0
 10
218.8091166922
 20
127.9760386742
 30
0.0
 10
211.4663249737
 20
127.6195516745
 30
0.0
 10
204.1235291878
 20
127.9760183907
 30
0.0
 10
198.1548549197
 20
128.8672591438
 30
0.0
 10
193.6130947712
 20
129.9366282905
 30
0.0
 10
190.4225738849
 20
130.8885076038
 30
0.0
 10
187.4331792783
 20
131.9916240017
 30
0.0
 10
184.6731511359
 20
133.2356211507
 30
0.0
 10
182.1685180665
 20
134.6088727755
 30
0.0
 10
179.9428258302
 20
136.0988867539
 30
0.0
 10
178.0170521977
 20
137.6924934665
 30
0.0
 10
176.4095817152
 20
139.3759974481
 30
0.0
 10
175.1366857766
 20
141.1354212935
 30
0.0
 10
174.213156022
 20
142.956047009
 30
0.0
 10
173.6521806265
 20
144.8209704482
 30
0.0
 10
173.4638288166
 20
146.7096694627
 30
0.0
 10
173.6521273387
 20
148.5983863359
 30
0.0
 10
174.2131895802
 20
150.4632899842
 30
0.0
 10
175.1367211288
 20
152.2839063856
 30
0.0
 10
176.4095712781
 20
154.0433734297
 30
0.0
 10
178.0170378541
 20
155.7268182078
 30
0.0
 10
179.9429028034
 20
157.3205232204
 30
0.0
 10
182.1685090898
 20
158.8103907696
 30
0.0
 10
183.7871678537
 20
159.697942467
 30
0.0
 10
184.6384612038
 20
160.1235891421
 30
0.0
  0
SPLINE
  5
447
330
209
100
AcDbEntity
  8
7_ALL_FEATURES
  6
Continuous
 62
     9
100
AcDbSpline
 70
     0
 71
     3
 72
    11
 73
     7
 74
     0
 42
0.000000001
 43
0.0000001
 40
0.0
 40
0.0
 40
0.0
 40
0.0
 40
0.2275449035
 40
0.4723591352
 40
0.7311652496
 40
1.0
 40
1.0
 40
1.0
 40
1.0
 10
184.6384612038
 20
160.1235891421
 30
0.0
 10
186.0419037588
 20
160.8253104196
 30
0.0
 10
189.0473849011
 20
162.1015243251
 30
0.0
 10
193.8699364702
 20
163.5960489307
 30
0.0
 10
199.0839443879
 20
164.716083766
 30
0.0
 10
202.6958728914
 20
165.189855563
 30
0.0
 10
204.5417615912
 20
165.3611724609
 30
0.0
  0
ARC
  5
448
330
209
100
AcDbEntity
  8
7_ALL_FEATURES
  6
Continuous
 62
     9
100
AcDbCircle
 10
211.364722
 20
91.819048
 30
0.0
 40
73.8579509814
100
AcDbArc
 50
93.364863
 51
95.300512
  0
ARC
  5
449
330
209
100
AcDbEntity
  8
7_ALL_FEATURES
  6
Continuous
 62
     9
100
AcDbCircle
 10
211.434549
 20
90.729343
 30
0.0
 40
74.9498760318
100
AcDbArc
 50
92.143455
 51
93.369258
  0
ARC
  5
44A
330
209
100
AcDbEntity
  8
7_ALL_FEATURES
  6
Continuous
 62
     9
100
AcDbCircle
 10
211.463154
 20
90.003181
 30
0.0
 40
75.6765996695
100
AcDbArc
 50
90.602982
 51
92.144534
  0
ARC
  5
44B
330
209
100
AcDbEntity
  8
7_ALL_FEATURES
  6
Continuous
 62
     9
100
AcDbCircle
 10
211.466968
 20
89.800093
 30
0.0
 40
75.8797163469
100
AcDbArc
 50
89.414383
 51
90.604248
  0
SPLINE
  5
44C
330
209
100
AcDbEntity
  8
7_ALL_FEATURES
  6
Continuous
 62
     9
100
AcDbSpline
 70
     0
 71
     3
 72
    14
 73
    10
 74
     0
 42
0.000000001
 43
0.0000001
 40
0.0
 40
0.0
 40
0.0
 40
0.0
 40
0.2762963247
 40
0.4107736909
 40
0.5410722429
 40
0.6660453698
 40
0.7846909804
 40
0.8961975481
 40
1.0
 40
1.0
 40
1.0
 40
1.0
 10
212.2425167411
 20
165.6758458127
 30
0.0
 10
215.1122842536
 20
165.6465053645
 30
0.0
 10
219.382421858
 20
165.3626647478
 30
0.0
 10
224.9366479174
 20
164.4880127742
 30
0.0
 10
228.8911501917
 20
163.6071433614
 30
0.0
 10
232.6194040986
 20
162.5073987528
 30
0.0
 10
236.0738477578
 20
161.2027113602
 30
0.0
 10
239.2096788753
 20
159.7100255982
 30
0.0
 10
241.1327426735
 20
158.5590325119
 30
0.0
 10
242.0245661297
 20
157.9530787019
 30
0.0
  0
ARC
  5
44D
330
209
100
AcDbEntity
  8
7_ALL_FEATURES
  6
Continuous
 62
     9
100
AcDbCircle
 10
226.385946
 20
134.936535
 30
0.0
 40
27.8267443731
100
AcDbArc
 50
55.59407
 51
55.805801
  0
ARC
  5
44E
330
209
100
AcDbEntity
  8
7_ALL_FEATURES
  6
Continuous
 62
     9
100
AcDbCircle
 10
226.510124
 20
135.117856
 30
0.0
 40
27.6069777817
100
AcDbArc
 50
55.385494
 51
55.594065
  0
SPLINE
  5
44F
330
209
100
AcDbEntity
  8
7_ALL_FEATURES
  6
Continuous
 62
     9
100
AcDbSpline
 70
     0
 71
     3
 72
    23
 73
    19
 74
     0
 42
0.000000001
 43
0.0000001
 40
0.0
 40
0.0
 40
0.0
 40
0.0
 40
0.0720585993
 40
0.1395780755
 40
0.2027829794
 40
0.2620978377
 40
0.3181660185
 40
0.3718566169
 40
0.4242359457
 40
0.4764913045
 40
0.5298223216
 40
0.5853264574
 40
0.6439180849
 40
0.7062884538
 40
0.7728999846
 40
0.8440181029
 40
0.9197527222
 40
1.0
 40
1.0
 40
1.0
 40
1.0
 10
242.1923264635
 20
157.8381938752
 30
0.0
 10
242.8267305799
 20
157.4003084504
 30
0.0
 10
244.0209402938
 20
156.4999217767
 30
0.0
 10
245.6195195796
 20
155.0278550544
 30
0.0
 10
246.9546068498
 20
153.4882609591
 30
0.0
 10
248.0149840632
 20
151.8920062427
 30
0.0
 10
248.7906567591
 20
150.2502742875
 30
0.0
 10
249.2728038702
 20
148.5756913835
 30
0.0
 10
249.4551093629
 20
146.8829727051
 30
0.0
 10
249.334627493
 20
145.1885108667
 30
0.0
 10
248.9132211838
 20
143.5089877038
 30
0.0
 10
248.1969354939
 20
141.8594347363
 30
0.0
 10
247.1939428468
 20
140.252917172
 30
0.0
 10
245.9140680771
 20
138.7009507182
 30
0.0
 10
244.3683721367
 20
137.2141454621
 30
0.0
 10
242.5688173486
 20
135.8028313801
 30
0.0
 10
240.52959026
 20
134.4773997016
 30
0.0
 10
239.0619787479
 20
133.6796518886
 30
0.0
 10
238.2941572293
 20
133.2957411293
 30
0.0
  0
SPLINE
  5
450
330
209
100
AcDbEntity
  8
7_ALL_FEATURES
  6
Continuous
 62
     9
100
AcDbSpline
 70
     0
 71
     3
 72
    35
 73
    31
 74
     0
 42
0.000000001
 43
0.0000001
 40
0.0
 40
0.0
 40
0.0
 40
0.0
 40
0.0329728041
 40
0.0677036473
 40
0.103999257
 40
0.1416551105
 40
0.2200308091
 40
0.3007147647
 40
0.3813986562
 40
0.4597742557
 40
0.4974298976
 40
0.5337275088
 40
0.5684536019
 40
0.6014296303
 40
0.6325203255
 40
0.6616434075
 40
0.6887826147
 40
0.7140036612
 40
0.7374704551
 40
0.7594607181
 40
0.7803734397
 40
0.8007149607
 40
0.8210564886
 40
0.8419693608
 40
0.8639595599
 40
0.8874262884
 40
0.9126475943
 40
0.9397853232
 40
0.9689129205
 40
1.0
 40
1.0
 40
1.0
 40
1.0
 10
240.9248803127
 20
131.9803795876
 30
0.0
 10
239.9334069783
 20
131.4846429204
 30
0.0
 10
237.856029924
 20
130.5484046976
 30
0.0
 10
234.573711621
 20
129.3371193901
 30
0.0
 10
231.0701791045
 20
128.2918695077
 30
0.0
 10
226.0831357246
 20
127.1176327718
 30
0.0
 10
219.5291481001
 20
126.1390302217
 30
0.0
 10
211.4663265205
 20
125.747586315
 30
0.0
 10
203.4035004743
 20
126.1390079489
 30
0.0
 10
196.8495414984
 20
127.1176432488
 30
0.0
 10
191.8624190061
 20
128.2918741087
 30
0.0
 10
188.3590375077
 20
129.3370941507
 30
0.0
 10
185.0765046144
 20
130.5483814973
 30
0.0
 10
182.0458297266
 20
131.9143642793
 30
0.0
 10
179.2955938034
 20
133.4222761552
 30
0.0
 10
176.8516514881
 20
135.0584000329
 30
0.0
 10
174.7370376197
 20
136.8082748877
 30
0.0
 10
172.971939522
 20
138.6568622851
 30
0.0
 10
171.5742241523
 20
140.5888142038
 30
0.0
 10
170.5601336103
 20
142.5879694122
 30
0.0
 10
169.9441492958
 20
144.6357661531
 30
0.0
 10
169.7373278178
 20
146.7096698883
 30
0.0
 10
169.9440907831
 20
148.7835932335
 30
0.0
 10
170.5601704602
 20
150.8313682427
 30
0.0
 10
171.5742629725
 20
152.8305132236
 30
0.0
 10
172.9719280633
 20
154.7625125768
 30
0.0
 10
174.7370218719
 20
156.6110349651
 30
0.0
 10
176.8517360116
 20
158.3610177586
 30
0.0
 10
179.2955839479
 20
159.9969808479
 30
0.0
 10
181.0729674426
 20
160.9715653449
 30
0.0
 10
182.0077381204
 20
161.4389506837
 30
0.0
  0
SPLINE
  5
451
330
209
100
AcDbEntity
  8
7_ALL_FEATURES
  6
Continuous
 62
     9
100
AcDbSpline
 70
     0
 71
     3
 72
    12
 73
     8
 74
     0
 42
0.000000001
 43
0.0000001
 40
0.0
 40
0.0
 40
0.0
 40
0.0
 40
0.1103178975
 40
0.2259946851
 40
0.4712216748
 40
0.7311041686
 40
1.0
 40
1.0
 40
1.0
 40
1.0
 10
182.0077381204
 20
161.4389506837
 30
0.0
 10
182.8957979274
 20
161.8829805872
 30
0.0
 10
184.7483601148
 20
162.7271998901
 30
0.0
 10
188.7135445073
 20
164.2380004234
 30
0.0
 10
194.1019306727
 20
165.7613184575
 30
0.0
 10
200.9706296467
 20
166.9782778462
 30
0.0
 10
205.7207057157
 20
167.3766129888
 30
0.0
 10
208.1388779769
 20
167.4734682902
 30
0.0
  0
LINE
  5
452
330
209
100
AcDbEntity
  8
7_ALL_FEATURES
  6
Continuous
 62
     9
100
AcDbLine
 10
208.138878
 20
167.473468
 30
0.0
 11
208.183531
 21
167.475245
 31
0.0
  0
LINE
  5
453
330
209
100
AcDbEntity
  8
7_ALL_FEATURES
  6
Continuous
 62
     9
100
AcDbLine
 10
208.143191
 20
167.446548
 30
0.0
 11
208.187945
 21
167.447318
 31
0.0
  0
SPLINE
  5
454
330
209
100
AcDbEntity
  8
7_ALL_FEATURES
  6
Continuous
 62
     9
100
AcDbSpline
 70
     0
 71
     3
 72
    29
 73
    25
 74
     0
 42
0.000000001
 43
0.0000001
 40
0.0
 40
0.0
 40
0.0
 40
0.0
 40
0.0858486676
 40
0.1709895598
 40
0.2539763905
 40
0.3334532468
 40
0.4082213622
 40
0.4773168333
 40
0.5401083261
 40
0.5964279143
 40
0.6223122362
 40
0.6468225548
 40
0.6701499413
 40
0.6925454748
 40
0.7143148584
 40
0.7358051354
 40
0.7573834687
 40
0.7794106814
 40
0.8022159319
 40
0.8260803777
 40
0.8512265087
 40
0.8778180652
 40
0.9356647034
 40
1.0
 40
1.0
 40
1.0
 40
1.0
 10
208.1835311762
 20
167.4752447068
 30
0.0
 10
210.285335939
 20
167.5582911222
 30
0.0
 10
214.4796010858
 20
167.5647245919
 30
0.0
 10
220.6911886843
 20
167.1039428875
 30
0.0
 10
226.6943941213
 20
166.1834235353
 30
0.0
 10
232.3534514718
 20
164.8240512595
 30
0.0
 10
237.5416539587
 20
163.0565292572
 30
0.0
 10
242.1445783253
 20
160.9192271862
 30
0.0
 10
246.0605573609
 20
158.4581597648
 30
0.0
 10
248.7553116982
 20
156.1112462785
 30
0.0
 10
250.4492733883
 20
154.1136525079
 30
0.0
 10
251.4611603664
 20
152.6123927318
 30
0.0
 10
252.2433187505
 20
151.0742645682
 30
0.0
 10
252.7900580973
 20
149.5078593299
 30
0.0
 10
253.0967628629
 20
147.9226739386
 30
0.0
 10
253.1604019669
 20
146.329139449
 30
0.0
 10
252.9805700251
 20
144.7382238954
 30
0.0
 10
252.558716202
 20
143.1607832274
 30
0.0
 10
251.8990168284
 20
141.6067121658
 30
0.0
 10
251.0063513222
 20
140.085217805
 30
0.0
 10
249.8872143044
 20
138.6043544578
 30
0.0
 10
248.0506669054
 20
136.6400160655
 30
0.0
 10
245.1931383071
 20
134.3467242518
 30
0.0
 10
242.5998888686
 20
132.8322459316
 30
0.0
 10
241.1952588574
 20
132.116824627
 30
0.0
  0
ARC
  5
455
330
209
100
AcDbEntity
  8
7_ALL_FEATURES
  6
Continuous
 62
     9
100
AcDbCircle
 10
222.712648
 20
168.405726
 30
0.0
 40
40.7245786623
100
AcDbArc
 50
296.564497
 51
296.990589
  0
SPLINE
  5
456
330
209
100
AcDbEntity
  8
7_ALL_FEATURES
  6
Continuous
 62
     9
100
AcDbSpline
 70
     0
 71
     3
 72
    25
 73
    21
 74
     0
 42
0.000000001
 43
0.0000001
 40
0.0
 40
0.0
 40
0.0
 40
0.0
 40
0.0627656093
 40
0.1302465899
 40
0.201554107
 40
0.2756429465
 40
0.3513392512
 40
0.4274103019
 40
0.5026071434
 40
0.5757154045
 40
0.6456049552
 40
0.7112852383
 40
0.7719700323
 40
0.8271593248
 40
0.876748476
 40
0.9211725249
 40
0.9418124199
 40
0.9616511047
 40
0.9809491645
 40
1.0
 40
1.0
 40
1.0
 40
1.0
 10
223.8492914032
 20
146.1774880864
 30
0.0
 10
223.2116255413
 20
145.8586551554
 30
0.0
 10
221.8471916068
 20
145.277780083
 30
0.0
 10
219.659051096
 20
144.5942871446
 30
0.0
 10
217.2937859597
 20
144.0782714195
 30
0.0
 10
214.8027141283
 20
143.7409293748
 30
0.0
 10
212.2393791412
 20
143.5896517014
 30
0.0
 10
209.6593222226
 20
143.6277090049
 30
0.0
 10
207.1183812035
 20
143.8542900324
 30
0.0
 10
204.671501065
 20
144.264435941
 30
0.0
 10
202.3713928143
 20
144.8492319146
 30
0.0
 10
200.2672526784
 20
145.5961586028
 30
0.0
 10
198.4036102847
 20
146.4894941549
 30
0.0
 10
196.8191880512
 20
147.511747314
 30
0.0
 10
195.5471733543
 20
148.6433690323
 30
0.0
 10
194.7520121633
 20
149.689360087
 30
0.0
 10
194.3182154878
 20
150.553359047
 30
0.0
 10
194.0954271989
 20
151.1970551068
 30
0.0
 10
193.968890475
 20
151.8479994945
 30
0.0
 10
193.9496054517
 20
152.2850650872
 30
0.0
 10
193.9561584661
 20
152.5013574683
 30
0.0
  0
SPLINE
  5
457
330
209
100
AcDbEntity
  8
7_ALL_FEATURES
  6
Continuous
 62
     9
100
AcDbSpline
 70
     0
 71
     3
 72
    35
 73
    31
 74
     0
 42
0.000000001
 43
0.0000001
 40
0.0
 40
0.0
 40
0.0
 40
0.0
 40
0.0329720838
 40
0.067704165
 40
0.1039995831
 40
0.1416552578
 40
0.2200309905
 40
0.3007149272
 40
0.3813988295
 40
0.4597743536
 40
0.4974301076
 40
0.533727455
 40
0.568453556
 40
0.6014298525
 40
0.6325203106
 40
0.661643216
 40
0.6887827363
 40
0.7140037239
 40
0.7374702928
 40
0.7594606706
 40
0.7803734492
 40
0.8007149278
 40
0.8210564215
 40
0.841969205
 40
0.8639594649
 40
0.8874263581
 40
0.9126472694
 40
0.9397848836
 40
0.9689137541
 40
1.0
 40
1.0
 40
1.0
 40
1.0
 10
237.6846003139
 20
133.7100901121
 30
0.0
 10
236.8022029218
 20
133.268891416
 30
0.0
 10
234.9533040194
 20
132.4356460805
 30
0.0
 10
232.0320240654
 20
131.357566249
 30
0.0
 10
228.9138362042
 20
130.4272761863
 30
0.0
 10
224.4753406208
 20
129.3822459593
 30
0.0
 10
218.6422702771
 20
128.5112239824
 30
0.0
 10
211.4663102776
 20
128.1628974268
 30
0.0
 10
204.290352221
 20
128.5112232156
 30
0.0
 10
198.4572969077
 20
129.3822423902
 30
0.0
 10
194.0187269663
 20
130.4272724075
 30
0.0
 10
190.9007194786
 20
131.357581676
 30
0.0
 10
187.9792436406
 20
132.4356180924
 30
0.0
 10
185.2819018243
 20
133.6513016779
 30
0.0
 10
182.8342028664
 20
134.9933945691
 30
0.0
 10
180.6591039879
 20
136.449576133
 30
0.0
 10
178.7770340617
 20
138.006914225
 30
0.0
 10
177.2060969386
 20
139.6521855501
 30
0.0
 10
175.9621831098
 20
141.3716659295
 30
0.0
 10
175.0595808523
 20
143.1508899544
 30
0.0
 10
174.5113249079
 20
144.9734436157
 30
0.0
 10
174.3273198888
 20
146.8192356653
 30
0.0
 10
174.511324953
 20
148.6650284711
 30
0.0
 10
175.0595846405
 20
150.4875769802
 30
0.0
 10
175.9621727543
 20
152.2668153124
 30
0.0
 10
177.206113807
 20
153.9862854698
 30
0.0
 10
178.7770107875
 20
155.6315099924
 30
0.0
 10
180.659146555
 20
157.1890097839
 30
0.0
 10
182.8342077053
 20
158.6450061308
 30
0.0
 10
184.4160894351
 20
159.5124168675
 30
0.0
 10
185.2480181191
 20
159.9283812095
 30
0.0
  0
SPLINE
  5
458
330
209
100
AcDbEntity
  8
7_ALL_FEATURES
  6
Continuous
 62
     9
100
AcDbSpline
 70
     0
 71
     3
 72
    31
 73
    27
 74
     0
 42
0.000000001
 43
0.0000001
 40
0.0
 40
0.0
 40
0.0
 40
0.0
 40
0.0676726535
 40
0.1416018907
 40
0.2199899426
 40
0.3006855449
 40
0.3813814274
 40
0.4597686004
 40
0.5337004047
 40
0.601370659
 40
0.6324661897
 40
0.6615932675
 40
0.6887365894
 40
0.7139616172
 40
0.7374314641
 40
0.7594252306
 40
0.7803409966
 40
0.8006855091
 40
0.821030068
 40
0.841945882
 40
0.8639393268
 40
0.8874104063
 40
0.9126331727
 40
0.9397756119
 40
0.968913492
 40
1.0
 40
1.0
 40
1.0
 40
1.0
 10
224.2270505294
 20
145.3834845284
 30
0.0
 10
223.3457215101
 20
144.9428200188
 30
0.0
 10
221.4251241178
 20
144.1706972473
 30
0.0
 10
218.3208198164
 20
143.3553530025
 30
0.0
 10
214.9590587585
 20
142.8531187312
 30
0.0
 10
211.4663071517
 20
142.6836129525
 30
0.0
 10
207.9735517375
 20
142.8531196981
 30
0.0
 10
204.6118058951
 20
143.3552752205
 30
0.0
 10
201.5073613403
 20
144.170879518
 30
0.0
 10
199.1654726552
 20
145.1120229768
 30
0.0
 10
197.5307334812
 20
146.0080258983
 30
0.0
 10
196.4720960455
 20
146.7168360124
 30
0.0
 10
195.5560907342
 20
147.4748139741
 30
0.0
 10
194.7914597009
 20
148.2755540185
 30
0.0
 10
194.1860742235
 20
149.1124757372
 30
0.0
 10
193.7467220488
 20
149.9784195686
 30
0.0
 10
193.4799329188
 20
150.8654941983
 30
0.0
 10
193.3903338823
 20
151.7638529252
 30
0.0
 10
193.4798931402
 20
152.6622277737
 30
0.0
 10
193.7467839805
 20
153.5492612151
 30
0.0
 10
194.1860081498
 20
154.4152860926
 30
0.0
 10
194.7915211919
 20
155.2521000843
 30
0.0
 10
195.5560313648
 20
156.0528931359
 30
0.0
 10
196.4721340891
 20
156.8109830728
 30
0.0
 10
197.5308152212
 20
157.5195776537
 30
0.0
 10
198.3007154239
 20
157.9417996014
 30
0.0
 10
198.7055679037
 20
158.1442258413
 30
0.0
  0
SPLINE
  5
459
330
209
100
AcDbEntity
  8
7_ALL_FEATURES
  6
Continuous
 62
     9
100
AcDbSpline
 70
     0
 71
     3
 72
    11
 73
     7
 74
     0
 42
0.000000001
 43
0.0000001
 40
0.0
 40
0.0
 40
0.0
 40
0.0
 40
0.2278432628
 40
0.4726264752
 40
0.7312580299
 40
1.0
 40
1.0
 40
1.0
 40
1.0
 10
181.4775897654
 20
162.3365414874
 30
0.0
 10
183.0045988715
 20
163.1000460405
 30
0.0
 10
186.2696380469
 20
164.4927291922
 30
0.0
 10
191.5041137039
 20
166.1366888235
 30
0.0
 10
197.1604973188
 20
167.3845302653
 30
0.0
 10
201.079350938
 20
167.9269814913
 30
0.0
 10
203.0829001137
 20
168.1289721162
 30
0.0
  0
SPLINE
  5
45A
330
209
100
AcDbEntity
  8
7_ALL_FEATURES
  6
Continuous
 62
     9
100
AcDbSpline
 70
     0
 71
     3
 72
    23
 73
    19
 74
     0
 42
0.000000001
 43
0.0000001
 40
0.0
 40
0.0
 40
0.0
 40
0.0
 40
0.1567943236
 40
0.2353506492
 40
0.3130185885
 40
0.3890883899
 40
0.4628867129
 40
0.5337943544
 40
0.6012660805
 40
0.6648540034
 40
0.7242350689
 40
0.7792452953
 40
0.8299230274
 40
0.8765612158
 40
0.9197619243
 40
0.9604693805
 40
0.98030138
 40
1.0
 40
1.0
 40
1.0
 40
1.0
 10
203.0829001137
 20
168.1289721162
 30
0.0
 10
206.205620116
 20
168.4437935204
 30
0.0
 10
210.9253647441
 20
168.6471284708
 30
0.0
 10
217.1881712109
 20
168.397694487
 30
0.0
 10
221.819263983
 20
167.9509688059
 30
0.0
 10
226.3223281698
 20
167.2505381634
 30
0.0
 10
230.642282352
 20
166.3050065688
 30
0.0
 10
234.7259651163
 20
165.126039645
 30
0.0
 10
238.5234180975
 20
163.7280431918
 30
0.0
 10
241.9884174811
 20
162.127937297
 30
0.0
 10
245.0790755546
 20
160.3447047446
 30
0.0
 10
247.7581971824
 20
158.3987888918
 30
0.0
 10
249.9933085391
 20
156.3115921565
 30
0.0
 10
251.7559056692
 20
154.1044743015
 30
0.0
 10
253.020271906
 20
151.8010052828
 30
0.0
 10
253.6437629873
 20
149.8025237309
 30
0.0
 10
253.8634686655
 20
148.2087477486
 30
0.0
 10
253.8838127197
 20
147.4157183381
 30
0.0
 10
253.8718835578
 20
147.0215918681
 30
0.0
  0
DIMENSION
  5
45B
330
209
100
AcDbEntity
  8
0
  6
Continuous
 62
     2
100
AcDbDimension
280
     0
  2
*D1
 10
117.058631
 20
166.58086
 30
0.0
 11
126.027778
 21
174.773582
 31
0.0
 70
   163
  1
%%c<>
 71
     1
 42
85.0
 73
     0
 74
     0
 75
     0
  3
DIMSTYLE_1
100
AcDbDiametricDimension
 15
44.767488
 25
121.870787
 35
0.0
 40
0.0
  0
DIMENSION
  5
45C
330
209
100
AcDbEntity
  8
0
  6
Continuous
 62
     2
100
AcDbDimension
280
     0
  2
*D2
 10
95.276649
 20
154.222688
 30
0.0
 11
82.776429
 21
148.26401
 31
0.0
 70
   163
  1
%%c<>
 71
     2
 42
35.0
 73
     0
 74
     0
 75
     0
  3
DIMSTYLE_1
100
AcDbDiametricDimension
 15
66.54947
 25
134.228959
 35
0.0
 40
0.0
  0
ARC
  5
45D
330
209
100
AcDbEntity
  8
0
  6
Continuous
 62
     2
100
AcDbCircle
 10
80.91306
 20
144.225823
 30
0.0
 40
17.5
100
AcDbArc
 50
180.0
 51
217.291428
  0
DIMENSION
  5
45E
330
209
100
AcDbEntity
  8
0
  6
Continuous
 62
     2
100
AcDbDimension
280
     0
  2
*D3
 10
142.286328
 20
82.376576
 30
0.0
 11
142.286328
 21
77.630722
 31
0.0
 70
   160
 71
     2
 42
9.5
 73
     0
 74
     0
 75
     0
  3
DIMSTYLE_2
100
AcDbAlignedDimension
 13
131.930089
 23
72.876576
 33
0.0
 14
131.109931
 24
82.376576
 34
0.0
 50
90.0
100
AcDbRotatedDimension
  0
INSERT
  5
45F
330
209
100
AcDbEntity
  8
0
  6
Continuous
 62
     2
100
AcDbBlockReference
  2
LOGO2_BL0
 10
207.828459
 20
39.543518
 30
0.0
  0
ACAD_TABLE
  5
460
102
{ACAD_XDICTIONARY
360
4B7
102
}
330
209
100
AcDbEntity
  8
0
  6
Continuous
 62
     2
160
              3232
310
A00C000017000000880000001D000000000000000000F03F00000000000000000000000000000000D820BAC1134068400000000000000000000000000000F03F0000000000000000D9CB19FE91854A4000000000000000000000000000000000000000000000F03F0000000000000000000000000000000000000000000000
310
000000000000000000000000000000F03F54000000200000000200000000000000000000000000000000000000000000000000000000000000008056400000000000000000000000000000000000000000000000000000000000000000000000000000F03F5400000020000000020000000000000000000000000000000000
310
00000000000000000000000000000000000000000000000044C0000000000000000000000000000000000000000000000000000000000000F03F5400000020000000020000000000000000003E4000000000000018C00000000000000000000000000080564000000000000018C00000000000000000000000000000000000
310
00000000000000000000000000F03F5400000020000000020000000000000000003E4000000000000028C00000000000000000000000000080564000000000000028C0000000000000000000000000000000000000000000000000000000000000F03F5400000020000000020000000000000000003E4000000000000036C0
310
0000000000000000000000000080564000000000000036C0000000000000000000000000000000000000000000000000000000000000F03F54000000200000000200000000000000000000000000000000003BC0000000000000000000000000008056400000000000003BC000000000000000000000000000000000000000
310
0000000000000000000000F03F540000002000000002000000000000000000000000000000000044C00000000000000000000000000080564000000000000044C0000000000000000000000000000000000000000000000000000000000000F03F5400000020000000020000000000000000003E4000000000000000000000
310
0000000000000000000000003E400000000000003BC0000000000000000000000000000000000000000000000000000000000000F03F540000002000000002000000000000000080514000000000000000000000000000000000000000000080514000000000000028C0000000000000000000000000000000000000000000
310
000000000000000000F03F540000002000000002000000000000000080564000000000000000000000000000000000000000000080564000000000000044C0000000000000000000000000000000000000000000000000000000000000F03F0C000000100000000B000000C400000026000000CDCCCCCCCC7C3F4000000000
310
000012C0000000000000000000000000000000000000000000000000000000000000F03F000000000000F03F0000000000000000000000000000000041003000310036005F0043005F003000300037000000000014000000010000000000000000000840333333333333EB3F0000000000000000000000000000F03F000000
310
00000000000000000000000000000000000000000000000000000000000000000000000000740078007400000000000000BC000000260000003333333333DF514000000000000013C0000000000000000000000000000000000000000000000000000000000000F03F000000000000F03F0000000000000000000000000000
310
00005200650076003A0030003000000000000C000000010000000000000000000C40333333333333EB3F0000000000000000000000000000F03F00000000000000000000000000000000000000000000000000000000000000000000000000000000740078007400000000000000C000000026000000CDCCCCCCCC7C3F4000
310
000000008026C0000000000000000000000000000000000000000000000000000000000000F03F000000000000F03F000000000000000000000000000000005300630061006C0065003A0031003A003100000012000000010000000000000000000C40333333333333EB3F0000000000000000000000000000F03F00000000
310
000000000000000000000000000000000000000000000000000000000000000000000000740078007400000000000000B4000000260000003333333333DF514000000000008025C0000000000000000000000000000000000000000000000000000000000000F03F000000000000F03F000000000000000000000000000000
310
00410034000000000004000000010000000000000000000C40333333333333EB3F0000000000000000000000000000F03F00000000000000000000000000000000000000000000000000000000000000000000000000000000740078007400000000000000F000000026000000CDCCCCCCCC7C3F4033333333331332C00000
310
00000000000000000000000000000000000000000000000000000000F03F000000000000F03F00000000000000000000000000000000460052004F004E0054002E002000530045004D0049002000500052004F0046004F004E0044004F00200054004F004E0044004F00200043004F004D0042004F00320000004200000001
310
0000003333333333330140333333333333EB3F0000000000000000000000000000F03F00000000000000000000000000000000000000000000000000000000000000000000000000000000740078007400000000000000C800000026000000CDCCCCCCCC7C3F400000000000C039C000000000000000000000000000000000
310
0000000000000000000000000000F03F000000000000F03F0000000000000000000000000000000044004100540045003A00310030002E00310032002E003100390000001A000000010000000000000000000440333333333333EB3F0000000000000000000000000000F03F00000000000000000000000000000000000000
310
0000000000000000000000000000000000000000007400780074000000000000001801000026000000CDCCCCCCCCCCF73F0000000000903DC0000000000000000000000000000000000000000000000000000000000000F03F000000000000F03F0000000000000000000000000000000041006E007900200069006E007400
310
65006700720061006C0020006F00720020007000610072007400690061006C00200072006500700072006F00640075006300740069006F006E00730020006100720065002000700072006F0068006900620069007400650064000000000068000000010000000000000000000240333333333333EB3F000000000000000000
310
0000000000F03F000000000000000000000000000000000000000000000000000000000000000000000000000000007400780074000000000000002001000026000000CDCCCCCCCCCCF73F00000000007840C0000000000000000000000000000000000000000000000000000000000000F03F000000000000F03F00000000
310
00000000000000000000000077006900740068006F007500740020007000720069006F007200200061007500740068006F007200690073006100740069006F006E0020006F00660020004C002000260020004C0020004C007500630065002000260020004C006900670068007400200073002E0072002E006C002E002C0000
310
0072000000010000000000000000000240333333333333EB3F0000000000000000000000000000F03F00000000000000000000000000000000000000000000000000000000000000000000000000000000740078007400000000000000F800000026000000CDCCCCCCCCCCF73F00000000002842C000000000000000000000
310
0000000000000000000000000000000000000000F03F000000000000F03F0000000000000000000000000000000069006E0020006100630063006F007200640061006E006300650020007700690074006800200074006800650020006C0061007700200069006E00200066006F007200630065002E00000000004800000001
310
0000000000000000000240333333333333EB3F0000000000000000000000000000F03F00000000000000000000000000000000000000000000000000000000000000000000000000000000740078007400000000000000D800000026000000CDCCCCCCCCCCF73F0000000000D843C000000000000000000000000000000000
310
0000000000000000000000000000F03F000000000000F03F0000000000000000000000000000000041006C006C0020007200690067006800740073002000720065007300650072007600650064002E000000000028000000010000000000000000000240333333333333EB3F0000000000000000000000000000F03F000000
310
00000000000000000000000000000000000000000000000000000000000000000000000000740078007400000000000000080000001F000000
100
AcDbBlockReference
  2
*T5
 10
194.002412
 20
53.043518
 30
0.0
100
AcDbTable
342
489
343
210
 11
1.0
 21
0.0
 31
0.0
 90
       22
 91
        5
 92
        5
 93
        0
 94
        0
 95
        0
 96
        0
141
6.0
141
6.0
141
10.0
141
5.0
141
13.0
142
10.0
142
10.0
142
10.0
142
40.0
142
20.0
171
     1
172
     0
173
     0
174
     0
175
     3
176
     4
 91
       32
178
     0
145
0.0
140
3.5
 92
        0
301
CELL_VALUE
 93
        2
 90
        4
  1
 
 94
        0
300

302
 
304
ACVALUE_END
171
     1
172
     0
173
     1
174
     0
175
     1
176
     1
 91
        0
178
     0
145
0.0
 92
        0
301
CELL_VALUE
 93
        3
 90
        0
 91
        0
 94
        0
300

302

304
ACVALUE_END
171
     1
172
     0
173
     1
174
     0
175
     1
176
     1
 91
        0
178
     0
145
0.0
 92
        0
301
CELL_VALUE
 93
        3
 90
        0
 91
        0
 94
        0
300

302

304
ACVALUE_END
171
     1
172
     0
173
     0
174
     0
175
     1
176
     1
 91
       49
178
     0
145
0.0
170
     4
  7
TEXTSTYLE_3
140
3.0
 92
        0
301
CELL_VALUE
 93
        2
 90
        4
  1
A016_C_007
 94
        0
300

302
A016_C_007
304
ACVALUE_END
171
     1
172
     0
173
     0
174
     0
175
     1
176
     1
 91
       49
178
     0
145
0.0
170
     4
  7
TEXTSTYLE_3
140
3.5
 92
        0
301
CELL_VALUE
 93
        2
 90
        4
  1
Rev:00
 94
        0
300

302
Rev:00
304
ACVALUE_END
171
     1
172
     0
173
     1
174
     0
175
     1
176
     1
 91
        0
178
     0
145
0.0
 92
        0
301
CELL_VALUE
 93
        3
 90
        0
 91
        0
 94
        0
300

302

304
ACVALUE_END
171
     1
172
     0
173
     1
174
     0
175
     1
176
     1
 91
        0
178
     0
145
0.0
 92
        0
301
CELL_VALUE
 93
        3
 90
        0
 91
        0
 94
        0
300

302

304
ACVALUE_END
171
     1
172
     0
173
     1
174
     0
175
     1
176
     1
 91
        0
178
     0
145
0.0
 92
        0
301
CELL_VALUE
 93
        3
 90
        0
 91
        0
 94
        0
300

302

304
ACVALUE_END
171
     1
172
     0
173
     0
174
     0
175
     1
176
     1
 91
       49
178
     0
145
0.0
170
     1
  7
TEXTSTYLE_3
140
3.5
 92
        0
301
CELL_VALUE
 93
        2
 90
        4
  1
Scale:1:1
 94
        0
300

302
Scale:1:1
304
ACVALUE_END
171
     1
172
     0
173
     0
174
     0
175
     1
176
     1
 91
       49
178
     0
145
0.0
170
     4
  7
TEXTSTYLE_3
140
3.5
 92
        0
301
CELL_VALUE
 93
        2
 90
        4
  1
A4
 94
        0
300

302
A4
304
ACVALUE_END
171
     1
172
     0
173
     1
174
     0
175
     1
176
     1
 91
        0
178
     0
145
0.0
 92
        0
301
CELL_VALUE
 93
        3
 90
        0
 91
        0
 94
        0
300

302

304
ACVALUE_END
171
     1
172
     0
173
     1
174
     0
175
     1
176
     1
 91
        0
178
     0
145
0.0
 92
        0
301
CELL_VALUE
 93
        3
 90
        0
 91
        0
 94
        0
300

302

304
ACVALUE_END
171
     1
172
     0
173
     1
174
     0
175
     1
176
     1
 91
        0
178
     0
145
0.0
 92
        0
301
CELL_VALUE
 93
        3
 90
        0
 91
        0
 94
        0
300

302

304
ACVALUE_END
171
     1
172
     0
173
     0
174
     0
175
     2
176
     1
 91
       49
178
     0
145
0.0
170
     4
  7
TEXTSTYLE_3
140
2.15
 92
        0
301
CELL_VALUE
 93
        2
 90
        4
  1
FRONT. SEMI PROFONDO TONDO COMBO2
 94
        0
300

302
FRONT. SEMI PROFONDO TONDO COMBO2
304
ACVALUE_END
171
     1
172
     0
173
     1
174
     0
175
     1
176
     1
 91
        0
178
     0
145
0.0
 92
        0
301
CELL_VALUE
 93
        3
 90
        0
 91
        0
 94
        0
300

302

304
ACVALUE_END
171
     1
172
     0
173
     1
174
     0
175
     1
176
     1
 91
        0
178
     0
145
0.0
 92
        0
301
CELL_VALUE
 93
        3
 90
        0
 91
        0
 94
        0
300

302

304
ACVALUE_END
171
     1
172
     0
173
     1
174
     0
175
     1
176
     1
 91
        0
178
     0
145
0.0
 92
        0
301
CELL_VALUE
 93
        3
 90
        0
 91
        0
 94
        0
300

302

304
ACVALUE_END
171
     1
172
     0
173
     1
174
     0
175
     1
176
     1
 91
        0
178
     0
145
0.0
 92
        0
301
CELL_VALUE
 93
        3
 90
        0
 91
        0
 94
        0
300

302

304
ACVALUE_END
171
     1
172
     0
173
     0
174
     0
175
     2
176
     1
 91
       49
178
     0
145
0.0
170
     4
  7
TEXTSTYLE_3
140
2.5
 92
        0
301
CELL_VALUE
 93
        2
 90
        4
  1
DATE:10.12.19
 94
        0
300

302
DATE:10.12.19
304
ACVALUE_END
171
     1
172
     0
173
     1
174
     0
175
     1
176
     1
 91
        0
178
     0
145
0.0
 92
        0
301
CELL_VALUE
 93
        3
 90
        0
 91
        0
 94
        0
300

302

304
ACVALUE_END
171
     1
172
     0
173
     0
174
     0
175
     5
176
     1
 91
       49
178
     0
145
0.0
170
     4
  7
TEXTSTYLE_3
140
2.25
 92
        0
301
CELL_VALUE
 93
        2
 90
        4
  1
Any integral or partial reproductions are prohibited \Pwithout prior authorisation of L & L Luce & Light s.r.l., \Pin accordance with the law in force. \PAll rights reserved.
 94
        0
300

302
Any integral or partial reproductions are prohibited \Pwithout prior authorisation of L & L Luce & Light s.r.l., \Pin accordance with the law in force. \PAll rights reserved.
304
ACVALUE_END
171
     1
172
     0
173
     1
174
     0
175
     1
176
     1
 91
        0
178
     0
145
0.0
 92
        0
301
CELL_VALUE
 93
        3
 90
        0
 91
        0
 94
        0
300

302

304
ACVALUE_END
171
     1
172
     0
173
     1
174
     0
175
     1
176
     1
 91
        0
178
     0
145
0.0
 92
        0
301
CELL_VALUE
 93
        3
 90
        0
 91
        0
 94
        0
300

302

304
ACVALUE_END
171
     1
172
     0
173
     1
174
     0
175
     1
176
     1
 91
        0
178
     0
145
0.0
 92
        0
301
CELL_VALUE
 93
        3
 90
        0
 91
        0
 94
        0
300

302

304
ACVALUE_END
171
     1
172
     0
173
     1
174
     0
175
     1
176
     1
 91
        0
178
     0
145
0.0
 92
        0
301
CELL_VALUE
 93
        3
 90
        0
 91
        0
 94
        0
300

302

304
ACVALUE_END
  0
ENDSEC
  0
SECTION
  2
OBJECTS
  0
DICTIONARY
  5
C
330
0
100
AcDbDictionary
281
     1
  3
ACAD_DETAILVIEWSTYLE
350
4C0
  3
ACAD_GROUP
350
D
  3
ACAD_IMAGE_DICT
350
4B0
  3
ACAD_LAYOUT
350
1A
  3
ACAD_MATERIAL
350
4A4
  3
ACAD_MLEADERSTYLE
350
4BF
  3
ACAD_MLINESTYLE
350
17
  3
ACAD_PLOTSETTINGS
350
19
  3
ACAD_PLOTSTYLENAME
350
E
  3
ACAD_SCALELIST
350
466
  3
ACAD_SECTIONVIEWSTYLE
350
4C1
  3
ACAD_TABLESTYLE
350
488
  3
ACAD_VISUALSTYLE
350
48B
  3
ACDB_RECOMPOSE_DATA
350
4BD
  3
AcDbVariableDictionary
350
4B9
  3
HOST_DOC_SETTINGS
350
4AE
  3
MCS_STREAM_DICT
350
4AA
  0
SUN
  5
4AD
330
1F4
100
AcDbSun
 90
        1
290
     0
 63
     7
421
 16777215
 40
1.0
291
     1
 91
  2455826
 92
 54000000
292
     0
 70
     2
 71
   256
280
     1
  0
DICTIONARY
  5
4B7
330
460
100
AcDbDictionary
280
     1
281
     1
  3
ACAD_XREC_ROUNDTRIP
360
4B8
  0
DICTIONARY
  5
4C0
102
{ACAD_REACTORS
330
C
102
}
330
C
100
AcDbDictionary
281
     1
  0
DICTIONARY
  5
D
102
{ACAD_REACTORS
330
C
102
}
330
C
100
AcDbDictionary
281
     1
  0
DICTIONARY
  5
4B0
102
{ACAD_REACTORS
330
C
102
}
330
C
100
AcDbDictionary
281
     1
  0
DICTIONARY
  5
1A
102
{ACAD_REACTORS
330
C
102
}
330
C
100
AcDbDictionary
281
     1
  3
Layout1
350
463
  3
Model
350
462
  0
DICTIONARY
  5
4A4
102
{ACAD_REACTORS
330
C
102
}
330
C
100
AcDbDictionary
281
     1
  3
ByBlock
350
4A6
  3
ByLayer
350
4A5
  3
Global
350
4A7
  0
DICTIONARY
  5
4BF
102
{ACAD_REACTORS
330
C
102
}
330
C
100
AcDbDictionary
281
     1
  0
DICTIONARY
  5
17
102
{ACAD_REACTORS
330
C
102
}
330
C
100
AcDbDictionary
281
     1
  3
Standard
350
18
  0
DICTIONARY
  5
19
102
{ACAD_REACTORS
330
C
102
}
330
C
100
AcDbDictionary
281
     1
  0
ACDBDICTIONARYWDFLT
  5
E
102
{ACAD_REACTORS
330
C
102
}
330
C
100
AcDbDictionary
281
     1
  3
Normal
350
F
100
AcDbDictionaryWithDefault
340
F
  0
DICTIONARY
  5
466
102
{ACAD_REACTORS
330
C
102
}
330
C
100
AcDbDictionary
281
     1
  3
A0
350
467
  3
A1
350
468
  3
A2
350
469
  3
A3
350
46A
  3
A4
350
46B
  3
A5
350
46C
  3
A6
350
46D
  3
A7
350
46E
  3
A8
350
46F
  3
A9
350
470
  3
B0
350
471
  3
B1
350
472
  3
B2
350
473
  3
B3
350
474
  3
B4
350
475
  3
B5
350
476
  3
B6
350
477
  3
B7
350
478
  3
B8
350
479
  3
B9
350
47A
  3
C0
350
47B
  3
C1
350
47C
  3
C2
350
47D
  3
C3
350
47E
  3
C4
350
47F
  3
C5
350
480
  3
C6
350
481
  3
C7
350
482
  3
C8
350
483
  3
C9
350
484
  3
D0
350
485
  3
D1
350
486
  3
D2
350
487
  0
DICTIONARY
  5
4C1
102
{ACAD_REACTORS
330
C
102
}
330
C
100
AcDbDictionary
281
     1
  0
DICTIONARY
  5
488
102
{ACAD_REACTORS
330
C
102
}
330
C
100
AcDbDictionary
281
     1
  3
Standard
350
489
  0
DICTIONARY
  5
48B
102
{ACAD_REACTORS
330
C
102
}
330
C
100
AcDbDictionary
281
     1
  3
2dWireframe
350
490
  3
Basic
350
493
  3
Brighten
350
497
  3
ColorChange
350
49B
  3
Conceptual
350
495
  3
Dim
350
496
  3
EdgeColorOff
350
49E
  3
Facepattern
350
49A
  3
Flat
350
48C
  3
FlatWithEdges
350
48D
  3
Gouraud
350
48E
  3
GouraudWithEdges
350
48F
  3
Hidden
350
492
  3
JitterOff
350
49C
  3
Linepattern
350
499
  3
OverhangOff
350
49D
  3
Realistic
350
494
  3
Shaded
350
4A3
  3
Shaded with edges
350
4A2
  3
Shades of Gray
350
49F
  3
Sketchy
350
4A0
  3
Thicken
350
498
  3
Wireframe
350
491
  3
X-Ray
350
4A1
  0
XRECORD
  5
4BD
102
{ACAD_REACTORS
330
C
102
}
330
C
100
AcDbXrecord
280
     1
 90
        1
330
460
330
489
  0
DICTIONARY
  5
4B9
102
{ACAD_REACTORS
330
C
102
}
330
C
100
AcDbDictionary
281
     1
  3
CANNOSCALE
350
4BA
  3
CTABLESTYLE
350
4BE
  0
DICTIONARY
  5
4AE
102
{ACAD_REACTORS
330
C
102
}
330
C
100
AcDbDictionary
281
     1
  3
NCDocParameters
350
4AF
  0
DICTIONARY
  5
4AA
102
{ACAD_REACTORS
330
C
102
}
330
C
100
AcDbDictionary
281
     1
  3
MC_VERSION_DATA
350
4B3
  3
MCS_DOCUMENT_ID
350
4AB
  3
MCS_PARAMS_DATA
350
4B1
  0
XRECORD
  5
4B8
102
{ACAD_REACTORS
330
4B7
102
}
330
4B7
100
AcDbXrecord
280
     1
102
ACAD_ROUNDTRIP_2008_TABLE_ENTITY
360
4B5
 70
     2
 90
        1
 10
0.0
 20
0.0
 30
0.0
 90
        0
 90
        4
361
4B6
  0
LAYOUT
  5
463
102
{ACAD_REACTORS
330
1A
102
}
330
1A
100
AcDbPlotSettings
  1

  2
none_device
  4
ISO_A4_(297.00_x_210.00_MM)
  6

 40
0.0
 41
0.0
 42
0.0
 43
0.0
 44
297.0
 45
210.0
 46
0.0
 47
0.0
 48
0.0
 49
0.0
140
0.0
141
0.0
142
1.0
143
1.0
 70
     0
 72
     1
 73
     0
 74
     0
  7

 75
     0
 76
     0
 77
     2
 78
   300
147
1.0
148
0.0
149
0.0
100
AcDbLayout
  1
Layout1
 70
     0
 71
     1
 10
0.0
 20
0.0
 11
297.0
 21
210.0
 12
0.0
 22
0.0
 32
0.0
 14
0.0
 24
0.0
 34
0.0
 15
0.0
 25
0.0
 35
0.0
146
0.0
 13
0.0
 23
0.0
 33
0.0
 16
1.0
 26
0.0
 36
0.0
 17
0.0
 27
1.0
 37
0.0
 76
     0
330
20A
  0
LAYOUT
  5
462
102
{ACAD_REACTORS
330
1A
102
}
330
1A
100
AcDbPlotSettings
  1

  2
none_device
  4
ISO_A4_(297.00_x_210.00_MM)
  6

 40
0.0
 41
0.0
 42
0.0
 43
0.0
 44
297.0
 45
210.0
 46
0.0
 47
0.0
 48
0.0
 49
0.0
140
0.0
141
0.0
142
1.0
143
1.0
 70
  1024
 72
     1
 73
     0
 74
     0
  7

 75
     0
 76
     0
 77
     2
 78
   300
147
1.0
148
0.0
149
0.0
100
AcDbLayout
  1
Model
 70
     0
 71
     0
 10
0.0
 20
0.0
 11
297.0
 21
210.0
 12
0.0
 22
0.0
 32
0.0
 14
0.0
 24
0.0
 34
0.0
 15
0.0
 25
0.0
 35
0.0
146
0.0
 13
0.0
 23
0.0
 33
0.0
 16
1.0
 26
0.0
 36
0.0
 17
0.0
 27
1.0
 37
0.0
 76
     0
330
209
331
1F4
  0
MATERIAL
  5
4A6
102
{ACAD_REACTORS
330
4A4
102
}
330
4A4
100
AcDbMaterial
  1
ByBlock
 72
     1
 94
      127
  0
MATERIAL
  5
4A5
102
{ACAD_REACTORS
330
4A4
102
}
330
4A4
100
AcDbMaterial
  1
ByLayer
 72
     1
 94
      127
  0
MATERIAL
  5
4A7
102
{ACAD_REACTORS
330
4A4
102
}
330
4A4
100
AcDbMaterial
  1
Global
 72
     1
 94
      127
  0
MLINESTYLE
  5
18
102
{ACAD_REACTORS
330
17
102
}
330
17
100
AcDbMlineStyle
  2
STANDARD
 70
     0
  3

 62
   256
 51
90.0
 52
90.0
 71
     2
 49
0.5
 62
   256
  6
BYLAYER
 49
-0.5
 62
   256
  6
BYLAYER
  0
ACDBPLACEHOLDER
  5
F
102
{ACAD_REACTORS
330
E
102
}
330
E
  0
SCALE
  5
467
102
{ACAD_REACTORS
330
466
102
}
330
466
100
AcDbScale
 70
     0
300
1:1
140
1.0
141
1.0
290
     1
  0
SCALE
  5
468
102
{ACAD_REACTORS
330
466
102
}
330
466
100
AcDbScale
 70
     0
300
1:2
140
1.0
141
2.0
290
     0
  0
SCALE
  5
469
102
{ACAD_REACTORS
330
466
102
}
330
466
100
AcDbScale
 70
     0
300
1:4
140
1.0
141
4.0
290
     0
  0
SCALE
  5
46A
102
{ACAD_REACTORS
330
466
102
}
330
466
100
AcDbScale
 70
     0
300
1:5
140
1.0
141
5.0
290
     0
  0
SCALE
  5
46B
102
{ACAD_REACTORS
330
466
102
}
330
466
100
AcDbScale
 70
     0
300
1:8
140
1.0
141
8.0
290
     0
  0
SCALE
  5
46C
102
{ACAD_REACTORS
330
466
102
}
330
466
100
AcDbScale
 70
     0
300
1:10
140
1.0
141
10.0
290
     0
  0
SCALE
  5
46D
102
{ACAD_REACTORS
330
466
102
}
330
466
100
AcDbScale
 70
     0
300
1:16
140
1.0
141
16.0
290
     0
  0
SCALE
  5
46E
102
{ACAD_REACTORS
330
466
102
}
330
466
100
AcDbScale
 70
     0
300
1:20
140
1.0
141
20.0
290
     0
  0
SCALE
  5
46F
102
{ACAD_REACTORS
330
466
102
}
330
466
100
AcDbScale
 70
     0
300
1:30
140
1.0
141
30.0
290
     0
  0
SCALE
  5
470
102
{ACAD_REACTORS
330
466
102
}
330
466
100
AcDbScale
 70
     0
300
1:40
140
1.0
141
40.0
290
     0
  0
SCALE
  5
471
102
{ACAD_REACTORS
330
466
102
}
330
466
100
AcDbScale
 70
     0
300
1:50
140
1.0
141
50.0
290
     0
  0
SCALE
  5
472
102
{ACAD_REACTORS
330
466
102
}
330
466
100
AcDbScale
 70
     0
300
1:100
140
1.0
141
100.0
290
     0
  0
SCALE
  5
473
102
{ACAD_REACTORS
330
466
102
}
330
466
100
AcDbScale
 70
     0
300
2:1
140
2.0
141
1.0
290
     0
  0
SCALE
  5
474
102
{ACAD_REACTORS
330
466
102
}
330
466
100
AcDbScale
 70
     0
300
4:1
140
4.0
141
1.0
290
     0
  0
SCALE
  5
475
102
{ACAD_REACTORS
330
466
102
}
330
466
100
AcDbScale
 70
     0
300
8:1
140
8.0
141
1.0
290
     0
  0
SCALE
  5
476
102
{ACAD_REACTORS
330
466
102
}
330
466
100
AcDbScale
 70
     0
300
10:1
140
10.0
141
1.0
290
     0
  0
SCALE
  5
477
102
{ACAD_REACTORS
330
466
102
}
330
466
100
AcDbScale
 70
     0
300
100:1
140
100.0
141
1.0
290
     0
  0
SCALE
  5
478
102
{ACAD_REACTORS
330
466
102
}
330
466
100
AcDbScale
 70
     0
300
1/128" = 1'-0"
140
0.007812
141
12.0
290
     0
  0
SCALE
  5
479
102
{ACAD_REACTORS
330
466
102
}
330
466
100
AcDbScale
 70
     0
300
1/64" = 1'-0"
140
0.015625
141
12.0
290
     0
  0
SCALE
  5
47A
102
{ACAD_REACTORS
330
466
102
}
330
466
100
AcDbScale
 70
     0
300
1/32" = 1'-0"
140
0.03125
141
12.0
290
     0
  0
SCALE
  5
47B
102
{ACAD_REACTORS
330
466
102
}
330
466
100
AcDbScale
 70
     0
300
1/16" = 1'-0"
140
0.0625
141
12.0
290
     0
  0
SCALE
  5
47C
102
{ACAD_REACTORS
330
466
102
}
330
466
100
AcDbScale
 70
     0
300
3/32" = 1'-0"
140
0.09375
141
12.0
290
     0
  0
SCALE
  5
47D
102
{ACAD_REACTORS
330
466
102
}
330
466
100
AcDbScale
 70
     0
300
1/8" = 1'-0"
140
0.125
141
12.0
290
     0
  0
SCALE
  5
47E
102
{ACAD_REACTORS
330
466
102
}
330
466
100
AcDbScale
 70
     0
300
3/16" = 1'-0"
140
0.1875
141
12.0
290
     0
  0
SCALE
  5
47F
102
{ACAD_REACTORS
330
466
102
}
330
466
100
AcDbScale
 70
     0
300
1/4" = 1'-0"
140
0.25
141
12.0
290
     0
  0
SCALE
  5
480
102
{ACAD_REACTORS
330
466
102
}
330
466
100
AcDbScale
 70
     0
300
3/8" = 1'-0"
140
0.375
141
12.0
290
     0
  0
SCALE
  5
481
102
{ACAD_REACTORS
330
466
102
}
330
466
100
AcDbScale
 70
     0
300
1/2" = 1'-0"
140
0.5
141
12.0
290
     0
  0
SCALE
  5
482
102
{ACAD_REACTORS
330
466
102
}
330
466
100
AcDbScale
 70
     0
300
3/4" = 1'-0"
140
0.75
141
12.0
290
     0
  0
SCALE
  5
483
102
{ACAD_REACTORS
330
466
102
}
330
466
100
AcDbScale
 70
     0
300
1" = 1'-0"
140
1.0
141
12.0
290
     0
  0
SCALE
  5
484
102
{ACAD_REACTORS
330
466
102
}
330
466
100
AcDbScale
 70
     0
300
1-1/2" = 1'-0"
140
1.5
141
12.0
290
     0
  0
SCALE
  5
485
102
{ACAD_REACTORS
330
466
102
}
330
466
100
AcDbScale
 70
     0
300
3" = 1'-0"
140
3.0
141
12.0
290
     0
  0
SCALE
  5
486
102
{ACAD_REACTORS
330
466
102
}
330
466
100
AcDbScale
 70
     0
300
6" = 1'-0"
140
6.0
141
12.0
290
     0
  0
SCALE
  5
487
102
{ACAD_REACTORS
330
466
102
}
330
466
100
AcDbScale
 70
     0
300
1'-0" = 1'-0"
140
12.0
141
12.0
290
     0
  0
TABLESTYLE
  5
489
102
{ACAD_REACTORS
330
488
102
}
102
{ACAD_XDICTIONARY
360
4BB
102
}
330
488
100
AcDbTableStyle
  3
Standard
 70
     0
 71
     0
 40
0.06
 41
0.06
280
     0
281
     0
  7
STANDARD
140
4.5
170
     2
 62
     0
 63
   257
283
     0
 90
        4
 91
        0
  1

274
    -2
284
     1
 64
     0
275
    -2
285
     1
 65
     0
276
    -2
286
     1
 66
     0
277
    -2
287
     1
 67
     0
278
    -2
288
     1
 68
     0
279
    -2
289
     1
 69
     0
  7
STANDARD
140
6.0
170
     5
 62
     0
 63
   257
283
     0
 90
        4
 91
        0
  1

274
    -2
284
     1
 64
     0
275
    -2
285
     1
 65
     0
276
    -2
286
     1
 66
     0
277
    -2
287
     1
 67
     0
278
    -2
288
     1
 68
     0
279
    -2
289
     1
 69
     0
  7
STANDARD
140
4.5
170
     5
 62
     0
 63
   257
283
     0
 90
        4
 91
        0
  1

274
    -2
284
     1
 64
     0
275
    -2
285
     1
 65
     0
276
    -2
286
     1
 66
     0
277
    -2
287
     1
 67
     0
278
    -2
288
     1
 68
     0
279
    -2
289
     1
 69
     0
  0
VISUALSTYLE
  5
490
102
{ACAD_REACTORS
330
48B
102
}
330
48B
100
AcDbVisualStyle
  2
2dWireframe
 70
     4
177
     3
291
     0
 70
    58
 90
        0
176
     1
 90
        2
176
     1
 90
        0
176
     1
 90
        0
176
     1
 40
0.6
176
     1
 40
30.0
176
     1
 62
     7
420
 16777215
176
     1
 90
        1
176
     1
 90
        4
176
     1
 62
     7
176
     1
 62
   257
176
     1
 90
        1
176
     1
 90
        1
176
     1
 40
1.0
176
     1
 90
        0
176
     1
 62
   257
176
     1
 40
1.0
176
     1
 90
        1
176
     1
 90
        6
176
     1
 90
        2
176
     1
 62
     7
176
     1
 90
        5
176
     1
 90
        0
176
     1
 90
        0
176
     1
290
     0
176
     1
 90
        1
176
     1
 40
0.0
176
     1
 90
        0
176
     1
290
     1
176
     1
290
     1
176
     1
290
     0
176
     1
290
     0
176
     1
290
     0
176
     1
290
     0
176
     1
290
     0
176
     1
290
     0
176
     1
290
     0
176
     1
 90
       50
176
     1
 40
0.0
176
     1
 40
1.0
176
     1
 90
        0
176
     1
 62
    18
420
        0
176
     1
 90
       50
176
     1
 90
        3
176
     1
 62
     5
420
      255
176
     1
290
     0
176
     1
 90
       50
176
     1
 90
       50
176
     1
 90
       50
176
     1
290
     0
176
     1
 90
       50
176
     1
 62
   256
176
     0
 40
1.0
176
     0
 90
        2
176
     1
  1
strokes_ogs.tif
176
     1
290
     0
176
     1
 40
1.0
176
     1
 40
1.0
176
     1
  0
VISUALSTYLE
  5
493
102
{ACAD_REACTORS
330
48B
102
}
330
48B
100
AcDbVisualStyle
  2
Basic
 70
     7
177
     3
291
     1
 70
    58
 90
        1
176
     1
 90
        0
176
     1
 90
        1
176
     1
 90
        0
176
     1
 40
0.6
176
     1
 40
30.0
176
     1
 62
     7
420
 16777215
176
     1
 90
        0
176
     1
 90
        4
176
     1
 62
     7
176
     1
 62
   257
176
     1
 90
        1
176
     1
 90
        1
176
     1
 40
1.0
176
     1
 90
        8
176
     1
 62
     7
176
     1
 40
1.0
176
     1
 90
        1
176
     1
 90
        6
176
     1
 90
        2
176
     1
 62
     7
176
     1
 90
        5
176
     1
 90
        0
176
     1
 90
        0
176
     1
290
     0
176
     1
 90
        1
176
     1
 40
0.0
176
     1
 90
        0
176
     1
290
     0
176
     1
290
     1
176
     1
290
     1
176
     1
290
     0
176
     1
290
     0
176
     1
290
     0
176
     1
290
     0
176
     1
290
     0
176
     1
290
     0
176
     1
 90
       50
176
     1
 40
0.0
176
     1
 40
1.0
176
     1
 90
        0
176
     1
 62
    18
420
        0
176
     1
 90
       50
176
     1
 90
        3
176
     1
 62
     5
420
      255
176
     1
290
     0
176
     1
 90
       50
176
     1
 90
       50
176
     1
 90
       50
176
     1
290
     0
176
     1
 90
       50
176
     1
 62
   256
176
     0
 40
1.0
176
     0
 90
        2
176
     1
  1
strokes_ogs.tif
176
     1
290
     0
176
     1
 40
1.0
176
     1
 40
1.0
176
     1
  0
VISUALSTYLE
  5
497
102
{ACAD_REACTORS
330
48B
102
}
330
48B
100
AcDbVisualStyle
  2
Brighten
 70
    12
177
     3
291
     1
 70
    58
 90
        2
176
     1
 90
        2
176
     1
 90
        0
176
     1
 90
        0
176
     1
 40
0.6
176
     1
 40
30.0
176
     1
 62
     7
420
 16777215
176
     1
 90
        1
176
     1
 90
        4
176
     1
 62
     7
176
     1
 62
   257
176
     1
 90
        1
176
     1
 90
        1
176
     1
 40
1.0
176
     1
 90
        8
176
     1
 62
     7
176
     1
 40
1.0
176
     1
 90
        1
176
     1
 90
        6
176
     1
 90
        2
176
     1
 62
     7
176
     1
 90
        5
176
     1
 90
        0
176
     1
 90
        0
176
     1
290
     0
176
     1
 90
        1
176
     1
 40
50.0
176
     1
 90
        0
176
     1
290
     0
176
     1
290
     1
176
     1
290
     1
176
     1
290
     0
176
     1
290
     0
176
     1
290
     0
176
     1
290
     0
176
     1
290
     0
176
     1
290
     0
176
     1
 90
       50
176
     1
 40
0.0
176
     1
 40
1.0
176
     1
 90
        0
176
     1
 62
    18
420
        0
176
     1
 90
       50
176
     1
 90
        3
176
     1
 62
     5
420
      255
176
     1
290
     0
176
     1
 90
       50
176
     1
 90
       50
176
     1
 90
       50
176
     1
290
     0
176
     1
 90
       50
176
     1
 62
   256
176
     0
 40
1.0
176
     0
 90
        2
176
     1
  1
strokes_ogs.tif
176
     1
290
     0
176
     1
 40
1.0
176
     1
 40
1.0
176
     1
  0
VISUALSTYLE
  5
49B
102
{ACAD_REACTORS
330
48B
102
}
330
48B
100
AcDbVisualStyle
  2
ColorChange
 70
    16
177
     3
291
     1
 70
    58
 90
        2
176
     1
 90
        2
176
     1
 90
        3
176
     1
 90
        0
176
     1
 40
0.6
176
     1
 40
30.0
176
     1
 62
     8
420
  8421504
176
     1
 90
        1
176
     1
 90
        4
176
     1
 62
     7
176
     1
 62
   257
176
     1
 90
        1
176
     1
 90
        1
176
     1
 40
1.0
176
     1
 90
        8
176
     1
 62
     8
420
  8421504
176
     1
 40
1.0
176
     1
 90
        1
176
     1
 90
        6
176
     1
 90
        2
176
     1
 62
     7
176
     1
 90
        5
176
     1
 90
        0
176
     1
 90
        0
176
     1
290
     0
176
     1
 90
        1
176
     1
 40
0.0
176
     1
 90
        0
176
     1
290
     0
176
     1
290
     1
176
     1
290
     1
176
     1
290
     0
176
     1
290
     0
176
     1
290
     0
176
     1
290
     0
176
     1
290
     0
176
     1
290
     0
176
     1
 90
       50
176
     1
 40
0.0
176
     1
 40
1.0
176
     1
 90
        0
176
     1
 62
    18
420
        0
176
     1
 90
       50
176
     1
 90
        3
176
     1
 62
     5
420
      255
176
     1
290
     0
176
     1
 90
       50
176
     1
 90
       50
176
     1
 90
       50
176
     1
290
     0
176
     1
 90
       50
176
     1
 62
   256
176
     0
 40
1.0
176
     0
 90
        2
176
     1
  1
strokes_ogs.tif
176
     1
290
     0
176
     1
 40
1.0
176
     1
 40
1.0
176
     1
  0
VISUALSTYLE
  5
495
102
{ACAD_REACTORS
330
48B
102
}
330
48B
100
AcDbVisualStyle
  2
Conceptual
 70
     9
177
     3
291
     0
 70
    58
 90
        3
176
     1
 90
        2
176
     1
 90
        0
176
     1
 90
        0
176
     1
 40
0.6
176
     1
 40
30.0
176
     1
 62
     7
420
 16777215
176
     1
 90
        2
176
     1
 90
        2
176
     1
 62
     7
176
     1
 62
   257
176
     1
 90
        1
176
     1
 90
        1
176
     1
 40
179.0
176
     1
 90
        8
176
     1
 62
     7
176
     1
 40
1.0
176
     1
 90
        1
176
     1
 90
        6
176
     1
 90
        2
176
     1
 62
     7
176
     1
 90
        3
176
     1
 90
        0
176
     1
 90
        0
176
     1
290
     0
176
     1
 90
        1
176
     1
 40
0.0
176
     1
 90
        0
176
     1
290
     0
176
     1
290
     1
176
     1
290
     1
176
     1
290
     0
176
     1
290
     0
176
     1
290
     0
176
     1
290
     0
176
     1
290
     0
176
     1
290
     0
176
     1
 90
       50
176
     1
 40
0.0
176
     1
 40
1.0
176
     1
 90
        0
176
     1
 62
    18
420
        0
176
     1
 90
       50
176
     1
 90
        3
176
     1
 62
     5
420
      255
176
     1
290
     0
176
     1
 90
       50
176
     1
 90
       50
176
     1
 90
       50
176
     1
290
     0
176
     1
 90
       50
176
     1
 62
   256
176
     0
 40
1.0
176
     0
 90
        2
176
     1
  1
strokes_ogs.tif
176
     1
290
     0
176
     1
 40
1.0
176
     1
 40
1.0
176
     1
  0
VISUALSTYLE
  5
496
102
{ACAD_REACTORS
330
48B
102
}
330
48B
100
AcDbVisualStyle
  2
Dim
 70
    11
177
     3
291
     1
 70
    58
 90
        2
176
     1
 90
        2
176
     1
 90
        0
176
     1
 90
        0
176
     1
 40
0.6
176
     1
 40
30.0
176
     1
 62
     7
420
 16777215
176
     1
 90
        1
176
     1
 90
        4
176
     1
 62
     7
176
     1
 62
   257
176
     1
 90
        1
176
     1
 90
        1
176
     1
 40
1.0
176
     1
 90
        8
176
     1
 62
     7
176
     1
 40
1.0
176
     1
 90
        1
176
     1
 90
        6
176
     1
 90
        2
176
     1
 62
     7
176
     1
 90
        5
176
     1
 90
        0
176
     1
 90
        0
176
     1
290
     0
176
     1
 90
        1
176
     1
 40
-50.0
176
     1
 90
        0
176
     1
290
     0
176
     1
290
     1
176
     1
290
     1
176
     1
290
     0
176
     1
290
     0
176
     1
290
     0
176
     1
290
     0
176
     1
290
     0
176
     1
290
     0
176
     1
 90
       50
176
     1
 40
0.0
176
     1
 40
1.0
176
     1
 90
        0
176
     1
 62
    18
420
        0
176
     1
 90
       50
176
     1
 90
        3
176
     1
 62
     5
420
      255
176
     1
290
     0
176
     1
 90
       50
176
     1
 90
       50
176
     1
 90
       50
176
     1
290
     0
176
     1
 90
       50
176
     1
 62
   256
176
     0
 40
1.0
176
     0
 90
        2
176
     1
  1
strokes_ogs.tif
176
     1
290
     0
176
     1
 40
1.0
176
     1
 40
1.0
176
     1
  0
VISUALSTYLE
  5
49E
102
{ACAD_REACTORS
330
48B
102
}
330
48B
100
AcDbVisualStyle
  2
EdgeColorOff
 70
    22
177
     3
291
     1
 70
    58
 90
        2
176
     0
 90
        2
176
     0
 90
        0
176
     0
 90
        0
176
     0
 40
0.6
176
     0
 40
30.0
176
     0
 62
     7
420
 16777215
176
     0
 90
        1
176
     0
 90
        4
176
     0
 62
     7
176
     0
 62
   257
176
     0
 90
        1
176
     0
 90
        1
176
     0
 40
1.0
176
     0
 90
        8
176
     2
 62
     7
176
     0
 40
1.0
176
     0
 90
        1
176
     0
 90
        6
176
     0
 90
        2
176
     0
 62
     7
176
     0
 90
        5
176
     0
 90
        0
176
     0
 90
        0
176
     0
290
     0
176
     0
 90
        1
176
     0
 40
0.0
176
     0
 90
        0
176
     0
290
     0
176
     0
290
     1
176
     0
290
     1
176
     0
290
     0
176
     0
290
     0
176
     0
290
     0
176
     0
290
     0
176
     0
290
     0
176
     0
290
     0
176
     0
 90
       50
176
     0
 40
0.0
176
     0
 40
1.0
176
     0
 90
        0
176
     0
 62
    18
420
        0
176
     0
 90
       50
176
     0
 90
        3
176
     0
 62
     5
420
      255
176
     0
290
     0
176
     0
 90
       50
176
     0
 90
       50
176
     0
 90
       50
176
     0
290
     0
176
     0
 90
       50
176
     0
 62
   256
176
     0
 40
1.0
176
     0
 90
        2
176
     0
  1
strokes_ogs.tif
176
     0
290
     0
176
     0
 40
1.0
176
     0
 40
1.0
176
     0
  0
VISUALSTYLE
  5
49A
102
{ACAD_REACTORS
330
48B
102
}
330
48B
100
AcDbVisualStyle
  2
Facepattern
 70
    15
177
     3
291
     1
 70
    58
 90
        2
176
     1
 90
        2
176
     1
 90
        0
176
     1
 90
        0
176
     1
 40
0.6
176
     1
 40
30.0
176
     1
 62
     7
420
 16777215
176
     1
 90
        1
176
     1
 90
        4
176
     1
 62
     7
176
     1
 62
   257
176
     1
 90
        1
176
     1
 90
        1
176
     1
 40
1.0
176
     1
 90
        8
176
     1
 62
     7
176
     1
 40
1.0
176
     1
 90
        1
176
     1
 90
        6
176
     1
 90
        2
176
     1
 62
     7
176
     1
 90
        5
176
     1
 90
        0
176
     1
 90
        0
176
     1
290
     0
176
     1
 90
        1
176
     1
 40
0.0
176
     1
 90
        0
176
     1
290
     0
176
     1
290
     1
176
     1
290
     1
176
     1
290
     0
176
     1
290
     0
176
     1
290
     0
176
     1
290
     0
176
     1
290
     0
176
     1
290
     0
176
     1
 90
       50
176
     1
 40
0.0
176
     1
 40
1.0
176
     1
 90
        0
176
     1
 62
    18
420
        0
176
     1
 90
       50
176
     1
 90
        3
176
     1
 62
     5
420
      255
176
     1
290
     0
176
     1
 90
       50
176
     1
 90
       50
176
     1
 90
       50
176
     1
290
     0
176
     1
 90
       50
176
     1
 62
   256
176
     0
 40
1.0
176
     0
 90
        2
176
     1
  1
strokes_ogs.tif
176
     1
290
     0
176
     1
 40
1.0
176
     1
 40
1.0
176
     1
  0
VISUALSTYLE
  5
48C
102
{ACAD_REACTORS
330
48B
102
}
330
48B
100
AcDbVisualStyle
  2
Flat
 70
     0
177
     3
291
     1
 70
    58
 90
        2
176
     1
 90
        1
176
     1
 90
        1
176
     1
 90
        2
176
     1
 40
0.6
176
     1
 40
30.0
176
     1
 62
     7
420
 16777215
176
     1
 90
        0
176
     1
 90
        0
176
     1
 62
     7
176
     1
 62
   257
176
     1
 90
        1
176
     1
 90
        1
176
     1
 40
1.0
176
     1
 90
        8
176
     1
 62
     7
176
     1
 40
1.0
176
     1
 90
        1
176
     1
 90
        6
176
     1
 90
        2
176
     1
 62
     7
176
     1
 90
        5
176
     1
 90
        0
176
     1
 90
        0
176
     1
290
     0
176
     1
 90
       13
176
     1
 40
0.0
176
     1
 90
        0
176
     1
290
     0
176
     1
290
     1
176
     1
290
     1
176
     1
290
     0
176
     1
290
     0
176
     1
290
     0
176
     1
290
     0
176
     1
290
     0
176
     1
290
     0
176
     1
 90
       50
176
     1
 40
0.0
176
     1
 40
1.0
176
     1
 90
        0
176
     1
 62
    18
420
        0
176
     1
 90
       50
176
     1
 90
        3
176
     1
 62
     5
420
      255
176
     1
290
     0
176
     1
 90
       50
176
     1
 90
       50
176
     1
 90
       50
176
     1
290
     0
176
     1
 90
       50
176
     1
 62
   256
176
     0
 40
1.0
176
     0
 90
        2
176
     1
  1
strokes_ogs.tif
176
     1
290
     0
176
     1
 40
1.0
176
     1
 40
1.0
176
     1
  0
VISUALSTYLE
  5
48D
102
{ACAD_REACTORS
330
48B
102
}
330
48B
100
AcDbVisualStyle
  2
FlatWithEdges
 70
     1
177
     3
291
     1
 70
    58
 90
        2
176
     1
 90
        1
176
     1
 90
        1
176
     1
 90
        2
176
     1
 40
0.6
176
     1
 40
30.0
176
     1
 62
     7
420
 16777215
176
     1
 90
        1
176
     1
 90
        0
176
     1
 62
     7
176
     1
 62
   257
176
     1
 90
        1
176
     1
 90
        1
176
     1
 40
1.0
176
     1
 90
        0
176
     1
 62
   257
176
     1
 40
1.0
176
     1
 90
        1
176
     1
 90
        6
176
     1
 90
        2
176
     1
 62
     7
176
     1
 90
        5
176
     1
 90
        0
176
     1
 90
        0
176
     1
290
     0
176
     1
 90
       13
176
     1
 40
0.0
176
     1
 90
        0
176
     1
290
     0
176
     1
290
     1
176
     1
290
     1
176
     1
290
     0
176
     1
290
     0
176
     1
290
     0
176
     1
290
     0
176
     1
290
     0
176
     1
290
     0
176
     1
 90
       50
176
     1
 40
0.0
176
     1
 40
1.0
176
     1
 90
        0
176
     1
 62
    18
420
        0
176
     1
 90
       50
176
     1
 90
        3
176
     1
 62
     5
420
      255
176
     1
290
     0
176
     1
 90
       50
176
     1
 90
       50
176
     1
 90
       50
176
     1
290
     0
176
     1
 90
       50
176
     1
 62
   256
176
     0
 40
1.0
176
     0
 90
        2
176
     1
  1
strokes_ogs.tif
176
     1
290
     0
176
     1
 40
1.0
176
     1
 40
1.0
176
     1
  0
VISUALSTYLE
  5
48E
102
{ACAD_REACTORS
330
48B
102
}
330
48B
100
AcDbVisualStyle
  2
Gouraud
 70
     2
177
     3
291
     1
 70
    58
 90
        2
176
     1
 90
        2
176
     1
 90
        1
176
     1
 90
        2
176
     1
 40
0.6
176
     1
 40
30.0
176
     1
 62
     7
420
 16777215
176
     1
 90
        0
176
     1
 90
        0
176
     1
 62
     7
176
     1
 62
   257
176
     1
 90
        1
176
     1
 90
        1
176
     1
 40
1.0
176
     1
 90
        0
176
     1
 62
     7
176
     1
 40
1.0
176
     1
 90
        1
176
     1
 90
        6
176
     1
 90
        2
176
     1
 62
     7
176
     1
 90
        5
176
     1
 90
        0
176
     1
 90
        0
176
     1
290
     0
176
     1
 90
       13
176
     1
 40
0.0
176
     1
 90
        0
176
     1
290
     0
176
     1
290
     1
176
     1
290
     1
176
     1
290
     0
176
     1
290
     0
176
     1
290
     0
176
     1
290
     0
176
     1
290
     0
176
     1
290
     0
176
     1
 90
       50
176
     1
 40
0.0
176
     1
 40
1.0
176
     1
 90
        0
176
     1
 62
    18
420
        0
176
     1
 90
       50
176
     1
 90
        3
176
     1
 62
     5
420
      255
176
     1
290
     0
176
     1
 90
       50
176
     1
 90
       50
176
     1
 90
       50
176
     1
290
     0
176
     1
 90
       50
176
     1
 62
   256
176
     0
 40
1.0
176
     0
 90
        2
176
     1
  1
strokes_ogs.tif
176
     1
290
     0
176
     1
 40
1.0
176
     1
 40
1.0
176
     1
  0
VISUALSTYLE
  5
48F
102
{ACAD_REACTORS
330
48B
102
}
330
48B
100
AcDbVisualStyle
  2
GouraudWithEdges
 70
     3
177
     3
291
     1
 70
    58
 90
        2
176
     1
 90
        2
176
     1
 90
        1
176
     1
 90
        2
176
     1
 40
0.6
176
     1
 40
30.0
176
     1
 62
     7
420
 16777215
176
     1
 90
        1
176
     1
 90
        0
176
     1
 62
     7
176
     1
 62
   257
176
     1
 90
        1
176
     1
 90
        1
176
     1
 40
1.0
176
     1
 90
        0
176
     1
 62
   257
176
     1
 40
1.0
176
     1
 90
        1
176
     1
 90
        6
176
     1
 90
        2
176
     1
 62
     7
176
     1
 90
        5
176
     1
 90
        0
176
     1
 90
        0
176
     1
290
     0
176
     1
 90
       13
176
     1
 40
0.0
176
     1
 90
        0
176
     1
290
     0
176
     1
290
     1
176
     1
290
     1
176
     1
290
     0
176
     1
290
     0
176
     1
290
     0
176
     1
290
     0
176
     1
290
     0
176
     1
290
     0
176
     1
 90
       50
176
     1
 40
0.0
176
     1
 40
1.0
176
     1
 90
        0
176
     1
 62
    18
420
        0
176
     1
 90
       50
176
     1
 90
        3
176
     1
 62
     5
420
      255
176
     1
290
     0
176
     1
 90
       50
176
     1
 90
       50
176
     1
 90
       50
176
     1
290
     0
176
     1
 90
       50
176
     1
 62
   256
176
     0
 40
1.0
176
     0
 90
        2
176
     1
  1
strokes_ogs.tif
176
     1
290
     0
176
     1
 40
1.0
176
     1
 40
1.0
176
     1
  0
VISUALSTYLE
  5
492
102
{ACAD_REACTORS
330
48B
102
}
330
48B
100
AcDbVisualStyle
  2
Hidden
 70
     6
177
     3
291
     0
 70
    58
 90
        1
176
     1
 90
        2
176
     1
 90
        2
176
     1
 90
        0
176
     1
 40
0.6
176
     1
 40
30.0
176
     1
 62
     7
420
 16777215
176
     1
 90
        2
176
     1
 90
        2
176
     1
 62
     7
176
     1
 62
   257
176
     1
 90
        2
176
     1
 90
        1
176
     1
 40
40.0
176
     1
 90
        0
176
     1
 62
   257
176
     1
 40
1.0
176
     1
 90
        1
176
     1
 90
        6
176
     1
 90
        2
176
     1
 62
     7
176
     1
 90
        3
176
     1
 90
        0
176
     1
 90
        0
176
     1
290
     0
176
     1
 90
        1
176
     1
 40
0.0
176
     1
 90
        0
176
     1
290
     0
176
     1
290
     1
176
     1
290
     1
176
     1
290
     0
176
     1
290
     0
176
     1
290
     0
176
     1
290
     0
176
     1
290
     0
176
     1
290
     0
176
     1
 90
       50
176
     1
 40
0.0
176
     1
 40
1.0
176
     1
 90
        0
176
     1
 62
    18
420
        0
176
     1
 90
       50
176
     1
 90
        3
176
     1
 62
     5
420
      255
176
     1
290
     0
176
     1
 90
       50
176
     1
 90
       50
176
     1
 90
       50
176
     1
290
     0
176
     1
 90
       50
176
     1
 62
   256
176
     0
 40
1.0
176
     0
 90
        2
176
     1
  1
strokes_ogs.tif
176
     1
290
     0
176
     1
 40
1.0
176
     1
 40
1.0
176
     1
  0
VISUALSTYLE
  5
49C
102
{ACAD_REACTORS
330
48B
102
}
330
48B
100
AcDbVisualStyle
  2
JitterOff
 70
    20
177
     3
291
     1
 70
    58
 90
        2
176
     0
 90
        2
176
     0
 90
        0
176
     0
 90
        0
176
     0
 40
0.6
176
     0
 40
30.0
176
     0
 62
     7
420
 16777215
176
     0
 90
        1
176
     0
 90
        4
176
     0
 62
     7
176
     0
 62
   257
176
     0
 90
        1
176
     0
 90
        1
176
     0
 40
1.0
176
     0
 90
       10
176
     2
 62
     7
176
     0
 40
1.0
176
     0
 90
        1
176
     0
 90
        6
176
     0
 90
        2
176
     0
 62
     7
176
     0
 90
        5
176
     0
 90
        0
176
     0
 90
        0
176
     0
290
     0
176
     0
 90
        1
176
     0
 40
0.0
176
     0
 90
        0
176
     0
290
     0
176
     0
290
     1
176
     0
290
     1
176
     0
290
     0
176
     0
290
     0
176
     0
290
     0
176
     0
290
     0
176
     0
290
     0
176
     0
290
     0
176
     0
 90
       50
176
     0
 40
0.0
176
     0
 40
1.0
176
     0
 90
        0
176
     0
 62
    18
420
        0
176
     0
 90
       50
176
     0
 90
        3
176
     0
 62
     5
420
      255
176
     0
290
     0
176
     0
 90
       50
176
     0
 90
       50
176
     0
 90
       50
176
     0
290
     0
176
     0
 90
       50
176
     0
 62
   256
176
     0
 40
1.0
176
     0
 90
        2
176
     0
  1
strokes_ogs.tif
176
     0
290
     0
176
     0
 40
1.0
176
     0
 40
1.0
176
     0
  0
VISUALSTYLE
  5
499
102
{ACAD_REACTORS
330
48B
102
}
330
48B
100
AcDbVisualStyle
  2
Linepattern
 70
    14
177
     3
291
     1
 70
    58
 90
        2
176
     1
 90
        2
176
     1
 90
        0
176
     1
 90
        0
176
     1
 40
0.6
176
     1
 40
30.0
176
     1
 62
     7
420
 16777215
176
     1
 90
        1
176
     1
 90
        4
176
     1
 62
     7
176
     1
 62
   257
176
     1
 90
        7
176
     1
 90
        7
176
     1
 40
1.0
176
     1
 90
        8
176
     1
 62
     7
176
     1
 40
1.0
176
     1
 90
        1
176
     1
 90
        6
176
     1
 90
        2
176
     1
 62
     7
176
     1
 90
        5
176
     1
 90
        0
176
     1
 90
        0
176
     1
290
     0
176
     1
 90
        1
176
     1
 40
0.0
176
     1
 90
        0
176
     1
290
     0
176
     1
290
     1
176
     1
290
     1
176
     1
290
     0
176
     1
290
     0
176
     1
290
     0
176
     1
290
     0
176
     1
290
     0
176
     1
290
     0
176
     1
 90
       50
176
     1
 40
0.0
176
     1
 40
1.0
176
     1
 90
        0
176
     1
 62
    18
420
        0
176
     1
 90
       50
176
     1
 90
        3
176
     1
 62
     5
420
      255
176
     1
290
     0
176
     1
 90
       50
176
     1
 90
       50
176
     1
 90
       50
176
     1
290
     0
176
     1
 90
       50
176
     1
 62
   256
176
     0
 40
1.0
176
     0
 90
        2
176
     1
  1
strokes_ogs.tif
176
     1
290
     0
176
     1
 40
1.0
176
     1
 40
1.0
176
     1
  0
VISUALSTYLE
  5
49D
102
{ACAD_REACTORS
330
48B
102
}
330
48B
100
AcDbVisualStyle
  2
OverhangOff
 70
    21
177
     3
291
     1
 70
    58
 90
        2
176
     0
 90
        2
176
     0
 90
        0
176
     0
 90
        0
176
     0
 40
0.6
176
     0
 40
30.0
176
     0
 62
     7
420
 16777215
176
     0
 90
        1
176
     0
 90
        4
176
     0
 62
     7
176
     0
 62
   257
176
     0
 90
        1
176
     0
 90
        1
176
     0
 40
1.0
176
     0
 90
        9
176
     2
 62
     7
176
     0
 40
1.0
176
     0
 90
        1
176
     0
 90
        6
176
     0
 90
        2
176
     0
 62
     7
176
     0
 90
        5
176
     0
 90
        0
176
     0
 90
        0
176
     0
290
     0
176
     0
 90
        1
176
     0
 40
0.0
176
     0
 90
        0
176
     0
290
     0
176
     0
290
     1
176
     0
290
     1
176
     0
290
     0
176
     0
290
     0
176
     0
290
     0
176
     0
290
     0
176
     0
290
     0
176
     0
290
     0
176
     0
 90
       50
176
     0
 40
0.0
176
     0
 40
1.0
176
     0
 90
        0
176
     0
 62
    18
420
        0
176
     0
 90
       50
176
     0
 90
        3
176
     0
 62
     5
420
      255
176
     0
290
     0
176
     0
 90
       50
176
     0
 90
       50
176
     0
 90
       50
176
     0
290
     0
176
     0
 90
       50
176
     0
 62
   256
176
     0
 40
1.0
176
     0
 90
        2
176
     0
  1
strokes_ogs.tif
176
     0
290
     0
176
     0
 40
1.0
176
     0
 40
1.0
176
     0
  0
VISUALSTYLE
  5
494
102
{ACAD_REACTORS
330
48B
102
}
330
48B
100
AcDbVisualStyle
  2
Realistic
 70
     8
177
     3
291
     0
 70
    58
 90
        2
176
     1
 90
        3
176
     1
 90
        0
176
     1
 90
        2
176
     1
 40
0.6
176
     1
 40
30.0
176
     1
 62
     7
420
 16777215
176
     1
 90
        0
176
     1
 90
        0
176
     1
 62
     7
176
     1
 62
   257
176
     1
 90
        1
176
     1
 90
        1
176
     1
 40
1.0
176
     1
 90
        8
176
     1
 62
   257
176
     1
 40
1.0
176
     1
 90
        1
176
     1
 90
        6
176
     1
 90
        2
176
     1
 62
     7
176
     1
 90
        3
176
     1
 90
        0
176
     1
 90
        0
176
     1
290
     0
176
     1
 90
       13
176
     1
 40
0.0
176
     1
 90
        0
176
     1
290
     0
176
     1
290
     1
176
     1
290
     1
176
     1
290
     0
176
     1
290
     0
176
     1
290
     0
176
     1
290
     0
176
     1
290
     0
176
     1
290
     0
176
     1
 90
       50
176
     1
 40
0.0
176
     1
 40
1.0
176
     1
 90
        0
176
     1
 62
    18
420
        0
176
     1
 90
       50
176
     1
 90
        3
176
     1
 62
     5
420
      255
176
     1
290
     0
176
     1
 90
       50
176
     1
 90
       50
176
     1
 90
       50
176
     1
290
     0
176
     1
 90
       50
176
     1
 62
   256
176
     0
 40
1.0
176
     0
 90
        2
176
     1
  1
strokes_ogs.tif
176
     1
290
     0
176
     1
 40
1.0
176
     1
 40
1.0
176
     1
  0
VISUALSTYLE
  5
4A3
102
{ACAD_REACTORS
330
48B
102
}
330
48B
100
AcDbVisualStyle
  2
Shaded
 70
    27
177
     3
291
     0
 70
    58
 90
        2
176
     1
 90
        2
176
     1
 90
        1
176
     1
 90
        2
176
     1
 40
0.6
176
     1
 40
30.0
176
     1
 62
     7
420
 16777215
176
     1
 90
        0
176
     1
 90
        4
176
     1
 62
     7
176
     1
 62
   257
176
     1
 90
        1
176
     1
 90
        1
176
     1
 40
1.0
176
     1
 90
        8
176
     1
 62
   257
176
     1
 40
1.0
176
     1
 90
        1
176
     1
 90
        6
176
     1
 90
        2
176
     1
 62
     8
420
  7895160
176
     1
 90
        3
176
     1
 90
        0
176
     1
 90
        0
176
     1
290
     0
176
     1
 90
        5
176
     1
 40
0.0
176
     1
 90
        0
176
     1
290
     0
176
     1
290
     1
176
     1
290
     1
176
     1
290
     0
176
     1
290
     0
176
     1
290
     0
176
     1
290
     0
176
     1
290
     0
176
     1
290
     0
176
     1
 90
       50
176
     1
 40
0.0
176
     1
 40
1.0
176
     1
 90
        0
176
     1
 62
    18
420
        0
176
     1
 90
       50
176
     1
 90
        3
176
     1
 62
     5
420
      255
176
     1
290
     0
176
     1
 90
       50
176
     1
 90
       50
176
     1
 90
       50
176
     1
290
     0
176
     1
 90
       50
176
     1
 62
   256
176
     0
 40
1.0
176
     0
 90
        2
176
     1
  1
strokes_ogs.tif
176
     1
290
     0
176
     1
 40
1.0
176
     1
 40
1.0
176
     1
  0
VISUALSTYLE
  5
4A2
102
{ACAD_REACTORS
330
48B
102
}
330
48B
100
AcDbVisualStyle
  2
Shaded with edges
 70
    26
177
     3
291
     0
 70
    58
 90
        2
176
     1
 90
        2
176
     1
 90
        1
176
     1
 90
        2
176
     1
 40
0.6
176
     1
 40
30.0
176
     1
 62
     7
420
 16777215
176
     1
 90
        1
176
     1
 90
       10
176
     1
 62
     7
176
     1
 62
   257
176
     1
 90
        2
176
     1
 90
        1
176
     1
 40
1.0
176
     1
 90
        8
176
     1
 62
   257
176
     1
 40
1.0
176
     1
 90
        1
176
     1
 90
        6
176
     1
 90
        2
176
     1
 62
     7
176
     1
 90
        3
176
     1
 90
        0
176
     1
 90
        0
176
     1
290
     0
176
     1
 90
        5
176
     1
 40
0.0
176
     1
 90
        0
176
     1
290
     0
176
     1
290
     1
176
     1
290
     1
176
     1
290
     0
176
     1
290
     0
176
     1
290
     0
176
     1
290
     0
176
     1
290
     0
176
     1
290
     0
176
     1
 90
       50
176
     1
 40
0.0
176
     1
 40
1.0
176
     1
 90
        0
176
     1
 62
    18
420
        0
176
     1
 90
       50
176
     1
 90
        3
176
     1
 62
     5
420
      255
176
     1
290
     0
176
     1
 90
       50
176
     1
 90
       50
176
     1
 90
       50
176
     1
290
     0
176
     1
 90
       50
176
     1
 62
   256
176
     0
 40
1.0
176
     0
 90
        2
176
     1
  1
strokes_ogs.tif
176
     1
290
     0
176
     1
 40
1.0
176
     1
 40
1.0
176
     1
  0
VISUALSTYLE
  5
49F
102
{ACAD_REACTORS
330
48B
102
}
330
48B
100
AcDbVisualStyle
  2
Shades of Gray
 70
    23
177
     3
291
     0
 70
    58
 90
        2
176
     1
 90
        2
176
     1
 90
        3
176
     1
 90
        0
176
     1
 40
0.6
176
     1
 40
30.0
176
     1
 62
     7
420
 16777215
176
     1
 90
        2
176
     1
 90
        2
176
     1
 62
     7
176
     1
 62
     7
176
     1
 90
        1
176
     1
 90
        1
176
     1
 40
40.0
176
     1
 90
        8
176
     1
 62
     7
176
     1
 40
1.0
176
     1
 90
        1
176
     1
 90
        6
176
     1
 90
        2
176
     1
 62
     7
176
     1
 90
        3
176
     1
 90
        0
176
     1
 90
        0
176
     1
290
     0
176
     1
 90
        1
176
     1
 40
0.0
176
     1
 90
        0
176
     1
290
     0
176
     1
290
     1
176
     1
290
     1
176
     1
290
     0
176
     1
290
     0
176
     1
290
     0
176
     1
290
     0
176
     1
290
     0
176
     1
290
     0
176
     1
 90
       50
176
     1
 40
0.0
176
     1
 40
1.0
176
     1
 90
        0
176
     1
 62
    18
420
        0
176
     1
 90
       50
176
     1
 90
        3
176
     1
 62
     5
420
      255
176
     1
290
     0
176
     1
 90
       50
176
     1
 90
       50
176
     1
 90
       50
176
     1
290
     0
176
     1
 90
       50
176
     1
 62
   256
176
     0
 40
1.0
176
     0
 90
        2
176
     1
  1
strokes_ogs.tif
176
     1
290
     0
176
     1
 40
1.0
176
     1
 40
1.0
176
     1
  0
VISUALSTYLE
  5
4A0
102
{ACAD_REACTORS
330
48B
102
}
330
48B
100
AcDbVisualStyle
  2
Sketchy
 70
    24
177
     3
291
     0
 70
    58
 90
        1
176
     1
 90
        2
176
     1
 90
        2
176
     1
 90
        0
176
     1
 40
0.6
176
     1
 40
30.0
176
     1
 62
     7
420
 16777215
176
     1
 90
        2
176
     1
 90
        2
176
     1
 62
     7
176
     1
 62
     7
176
     1
 90
        1
176
     1
 90
        1
176
     1
 40
40.0
176
     1
 90
       11
176
     1
 62
     7
176
     1
 40
1.0
176
     1
 90
        1
176
     1
 90
        6
176
     1
 90
        2
176
     1
 62
     7
176
     1
 90
        6
176
     1
 90
        0
176
     1
 90
        0
176
     1
290
     0
176
     1
 90
        1
176
     1
 40
0.0
176
     1
 90
        0
176
     1
290
     0
176
     1
290
     1
176
     1
290
     1
176
     1
290
     0
176
     1
290
     0
176
     1
290
     0
176
     1
290
     0
176
     1
290
     0
176
     1
290
     0
176
     1
 90
       50
176
     1
 40
0.0
176
     1
 40
1.0
176
     1
 90
        0
176
     1
 62
    18
420
        0
176
     1
 90
       50
176
     1
 90
        3
176
     1
 62
     5
420
      255
176
     1
290
     0
176
     1
 90
       50
176
     1
 90
       50
176
     1
 90
       50
176
     1
290
     0
176
     1
 90
       50
176
     1
 62
   256
176
     0
 40
1.0
176
     0
 90
        2
176
     1
  1
strokes_ogs.tif
176
     1
290
     0
176
     1
 40
1.0
176
     1
 40
1.0
176
     1
  0
VISUALSTYLE
  5
498
102
{ACAD_REACTORS
330
48B
102
}
330
48B
100
AcDbVisualStyle
  2
Thicken
 70
    13
177
     3
291
     1
 70
    58
 90
        2
176
     1
 90
        2
176
     1
 90
        0
176
     1
 90
        0
176
     1
 40
0.6
176
     1
 40
30.0
176
     1
 62
     7
420
 16777215
176
     1
 90
        1
176
     1
 90
        4
176
     1
 62
     7
176
     1
 62
   257
176
     1
 90
        1
176
     1
 90
        1
176
     1
 40
1.0
176
     1
 90
       12
176
     1
 62
     7
176
     1
 40
1.0
176
     1
 90
        1
176
     1
 90
        6
176
     1
 90
        2
176
     1
 62
     7
176
     1
 90
        5
176
     1
 90
        0
176
     1
 90
        0
176
     1
290
     0
176
     1
 90
        1
176
     1
 40
0.0
176
     1
 90
        0
176
     1
290
     0
176
     1
290
     1
176
     1
290
     1
176
     1
290
     0
176
     1
290
     0
176
     1
290
     0
176
     1
290
     0
176
     1
290
     0
176
     1
290
     0
176
     1
 90
       50
176
     1
 40
0.0
176
     1
 40
1.0
176
     1
 90
        0
176
     1
 62
    18
420
        0
176
     1
 90
       50
176
     1
 90
        3
176
     1
 62
     5
420
      255
176
     1
290
     0
176
     1
 90
       50
176
     1
 90
       50
176
     1
 90
       50
176
     1
290
     0
176
     1
 90
       50
176
     1
 62
   256
176
     0
 40
1.0
176
     0
 90
        2
176
     1
  1
strokes_ogs.tif
176
     1
290
     0
176
     1
 40
1.0
176
     1
 40
1.0
176
     1
  0
VISUALSTYLE
  5
491
102
{ACAD_REACTORS
330
48B
102
}
330
48B
100
AcDbVisualStyle
  2
Wireframe
 70
     5
177
     3
291
     0
 70
    58
 90
        0
176
     1
 90
        2
176
     1
 90
        0
176
     1
 90
        0
176
     1
 40
0.6
176
     1
 40
30.0
176
     1
 62
     7
420
 16777215
176
     1
 90
        1
176
     1
 90
        4
176
     1
 62
     7
176
     1
 62
   257
176
     1
 90
        1
176
     1
 90
        1
176
     1
 40
1.0
176
     1
 90
        0
176
     1
 62
   257
176
     1
 40
1.0
176
     1
 90
        1
176
     1
 90
        6
176
     1
 90
        2
176
     1
 62
     7
176
     1
 90
        3
176
     1
 90
        0
176
     1
 90
        0
176
     1
290
     0
176
     1
 90
        1
176
     1
 40
0.0
176
     1
 90
        0
176
     1
290
     0
176
     1
290
     1
176
     1
290
     1
176
     1
290
     0
176
     1
290
     0
176
     1
290
     0
176
     1
290
     0
176
     1
290
     0
176
     1
290
     0
176
     1
 90
       50
176
     1
 40
0.0
176
     1
 40
1.0
176
     1
 90
        0
176
     1
 62
    18
420
        0
176
     1
 90
       50
176
     1
 90
        3
176
     1
 62
     5
420
      255
176
     1
290
     0
176
     1
 90
       50
176
     1
 90
       50
176
     1
 90
       50
176
     1
290
     0
176
     1
 90
       50
176
     1
 62
   256
176
     0
 40
1.0
176
     0
 90
        2
176
     1
  1
strokes_ogs.tif
176
     1
290
     0
176
     1
 40
1.0
176
     1
 40
1.0
176
     1
  0
VISUALSTYLE
  5
4A1
102
{ACAD_REACTORS
330
48B
102
}
330
48B
100
AcDbVisualStyle
  2
X-Ray
 70
    25
177
     3
291
     0
 70
    58
 90
        2
176
     1
 90
        2
176
     1
 90
        1
176
     1
 90
        1
176
     1
 40
0.5
176
     1
 40
30.0
176
     1
 62
     7
420
 16777215
176
     1
 90
        1
176
     1
 90
        0
176
     1
 62
     7
176
     1
 62
   257
176
     1
 90
        1
176
     1
 90
        1
176
     1
 40
1.0
176
     1
 90
        8
176
     1
 62
     7
176
     1
 40
1.0
176
     1
 90
        1
176
     1
 90
        6
176
     1
 90
        2
176
     1
 62
     7
176
     1
 90
        3
176
     1
 90
        0
176
     1
 90
        0
176
     1
290
     0
176
     1
 90
       13
176
     1
 40
0.0
176
     1
 90
        0
176
     1
290
     0
176
     1
290
     1
176
     1
290
     1
176
     1
290
     0
176
     1
290
     0
176
     1
290
     0
176
     1
290
     0
176
     1
290
     0
176
     1
290
     0
176
     1
 90
       50
176
     1
 40
0.0
176
     1
 40
1.0
176
     1
 90
        0
176
     1
 62
    18
420
        0
176
     1
 90
       50
176
     1
 90
        3
176
     1
 62
     5
420
      255
176
     1
290
     0
176
     1
 90
       50
176
     1
 90
       50
176
     1
 90
       50
176
     1
290
     0
176
     1
 90
       50
176
     1
 62
   256
176
     0
 40
1.0
176
     0
 90
        2
176
     1
  1
strokes_ogs.tif
176
     1
290
     0
176
     1
 40
1.0
176
     1
 40
1.0
176
     1
  0
DICTIONARYVAR
  5
4BA
102
{ACAD_REACTORS
330
4B9
102
}
330
4B9
100
DictionaryVariables
280
     0
  1
1:1
  0
DICTIONARYVAR
  5
4BE
102
{ACAD_REACTORS
330
4B9
102
}
330
4B9
100
DictionaryVariables
280
     0
  1
Standard
  0
CSACDOCUMENTOPTIONS
  5
4AF
102
{ACAD_REACTORS
330
4AE
102
}
330
4AE
  0
XRECORD
  5
4B3
102
{ACAD_REACTORS
330
4AA
102
}
330
4AA
100
AcDbXrecord
280
     1
300
MC_VERSION_DATA
 90
       95
310
0600000002000000570000001C000000E404000000000000000000007801936764E5D8CF7A8393818115C460606066E0646662626666706006F214793899F8DE3171E725E6E53B3BBA2878E6951050AF75FEFFFFFF520032DE0F3057000000
  0
XRECORD
  5
4AB
102
{ACAD_REACTORS
330
4AA
102
}
330
4AA
100
AcDbXrecord
280
     1
300
MCS_DOCUMENT_ID
 90
       60
310
0600000002000000150000001C000000E404000000000000000000007801E3DD52B7E09362D66CF7956B6223B5CEEE3BF51F080077970CC515000000
  0
XRECORD
  5
4B1
102
{ACAD_REACTORS
330
4AA
102
}
330
4AA
100
AcDbXrecord
280
     1
300
MCS_PARAMS_DATA
 90
     3313
310
0600000002000000F64B00001C000000E404000000000000000000007801C55C5B905C45199EE99EBDCCE67E5DA218172C303B91307B4B8C459531245054850D55591F78B236BB49B9BAC9E6B22A082A9655BE5865596569A965F9209288CF16503EC8834088C10B092404211702988430422E9084CDAEFFD7A7FBF4DFA7CF
310
D9D99D9D39930798FF3F7DCEF7DFFAFBBBFBCC6CDBFC46297252EECB48F9CDF5ED5234493921A5206D76815820B252E4F3225F128D7D5F59BF69E3162948D9A2D485B3131313747328BF06593E960915079422437734AA3BDAA5CCD053F5ED4FD2557D257BAB94DF007A03479F859BB2B22193C9108EC1CDCADC0464C27506
310
28605703E48886E0B986E10F03BF91E33707F8E3140E7A9091C8268236920C1C662240B94888A1C8E07600AE99C32D5131CA8B3925D172EFE62D7D6D9DABBA8ADDD6F17CE16D13F0457AE8AC9268DE32DABF73B07FCFA013F9BF8491D7C17E2550D8E8FFCA8DFE4E98B3929B331718B291824FFF72EB941D9E8E2211D5A93C
310
784A44C557923911258BD0C8640531AEEC61A924855B11378280384364A422680C0A928DB9C10CD89D581114199665B722B26E4590C82B0222AB08FAA8A60626C028E0044F81BA246F5360E167F2D27C56A10E05C058C13C59DEC6207679103AFC5DEADF992F2B284F67B31C8EE359B64A9665A62453228F64269D98455E3B
310
A4B35817F7EC92C86FB8EFFE8DBD5BEEDBDCAB0CD3B5FC8E99065A7E55D536E39DE7826237F1C8BBBCB3CFADFC93302087C80397EE69C2FF69CA32234F0763E41851010DA578E8294D435524988818E84710A7B2643B4F7C034F6CE5C9368F203BE8094C6268541D70D35EE4B585DAE170F4942EB8D2D422560A9917F34B62
310
CE86919D9F1F6DDBB36DD770FFC0B6BC682E898607BEB5737424F8D83B323AF07529CFC0B69BB96D9FD3CFF9B410ED79B1A42416161FEA29AEEDEEEC5ADF532C76DEF3C5AEEEB5CAECF97A60330D2C1C3579EAD0DA7621F20269BD6768746FDBF0D0DE51F3B0EE356B3ABBD6F474F7740D76770EACED08FCFC92BEAF13F701
310
B5AF7FEBF0B6B691ED6D7D23C3DBF6F4EF840FDA9AD583C58E81E240FFEAADDD5BD70EAC0E669D2A25F27FB610851F9335859F059541B9E5971EC7A5A7E83F2CE53DB9A4040555A2661A4DDBF2C560B2E54E7D5483931EF871F7C88E5DFDA3435B878687461F6EDB313248FE3596847C70DBDEBC682809D13B22E56A5856E4
310
E9998738519B6E2A89DCE6EDDBDB542AF4E4380F8F61A4965F57116093E5A052A06AF588670205D9A715FB49B140D81A90855F902680EBB8B3A3187EEA96F2B224E392BAF898328CB1AD47DA34C1601A1B421AD816D190715CC3F276A5DE067C546F03AED6DB808FEB6DC0B57A1BB00853B49EB3E0937A47E07ABD0D188301
310
71CB797197D3603B1D06BFCB6DB024827C0C834324E60945463B3712E196397079076E990B47228783C8E09631B8F129C211385B3E540C97413DC70673C524DEAD70BD23917B079179B782793791AE77D944EFDCDC5529988B13E1069D6092C472A7F777A6F648E4C184C88239C8822913E16AE29D48176E29E0727C316496
310
EF2A967C95165E504B0C2B218EEE82DD5C63513CD614C5091F6D6FA7551865CC5C5030A1E0A3E84BEC86CFD04EC5DD01AA74CBDB05AB8C403295A124BB2908C4B032B4682A032283FB103E391B4E03172C7199C4E0F88E871E8855ADA1482D3238FA1846E0B807A77785BFF935FE1D74369F5647D0D171CA5F4F09337C2559
310
105132935A503D6DBC7A94B54D2B6DF1E0339960F436A97441791E5EC104D40283580888C4FDED577B1FD8B4B9AF6FE30605D8AAD7F1F34A62F6DD5BBEC62E92057A31FEA25A9DB3F5FBD3C1729D9CD723B0BF0DE8402BB05A67160DDE4416E59079C0D9EAA575B7321F67115FC018C76AB5B3A33D06B68CBD9BFBDC93C073
310
800CC384FD360C544F539B6F02B1820953BE9D01DE01C0D85A6C50369A5AC4065C7760793B965800321749E4B50891C0C2AB0CAE9808178444974C70F875952A9381563C01BE9D08EAFA481283ABD8C7EF7870DAABE068E68833DFAC8EA0A3E3F87C0B07AA507B2311F0889285BDC333294C4E2DB27C67BA70ABD2857B688A
310
70552AA7873DB8489E55063D5D2DCBE9BB9E49F1E554A5083C922EDCA3E9C27D2F5DB8EF7B705EE9D87E1E920E88313AAE6AECF4FBD668D3D30DB4E51ADA9BEDB0D7AFCEB4DDED85F7C4ECF6551B3BCE2AFF6E835E49458EC94883D6E73C45753FAE614C3C0A0362777435D915EC025C33F7578776011DE6F3D066954C59D6
310
D76F86AC9CD58A53F4122CF0552BAE070AEA3B5AF15752304F1F47569D50AB71F41A31FA5A51C904CD43C6B0F51D2ACEFC112ACC4CC1B0FF086CE7AD5A4D096A005126387AAD451EE384D9C035A925859E39C1AA865EE9A9B8DA21CEE289167F7CF1D4C4BC7A125EC5AED5D8BB0B5A9D9144D134CFA71BF85A8D44BE568348
310
F6AA55A2F3CAEA4F6982FD21118CC249D3CBF852A586F244BA70FBD285DB9F085793EDE56E143F0AD06C6B4CB2242BDD3DD1419166C2865E81F9CE1648F3CBD84597B22E28992A3DDCE24C77F3F311A01C8A722828EC3CF15F7D987933F818F8E59BC138E5CD4CE8AC24C94E68BA32F5C3CBAB808B6B06B9936E642F9F804C
310
903AF2F3709D37832318A078E4B37AEBDCFAA66859945B9EBB25776BAE2DD3995995E9CA1433DDFA4DAC7ECE6FE93696E96BB06712968ED2661884A9EE40230F60D0D73DE8C858453B9E8E4212D5A9B0784A762662599FEDD18C9299F4094C728A91F536658E91CDA6DFC8E89F363B15B4CB31404FD2581CF722BBF229B517
310
430944E56AB2E2A8E3461950730F2B7ECA7BC570E389706E8BA9D241C744225C40C29385944F707279EA277D998065D9EAD604B1263E66D38513E9C2490F4EE7CC6E8AA89C3D9DA588701CA708AB6414C194931EE3FC0D4515D71A4FBFE712F8CB4A26532A6E8DCF01CA61A3745BE3F3C09F6E6B442F0CD7BAD36A8D2F002E
310
AE359E3BE646F6B8926D6BBC0CD9926FBEF08C5220B9BAE91D0E14769FF44B52301E3C00E8FA74C117BD24F396E22C7F1005F2DA2902EB76053DE720B0D3EE397F2F036AE8B24A3DE750225C4DF8F8A544B81AF69C7F2482D6C4C77F067093EF36FE359541FF8E0E8A50399BA22F63681CEF0EBDEBB2C3834A9E09EF1E0654
310
1D79F708F0A7CBBB956F495E015C1CEFEE3EEC46B65FC996771F856C09285F58A7148C77872F6104D6DC9A8897D30896D457015D1FDE3DEA25B91CEFF2EBD6EB0A68F718A0D3A6DDD7CA805699768F27C2D584925E4F84AB9476A39B03E744D09CD6610FF59F44E89A78FA46BA70DDDE0ADC144A4DBCEBF1E0221D416DC23D
310
1D715254A766A8A7AC60C1FF26021ED7783E889CD89C52F24C1ACF0940D5B1F19C047E7A8DE714E0E21ACFD5436EE339AB64DB78E44B91C6730003ECCB897CE1D28548E3798246B0C6731AD0536D3CB3E90740046E0B5FD5161351555C247A084506FA9607AAEBD39C44F1E2B63A5BDCA18E17B755B2E2664A322602C34C3A
310
0393625B51C09BC60D77315EF1E1C8DB80730A9C37D5B8CD0EBF3EA3A6FB4EA2A7C18B1B2746D53A5F7BB70C687C78291FE10E3A386EE3054657F9CB297E9CF703B0E71DFC4DA3397B4068C3CF33A1A81F02C2C920DB8E7ABF712005813923946BAE06DE453454B45CC32AF6311810C751E3F85A979E7874424F9299B34AB2
310
210DC430A45A3473162283FB2F3218C7FE178FBB1CF59692CDAD957C0DECAC3739580882F7E26636C4FC0874E66F42CE013F2EB274A4C323CBB88082C5B980AE4CFD4DC879C0C5B1FFF5E7DDC89E57324556799F2F34BC006EC70CD18A8318C0D9FF0AB6807CDBB19F46B0A4BE07E8B4D9FF8207EA504E3D7E65FA3E4C7226
310
B329B0E8D703AAFEBAA304E869379E693123CD68457958A4FF2F11AE86ECFF4119D078F6E7138AD87FF2370F86D6E1E38789702D76FED2134932CCA824CB8C811832A3160D33426421BD980847AF6F0C11D33DEECB1CFE9B7175D1F926045DE5BD8DBFBDBE94081764D0049324E6DDB40A8607F372225C4D16463974B5B836
310
F393232E193EA2E499B49986C93A780A6DA631A981D7A6CD34012EAECDFCFC5937B23F52B26D33BF83CCDBCC56A5C0ECD07DE7A7A7226D661D8D6033A419D0536D33E07F56B8C4CA7C0D48229F9610695A461A0883CE7B494E8DD95B004DF38E8247AB09FE45AC1A52EDAC32A0861DD8DA85D8A76276989D08579353913989
310
700119397510D9BB4CAB9DF096393711B4263ECE4B176E7EBA700B3C389DB3F0B5335AA6A7234288EA142D784A9083AFB414616018456CF24C3293C4CD2F49D3E5A5F0410CEE7E0F2E6A6FEA11580893E29AEE529C2FC11C4DF48D4AA628982DB44A422820F8563073C8F989CF2240392BED74F7768B819FDEDE6E09E0E29A
310
EE72FA030B3CB273954C91D5916E87CC9BEEFB4FAB1E6B73B10CFB6CBEB73B4423589D2D05F4CC9AAE2E4C768646F0614DBB4BD40606DDEA2539B5A67B13A0D36EBACBCA809A9055A7E9E24B8E0D79912B896C91FE0C1655C17843E129FA335B3277F4E8510807513CB9CC44868E210AF7FE19028691B0917E39482B125CF8
310
D4FF01F0B312DAF64B0000
  0
TABLECONTENT
  5
4B5
330
4B8
100
AcDbLinkedData
  1

300

100
AcDbLinkedTableData
 90
        5
300
COLUMN
  1
LINKEDTABLEDATACOLUMN_BEGIN
300

 91
        0
301
CUSTOMDATA
  1
DATAMAP_BEGIN
 90
        0
309
DATAMAP_END
309
LINKEDTABLEDATACOLUMN_END
  1
FORMATTEDTABLEDATACOLUMN_BEGIN
300
COLUMNTABLEFORMAT
  1
TABLEFORMAT_BEGIN
 90
        3
170
     0
309
TABLEFORMAT_END
309
FORMATTEDTABLEDATACOLUMN_END
  1
TABLECOLUMN_BEGIN
 90
        0
 40
10.0
309
TABLECOLUMN_END
300
COLUMN
  1
LINKEDTABLEDATACOLUMN_BEGIN
300

 91
        0
301
CUSTOMDATA
  1
DATAMAP_BEGIN
 90
        0
309
DATAMAP_END
309
LINKEDTABLEDATACOLUMN_END
  1
FORMATTEDTABLEDATACOLUMN_BEGIN
300
COLUMNTABLEFORMAT
  1
TABLEFORMAT_BEGIN
 90
        3
170
     0
309
TABLEFORMAT_END
309
FORMATTEDTABLEDATACOLUMN_END
  1
TABLECOLUMN_BEGIN
 90
        0
 40
10.0
309
TABLECOLUMN_END
300
COLUMN
  1
LINKEDTABLEDATACOLUMN_BEGIN
300

 91
        0
301
CUSTOMDATA
  1
DATAMAP_BEGIN
 90
        0
309
DATAMAP_END
309
LINKEDTABLEDATACOLUMN_END
  1
FORMATTEDTABLEDATACOLUMN_BEGIN
300
COLUMNTABLEFORMAT
  1
TABLEFORMAT_BEGIN
 90
        3
170
     0
309
TABLEFORMAT_END
309
FORMATTEDTABLEDATACOLUMN_END
  1
TABLECOLUMN_BEGIN
 90
        0
 40
10.0
309
TABLECOLUMN_END
300
COLUMN
  1
LINKEDTABLEDATACOLUMN_BEGIN
300

 91
        0
301
CUSTOMDATA
  1
DATAMAP_BEGIN
 90
        0
309
DATAMAP_END
309
LINKEDTABLEDATACOLUMN_END
  1
FORMATTEDTABLEDATACOLUMN_BEGIN
300
COLUMNTABLEFORMAT
  1
TABLEFORMAT_BEGIN
 90
        3
170
     0
309
TABLEFORMAT_END
309
FORMATTEDTABLEDATACOLUMN_END
  1
TABLECOLUMN_BEGIN
 90
        0
 40
40.0
309
TABLECOLUMN_END
300
COLUMN
  1
LINKEDTABLEDATACOLUMN_BEGIN
300

 91
        0
301
CUSTOMDATA
  1
DATAMAP_BEGIN
 90
        0
309
DATAMAP_END
309
LINKEDTABLEDATACOLUMN_END
  1
FORMATTEDTABLEDATACOLUMN_BEGIN
300
COLUMNTABLEFORMAT
  1
TABLEFORMAT_BEGIN
 90
        3
170
     0
309
TABLEFORMAT_END
309
FORMATTEDTABLEDATACOLUMN_END
  1
TABLECOLUMN_BEGIN
 90
        0
 40
20.0
309
TABLECOLUMN_END
 91
        5
301
ROW
  1
LINKEDTABLEDATAROW_BEGIN
 90
        5
300
CELL
  1
LINKEDTABLEDATACELL_BEGIN
 90
        0
300

 91
        0
301
CUSTOMDATA
  1
DATAMAP_BEGIN
 90
        1
300
ACAD_ROUNDTRIP_2008_CELL_CHECKSUM
301
DATAMAP_VALUE
 93
        2
 90
        2
140
32.0
 94
        0
300

302

304
ACVALUE_END
309
DATAMAP_END
 92
        0
 95
        1
302
CONTENT
  1
CELLCONTENT_BEGIN
 90
        1
300
VALUE
 93
        2
 90
        4
  1
 
 94
        0
300

302
 
304
ACVALUE_END
 91
        0
309
CELLCONTENT_END
  1
FORMATTEDCELLCONTENT_BEGIN
170
     1
300
CONTENTFORMAT
  1
CONTENTFORMAT_BEGIN
 90
      132
 91
        0
 92
      512
 93
        0
300

 40
0.0
140
1.0
 94
        1
 62
     0
340
0
144
3.5
309
CONTENTFORMAT_END
309
FORMATTEDCELLCONTENT_END
309
LINKEDTABLEDATACELL_END
  1
FORMATTEDTABLEDATACELL_BEGIN
300
CELLTABLEFORMAT
  1
TABLEFORMAT_BEGIN
 90
        1
170
     1
 91
        0
 92
        0
 62
   257
 93
        1
300
CONTENTFORMAT
  1
CONTENTFORMAT_BEGIN
 90
        0
 91
        0
 92
      512
 93
        0
300

 40
0.0
140
1.0
 94
        1
 62
     0
340
0
144
0.18
309
CONTENTFORMAT_END
171
     0
 94
        0
309
TABLEFORMAT_END
309
FORMATTEDTABLEDATACELL_END
  1
TABLECELL_BEGIN
 90
        0
 91
        0
309
TABLECELL_END
300
CELL
  1
LINKEDTABLEDATACELL_BEGIN
 90
        0
300

 91
        0
301
CUSTOMDATA
  1
DATAMAP_BEGIN
 90
        0
309
DATAMAP_END
 92
        0
 95
        0
309
LINKEDTABLEDATACELL_END
  1
FORMATTEDTABLEDATACELL_BEGIN
300
CELLTABLEFORMAT
  1
TABLEFORMAT_BEGIN
 90
        1
170
     1
 91
        0
 92
        0
 62
   257
 93
        1
300
CONTENTFORMAT
  1
CONTENTFORMAT_BEGIN
 90
        0
 91
        0
 92
      512
 93
        0
300

 40
0.0
140
1.0
 94
        1
 62
     0
340
0
144
0.18
309
CONTENTFORMAT_END
171
     0
 94
        0
309
TABLEFORMAT_END
309
FORMATTEDTABLEDATACELL_END
  1
TABLECELL_BEGIN
 90
        0
 91
        0
309
TABLECELL_END
300
CELL
  1
LINKEDTABLEDATACELL_BEGIN
 90
        0
300

 91
        0
301
CUSTOMDATA
  1
DATAMAP_BEGIN
 90
        0
309
DATAMAP_END
 92
        0
 95
        0
309
LINKEDTABLEDATACELL_END
  1
FORMATTEDTABLEDATACELL_BEGIN
300
CELLTABLEFORMAT
  1
TABLEFORMAT_BEGIN
 90
        1
170
     1
 91
        0
 92
        0
 62
   257
 93
        1
300
CONTENTFORMAT
  1
CONTENTFORMAT_BEGIN
 90
        0
 91
        0
 92
      512
 93
        0
300

 40
0.0
140
1.0
 94
        1
 62
     0
340
0
144
0.18
309
CONTENTFORMAT_END
171
     0
 94
        0
309
TABLEFORMAT_END
309
FORMATTEDTABLEDATACELL_END
  1
TABLECELL_BEGIN
 90
        0
 91
        0
309
TABLECELL_END
300
CELL
  1
LINKEDTABLEDATACELL_BEGIN
 90
        0
300

 91
        0
301
CUSTOMDATA
  1
DATAMAP_BEGIN
 90
        1
300
ACAD_ROUNDTRIP_2008_CELL_CHECKSUM
301
DATAMAP_VALUE
 93
        2
 90
        2
140
3432.0
 94
        0
300

302

304
ACVALUE_END
309
DATAMAP_END
 92
        0
 95
        1
302
CONTENT
  1
CELLCONTENT_BEGIN
 90
        1
300
VALUE
 93
        2
 90
        4
  1
A016_C_007
 94
        0
300

302
A016_C_007
304
ACVALUE_END
 91
        0
309
CELLCONTENT_END
  1
FORMATTEDCELLCONTENT_BEGIN
170
     1
300
CONTENTFORMAT
  1
CONTENTFORMAT_BEGIN
 90
      196
 91
        0
 92
      512
 93
        0
300

 40
0.0
140
1.0
 94
        1
 62
     0
340
207
144
3.0
309
CONTENTFORMAT_END
309
FORMATTEDCELLCONTENT_END
309
LINKEDTABLEDATACELL_END
  1
FORMATTEDTABLEDATACELL_BEGIN
300
CELLTABLEFORMAT
  1
TABLEFORMAT_BEGIN
 90
        1
170
     1
 91
       16
 92
        0
 62
   257
 93
        1
300
CONTENTFORMAT
  1
CONTENTFORMAT_BEGIN
 90
       16
 91
        0
 92
      512
 93
        0
300

 40
0.0
140
1.0
 94
        4
 62
     0
340
0
144
0.18
309
CONTENTFORMAT_END
171
     0
 94
        4
 95
        1
302
GRIDFORMAT
  1
GRIDFORMAT_BEGIN
 90
       26
 91
        1
 62
     0
 92
       -2
340
0
 93
        0
 40
0.045
309
GRIDFORMAT_END
 95
        4
302
GRIDFORMAT
  1
GRIDFORMAT_BEGIN
 90
       26
 91
        1
 62
     0
 92
       -2
340
0
 93
        0
 40
0.045
309
GRIDFORMAT_END
 95
        8
302
GRIDFORMAT
  1
GRIDFORMAT_BEGIN
 90
       26
 91
        1
 62
     0
 92
       -2
340
0
 93
        0
 40
0.045
309
GRIDFORMAT_END
 95
       32
302
GRIDFORMAT
  1
GRIDFORMAT_BEGIN
 90
       26
 91
        1
 62
     0
 92
       -2
340
0
 93
        0
 40
0.045
309
GRIDFORMAT_END
309
TABLEFORMAT_END
309
FORMATTEDTABLEDATACELL_END
  1
TABLECELL_BEGIN
 90
        0
 91
        0
309
TABLECELL_END
300
CELL
  1
LINKEDTABLEDATACELL_BEGIN
 90
        0
300

 91
        0
301
CUSTOMDATA
  1
DATAMAP_BEGIN
 90
        1
300
ACAD_ROUNDTRIP_2008_CELL_CHECKSUM
301
DATAMAP_VALUE
 93
        2
 90
        2
140
1398.0
 94
        0
300

302

304
ACVALUE_END
309
DATAMAP_END
 92
        0
 95
        1
302
CONTENT
  1
CELLCONTENT_BEGIN
 90
        1
300
VALUE
 93
        2
 90
        4
  1
Rev:00
 94
        0
300

302
Rev:00
304
ACVALUE_END
 91
        0
309
CELLCONTENT_END
  1
FORMATTEDCELLCONTENT_BEGIN
170
     1
300
CONTENTFORMAT
  1
CONTENTFORMAT_BEGIN
 90
      196
 91
        0
 92
      512
 93
        0
300

 40
0.0
140
1.0
 94
        1
 62
     0
340
207
144
3.5
309
CONTENTFORMAT_END
309
FORMATTEDCELLCONTENT_END
309
LINKEDTABLEDATACELL_END
  1
FORMATTEDTABLEDATACELL_BEGIN
300
CELLTABLEFORMAT
  1
TABLEFORMAT_BEGIN
 90
        1
170
     1
 91
       16
 92
        0
 62
   257
 93
        1
300
CONTENTFORMAT
  1
CONTENTFORMAT_BEGIN
 90
       16
 91
        0
 92
      512
 93
        0
300

 40
0.0
140
1.0
 94
        4
 62
     0
340
0
144
0.18
309
CONTENTFORMAT_END
171
     0
 94
        4
 95
        1
302
GRIDFORMAT
  1
GRIDFORMAT_BEGIN
 90
       26
 91
        1
 62
     0
 92
       -2
340
0
 93
        0
 40
0.045
309
GRIDFORMAT_END
 95
        4
302
GRIDFORMAT
  1
GRIDFORMAT_BEGIN
 90
       26
 91
        1
 62
     0
 92
       -2
340
0
 93
        0
 40
0.045
309
GRIDFORMAT_END
 95
        8
302
GRIDFORMAT
  1
GRIDFORMAT_BEGIN
 90
       26
 91
        1
 62
     0
 92
       -2
340
0
 93
        0
 40
0.045
309
GRIDFORMAT_END
 95
       32
302
GRIDFORMAT
  1
GRIDFORMAT_BEGIN
 90
       26
 91
        1
 62
     0
 92
       -2
340
0
 93
        0
 40
0.045
309
GRIDFORMAT_END
309
TABLEFORMAT_END
309
FORMATTEDTABLEDATACELL_END
  1
TABLECELL_BEGIN
 90
        0
 91
        0
309
TABLECELL_END
 91
        0
301
CUSTOMDATA
  1
DATAMAP_BEGIN
 90
        0
309
DATAMAP_END
309
LINKEDTABLEDATAROW_END
  1
FORMATTEDTABLEDATAROW_BEGIN
300
ROWTABLEFORMAT
  1
TABLEFORMAT_BEGIN
 90
        2
170
     0
309
TABLEFORMAT_END
309
FORMATTEDTABLEDATAROW_END
  1
TABLEROW_BEGIN
 90
        1
 40
6.0
309
TABLEROW_END
301
ROW
  1
LINKEDTABLEDATAROW_BEGIN
 90
        5
300
CELL
  1
LINKEDTABLEDATACELL_BEGIN
 90
        0
300

 91
        0
301
CUSTOMDATA
  1
DATAMAP_BEGIN
 90
        0
309
DATAMAP_END
 92
        0
 95
        0
309
LINKEDTABLEDATACELL_END
  1
FORMATTEDTABLEDATACELL_BEGIN
300
CELLTABLEFORMAT
  1
TABLEFORMAT_BEGIN
 90
        1
170
     1
 91
        0
 92
        0
 62
   257
 93
        1
300
CONTENTFORMAT
  1
CONTENTFORMAT_BEGIN
 90
        0
 91
        0
 92
      512
 93
        0
300

 40
0.0
140
1.0
 94
        1
 62
     0
340
0
144
0.18
309
CONTENTFORMAT_END
171
     0
 94
        0
309
TABLEFORMAT_END
309
FORMATTEDTABLEDATACELL_END
  1
TABLECELL_BEGIN
 90
        0
 91
        0
309
TABLECELL_END
300
CELL
  1
LINKEDTABLEDATACELL_BEGIN
 90
        0
300

 91
        0
301
CUSTOMDATA
  1
DATAMAP_BEGIN
 90
        0
309
DATAMAP_END
 92
        0
 95
        0
309
LINKEDTABLEDATACELL_END
  1
FORMATTEDTABLEDATACELL_BEGIN
300
CELLTABLEFORMAT
  1
TABLEFORMAT_BEGIN
 90
        1
170
     1
 91
        0
 92
        0
 62
   257
 93
        1
300
CONTENTFORMAT
  1
CONTENTFORMAT_BEGIN
 90
        0
 91
        0
 92
      512
 93
        0
300

 40
0.0
140
1.0
 94
        1
 62
     0
340
0
144
0.18
309
CONTENTFORMAT_END
171
     0
 94
        0
309
TABLEFORMAT_END
309
FORMATTEDTABLEDATACELL_END
  1
TABLECELL_BEGIN
 90
        0
 91
        0
309
TABLECELL_END
300
CELL
  1
LINKEDTABLEDATACELL_BEGIN
 90
        0
300

 91
        0
301
CUSTOMDATA
  1
DATAMAP_BEGIN
 90
        0
309
DATAMAP_END
 92
        0
 95
        0
309
LINKEDTABLEDATACELL_END
  1
FORMATTEDTABLEDATACELL_BEGIN
300
CELLTABLEFORMAT
  1
TABLEFORMAT_BEGIN
 90
        1
170
     1
 91
        0
 92
        0
 62
   257
 93
        1
300
CONTENTFORMAT
  1
CONTENTFORMAT_BEGIN
 90
        0
 91
        0
 92
      512
 93
        0
300

 40
0.0
140
1.0
 94
        1
 62
     0
340
0
144
0.18
309
CONTENTFORMAT_END
171
     0
 94
        0
309
TABLEFORMAT_END
309
FORMATTEDTABLEDATACELL_END
  1
TABLECELL_BEGIN
 90
        0
 91
        0
309
TABLECELL_END
300
CELL
  1
LINKEDTABLEDATACELL_BEGIN
 90
        0
300

 91
        0
301
CUSTOMDATA
  1
DATAMAP_BEGIN
 90
        1
300
ACAD_ROUNDTRIP_2008_CELL_CHECKSUM
301
DATAMAP_VALUE
 93
        2
 90
        2
140
3105.0
 94
        0
300

302

304
ACVALUE_END
309
DATAMAP_END
 92
        0
 95
        1
302
CONTENT
  1
CELLCONTENT_BEGIN
 90
        1
300
VALUE
 93
        2
 90
        4
  1
Scale:1:1
 94
        0
300

302
Scale:1:1
304
ACVALUE_END
 91
        0
309
CELLCONTENT_END
  1
FORMATTEDCELLCONTENT_BEGIN
170
     1
300
CONTENTFORMAT
  1
CONTENTFORMAT_BEGIN
 90
      196
 91
        0
 92
      512
 93
        0
300

 40
0.0
140
1.0
 94
        1
 62
     0
340
207
144
3.5
309
CONTENTFORMAT_END
309
FORMATTEDCELLCONTENT_END
309
LINKEDTABLEDATACELL_END
  1
FORMATTEDTABLEDATACELL_BEGIN
300
CELLTABLEFORMAT
  1
TABLEFORMAT_BEGIN
 90
        1
170
     1
 91
       16
 92
        0
 62
   257
 93
        1
300
CONTENTFORMAT
  1
CONTENTFORMAT_BEGIN
 90
       16
 91
        0
 92
      512
 93
        0
300

 40
0.0
140
1.0
 94
        1
 62
     0
340
0
144
0.18
309
CONTENTFORMAT_END
171
     0
 94
        4
 95
        1
302
GRIDFORMAT
  1
GRIDFORMAT_BEGIN
 90
       26
 91
        1
 62
     0
 92
       -2
340
0
 93
        0
 40
0.045
309
GRIDFORMAT_END
 95
        4
302
GRIDFORMAT
  1
GRIDFORMAT_BEGIN
 90
       26
 91
        1
 62
     0
 92
       -2
340
0
 93
        0
 40
0.045
309
GRIDFORMAT_END
 95
        8
302
GRIDFORMAT
  1
GRIDFORMAT_BEGIN
 90
       26
 91
        1
 62
     0
 92
       -2
340
0
 93
        0
 40
0.045
309
GRIDFORMAT_END
 95
       32
302
GRIDFORMAT
  1
GRIDFORMAT_BEGIN
 90
       26
 91
        1
 62
     0
 92
       -2
340
0
 93
        0
 40
0.045
309
GRIDFORMAT_END
309
TABLEFORMAT_END
309
FORMATTEDTABLEDATACELL_END
  1
TABLECELL_BEGIN
 90
        0
 91
        0
309
TABLECELL_END
300
CELL
  1
LINKEDTABLEDATACELL_BEGIN
 90
        0
300

 91
        0
301
CUSTOMDATA
  1
DATAMAP_BEGIN
 90
        1
300
ACAD_ROUNDTRIP_2008_CELL_CHECKSUM
301
DATAMAP_VALUE
 93
        2
 90
        2
140
169.0
 94
        0
300

302

304
ACVALUE_END
309
DATAMAP_END
 92
        0
 95
        1
302
CONTENT
  1
CELLCONTENT_BEGIN
 90
        1
300
VALUE
 93
        2
 90
        4
  1
A4
 94
        0
300

302
A4
304
ACVALUE_END
 91
        0
309
CELLCONTENT_END
  1
FORMATTEDCELLCONTENT_BEGIN
170
     1
300
CONTENTFORMAT
  1
CONTENTFORMAT_BEGIN
 90
      196
 91
        0
 92
      512
 93
        0
300

 40
0.0
140
1.0
 94
        1
 62
     0
340
207
144
3.5
309
CONTENTFORMAT_END
309
FORMATTEDCELLCONTENT_END
309
LINKEDTABLEDATACELL_END
  1
FORMATTEDTABLEDATACELL_BEGIN
300
CELLTABLEFORMAT
  1
TABLEFORMAT_BEGIN
 90
        1
170
     1
 91
       16
 92
        0
 62
   257
 93
        1
300
CONTENTFORMAT
  1
CONTENTFORMAT_BEGIN
 90
       16
 91
        0
 92
      512
 93
        0
300

 40
0.0
140
1.0
 94
        4
 62
     0
340
0
144
0.18
309
CONTENTFORMAT_END
171
     0
 94
        4
 95
        1
302
GRIDFORMAT
  1
GRIDFORMAT_BEGIN
 90
       26
 91
        1
 62
     0
 92
       -2
340
0
 93
        0
 40
0.045
309
GRIDFORMAT_END
 95
        4
302
GRIDFORMAT
  1
GRIDFORMAT_BEGIN
 90
       26
 91
        1
 62
     0
 92
       -2
340
0
 93
        0
 40
0.045
309
GRIDFORMAT_END
 95
        8
302
GRIDFORMAT
  1
GRIDFORMAT_BEGIN
 90
       26
 91
        1
 62
     0
 92
       -2
340
0
 93
        0
 40
0.045
309
GRIDFORMAT_END
 95
       32
302
GRIDFORMAT
  1
GRIDFORMAT_BEGIN
 90
       26
 91
        1
 62
     0
 92
       -2
340
0
 93
        0
 40
0.045
309
GRIDFORMAT_END
309
TABLEFORMAT_END
309
FORMATTEDTABLEDATACELL_END
  1
TABLECELL_BEGIN
 90
        0
 91
        0
309
TABLECELL_END
 91
        0
301
CUSTOMDATA
  1
DATAMAP_BEGIN
 90
        0
309
DATAMAP_END
309
LINKEDTABLEDATAROW_END
  1
FORMATTEDTABLEDATAROW_BEGIN
300
ROWTABLEFORMAT
  1
TABLEFORMAT_BEGIN
 90
        2
170
     0
309
TABLEFORMAT_END
309
FORMATTEDTABLEDATAROW_END
  1
TABLEROW_BEGIN
 90
        2
 40
6.0
309
TABLEROW_END
301
ROW
  1
LINKEDTABLEDATAROW_BEGIN
 90
        5
300
CELL
  1
LINKEDTABLEDATACELL_BEGIN
 90
        0
300

 91
        0
301
CUSTOMDATA
  1
DATAMAP_BEGIN
 90
        0
309
DATAMAP_END
 92
        0
 95
        0
309
LINKEDTABLEDATACELL_END
  1
FORMATTEDTABLEDATACELL_BEGIN
300
CELLTABLEFORMAT
  1
TABLEFORMAT_BEGIN
 90
        1
170
     1
 91
        0
 92
        0
 62
   257
 93
        1
300
CONTENTFORMAT
  1
CONTENTFORMAT_BEGIN
 90
        0
 91
        0
 92
      512
 93
        0
300

 40
0.0
140
1.0
 94
        1
 62
     0
340
0
144
0.18
309
CONTENTFORMAT_END
171
     0
 94
        0
309
TABLEFORMAT_END
309
FORMATTEDTABLEDATACELL_END
  1
TABLECELL_BEGIN
 90
        0
 91
        0
309
TABLECELL_END
300
CELL
  1
LINKEDTABLEDATACELL_BEGIN
 90
        0
300

 91
        0
301
CUSTOMDATA
  1
DATAMAP_BEGIN
 90
        0
309
DATAMAP_END
 92
        0
 95
        0
309
LINKEDTABLEDATACELL_END
  1
FORMATTEDTABLEDATACELL_BEGIN
300
CELLTABLEFORMAT
  1
TABLEFORMAT_BEGIN
 90
        1
170
     1
 91
        0
 92
        0
 62
   257
 93
        1
300
CONTENTFORMAT
  1
CONTENTFORMAT_BEGIN
 90
        0
 91
        0
 92
      512
 93
        0
300

 40
0.0
140
1.0
 94
        1
 62
     0
340
0
144
0.18
309
CONTENTFORMAT_END
171
     0
 94
        0
309
TABLEFORMAT_END
309
FORMATTEDTABLEDATACELL_END
  1
TABLECELL_BEGIN
 90
        0
 91
        0
309
TABLECELL_END
300
CELL
  1
LINKEDTABLEDATACELL_BEGIN
 90
        0
300

 91
        0
301
CUSTOMDATA
  1
DATAMAP_BEGIN
 90
        0
309
DATAMAP_END
 92
        0
 95
        0
309
LINKEDTABLEDATACELL_END
  1
FORMATTEDTABLEDATACELL_BEGIN
300
CELLTABLEFORMAT
  1
TABLEFORMAT_BEGIN
 90
        1
170
     1
 91
        0
 92
        0
 62
   257
 93
        1
300
CONTENTFORMAT
  1
CONTENTFORMAT_BEGIN
 90
        0
 91
        0
 92
      512
 93
        0
300

 40
0.0
140
1.0
 94
        1
 62
     0
340
0
144
0.18
309
CONTENTFORMAT_END
171
     0
 94
        0
309
TABLEFORMAT_END
309
FORMATTEDTABLEDATACELL_END
  1
TABLECELL_BEGIN
 90
        0
 91
        0
309
TABLECELL_END
300
CELL
  1
LINKEDTABLEDATACELL_BEGIN
 90
        0
300

 91
        0
301
CUSTOMDATA
  1
DATAMAP_BEGIN
 90
        1
300
ACAD_ROUNDTRIP_2008_CELL_CHECKSUM
301
DATAMAP_VALUE
 93
        2
 90
        2
140
38585.0
 94
        0
300

302

304
ACVALUE_END
309
DATAMAP_END
 92
        0
 95
        1
302
CONTENT
  1
CELLCONTENT_BEGIN
 90
        1
300
VALUE
 93
        2
 90
        4
  1
FRONT. SEMI PROFONDO TONDO COMBO2
 94
        0
300

302
FRONT. SEMI PROFONDO TONDO COMBO2
304
ACVALUE_END
 91
        0
309
CELLCONTENT_END
  1
FORMATTEDCELLCONTENT_BEGIN
170
     1
300
CONTENTFORMAT
  1
CONTENTFORMAT_BEGIN
 90
      196
 91
        0
 92
      512
 93
        0
300

 40
0.0
140
1.0
 94
        1
 62
     0
340
207
144
2.15
309
CONTENTFORMAT_END
309
FORMATTEDCELLCONTENT_END
309
LINKEDTABLEDATACELL_END
  1
FORMATTEDTABLEDATACELL_BEGIN
300
CELLTABLEFORMAT
  1
TABLEFORMAT_BEGIN
 90
        1
170
     1
 91
       16
 92
        0
 62
   257
 93
        1
300
CONTENTFORMAT
  1
CONTENTFORMAT_BEGIN
 90
       16
 91
        0
 92
      512
 93
        0
300

 40
0.0
140
1.0
 94
        4
 62
     0
340
0
144
0.18
309
CONTENTFORMAT_END
171
     0
 94
        4
 95
        1
302
GRIDFORMAT
  1
GRIDFORMAT_BEGIN
 90
       26
 91
        1
 62
     0
 92
       -2
340
0
 93
        0
 40
0.045
309
GRIDFORMAT_END
 95
        4
302
GRIDFORMAT
  1
GRIDFORMAT_BEGIN
 90
       26
 91
        1
 62
     0
 92
       -2
340
0
 93
        0
 40
0.045
309
GRIDFORMAT_END
 95
        8
302
GRIDFORMAT
  1
GRIDFORMAT_BEGIN
 90
       26
 91
        1
 62
     0
 92
       -2
340
0
 93
        0
 40
0.045
309
GRIDFORMAT_END
 95
       32
302
GRIDFORMAT
  1
GRIDFORMAT_BEGIN
 90
       26
 91
        1
 62
     0
 92
       -2
340
0
 93
        0
 40
0.045
309
GRIDFORMAT_END
309
TABLEFORMAT_END
309
FORMATTEDTABLEDATACELL_END
  1
TABLECELL_BEGIN
 90
        0
 91
        0
309
TABLECELL_END
300
CELL
  1
LINKEDTABLEDATACELL_BEGIN
 90
        0
300

 91
        0
301
CUSTOMDATA
  1
DATAMAP_BEGIN
 90
        0
309
DATAMAP_END
 92
        0
 95
        0
309
LINKEDTABLEDATACELL_END
  1
FORMATTEDTABLEDATACELL_BEGIN
300
CELLTABLEFORMAT
  1
TABLEFORMAT_BEGIN
 90
        1
170
     1
 91
        0
 92
        0
 62
   257
 93
        1
300
CONTENTFORMAT
  1
CONTENTFORMAT_BEGIN
 90
        0
 91
        0
 92
      512
 93
        0
300

 40
0.0
140
1.0
 94
        1
 62
     0
340
0
144
0.18
309
CONTENTFORMAT_END
171
     0
 94
        0
309
TABLEFORMAT_END
309
FORMATTEDTABLEDATACELL_END
  1
TABLECELL_BEGIN
 90
        0
 91
        0
309
TABLECELL_END
 91
        0
301
CUSTOMDATA
  1
DATAMAP_BEGIN
 90
        0
309
DATAMAP_END
309
LINKEDTABLEDATAROW_END
  1
FORMATTEDTABLEDATAROW_BEGIN
300
ROWTABLEFORMAT
  1
TABLEFORMAT_BEGIN
 90
        2
170
     0
309
TABLEFORMAT_END
309
FORMATTEDTABLEDATAROW_END
  1
TABLEROW_BEGIN
 90
        3
 40
10.0
309
TABLEROW_END
301
ROW
  1
LINKEDTABLEDATAROW_BEGIN
 90
        5
300
CELL
  1
LINKEDTABLEDATACELL_BEGIN
 90
        0
300

 91
        0
301
CUSTOMDATA
  1
DATAMAP_BEGIN
 90
        0
309
DATAMAP_END
 92
        0
 95
        0
309
LINKEDTABLEDATACELL_END
  1
FORMATTEDTABLEDATACELL_BEGIN
300
CELLTABLEFORMAT
  1
TABLEFORMAT_BEGIN
 90
        1
170
     1
 91
        0
 92
        0
 62
   257
 93
        1
300
CONTENTFORMAT
  1
CONTENTFORMAT_BEGIN
 90
        0
 91
        0
 92
      512
 93
        0
300

 40
0.0
140
1.0
 94
        1
 62
     0
340
0
144
0.18
309
CONTENTFORMAT_END
171
     0
 94
        0
309
TABLEFORMAT_END
309
FORMATTEDTABLEDATACELL_END
  1
TABLECELL_BEGIN
 90
        0
 91
        0
309
TABLECELL_END
300
CELL
  1
LINKEDTABLEDATACELL_BEGIN
 90
        0
300

 91
        0
301
CUSTOMDATA
  1
DATAMAP_BEGIN
 90
        0
309
DATAMAP_END
 92
        0
 95
        0
309
LINKEDTABLEDATACELL_END
  1
FORMATTEDTABLEDATACELL_BEGIN
300
CELLTABLEFORMAT
  1
TABLEFORMAT_BEGIN
 90
        1
170
     1
 91
        0
 92
        0
 62
   257
 93
        1
300
CONTENTFORMAT
  1
CONTENTFORMAT_BEGIN
 90
        0
 91
        0
 92
      512
 93
        0
300

 40
0.0
140
1.0
 94
        1
 62
     0
340
0
144
0.18
309
CONTENTFORMAT_END
171
     0
 94
        0
309
TABLEFORMAT_END
309
FORMATTEDTABLEDATACELL_END
  1
TABLECELL_BEGIN
 90
        0
 91
        0
309
TABLECELL_END
300
CELL
  1
LINKEDTABLEDATACELL_BEGIN
 90
        0
300

 91
        0
301
CUSTOMDATA
  1
DATAMAP_BEGIN
 90
        0
309
DATAMAP_END
 92
        0
 95
        0
309
LINKEDTABLEDATACELL_END
  1
FORMATTEDTABLEDATACELL_BEGIN
300
CELLTABLEFORMAT
  1
TABLEFORMAT_BEGIN
 90
        1
170
     1
 91
        0
 92
        0
 62
   257
 93
        1
300
CONTENTFORMAT
  1
CONTENTFORMAT_BEGIN
 90
        0
 91
        0
 92
      512
 93
        0
300

 40
0.0
140
1.0
 94
        1
 62
     0
340
0
144
0.18
309
CONTENTFORMAT_END
171
     0
 94
        0
309
TABLEFORMAT_END
309
FORMATTEDTABLEDATACELL_END
  1
TABLECELL_BEGIN
 90
        0
 91
        0
309
TABLECELL_END
300
CELL
  1
LINKEDTABLEDATACELL_BEGIN
 90
        0
300

 91
        0
301
CUSTOMDATA
  1
DATAMAP_BEGIN
 90
        1
300
ACAD_ROUNDTRIP_2008_CELL_CHECKSUM
301
DATAMAP_VALUE
 93
        2
 90
        2
140
4790.0
 94
        0
300

302

304
ACVALUE_END
309
DATAMAP_END
 92
        0
 95
        1
302
CONTENT
  1
CELLCONTENT_BEGIN
 90
        1
300
VALUE
 93
        2
 90
        4
  1
DATE:10.12.19
 94
        0
300

302
DATE:10.12.19
304
ACVALUE_END
 91
        0
309
CELLCONTENT_END
  1
FORMATTEDCELLCONTENT_BEGIN
170
     1
300
CONTENTFORMAT
  1
CONTENTFORMAT_BEGIN
 90
      196
 91
        0
 92
      512
 93
        0
300

 40
0.0
140
1.0
 94
        1
 62
     0
340
207
144
2.5
309
CONTENTFORMAT_END
309
FORMATTEDCELLCONTENT_END
309
LINKEDTABLEDATACELL_END
  1
FORMATTEDTABLEDATACELL_BEGIN
300
CELLTABLEFORMAT
  1
TABLEFORMAT_BEGIN
 90
        1
170
     1
 91
       16
 92
        0
 62
   257
 93
        1
300
CONTENTFORMAT
  1
CONTENTFORMAT_BEGIN
 90
       16
 91
        0
 92
      512
 93
        0
300

 40
0.0
140
1.0
 94
        4
 62
     0
340
0
144
0.18
309
CONTENTFORMAT_END
171
     0
 94
        4
 95
        1
302
GRIDFORMAT
  1
GRIDFORMAT_BEGIN
 90
       26
 91
        1
 62
     0
 92
       -2
340
0
 93
        0
 40
0.045
309
GRIDFORMAT_END
 95
        4
302
GRIDFORMAT
  1
GRIDFORMAT_BEGIN
 90
       26
 91
        1
 62
     0
 92
       -2
340
0
 93
        0
 40
0.045
309
GRIDFORMAT_END
 95
        8
302
GRIDFORMAT
  1
GRIDFORMAT_BEGIN
 90
       26
 91
        1
 62
     0
 92
       -2
340
0
 93
        0
 40
0.045
309
GRIDFORMAT_END
 95
       32
302
GRIDFORMAT
  1
GRIDFORMAT_BEGIN
 90
       26
 91
        1
 62
     0
 92
       -2
340
0
 93
        0
 40
0.045
309
GRIDFORMAT_END
309
TABLEFORMAT_END
309
FORMATTEDTABLEDATACELL_END
  1
TABLECELL_BEGIN
 90
        0
 91
        0
309
TABLECELL_END
300
CELL
  1
LINKEDTABLEDATACELL_BEGIN
 90
        0
300

 91
        0
301
CUSTOMDATA
  1
DATAMAP_BEGIN
 90
        0
309
DATAMAP_END
 92
        0
 95
        0
309
LINKEDTABLEDATACELL_END
  1
FORMATTEDTABLEDATACELL_BEGIN
300
CELLTABLEFORMAT
  1
TABLEFORMAT_BEGIN
 90
        1
170
     1
 91
        0
 92
        0
 62
   257
 93
        1
300
CONTENTFORMAT
  1
CONTENTFORMAT_BEGIN
 90
        0
 91
        0
 92
      512
 93
        0
300

 40
0.0
140
1.0
 94
        1
 62
     0
340
0
144
0.18
309
CONTENTFORMAT_END
171
     0
 94
        0
309
TABLEFORMAT_END
309
FORMATTEDTABLEDATACELL_END
  1
TABLECELL_BEGIN
 90
        0
 91
        0
309
TABLECELL_END
 91
        0
301
CUSTOMDATA
  1
DATAMAP_BEGIN
 90
        0
309
DATAMAP_END
309
LINKEDTABLEDATAROW_END
  1
FORMATTEDTABLEDATAROW_BEGIN
300
ROWTABLEFORMAT
  1
TABLEFORMAT_BEGIN
 90
        2
170
     0
309
TABLEFORMAT_END
309
FORMATTEDTABLEDATAROW_END
  1
TABLEROW_BEGIN
 90
        3
 40
5.0
309
TABLEROW_END
301
ROW
  1
LINKEDTABLEDATAROW_BEGIN
 90
        5
300
CELL
  1
LINKEDTABLEDATACELL_BEGIN
 90
        0
300

 91
        0
301
CUSTOMDATA
  1
DATAMAP_BEGIN
 90
        1
300
ACAD_ROUNDTRIP_2008_CELL_CHECKSUM
301
DATAMAP_VALUE
 93
        2
 90
        2
140
1361482.0
 94
        0
300

302

304
ACVALUE_END
309
DATAMAP_END
 92
        0
 95
        1
302
CONTENT
  1
CELLCONTENT_BEGIN
 90
        1
300
VALUE
 93
        2
 90
        4
  1
Any integral or partial reproductions are prohibited \Pwithout prior authorisation of L & L Luce & Light s.r.l., \Pin accordance with the law in force. \PAll rights reserved.
 94
        0
300

302
Any integral or partial reproductions are prohibited \Pwithout prior authorisation of L & L Luce & Light s.r.l., \Pin accordance with the law in force. \PAll rights reserved.
304
ACVALUE_END
 91
        0
309
CELLCONTENT_END
  1
FORMATTEDCELLCONTENT_BEGIN
170
     1
300
CONTENTFORMAT
  1
CONTENTFORMAT_BEGIN
 90
      196
 91
        0
 92
      512
 93
        0
300

 40
0.0
140
1.0
 94
        1
 62
     0
340
207
144
2.25
309
CONTENTFORMAT_END
309
FORMATTEDCELLCONTENT_END
309
LINKEDTABLEDATACELL_END
  1
FORMATTEDTABLEDATACELL_BEGIN
300
CELLTABLEFORMAT
  1
TABLEFORMAT_BEGIN
 90
        1
170
     1
 91
       16
 92
        0
 62
   257
 93
        1
300
CONTENTFORMAT
  1
CONTENTFORMAT_BEGIN
 90
       16
 91
        0
 92
      512
 93
        0
300

 40
0.0
140
1.0
 94
        4
 62
     0
340
0
144
0.18
309
CONTENTFORMAT_END
171
     0
 94
        4
 95
        1
302
GRIDFORMAT
  1
GRIDFORMAT_BEGIN
 90
       26
 91
        1
 62
     0
 92
       -2
340
0
 93
        0
 40
0.045
309
GRIDFORMAT_END
 95
        4
302
GRIDFORMAT
  1
GRIDFORMAT_BEGIN
 90
       26
 91
        1
 62
     0
 92
       -2
340
0
 93
        0
 40
0.045
309
GRIDFORMAT_END
 95
        8
302
GRIDFORMAT
  1
GRIDFORMAT_BEGIN
 90
       26
 91
        1
 62
     0
 92
       -2
340
0
 93
        0
 40
0.045
309
GRIDFORMAT_END
 95
       32
302
GRIDFORMAT
  1
GRIDFORMAT_BEGIN
 90
       26
 91
        1
 62
     0
 92
       -2
340
0
 93
        0
 40
0.045
309
GRIDFORMAT_END
309
TABLEFORMAT_END
309
FORMATTEDTABLEDATACELL_END
  1
TABLECELL_BEGIN
 90
        0
 91
        0
309
TABLECELL_END
300
CELL
  1
LINKEDTABLEDATACELL_BEGIN
 90
        0
300

 91
        0
301
CUSTOMDATA
  1
DATAMAP_BEGIN
 90
        0
309
DATAMAP_END
 92
        0
 95
        0
309
LINKEDTABLEDATACELL_END
  1
FORMATTEDTABLEDATACELL_BEGIN
300
CELLTABLEFORMAT
  1
TABLEFORMAT_BEGIN
 90
        1
170
     1
 91
        0
 92
        0
 62
   257
 93
        1
300
CONTENTFORMAT
  1
CONTENTFORMAT_BEGIN
 90
        0
 91
        0
 92
      512
 93
        0
300

 40
0.0
140
1.0
 94
        1
 62
     0
340
0
144
0.18
309
CONTENTFORMAT_END
171
     0
 94
        0
309
TABLEFORMAT_END
309
FORMATTEDTABLEDATACELL_END
  1
TABLECELL_BEGIN
 90
        0
 91
        0
309
TABLECELL_END
300
CELL
  1
LINKEDTABLEDATACELL_BEGIN
 90
        0
300

 91
        0
301
CUSTOMDATA
  1
DATAMAP_BEGIN
 90
        0
309
DATAMAP_END
 92
        0
 95
        0
309
LINKEDTABLEDATACELL_END
  1
FORMATTEDTABLEDATACELL_BEGIN
300
CELLTABLEFORMAT
  1
TABLEFORMAT_BEGIN
 90
        1
170
     1
 91
        0
 92
        0
 62
   257
 93
        1
300
CONTENTFORMAT
  1
CONTENTFORMAT_BEGIN
 90
        0
 91
        0
 92
      512
 93
        0
300

 40
0.0
140
1.0
 94
        1
 62
     0
340
0
144
0.18
309
CONTENTFORMAT_END
171
     0
 94
        0
309
TABLEFORMAT_END
309
FORMATTEDTABLEDATACELL_END
  1
TABLECELL_BEGIN
 90
        0
 91
        0
309
TABLECELL_END
300
CELL
  1
LINKEDTABLEDATACELL_BEGIN
 90
        0
300

 91
        0
301
CUSTOMDATA
  1
DATAMAP_BEGIN
 90
        0
309
DATAMAP_END
 92
        0
 95
        0
309
LINKEDTABLEDATACELL_END
  1
FORMATTEDTABLEDATACELL_BEGIN
300
CELLTABLEFORMAT
  1
TABLEFORMAT_BEGIN
 90
        1
170
     1
 91
        0
 92
        0
 62
   257
 93
        1
300
CONTENTFORMAT
  1
CONTENTFORMAT_BEGIN
 90
        0
 91
        0
 92
      512
 93
        0
300

 40
0.0
140
1.0
 94
        1
 62
     0
340
0
144
0.18
309
CONTENTFORMAT_END
171
     0
 94
        0
309
TABLEFORMAT_END
309
FORMATTEDTABLEDATACELL_END
  1
TABLECELL_BEGIN
 90
        0
 91
        0
309
TABLECELL_END
300
CELL
  1
LINKEDTABLEDATACELL_BEGIN
 90
        0
300

 91
        0
301
CUSTOMDATA
  1
DATAMAP_BEGIN
 90
        0
309
DATAMAP_END
 92
        0
 95
        0
309
LINKEDTABLEDATACELL_END
  1
FORMATTEDTABLEDATACELL_BEGIN
300
CELLTABLEFORMAT
  1
TABLEFORMAT_BEGIN
 90
        1
170
     1
 91
        0
 92
        0
 62
   257
 93
        1
300
CONTENTFORMAT
  1
CONTENTFORMAT_BEGIN
 90
        0
 91
        0
 92
      512
 93
        0
300

 40
0.0
140
1.0
 94
        1
 62
     0
340
0
144
0.18
309
CONTENTFORMAT_END
171
     0
 94
        0
309
TABLEFORMAT_END
309
FORMATTEDTABLEDATACELL_END
  1
TABLECELL_BEGIN
 90
        0
 91
        0
309
TABLECELL_END
 91
        0
301
CUSTOMDATA
  1
DATAMAP_BEGIN
 90
        0
309
DATAMAP_END
309
LINKEDTABLEDATAROW_END
  1
FORMATTEDTABLEDATAROW_BEGIN
300
ROWTABLEFORMAT
  1
TABLEFORMAT_BEGIN
 90
        2
170
     0
309
TABLEFORMAT_END
309
FORMATTEDTABLEDATAROW_END
  1
TABLEROW_BEGIN
 90
        3
 40
13.0
309
TABLEROW_END
100
AcDbFormattedTableData
300
TABLEFORMAT
  1
TABLEFORMAT_BEGIN
 90
        4
170
     1
 91
    15360
 92
        0
 62
   257
 93
        1
300
CONTENTFORMAT
  1
CONTENTFORMAT_BEGIN
 90
        0
 91
        0
 92
      512
 93
        0
300

 40
0.0
140
1.0
 94
        1
 62
     0
340
0
144
0.18
309
CONTENTFORMAT_END
171
     1
301
MARGIN
  1
CELLMARGIN_BEGIN
 40
0.06
 40
0.06
 40
0.06
 40
0.06
 40
0.06
 40
0.06
309
CELLMARGIN_END
 94
        0
309
TABLEFORMAT_END
 90
        4
 91
        0
 92
        0
 93
        3
 94
        2
 91
        2
 92
        3
 93
        2
 94
        4
 91
        3
 92
        3
 93
        3
 94
        4
 91
        4
 92
        0
 93
        4
 94
        4
100
AcDbTableContent
340
489
  0
TABLEGEOMETRY
  5
4B6
330
4B8
100
AcDbTableGeometry
 90
        5
 91
        5
 92
       25
 93
        0
 40
0.0
 41
0.0
330
0
 94
        0
 93
        0
 40
0.0
 41
0.0
330
0
 94
        0
 93
        0
 40
0.0
 41
0.0
330
0
 94
        0
 93
        0
 40
0.0
 41
0.0
330
0
 94
        0
 93
        0
 40
0.0
 41
0.0
330
0
 94
        0
 93
        0
 40
0.0
 41
0.0
330
0
 94
        0
 93
        0
 40
0.0
 41
0.0
330
0
 94
        0
 93
        0
 40
0.0
 41
0.0
330
0
 94
        0
 93
        0
 40
0.0
 41
0.0
330
0
 94
        0
 93
        0
 40
0.0
 41
0.0
330
0
 94
        0
 93
        0
 40
0.0
 41
0.0
330
0
 94
        0
 93
        0
 40
0.0
 41
0.0
330
0
 94
        0
 93
        0
 40
0.0
 41
0.0
330
0
 94
        0
 93
        0
 40
0.0
 41
0.0
330
0
 94
        0
 93
        0
 40
0.0
 41
0.0
330
0
 94
        0
 93
        0
 40
0.0
 41
0.0
330
0
 94
        0
 93
        0
 40
0.0
 41
0.0
330
0
 94
        0
 93
        0
 40
0.0
 41
0.0
330
0
 94
        0
 93
        0
 40
0.0
 41
0.0
330
0
 94
        0
 93
        0
 40
0.0
 41
0.0
330
0
 94
        0
 93
        0
 40
0.0
 41
0.0
330
0
 94
        0
 93
        0
 40
0.0
 41
0.0
330
0
 94
        0
 93
        0
 40
0.0
 41
0.0
330
0
 94
        0
 93
        0
 40
0.0
 41
0.0
330
0
 94
        0
 93
        0
 40
0.0
 41
0.0
330
0
 94
        0
  0
DICTIONARY
  5
4BB
330
489
100
AcDbDictionary
280
     1
281
     1
  3
ACAD_ROUNDTRIP_2008_TABLESTYLE_CELLSTYLEMAP
360
4BC
  0
CELLSTYLEMAP
  5
4BC
102
{ACAD_REACTORS
330
4BB
102
}
330
4BB
100
AcDbCellStyleMap
 90
        3
300
CELLSTYLE
  1
TABLEFORMAT_BEGIN
 90
        5
170
     1
 91
        0
 92
        0
 62
   257
 93
        1
300
CONTENTFORMAT
  1
CONTENTFORMAT_BEGIN
 90
        0
 91
        0
 92
        4
 93
        0
300

 40
0.0
140
1.0
 94
        5
 62
     0
340
11
144
6.0
309
CONTENTFORMAT_END
171
     1
301
MARGIN
  1
CELLMARGIN_BEGIN
 40
1.5
 40
1.5
 40
1.5
 40
1.5
 40
1.5
 40
1.5
309
CELLMARGIN_END
 94
        6
 95
        1
302
GRIDFORMAT
  1
GRIDFORMAT_BEGIN
 90
        0
 91
        1
 62
     0
 92
       -2
340
14
 93
        0
 40
0.045
309
GRIDFORMAT_END
 95
        2
302
GRIDFORMAT
  1
GRIDFORMAT_BEGIN
 90
        0
 91
        1
 62
     0
 92
       -2
340
14
 93
        0
 40
0.045
309
GRIDFORMAT_END
 95
        4
302
GRIDFORMAT
  1
GRIDFORMAT_BEGIN
 90
        0
 91
        1
 62
     0
 92
       -2
340
14
 93
        0
 40
0.045
309
GRIDFORMAT_END
 95
        8
302
GRIDFORMAT
  1
GRIDFORMAT_BEGIN
 90
        0
 91
        1
 62
     0
 92
       -2
340
14
 93
        0
 40
0.045
309
GRIDFORMAT_END
 95
       16
302
GRIDFORMAT
  1
GRIDFORMAT_BEGIN
 90
        0
 91
        1
 62
     0
 92
       -2
340
14
 93
        0
 40
0.045
309
GRIDFORMAT_END
 95
       32
302
GRIDFORMAT
  1
GRIDFORMAT_BEGIN
 90
        0
 91
        1
 62
     0
 92
       -2
340
14
 93
        0
 40
0.045
309
GRIDFORMAT_END
309
TABLEFORMAT_END
  1
CELLSTYLE_BEGIN
 90
        1
 91
        1
300
_TITLE
309
CELLSTYLE_END
300
CELLSTYLE
  1
TABLEFORMAT_BEGIN
 90
        5
170
     1
 91
        0
 92
        0
 62
   257
 93
        1
300
CONTENTFORMAT
  1
CONTENTFORMAT_BEGIN
 90
        0
 91
        0
 92
        4
 93
        0
300

 40
0.0
140
1.0
 94
        5
 62
     0
340
11
144
4.5
309
CONTENTFORMAT_END
171
     1
301
MARGIN
  1
CELLMARGIN_BEGIN
 40
1.5
 40
1.5
 40
1.5
 40
1.5
 40
1.5
 40
1.5
309
CELLMARGIN_END
 94
        6
 95
        1
302
GRIDFORMAT
  1
GRIDFORMAT_BEGIN
 90
        0
 91
        1
 62
     0
 92
       -2
340
14
 93
        0
 40
0.045
309
GRIDFORMAT_END
 95
        2
302
GRIDFORMAT
  1
GRIDFORMAT_BEGIN
 90
        0
 91
        1
 62
     0
 92
       -2
340
14
 93
        0
 40
0.045
309
GRIDFORMAT_END
 95
        4
302
GRIDFORMAT
  1
GRIDFORMAT_BEGIN
 90
        0
 91
        1
 62
     0
 92
       -2
340
14
 93
        0
 40
0.045
309
GRIDFORMAT_END
 95
        8
302
GRIDFORMAT
  1
GRIDFORMAT_BEGIN
 90
        0
 91
        1
 62
     0
 92
       -2
340
14
 93
        0
 40
0.045
309
GRIDFORMAT_END
 95
       16
302
GRIDFORMAT
  1
GRIDFORMAT_BEGIN
 90
        0
 91
        1
 62
     0
 92
       -2
340
14
 93
        0
 40
0.045
309
GRIDFORMAT_END
 95
       32
302
GRIDFORMAT
  1
GRIDFORMAT_BEGIN
 90
        0
 91
        1
 62
     0
 92
       -2
340
14
 93
        0
 40
0.045
309
GRIDFORMAT_END
309
TABLEFORMAT_END
  1
CELLSTYLE_BEGIN
 90
        2
 91
        1
300
_HEADER
309
CELLSTYLE_END
300
CELLSTYLE
  1
TABLEFORMAT_BEGIN
 90
        5
170
     1
 91
        0
 92
        0
 62
   257
 93
        1
300
CONTENTFORMAT
  1
CONTENTFORMAT_BEGIN
 90
        0
 91
        0
 92
        4
 93
        0
300

 40
0.0
140
1.0
 94
        2
 62
     0
340
11
144
4.5
309
CONTENTFORMAT_END
171
     1
301
MARGIN
  1
CELLMARGIN_BEGIN
 40
1.5
 40
1.5
 40
1.5
 40
1.5
 40
1.5
 40
1.5
309
CELLMARGIN_END
 94
        6
 95
        1
302
GRIDFORMAT
  1
GRIDFORMAT_BEGIN
 90
        0
 91
        1
 62
     0
 92
       -2
340
14
 93
        0
 40
0.045
309
GRIDFORMAT_END
 95
        2
302
GRIDFORMAT
  1
GRIDFORMAT_BEGIN
 90
        0
 91
        1
 62
     0
 92
       -2
340
14
 93
        0
 40
0.045
309
GRIDFORMAT_END
 95
        4
302
GRIDFORMAT
  1
GRIDFORMAT_BEGIN
 90
        0
 91
        1
 62
     0
 92
       -2
340
14
 93
        0
 40
0.045
309
GRIDFORMAT_END
 95
        8
302
GRIDFORMAT
  1
GRIDFORMAT_BEGIN
 90
        0
 91
        1
 62
     0
 92
       -2
340
14
 93
        0
 40
0.045
309
GRIDFORMAT_END
 95
       16
302
GRIDFORMAT
  1
GRIDFORMAT_BEGIN
 90
        0
 91
        1
 62
     0
 92
       -2
340
14
 93
        0
 40
0.045
309
GRIDFORMAT_END
 95
       32
302
GRIDFORMAT
  1
GRIDFORMAT_BEGIN
 90
        0
 91
        1
 62
     0
 92
       -2
340
14
 93
        0
 40
0.045
309
GRIDFORMAT_END
309
TABLEFORMAT_END
  1
CELLSTYLE_BEGIN
 90
        3
 91
        2
300
_DATA
309
CELLSTYLE_END
  0
ENDSEC
  0
EOF
