  0
SECTION
  2
HEADER
  9
$ACADVER
  1
AC1027
  9
$ACADMAINTVER
 70
     8
  9
$DWGCODEPAGE
  3
ANSI_1252
  9
$REQUIREDVERSIONS
160
                 0
  9
$INSBASE
 10
0.0
 20
0.0
 30
0.0
  9
$EXTMIN
 10
0.0
 20
0.0
 30
0.0
  9
$EXTMAX
 10
594.0
 20
841.0
 30
0.0
  9
$LIMMIN
 10
0.0
 20
0.0
  9
$LIMMAX
 10
594.0
 20
841.0
  9
$ORTHOMODE
 70
     0
  9
$REGENMODE
 70
     1
  9
$FILLMODE
 70
     1
  9
$QTEXTMODE
 70
     0
  9
$MIRRTEXT
 70
     1
  9
$LTSCALE
 40
54.820741
  9
$ATTMODE
 70
     1
  9
$TEXTSIZE
 40
0.2
  9
$TRACEWID
 40
0.05
  9
$TEXTSTYLE
  7
STANDARD
  9
$CLAYER
  8
0
  9
$CELTYPE
  6
BYLAYER
  9
$CECOLOR
 62
   256
  9
$CELTSCALE
 40
1.0
  9
$DISPSILH
 70
     0
  9
$DIMSCALE
 40
1.0
  9
$DIMASZ
 40
2.5
  9
$DIMEXO
 40
0.75
  9
$DIMDLI
 40
37.876148
  9
$DIMRND
 40
0.0
  9
$DIMDLE
 40
0.0
  9
$DIMEXE
 40
0.75
  9
$DIMTP
 40
0.01
  9
$DIMTM
 40
0.01
  9
$DIMTXT
 40
3.0
  9
$DIMCEN
 40
8.970667
  9
$DIMTSZ
 40
0.0
  9
$DIMTOL
 70
     1
  9
$DIMLIM
 70
     0
  9
$DIMTIH
 70
     1
  9
$DIMTOH
 70
     1
  9
$DIMSE1
 70
     0
  9
$DIMSE2
 70
     0
  9
$DIMTAD
 70
     0
  9
$DIMZIN
 70
     0
  9
$DIMBLK
  1
CLOSED
  9
$DIMASO
 70
     1
  9
$DIMSHO
 70
     1
  9
$DIMPOST
  1

  9
$DIMAPOST
  1

  9
$DIMALT
 70
     0
  9
$DIMALTD
 70
     2
  9
$DIMALTF
 40
25.4
  9
$DIMLFAC
 40
1.0
  9
$DIMTOFL
 70
     0
  9
$DIMTVP
 40
0.0
  9
$DIMTIX
 70
     0
  9
$DIMSOXD
 70
     0
  9
$DIMSAH
 70
     0
  9
$DIMBLK1
  1

  9
$DIMBLK2
  1

  9
$DIMSTYLE
  2
STANDARD
  9
$DIMCLRD
 70
     0
  9
$DIMCLRE
 70
     0
  9
$DIMCLRT
 70
     0
  9
$DIMTFAC
 40
1.0
  9
$DIMGAP
 40
0.625
  9
$DIMJUST
 70
     0
  9
$DIMSD1
 70
     0
  9
$DIMSD2
 70
     0
  9
$DIMTOLJ
 70
     1
  9
$DIMTZIN
 70
     0
  9
$DIMALTZ
 70
     0
  9
$DIMALTTZ
 70
     0
  9
$DIMUPT
 70
     0
  9
$DIMDEC
 70
     4
  9
$DIMTDEC
 70
     4
  9
$DIMALTU
 70
     2
  9
$DIMALTTD
 70
     2
  9
$DIMTXSTY
  7
STANDARD
  9
$DIMAUNIT
 70
     0
  9
$DIMADEC
 70
     0
  9
$DIMALTRND
 40
0.0
  9
$DIMAZIN
 70
     0
  9
$DIMDSEP
 70
    44
  9
$DIMATFIT
 70
     3
  9
$DIMFRAC
 70
     0
  9
$DIMLDRBLK
  1

  9
$DIMLUNIT
 70
     2
  9
$DIMLWD
 70
    -2
  9
$DIMLWE
 70
    -2
  9
$DIMTMOVE
 70
     0
  9
$DIMFXL
 40
1.0
  9
$DIMFXLON
 70
     0
  9
$DIMJOGANG
 40
0.785398
  9
$DIMTFILL
 70
     0
  9
$DIMTFILLCLR
 70
     0
  9
$DIMARCSYM
 70
     0
  9
$DIMLTYPE
  6

  9
$DIMLTEX1
  6

  9
$DIMLTEX2
  6

  9
$DIMTXTDIRECTION
 70
     0
  9
$LUNITS
 70
     2
  9
$LUPREC
 70
     4
  9
$SKETCHINC
 40
0.1
  9
$FILLETRAD
 40
0.5
  9
$AUNITS
 70
     0
  9
$AUPREC
 70
     0
  9
$MENU
  1
.
  9
$ELEVATION
 40
0.0
  9
$PELEVATION
 40
0.0
  9
$THICKNESS
 40
0.0
  9
$LIMCHECK
 70
     0
  9
$CHAMFERA
 40
0.0
  9
$CHAMFERB
 40
0.0
  9
$CHAMFERC
 40
0.0
  9
$CHAMFERD
 40
0.0
  9
$SKPOLY
 70
     0
  9
$TDCREATE
 40
2447893.083333333
  9
$TDUCREATE
 40
0.0
  9
$TDUPDATE
 40
2460465.640470856
  9
$TDUUPDATE
 40
2460465.557137523
  9
$TDINDWG
 40
0.0
  9
$TDUSRTIMER
 40
0.0
  9
$USRTIMER
 70
     1
  9
$ANGBASE
 50
0.0
  9
$ANGDIR
 70
     0
  9
$PDMODE
 70
     3
  9
$PDSIZE
 40
0.3125
  9
$PLINEWID
 40
0.0
  9
$SPLFRAME
 70
     0
  9
$SPLINETYPE
 70
     6
  9
$SPLINESEGS
 70
     8
  9
$HANDSEED
  5
47A
  9
$SURFTAB1
 70
     6
  9
$SURFTAB2
 70
     6
  9
$SURFTYPE
 70
     6
  9
$SURFU
 70
     6
  9
$SURFV
 70
     6
  9
$UCSBASE
  2

  9
$UCSNAME
  2

  9
$UCSORG
 10
0.0
 20
0.0
 30
0.0
  9
$UCSXDIR
 10
1.0
 20
0.0
 30
0.0
  9
$UCSYDIR
 10
0.0
 20
1.0
 30
0.0
  9
$UCSORTHOREF
  2

  9
$UCSORTHOVIEW
 70
     0
  9
$UCSORGTOP
 10
0.0
 20
0.0
 30
0.0
  9
$UCSORGBOTTOM
 10
0.0
 20
0.0
 30
0.0
  9
$UCSORGLEFT
 10
0.0
 20
0.0
 30
0.0
  9
$UCSORGRIGHT
 10
0.0
 20
0.0
 30
0.0
  9
$UCSORGFRONT
 10
0.0
 20
0.0
 30
0.0
  9
$UCSORGBACK
 10
0.0
 20
0.0
 30
0.0
  9
$PUCSBASE
  2

  9
$PUCSNAME
  2

  9
$PUCSORG
 10
0.0
 20
0.0
 30
0.0
  9
$PUCSXDIR
 10
1.0
 20
0.0
 30
0.0
  9
$PUCSYDIR
 10
0.0
 20
1.0
 30
0.0
  9
$PUCSORTHOREF
  2

  9
$PUCSORTHOVIEW
 70
     0
  9
$PUCSORGTOP
 10
0.0
 20
0.0
 30
0.0
  9
$PUCSORGBOTTOM
 10
0.0
 20
0.0
 30
0.0
  9
$PUCSORGLEFT
 10
0.0
 20
0.0
 30
0.0
  9
$PUCSORGRIGHT
 10
0.0
 20
0.0
 30
0.0
  9
$PUCSORGFRONT
 10
0.0
 20
0.0
 30
0.0
  9
$PUCSORGBACK
 10
0.0
 20
0.0
 30
0.0
  9
$USERI1
 70
     0
  9
$USERI2
 70
     0
  9
$USERI3
 70
     0
  9
$USERI4
 70
     0
  9
$USERI5
 70
     0
  9
$USERR1
 40
0.0
  9
$USERR2
 40
0.0
  9
$USERR3
 40
0.0
  9
$USERR4
 40
0.0
  9
$USERR5
 40
0.0
  9
$WORLDVIEW
 70
     1
  9
$SHADEDGE
 70
     3
  9
$SHADEDIF
 70
    70
  9
$TILEMODE
 70
     0
  9
$MAXACTVP
 70
    64
  9
$PINSBASE
 10
0.0
 20
0.0
 30
0.0
  9
$PLIMCHECK
 70
     0
  9
$PEXTMIN
 10
1.000000E+20
 20
1.000000E+20
 30
1.000000E+20
  9
$PEXTMAX
 10
-1.000000E+20
 20
-1.000000E+20
 30
-1.000000E+20
  9
$PLIMMIN
 10
0.0
 20
0.0
  9
$PLIMMAX
 10
12.0
 20
9.0
  9
$UNITMODE
 70
     0
  9
$VISRETAIN
 70
     1
  9
$PLINEGEN
 70
     0
  9
$PSLTSCALE
 70
     0
  9
$TREEDEPTH
 70
  3020
  9
$CMLSTYLE
  2

  9
$CMLJUST
 70
     0
  9
$CMLSCALE
 40
1.0
  9
$PROXYGRAPHICS
 70
     1
  9
$MEASUREMENT
 70
     1
  9
$CELWEIGHT
370
    -1
  9
$ENDCAPS
280
     0
  9
$JOINSTYLE
280
     0
  9
$LWDISPLAY
290
     0
  9
$INSUNITS
 70
     4
  9
$HYPERLINKBASE
  1

  9
$STYLESHEET
  1

  9
$XEDIT
290
     1
  9
$CEPSNTYPE
380
     0
  9
$PSTYLEMODE
290
     1
  9
$FINGERPRINTGUID
  2
{3E571229-3FFA-4AA0-9C8F-DC6A917FF990}
  9
$VERSIONGUID
  2
{FAEB1C32-E019-11D5-929B-00C0DF256EC4}
  9
$EXTNAMES
290
     1
  9
$PSVPSCALE
 40
0.0
  9
$OLESTARTUP
290
     0
  9
$SORTENTS
280
   127
  9
$INDEXCTL
280
     0
  9
$HIDETEXT
280
     1
  9
$XCLIPFRAME
280
     2
  9
$HALOGAP
280
     0
  9
$OBSCOLOR
 70
   257
  9
$OBSLTYPE
280
     0
  9
$INTERSECTIONDISPLAY
280
     0
  9
$INTERSECTIONCOLOR
 70
   257
  9
$DIMASSOC
280
     2
  9
$PROJECTNAME
  1

  9
$CAMERADISPLAY
290
     0
  9
$LENSLENGTH
 40
50.0
  9
$CAMERAHEIGHT
 40
0.0
  9
$STEPSPERSEC
 40
2.0
  9
$STEPSIZE
 40
6.0
  9
$3DDWFPREC
 40
2.0
  9
$PSOLWIDTH
 40
0.25
  9
$PSOLHEIGHT
 40
4.0
  9
$LOFTANG1
 40
1.570796
  9
$LOFTANG2
 40
1.570796
  9
$LOFTMAG1
 40
0.0
  9
$LOFTMAG2
 40
0.0
  9
$LOFTPARAM
 70
     7
  9
$LOFTNORMALS
280
     1
  9
$LATITUDE
 40
37.795
  9
$LONGITUDE
 40
-122.394
  9
$NORTHDIRECTION
 40
0.0
  9
$TIMEZONE
 70
 -8000
  9
$LIGHTGLYPHDISPLAY
280
     1
  9
$TILEMODELIGHTSYNCH
280
     1
  9
$SOLIDHIST
280
     1
  9
$SHOWHIST
280
     1
  9
$DWFFRAME
280
     2
  9
$DGNFRAME
280
     2
  9
$REALWORLDSCALE
290
     1
  9
$INTERFERECOLOR
 62
   256
  9
$CSHADOW
280
     0
  9
$SHADOWPLANELOCATION
 40
0.0
  0
ENDSEC
  0
SECTION
  2
CLASSES
  0
CLASS
  1
ACDBDICTIONARYWDFLT
  2
AcDbDictionaryWithDefault
  3
ObjectDBX Classes
 90
        0
 91
        6
280
     0
281
     0
  0
CLASS
  1
ACDBPLACEHOLDER
  2
AcDbPlaceHolder
  3
ObjectDBX Classes
 90
        0
 91
        1
280
     0
281
     0
  0
CLASS
  1
LAYOUT
  2
AcDbLayout
  3
ObjectDBX Classes
 90
        0
 91
        1
280
     0
281
     0
  0
CLASS
  1
TABLESTYLE
  2
AcDbTableStyle
  3
ObjectDBX Classes
 90
     4095
 91
        5
280
     0
281
     0
  0
CLASS
  1
ACAD_TABLE
  2
AcDbTable
  3
ObjectDBX Classes
 90
     1025
 91
        5
280
     0
281
     1
  0
CLASS
  1
SCALE
  2
AcDbScale
  3
ObjectDBX Classes
 90
     1153
 91
        5
280
     0
281
     0
  0
CLASS
  1
VISUALSTYLE
  2
AcDbVisualStyle
  3
ObjectDBX Classes
 90
     4095
 91
        5
280
     0
281
     0
  0
CLASS
  1
TABLEGEOMETRY
  2
AcDbTableGeometry
  3
ObjectDBX Classes
 90
     1152
 91
        4
280
     0
281
     0
  0
CLASS
  1
MATERIAL
  2
AcDbMaterial
  3
ObjectDBX Classes
 90
     1153
 91
        5
280
     0
281
     0
  0
CLASS
  1
SUN
  2
AcDbSun
  3
SCENEOE
 90
     1153
 91
        5
280
     0
281
     0
  0
CLASS
  1
TABLECONTENT
  2
AcDbTableContent
  3
ObjectDBX Classes
 90
     1152
 91
        4
280
     0
281
     0
  0
CLASS
  1
DICTIONARYVAR
  2
AcDbDictionaryVar
  3
ObjectDBX Classes
 90
        0
 91
        4
280
     0
281
     0
  0
CLASS
  1
CELLSTYLEMAP
  2
AcDbCellStyleMap
  3
ObjectDBX Classes
 90
     1152
 91
        4
280
     0
281
     0
  0
ENDSEC
  0
SECTION
  2
TABLES
  0
TABLE
  2
VPORT
  5
8
330
0
100
AcDbSymbolTable
 70
     1
  0
VPORT
  5
1F4
330
8
100
AcDbSymbolTableRecord
100
AcDbViewportTableRecord
  2
*ACTIVE
 70
     0
 10
0.0
 20
0.0
 11
1.0
 21
1.0
 12
297.0
 22
420.5
 13
0.0
 23
0.0
 14
1.0
 24
1.0
 15
0.0
 25
0.0
 16
0.0
 26
0.0
 36
1.0
 17
0.0
 27
0.0
 37
0.0
 40
841.0
 41
0.706302
 42
50.0
 43
0.0
 44
0.0
 50
0.0
 51
0.0
 71
     0
 72
   100
 73
     1
 74
     1
 75
     0
 76
     0
 77
     0
 78
     0
281
     0
 65
     1
110
0.0
120
0.0
130
0.0
111
1.0
121
0.0
131
0.0
112
0.0
122
1.0
132
0.0
 79
     0
146
0.0
348
447
 60
     3
 61
     5
292
     1
282
     1
141
0.0
142
0.0
 63
   256
  0
ENDTAB
  0
TABLE
  2
LTYPE
  5
5
330
0
100
AcDbSymbolTable
 70
     6
  0
LTYPE
  5
14
330
5
100
AcDbSymbolTableRecord
100
AcDbLinetypeTableRecord
  2
BYBLOCK
 70
     0
  3

 72
    65
 73
     0
 40
0.0
  0
LTYPE
  5
15
330
5
100
AcDbSymbolTableRecord
100
AcDbLinetypeTableRecord
  2
BYLAYER
 70
     0
  3

 72
    65
 73
     0
 40
0.0
  0
LTYPE
  5
16
330
5
100
AcDbSymbolTableRecord
100
AcDbLinetypeTableRecord
  2
CONTINUOUS
 70
     0
  3
Solid line
 72
    65
 73
     0
 40
0.0
  0
LTYPE
  5
1F5
330
5
100
AcDbSymbolTableRecord
100
AcDbLinetypeTableRecord
  2
CENTER
 70
     0
  3
____ _ ____ _ ____ _ ____ _ ____ _ ____ _ ____
 72
    65
 73
     4
 40
0.6
 49
0.375
 74
     0
 49
-0.075
 74
     0
 49
0.075
 74
     0
 49
-0.075
 74
     0
  0
LTYPE
  5
1F6
330
5
100
AcDbSymbolTableRecord
100
AcDbLinetypeTableRecord
  2
HIDDEN
 70
     0
  3
- - - - - - - - - - - - - - - - - - - -
 72
    65
 73
     2
 40
0.2
 49
0.1
 74
     0
 49
-0.1
 74
     0
  0
LTYPE
  5
1F7
330
5
100
AcDbSymbolTableRecord
100
AcDbLinetypeTableRecord
  2
PHANTOM
 70
     0
  3
_____ _ _ _____ _ _ _____ _ _ _____
 72
    65
 73
     6
 40
0.8
 49
0.45
 74
     0
 49
-0.05
 74
     0
 49
0.1
 74
     0
 49
-0.05
 74
     0
 49
0.1
 74
     0
 49
-0.05
 74
     0
  0
LTYPE
  5
1F8
330
5
100
AcDbSymbolTableRecord
100
AcDbLinetypeTableRecord
  2
DOT
 70
     0
  3
. . . . . . . . . . . . . . . . . . . .
 72
    65
 73
     2
 40
0.2
 49
0.1
 74
     0
 49
-0.1
 74
     0
  0
LTYPE
  5
1F9
330
5
100
AcDbSymbolTableRecord
100
AcDbLinetypeTableRecord
  2
DASHED
 70
     0
  3
- - - - - - - - - - - - - - - - - - - -
 72
    65
 73
     2
 40
0.2
 49
0.1
 74
     0
 49
-0.1
 74
     0
  0
ENDTAB
  0
TABLE
  2
LAYER
  5
2
330
0
100
AcDbSymbolTable
 70
    20
  0
LAYER
  5
10
330
2
100
AcDbSymbolTableRecord
100
AcDbLayerTableRecord
  2
0
 70
     0
 62
     7
  6
CONTINUOUS
370
    -3
390
F
347
461
348
0
  0
LAYER
  5
1FA
330
2
100
AcDbSymbolTableRecord
100
AcDbLayerTableRecord
  2
DEFAULT_1
 70
     0
 62
     7
  6
CENTER
370
    -3
390
F
347
461
348
0
  0
LAYER
  5
1FB
330
2
100
AcDbSymbolTableRecord
100
AcDbLayerTableRecord
  2
DEFAULT_2
 70
     0
 62
     8
  6
HIDDEN
370
    -3
390
F
347
461
348
0
  0
LAYER
  5
1FC
330
2
100
AcDbSymbolTableRecord
100
AcDbLayerTableRecord
  2
DEFAULT_3
 70
     0
 62
     7
  6
PHANTOM
370
    -3
390
F
347
461
348
0
  0
LAYER
  5
1FD
330
2
100
AcDbSymbolTableRecord
100
AcDbLayerTableRecord
  2
01___PRT_ALL_DTM_PLN
 70
     0
 62
     7
  6
CONTINUOUS
370
    -3
390
F
347
461
348
0
  0
LAYER
  5
1FE
330
2
100
AcDbSymbolTableRecord
100
AcDbLayerTableRecord
  2
01___PRT_DEF_DTM_PLN
 70
     0
 62
     7
  6
CONTINUOUS
370
    -3
390
F
347
461
348
0
  0
LAYER
  5
1FF
330
2
100
AcDbSymbolTableRecord
100
AcDbLayerTableRecord
  2
02___PRT_ALL_AXES
 70
     0
 62
     7
  6
CONTINUOUS
370
    -3
390
F
347
461
348
0
  0
LAYER
  5
200
330
2
100
AcDbSymbolTableRecord
100
AcDbLayerTableRecord
  2
03___PRT_ALL_CURVES
 70
     0
 62
     7
  6
CONTINUOUS
370
    -3
390
F
347
461
348
0
  0
LAYER
  5
201
330
2
100
AcDbSymbolTableRecord
100
AcDbLayerTableRecord
  2
04___PRT_ALL_DTM_PNT
 70
     0
 62
     7
  6
CONTINUOUS
370
    -3
390
F
347
461
348
0
  0
LAYER
  5
202
330
2
100
AcDbSymbolTableRecord
100
AcDbLayerTableRecord
  2
05___PRT_ALL_DTM_CSYS
 70
     0
 62
     7
  6
CONTINUOUS
370
    -3
390
F
347
461
348
0
  0
LAYER
  5
203
330
2
100
AcDbSymbolTableRecord
100
AcDbLayerTableRecord
  2
05___PRT_DEF_DTM_CSYS
 70
     0
 62
     7
  6
CONTINUOUS
370
    -3
390
F
347
461
348
0
  0
LAYER
  5
204
330
2
100
AcDbSymbolTableRecord
100
AcDbLayerTableRecord
  2
06___PRT_ALL_SURFS
 70
     0
 62
     7
  6
CONTINUOUS
370
    -3
390
F
347
461
348
0
  0
LAYER
  5
205
330
2
100
AcDbSymbolTableRecord
100
AcDbLayerTableRecord
  2
1_ALL_PLANES
 70
     0
 62
     7
  6
CONTINUOUS
370
    -3
390
F
347
461
348
0
  0
LAYER
  5
206
330
2
100
AcDbSymbolTableRecord
100
AcDbLayerTableRecord
  2
2_ALL_CSYS
 70
     0
 62
     7
  6
CONTINUOUS
370
    -3
390
F
347
461
348
0
  0
LAYER
  5
207
330
2
100
AcDbSymbolTableRecord
100
AcDbLayerTableRecord
  2
3_ALL_AXES
 70
     0
 62
     7
  6
CONTINUOUS
370
    -3
390
F
347
461
348
0
  0
LAYER
  5
208
330
2
100
AcDbSymbolTableRecord
100
AcDbLayerTableRecord
  2
4_ALL_POINTS
 70
     0
 62
     7
  6
CONTINUOUS
370
    -3
390
F
347
461
348
0
  0
LAYER
  5
209
330
2
100
AcDbSymbolTableRecord
100
AcDbLayerTableRecord
  2
5_ALL_CURVES
 70
     0
 62
     7
  6
CONTINUOUS
370
    -3
390
F
347
461
348
0
  0
LAYER
  5
20A
330
2
100
AcDbSymbolTableRecord
100
AcDbLayerTableRecord
  2
6_ALL_SURFS
 70
     0
 62
     7
  6
CONTINUOUS
370
    -3
390
F
347
461
348
0
  0
LAYER
  5
20B
330
2
100
AcDbSymbolTableRecord
100
AcDbLayerTableRecord
  2
7_ALL_FEATURES
 70
     0
 62
     7
  6
CONTINUOUS
370
    -3
390
F
347
461
348
0
  0
LAYER
  5
20C
330
2
100
AcDbSymbolTableRecord
100
AcDbLayerTableRecord
  2
9_SOLID
 70
     0
 62
     7
  6
CONTINUOUS
370
    -3
390
F
347
461
348
0
  0
ENDTAB
  0
TABLE
  2
STYLE
  5
3
330
0
100
AcDbSymbolTable
 70
     4
  0
STYLE
  5
11
330
3
100
AcDbSymbolTableRecord
100
AcDbTextStyleTableRecord
  2
STANDARD
 70
     0
 40
0.0
 41
1.0
 50
0.0
 71
     0
 42
0.2
  3
arial.ttf
  4

  0
STYLE
  5
20D
330
3
100
AcDbSymbolTableRecord
100
AcDbTextStyleTableRecord
  2
TEXTSTYLE_1
 70
     0
 40
0.0
 41
0.8
 50
0.0
 71
     0
 42
0.2
  3
gdt
  4

  0
STYLE
  5
20E
330
3
100
AcDbSymbolTableRecord
100
AcDbTextStyleTableRecord
  2
TEXTSTYLE_2
 70
     0
 40
0.0
 41
0.85
 50
0.0
 71
     0
 42
0.2
  3
gdt
  4

  0
STYLE
  5
20F
330
3
100
AcDbSymbolTableRecord
100
AcDbTextStyleTableRecord
  2
TEXTSTYLE_3
 70
     0
 40
0.0
 41
0.85
 50
0.0
 71
     0
 42
0.2
  3
txt
  4

  0
ENDTAB
  0
TABLE
  2
VIEW
  5
6
330
0
100
AcDbSymbolTable
 70
     0
  0
ENDTAB
  0
TABLE
  2
UCS
  5
7
330
0
100
AcDbSymbolTable
 70
     0
  0
ENDTAB
  0
TABLE
  2
APPID
  5
9
330
0
100
AcDbSymbolTable
 70
     6
  0
APPID
  5
210
330
9
100
AcDbSymbolTableRecord
100
AcDbRegAppTableRecord
  2
ACAD
 70
     0
  0
APPID
  5
462
330
9
100
AcDbSymbolTableRecord
100
AcDbRegAppTableRecord
  2
MCS_DIM1
 70
     0
  0
APPID
  5
463
330
9
100
AcDbSymbolTableRecord
100
AcDbRegAppTableRecord
  2
McsXdata5
 70
     0
  0
APPID
  5
466
330
9
100
AcDbSymbolTableRecord
100
AcDbRegAppTableRecord
  2
MCS_DOCUMENT_ID
 70
     0
  0
APPID
  5
46A
330
9
100
AcDbSymbolTableRecord
100
AcDbRegAppTableRecord
  2
MCS_PARAMS_DATA
 70
     0
  0
APPID
  5
46C
330
9
100
AcDbSymbolTableRecord
100
AcDbRegAppTableRecord
  2
MC_VERSION_DATA
 70
     0
  0
ENDTAB
  0
TABLE
  2
DIMSTYLE
  5
A
330
0
100
AcDbSymbolTable
 70
     3
100
AcDbDimStyleTable
  0
DIMSTYLE
105
218
330
A
100
AcDbSymbolTableRecord
100
AcDbDimStyleTableRecord
  2
STANDARD
 70
     0
 41
2.5
 42
0.75
 44
0.75
 47
0.01
 48
0.01
 71
     1
 73
     0
 74
     0
 77
     1
 78
     8
 79
     2
140
3.0
147
0.625
171
     1
178
     0
179
     2
271
     2
272
     2
278
    44
284
     8
340
11
341
213
342
213
343
213
344
213
  0
DIMSTYLE
105
219
330
A
100
AcDbSymbolTableRecord
100
AcDbDimStyleTableRecord
  2
DIMSTYLE_1
 70
     0
 41
2.5
 42
0.75
 44
0.75
 47
2.0
 48
2.0
 73
     0
 74
     0
 77
     1
 78
     8
 79
     2
140
3.0
147
0.75
171
     1
178
     0
179
     2
271
     2
272
     2
278
    44
284
     8
340
11
341
213
342
213
343
213
344
213
  0
DIMSTYLE
105
21A
330
A
100
AcDbSymbolTableRecord
100
AcDbDimStyleTableRecord
  2
DIMSTYLE_2
 70
     0
 41
2.5
 42
0.75
 44
0.75
 47
0.2
 48
0.2
 73
     0
 74
     0
 77
     1
 78
     8
 79
     2
140
3.0
147
0.75
171
     1
178
     0
179
     2
271
     2
272
     2
278
    44
284
     8
340
11
341
213
342
213
343
213
344
213
  0
ENDTAB
  0
TABLE
  2
BLOCK_RECORD
  5
1
330
0
100
AcDbSymbolTable
 70
     5
  0
BLOCK_RECORD
  5
211
330
1
100
AcDbSymbolTableRecord
100
AcDbBlockTableRecord
  2
*Model_Space
340
41C
 70
     0
280
     1
281
     0
  0
BLOCK_RECORD
  5
212
330
1
100
AcDbSymbolTableRecord
100
AcDbBlockTableRecord
  2
*Paper_Space
340
41D
 70
     0
280
     1
281
     0
  0
BLOCK_RECORD
  5
213
330
1
100
AcDbSymbolTableRecord
100
AcDbBlockTableRecord
  2
_CLOSED
340
0
102
{BLKREFS
331
263
331
264
331
26C
331
26D
102
}
 70
     0
280
     1
281
     0
  0
BLOCK_RECORD
  5
214
330
1
100
AcDbSymbolTableRecord
100
AcDbBlockTableRecord
  2
*D1
340
0
 70
     0
280
     1
281
     0
  0
BLOCK_RECORD
  5
215
330
1
100
AcDbSymbolTableRecord
100
AcDbBlockTableRecord
  2
*D2
340
0
 70
     0
280
     1
281
     0
  0
BLOCK_RECORD
  5
216
330
1
100
AcDbSymbolTableRecord
100
AcDbBlockTableRecord
  2
LOGO2_BL0
340
0
102
{BLKREFS
331
419
102
}
 70
     0
280
     1
281
     0
  0
BLOCK_RECORD
  5
217
330
1
100
AcDbSymbolTableRecord
100
AcDbBlockTableRecord
  2
*T4
340
0
102
{BLKREFS
331
41A
102
}
 70
     0
280
     1
281
     0
  0
ENDTAB
  0
ENDSEC
  0
SECTION
  2
BLOCKS
  0
BLOCK
  5
20
330
211
100
AcDbEntity
  8
0
100
AcDbBlockBegin
  2
*Model_Space
 70
     0
 10
0.0
 20
0.0
 30
0.0
  3
*Model_Space
  1
*Model_Space
  0
ENDBLK
  5
21
330
211
100
AcDbEntity
  8
0
100
AcDbBlockEnd
  0
BLOCK
  5
1C
330
212
100
AcDbEntity
 67
     1
  8
0
100
AcDbBlockBegin
  2
*Paper_Space
 70
     0
 10
0.0
 20
0.0
 30
0.0
  3
*Paper_Space
  1
*Paper_Space
  0
ENDBLK
  5
1D
330
212
100
AcDbEntity
 67
     1
  8
0
100
AcDbBlockEnd
  0
BLOCK
  5
257
330
213
100
AcDbEntity
  8
0
100
AcDbBlockBegin
  2
_CLOSED
 70
     0
 10
0.0
 20
0.0
 30
0.0
  3
_CLOSED
  1
_CLOSED
  0
LINE
  5
258
330
213
100
AcDbEntity
  8
0
  6
ByBlock
 62
     0
100
AcDbLine
 10
0.0
 20
0.0
 30
0.0
 11
-1.0
 21
0.2
 31
0.0
  0
LINE
  5
259
330
213
100
AcDbEntity
  8
0
  6
ByBlock
 62
     0
100
AcDbLine
 10
-1.0
 20
0.2
 30
0.0
 11
-1.0
 21
-0.2
 31
0.0
  0
LINE
  5
25A
330
213
100
AcDbEntity
  8
0
  6
ByBlock
 62
     0
100
AcDbLine
 10
-1.0
 20
-0.2
 30
0.0
 11
0.0
 21
0.0
 31
0.0
  0
LINE
  5
25B
330
213
100
AcDbEntity
  8
0
  6
ByBlock
 62
     0
100
AcDbLine
 10
-1.0
 20
0.0
 30
0.0
 11
0.0
 21
0.0
 31
0.0
  0
ENDBLK
  5
25C
330
213
100
AcDbEntity
  8
0
  6
ByBlock
 62
     0
100
AcDbBlockEnd
  0
BLOCK
  5
25D
330
214
100
AcDbEntity
  8
0
100
AcDbBlockBegin
  2
*D1
 70
     1
 10
0.0
 20
0.0
 30
0.0
  3
*D1
  1
*D1
  0
MTEXT
  5
25E
330
214
100
AcDbEntity
  8
0
  6
Continuous
 62
     2
100
AcDbMText
 10
10.751947
 20
418.766148
 30
0.0
 40
3.0
 41
12.814126
 46
0.0
 71
     2
 72
     1
  1
4035,5
 11
0.0
 21
1.0
 31
0.0
 73
     1
 44
0.9
  0
LINE
  5
25F
330
214
100
AcDbEntity
  8
0
  6
Continuous
 62
     2
100
AcDbLine
 10
26.70604
 20
16.050669
 30
0.0
 11
13.751947
 21
16.050669
 31
0.0
  0
LINE
  5
260
330
214
100
AcDbEntity
  8
0
  6
Continuous
 62
     2
100
AcDbLine
 10
24.671451
 20
821.481628
 30
0.0
 11
13.751947
 21
821.481628
 31
0.0
  0
LINE
  5
261
330
214
100
AcDbEntity
  8
0
  6
Continuous
 62
     2
100
AcDbLine
 10
14.501947
 20
16.050669
 30
0.0
 11
14.501947
 21
418.766148
 31
0.0
  0
LINE
  5
262
330
214
100
AcDbEntity
  8
0
  6
Continuous
 62
     2
100
AcDbLine
 10
14.501947
 20
821.481628
 30
0.0
 11
14.501947
 21
418.766148
 31
0.0
  0
INSERT
  5
263
330
214
100
AcDbEntity
  8
0
  6
Continuous
 62
     2
100
AcDbBlockReference
  2
_CLOSED
 10
14.501947
 20
16.050669
 30
0.0
 41
2.5
 42
2.5
 43
2.5
 50
270.0
  0
INSERT
  5
264
330
214
100
AcDbEntity
  8
0
  6
Continuous
 62
     2
100
AcDbBlockReference
  2
_CLOSED
 10
14.501947
 20
821.481628
 30
0.0
 41
2.5
 42
2.5
 43
2.5
 50
90.0
  0
ENDBLK
  5
265
330
214
100
AcDbEntity
  8
0
  6
ByBlock
 62
     0
100
AcDbBlockEnd
  0
BLOCK
  5
266
330
215
100
AcDbEntity
  8
0
100
AcDbBlockBegin
  2
*D2
 70
     1
 10
0.0
 20
0.0
 30
0.0
  3
*D2
  1
*D2
  0
MTEXT
  5
267
330
215
100
AcDbEntity
  8
0
  6
Continuous
 62
     2
100
AcDbMText
 10
56.749788
 20
836.797431
 30
0.0
 40
3.0
 41
8.66171
 46
0.0
 71
     2
 72
     1
  1
{\Fgdt;n}\Farial.ttf;20
  7
TEXTSTYLE_2
 73
     1
 44
0.9
  0
LINE
  5
268
330
215
100
AcDbEntity
  8
0
  6
Continuous
 62
     2
100
AcDbLine
 10
46.749788
 20
829.152858
 30
0.0
 11
46.749788
 21
833.797431
 31
0.0
  0
LINE
  5
269
330
215
100
AcDbEntity
  8
0
  6
Continuous
 62
     2
100
AcDbLine
 10
66.749788
 20
829.397137
 30
0.0
 11
66.749788
 21
833.797431
 31
0.0
  0
LINE
  5
26A
330
215
100
AcDbEntity
  8
0
  6
Continuous
 62
     2
100
AcDbLine
 10
46.749788
 20
833.047431
 30
0.0
 11
56.749788
 21
833.047431
 31
0.0
  0
LINE
  5
26B
330
215
100
AcDbEntity
  8
0
  6
Continuous
 62
     2
100
AcDbLine
 10
66.749788
 20
833.047431
 30
0.0
 11
56.749788
 21
833.047431
 31
0.0
  0
INSERT
  5
26C
330
215
100
AcDbEntity
  8
0
  6
Continuous
 62
     2
100
AcDbBlockReference
  2
_CLOSED
 10
46.749788
 20
833.047431
 30
0.0
 41
2.5
 42
2.5
 43
2.5
 50
180.0
  0
INSERT
  5
26D
330
215
100
AcDbEntity
  8
0
  6
Continuous
 62
     2
100
AcDbBlockReference
  2
_CLOSED
 10
66.749788
 20
833.047431
 30
0.0
 41
2.5
 42
2.5
 43
2.5
  0
ENDBLK
  5
26E
330
215
100
AcDbEntity
  8
0
  6
ByBlock
 62
     0
100
AcDbBlockEnd
  0
BLOCK
  5
21B
330
216
100
AcDbEntity
  8
0
100
AcDbBlockBegin
  2
LOGO2_BL0
 70
     0
 10
504.79423
 20
40.567663
 30
0.0
  3
LOGO2_BL0
  1
LOGO2_BL0
  0
LINE
  5
21C
330
216
100
AcDbEntity
  8
0
  6
Continuous
 62
     7
100
AcDbLine
 10
496.537155
 20
43.763154
 30
0.0
 11
495.232814
 21
43.763154
 31
0.0
  0
LINE
  5
21D
330
216
100
AcDbEntity
  8
0
  6
Continuous
 62
     7
100
AcDbLine
 10
495.232814
 20
43.763154
 30
0.0
 11
495.232814
 21
33.304088
 31
0.0
  0
LINE
  5
21E
330
216
100
AcDbEntity
  8
0
  6
Continuous
 62
     7
100
AcDbLine
 10
495.232814
 20
33.304088
 30
0.0
 11
499.713869
 21
33.304088
 31
0.0
  0
LINE
  5
21F
330
216
100
AcDbEntity
  8
0
  6
Continuous
 62
     7
100
AcDbLine
 10
499.713869
 20
33.304088
 30
0.0
 11
499.713869
 21
34.496942
 31
0.0
  0
LINE
  5
220
330
216
100
AcDbEntity
  8
0
  6
Continuous
 62
     7
100
AcDbLine
 10
499.713869
 20
34.496942
 30
0.0
 11
496.537155
 21
34.496942
 31
0.0
  0
LINE
  5
221
330
216
100
AcDbEntity
  8
0
  6
Continuous
 62
     7
100
AcDbLine
 10
496.537155
 20
34.496942
 30
0.0
 11
496.537155
 21
43.763154
 31
0.0
  0
LINE
  5
222
330
216
100
AcDbEntity
  8
0
  6
Continuous
 62
     7
100
AcDbLine
 10
511.473481
 20
43.763154
 30
0.0
 11
510.169663
 21
43.763154
 31
0.0
  0
LINE
  5
223
330
216
100
AcDbEntity
  8
0
  6
Continuous
 62
     7
100
AcDbLine
 10
510.169663
 20
43.763154
 30
0.0
 11
510.169663
 21
33.304088
 31
0.0
  0
LINE
  5
224
330
216
100
AcDbEntity
  8
0
  6
Continuous
 62
     7
100
AcDbLine
 10
510.169663
 20
33.304088
 30
0.0
 11
514.650849
 21
33.304088
 31
0.0
  0
LINE
  5
225
330
216
100
AcDbEntity
  8
0
  6
Continuous
 62
     7
100
AcDbLine
 10
514.650849
 20
33.304088
 30
0.0
 11
514.650849
 21
34.496942
 31
0.0
  0
LINE
  5
226
330
216
100
AcDbEntity
  8
0
  6
Continuous
 62
     7
100
AcDbLine
 10
514.650849
 20
34.496942
 30
0.0
 11
511.473481
 21
34.496942
 31
0.0
  0
LINE
  5
227
330
216
100
AcDbEntity
  8
0
  6
Continuous
 62
     7
100
AcDbLine
 10
511.473481
 20
34.496942
 30
0.0
 11
511.473481
 21
43.763154
 31
0.0
  0
LWPOLYLINE
  5
228
330
216
100
AcDbEntity
  8
0
  6
Continuous
 62
     7
100
AcDbPolyline
 90
        2
 70
     0
 43
0.2
 10
493.587209
 20
29.960536
 10
493.587209
 20
28.103473
  0
LWPOLYLINE
  5
229
330
216
100
AcDbEntity
  8
0
  6
Continuous
 62
     7
100
AcDbPolyline
 90
        2
 70
     0
 43
0.2
 10
493.587209
 20
28.103473
 10
494.382925
 20
28.103473
  0
LWPOLYLINE
  5
22A
330
216
100
AcDbEntity
  8
0
  6
Continuous
 62
     7
100
AcDbPolyline
 90
        2
 70
     0
 43
0.2
 10
494.382925
 20
28.103473
 10
494.382925
 20
28.315455
  0
LWPOLYLINE
  5
22B
330
216
100
AcDbEntity
  8
0
  6
Continuous
 62
     7
100
AcDbPolyline
 90
        2
 70
     0
 43
0.2
 10
494.382925
 20
28.315455
 10
493.818818
 20
28.315455
  0
LWPOLYLINE
  5
22C
330
216
100
AcDbEntity
  8
0
  6
Continuous
 62
     7
100
AcDbPolyline
 90
        2
 70
     0
 43
0.2
 10
493.818818
 20
28.315455
 10
493.818818
 20
29.960536
  0
LWPOLYLINE
  5
22D
330
216
100
AcDbEntity
  8
0
  6
Continuous
 62
     7
100
AcDbPolyline
 90
        2
 70
     0
 43
0.2
 10
493.818818
 20
29.960536
 10
493.587209
 20
29.960536
  0
SPLINE
  5
22E
330
216
100
AcDbEntity
  8
0
  6
Continuous
 62
     7
100
AcDbSpline
 70
     3
 71
     3
 72
    35
 73
    31
 74
     0
 42
0.000000001
 43
0.0000001
 40
0.0
 40
0.0
 40
0.0
 40
0.0
 40
1.0
 40
1.0
 40
1.0
 40
2.0
 40
2.0
 40
2.0
 40
3.0
 40
3.0
 40
3.0
 40
4.0
 40
4.0
 40
4.0
 40
5.0
 40
5.0
 40
5.0
 40
6.0
 40
6.0
 40
6.0
 40
7.0
 40
7.0
 40
7.0
 40
8.0
 40
8.0
 40
8.0
 40
9.0
 40
9.0
 40
9.0
 40
10.0
 40
10.0
 40
10.0
 40
10.0
 10
495.7812180085
 20
29.2560248911
 30
0.0
 10
495.7812180085
 20
29.2560248911
 30
0.0
 10
495.7812180085
 20
28.5939096119
 30
0.0
 10
495.7812180085
 20
28.5939096119
 30
0.0
 10
495.7812180085
 20
28.2788160166
 30
0.0
 10
495.9290816973
 20
28.0642173886
 30
0.0
 10
496.2691681816
 20
28.0642173886
 30
0.0
 10
496.6087312546
 20
28.0642173886
 30
0.0
 10
496.756856649
 20
28.2788160166
 30
0.0
 10
496.756856649
 20
28.5939096119
 30
0.0
 10
496.756856649
 20
28.5939096119
 30
0.0
 10
496.756856649
 20
29.2560248911
 30
0.0
 10
496.756856649
 20
29.2560248911
 30
0.0
 10
496.756856649
 20
29.2560248911
 30
0.0
 10
496.5347994102
 20
29.2560248911
 30
0.0
 10
496.5347994102
 20
29.2560248911
 30
0.0
 10
496.5347994102
 20
29.2560248911
 30
0.0
 10
496.5347994102
 20
28.6190333537
 30
0.0
 10
496.5347994102
 20
28.6190333537
 30
0.0
 10
496.5347994102
 20
28.4332223465
 30
0.0
 10
496.4880849527
 20
28.270441436
 30
0.0
 10
496.2691681816
 20
28.270441436
 30
0.0
 10
496.0497279991
 20
28.270441436
 30
0.0
 10
496.0030135417
 20
28.4332223465
 30
0.0
 10
496.0030135417
 20
28.6190333537
 30
0.0
 10
496.0030135417
 20
28.6190333537
 30
0.0
 10
496.0030135417
 20
29.2560248911
 30
0.0
 10
496.0030135417
 20
29.2560248911
 30
0.0
 10
496.0030135417
 20
29.2560248911
 30
0.0
 10
495.7812180085
 20
29.2560248911
 30
0.0
 10
495.7812180085
 20
29.2560248911
 30
0.0
  0
SPLINE
  5
22F
330
216
100
AcDbEntity
  8
0
  6
Continuous
 62
     7
100
AcDbSpline
 70
     3
 71
     3
 72
    35
 73
    31
 74
     0
 42
0.000000001
 43
0.0000001
 40
0.0
 40
0.0
 40
0.0
 40
0.0
 40
1.0
 40
1.0
 40
1.0
 40
2.0
 40
2.0
 40
2.0
 40
3.0
 40
3.0
 40
3.0
 40
4.0
 40
4.0
 40
4.0
 40
5.0
 40
5.0
 40
5.0
 40
6.0
 40
6.0
 40
6.0
 40
7.0
 40
7.0
 40
7.0
 40
8.0
 40
8.0
 40
8.0
 40
9.0
 40
9.0
 40
9.0
 40
10.0
 40
10.0
 40
10.0
 40
10.0
 10
499.1799892062
 20
29.2146753993
 30
0.0
 10
499.0915326986
 20
29.2659697055
 30
0.0
 10
498.9780833019
 20
29.2910934474
 30
0.0
 10
498.8744478669
 20
29.2910934474
 30
0.0
 10
498.5195750138
 20
29.2910934474
 30
0.0
 10
498.2441298235
 20
29.0272941583
 30
0.0
 10
498.2441298235
 20
28.6698042487
 30
0.0
 10
498.2441298235
 20
28.32487621
 30
0.0
 10
498.5225846287
 20
28.0647407999
 30
0.0
 10
498.8621477017
 20
28.0647407999
 30
0.0
 10
498.9780833019
 20
28.0647407999
 30
0.0
 10
499.0788399749
 20
28.086724074
 30
0.0
 10
499.1799892062
 20
28.1406354366
 30
0.0
 10
499.1799892062
 20
28.1406354366
 30
0.0
 10
499.1799892062
 20
28.4232775321
 30
0.0
 10
499.1799892062
 20
28.4232775321
 30
0.0
 10
499.0961125474
 20
28.3301103228
 30
0.0
 10
498.9926079652
 20
28.2709648473
 30
0.0
 10
498.8645030525
 20
28.2709648473
 30
0.0
 10
498.6307999124
 20
28.2709648473
 30
0.0
 10
498.4655327983
 20
28.443167161
 30
0.0
 10
498.4655327983
 20
28.6797490631
 30
0.0
 10
498.4655327983
 20
28.8917306347
 30
0.0
 10
498.6332861161
 20
29.0838225774
 30
0.0
 10
498.8501092421
 20
29.0838225774
 30
0.0
 10
498.9829248564
 20
29.0838225774
 30
0.0
 10
499.0915326986
 20
29.0299112147
 30
0.0
 10
499.1799892062
 20
28.9288928362
 30
0.0
 10
499.1799892062
 20
28.9288928362
 30
0.0
 10
499.1799892062
 20
29.2146753993
 30
0.0
 10
499.1799892062
 20
29.2146753993
 30
0.0
  0
SPLINE
  5
230
330
216
100
AcDbEntity
  8
0
  6
Continuous
 62
     7
100
AcDbSpline
 70
     3
 71
     3
 72
    32
 73
    28
 74
     0
 42
0.000000001
 43
0.0000001
 40
0.0
 40
0.0
 40
0.0
 40
0.0
 40
1.0
 40
1.0
 40
1.0
 40
2.0
 40
2.0
 40
2.0
 40
3.0
 40
3.0
 40
3.0
 40
4.0
 40
4.0
 40
4.0
 40
5.0
 40
5.0
 40
5.0
 40
6.0
 40
6.0
 40
6.0
 40
7.0
 40
7.0
 40
7.0
 40
8.0
 40
8.0
 40
8.0
 40
9.0
 40
9.0
 40
9.0
 40
9.0
 10
501.7118604585
 20
28.643110273
 30
0.0
 10
501.7118604585
 20
28.643110273
 30
0.0
 10
501.7118604585
 20
28.6771320067
 30
0.0
 10
501.7118604585
 20
28.6771320067
 30
0.0
 10
501.7118604585
 20
29.019442989
 30
0.0
 10
501.5390038807
 20
29.2910934474
 30
0.0
 10
501.1723542735
 20
29.2910934474
 30
0.0
 10
500.8007322591
 20
29.2910934474
 30
0.0
 10
500.6109956673
 20
29.0246771018
 30
0.0
 10
500.6109956673
 20
28.6698042487
 30
0.0
 10
500.6109956673
 20
28.3301103228
 30
0.0
 10
500.825070884
 20
28.0642173886
 30
0.0
 10
501.1771958279
 20
28.0642173886
 30
0.0
 10
501.4012158591
 20
28.0642173886
 30
0.0
 10
501.6033834691
 20
28.1798912832
 30
0.0
 10
501.7118604585
 20
28.3793109839
 30
0.0
 10
501.7118604585
 20
28.3793109839
 30
0.0
 10
501.5242175118
 20
28.4860868866
 30
0.0
 10
501.5242175118
 20
28.4860868866
 30
0.0
 10
501.4407334114
 20
28.3473828953
 30
0.0
 10
501.3495289945
 20
28.2615434441
 30
0.0
 10
501.1799437372
 20
28.2615434441
 30
0.0
 10
500.9679621656
 20
28.2615434441
 30
0.0
 10
500.8350156985
 20
28.4463076287
 30
0.0
 10
500.8326603477
 20
28.643110273
 30
0.0
 10
500.8326603477
 20
28.643110273
 30
0.0
 10
501.7118604585
 20
28.643110273
 30
0.0
 10
501.7118604585
 20
28.643110273
 30
0.0
  0
SPLINE
  5
231
330
216
100
AcDbEntity
  8
0
  6
Continuous
 62
     7
100
AcDbSpline
 70
     3
 71
     3
 72
    14
 73
    10
 74
     0
 42
0.000000001
 43
0.0000001
 40
0.0
 40
0.0
 40
0.0
 40
0.0
 40
1.0
 40
1.0
 40
1.0
 40
2.0
 40
2.0
 40
2.0
 40
3.0
 40
3.0
 40
3.0
 40
3.0
 10
500.8446988073
 20
28.8106018851
 30
0.0
 10
500.8723087527
 20
28.9754764408
 30
0.0
 10
501.0001519598
 20
29.0984780934
 30
0.0
 10
501.1723542735
 20
29.0984780934
 30
0.0
 10
501.3495289945
 20
29.0984780934
 30
0.0
 10
501.4629783911
 20
28.9828041988
 30
0.0
 10
501.4901957781
 20
28.8106018851
 30
0.0
 10
501.4901957781
 20
28.8106018851
 30
0.0
 10
500.8446988073
 20
28.8106018851
 30
0.0
 10
500.8446988073
 20
28.8106018851
 30
0.0
  0
SPLINE
  5
232
330
216
100
AcDbEntity
  8
0
  6
Continuous
 62
     7
100
AcDbSpline
 70
     3
 71
     3
 72
    20
 73
    16
 74
     0
 42
0.000000001
 43
0.0000001
 40
0.0
 40
0.0
 40
0.0
 40
0.0
 40
1.0
 40
1.0
 40
1.0
 40
2.0
 40
2.0
 40
2.0
 40
3.0
 40
3.0
 40
3.0
 40
4.0
 40
4.0
 40
4.0
 40
5.0
 40
5.0
 40
5.0
 40
5.0
 10
503.7358919087
 20
29.0199664002
 30
0.0
 10
503.7358919087
 20
29.0199664002
 30
0.0
 10
504.1470314753
 20
28.5174915639
 30
0.0
 10
504.1470314753
 20
28.5174915639
 30
0.0
 10
504.0309650222
 20
28.4018176693
 30
0.0
 10
503.8931770007
 20
28.2714882586
 30
0.0
 10
503.7212363926
 20
28.2714882586
 30
0.0
 10
503.543799966
 20
28.2714882586
 30
0.0
 10
503.3763083539
 20
28.435839403
 30
0.0
 10
503.3763083539
 20
28.6127524183
 30
0.0
 10
503.3763083539
 20
28.7907122562
 30
0.0
 10
503.5860654275
 20
28.9168543765
 30
0.0
 10
503.7136469289
 20
29.0047874729
 30
0.0
 10
503.7136469289
 20
29.0047874729
 30
0.0
 10
503.7358919087
 20
29.0199664002
 30
0.0
 10
503.7358919087
 20
29.0199664002
 30
0.0
  0
SPLINE
  5
233
330
216
100
AcDbEntity
  8
0
  6
Continuous
 62
     7
100
AcDbSpline
 70
     3
 71
     3
 72
    23
 73
    19
 74
     0
 42
0.000000001
 43
0.0000001
 40
0.0
 40
0.0
 40
0.0
 40
0.0
 40
1.0
 40
1.0
 40
1.0
 40
2.0
 40
2.0
 40
2.0
 40
3.0
 40
3.0
 40
3.0
 40
4.0
 40
4.0
 40
4.0
 40
5.0
 40
5.0
 40
5.0
 40
6.0
 40
6.0
 40
6.0
 40
6.0
 10
503.7852234226
 20
29.3109830763
 30
0.0
 10
503.7852234226
 20
29.3109830763
 30
0.0
 10
503.7235917434
 20
29.3894947695
 30
0.0
 10
503.7235917434
 20
29.3894947695
 30
0.0
 10
503.6696803808
 20
29.4580616482
 30
0.0
 10
503.612890256
 20
29.5271519382
 30
0.0
 10
503.612890256
 20
29.6208425587
 30
0.0
 10
503.612890256
 20
29.7396569211
 30
0.0
 10
503.7088053745
 20
29.8171217917
 30
0.0
 10
503.8197685676
 20
29.8171217917
 30
0.0
 10
503.9430319259
 20
29.8171217917
 30
0.0
 10
504.0363299879
 20
29.7459378565
 30
0.0
 10
504.0363299879
 20
29.6156084458
 30
0.0
 10
504.0363299879
 20
29.4805683336
 30
0.0
 10
503.9082250752
 20
29.4041502855
 30
0.0
 10
503.8146653075
 20
29.330349294
 30
0.0
 10
503.8146653075
 20
29.330349294
 30
0.0
 10
503.7852234226
 20
29.3109830763
 30
0.0
 10
503.7852234226
 20
29.3109830763
 30
0.0
  0
SPLINE
  5
234
330
216
100
AcDbEntity
  8
0
  6
Continuous
 62
     7
100
AcDbSpline
 70
     3
 71
     3
 72
    50
 73
    46
 74
     0
 42
0.000000001
 43
0.0000001
 40
0.0
 40
0.0
 40
0.0
 40
0.0
 40
1.0
 40
1.0
 40
1.0
 40
2.0
 40
2.0
 40
2.0
 40
3.0
 40
3.0
 40
3.0
 40
4.0
 40
4.0
 40
4.0
 40
5.0
 40
5.0
 40
5.0
 40
6.0
 40
6.0
 40
6.0
 40
7.0
 40
7.0
 40
7.0
 40
8.0
 40
8.0
 40
8.0
 40
9.0
 40
9.0
 40
9.0
 40
10.0
 40
10.0
 40
10.0
 40
11.0
 40
11.0
 40
11.0
 40
12.0
 40
12.0
 40
12.0
 40
13.0
 40
13.0
 40
13.0
 40
14.0
 40
14.0
 40
14.0
 40
15.0
 40
15.0
 40
15.0
 40
15.0
 10
504.4873796652
 20
28.1039966465
 30
0.0
 10
504.4873796652
 20
28.1039966465
 30
0.0
 10
504.77276967
 20
28.1039966465
 30
0.0
 10
504.77276967
 20
28.1039966465
 30
0.0
 10
504.77276967
 20
28.1039966465
 30
0.0
 10
504.4404035022
 20
28.5148745075
 30
0.0
 10
504.4404035022
 20
28.5148745075
 30
0.0
 10
504.4404035022
 20
28.5148745075
 30
0.0
 10
504.666909737
 20
28.7807674417
 30
0.0
 10
504.666909737
 20
28.7807674417
 30
0.0
 10
504.666909737
 20
28.7807674417
 30
0.0
 10
504.5186534897
 20
28.9336035378
 30
0.0
 10
504.5186534897
 20
28.9336035378
 30
0.0
 10
504.5186534897
 20
28.9336035378
 30
0.0
 10
504.3027463334
 20
28.6823661196
 30
0.0
 10
504.3027463334
 20
28.6823661196
 30
0.0
 10
504.3027463334
 20
28.6823661196
 30
0.0
 10
503.9156836861
 20
29.1502958109
 30
0.0
 10
503.9156836861
 20
29.1502958109
 30
0.0
 10
504.0711368386
 20
29.2643994717
 30
0.0
 10
504.2534148196
 20
29.4041502855
 30
0.0
 10
504.2534148196
 20
29.6135148007
 30
0.0
 10
504.2534148196
 20
29.8574244608
 30
0.0
 10
504.0513780624
 20
30.0008391537
 30
0.0
 10
503.8248718276
 20
30.0008391537
 30
0.0
 10
503.5807004618
 20
30.0008391537
 30
0.0
 10
503.3963288357
 20
29.8500967028
 30
0.0
 10
503.3963288357
 20
29.5936251718
 30
0.0
 10
503.3963288357
 20
29.4360783741
 30
0.0
 10
503.4949918634
 20
29.2984212054
 30
0.0
 10
503.6003283851
 20
29.1874580124
 30
0.0
 10
503.6003283851
 20
29.1874580124
 30
0.0
 10
503.4847853433
 20
29.1037122063
 30
0.0
 10
503.4847853433
 20
29.1037122063
 30
0.0
 10
503.3070872111
 20
28.9754764408
 30
0.0
 10
503.1597469336
 20
28.8477640865
 30
0.0
 10
503.1597469336
 20
28.6106587731
 30
0.0
 10
503.1597469336
 20
28.290331065
 30
0.0
 10
503.4183121098
 20
28.0642173886
 30
0.0
 10
503.7286950035
 20
28.0642173886
 30
0.0
 10
503.9476117746
 20
28.0642173886
 30
0.0
 10
504.1448069773
 20
28.1893126864
 30
0.0
 10
504.2850812025
 20
28.3552340647
 30
0.0
 10
504.2850812025
 20
28.3552340647
 30
0.0
 10
504.4873796652
 20
28.1039966465
 30
0.0
 10
504.4873796652
 20
28.1039966465
 30
0.0
  0
LWPOLYLINE
  5
235
330
216
100
AcDbEntity
  8
0
  6
Continuous
 62
     7
100
AcDbPolyline
 90
        2
 70
     0
 43
0.2
 10
506.422824
 20
29.960536
 10
506.191476
 20
29.960536
  0
LWPOLYLINE
  5
236
330
216
100
AcDbEntity
  8
0
  6
Continuous
 62
     7
100
AcDbPolyline
 90
        2
 70
     0
 43
0.2
 10
506.191476
 20
29.960536
 10
506.191476
 20
28.103473
  0
LWPOLYLINE
  5
237
330
216
100
AcDbEntity
  8
0
  6
Continuous
 62
     7
100
AcDbPolyline
 90
        2
 70
     0
 43
0.2
 10
506.191476
 20
28.103473
 10
506.986799
 20
28.103473
  0
LWPOLYLINE
  5
238
330
216
100
AcDbEntity
  8
0
  6
Continuous
 62
     7
100
AcDbPolyline
 90
        2
 70
     0
 43
0.2
 10
506.986799
 20
28.103473
 10
506.986799
 20
28.315455
  0
LWPOLYLINE
  5
239
330
216
100
AcDbEntity
  8
0
  6
Continuous
 62
     7
100
AcDbPolyline
 90
        2
 70
     0
 43
0.2
 10
506.986799
 20
28.315455
 10
506.422824
 20
28.315455
  0
LWPOLYLINE
  5
23A
330
216
100
AcDbEntity
  8
0
  6
Continuous
 62
     7
100
AcDbPolyline
 90
        2
 70
     0
 43
0.2
 10
506.422824
 20
28.315455
 10
506.422824
 20
29.960536
  0
LWPOLYLINE
  5
23B
330
216
100
AcDbEntity
  8
0
  6
Continuous
 62
     7
100
AcDbPolyline
 90
        2
 70
     0
 43
0.2
 10
508.665903
 20
29.256025
 10
508.444762
 20
29.256025
  0
LWPOLYLINE
  5
23C
330
216
100
AcDbEntity
  8
0
  6
Continuous
 62
     7
100
AcDbPolyline
 90
        2
 70
     0
 43
0.2
 10
508.444762
 20
29.256025
 10
508.444762
 20
28.103997
  0
LWPOLYLINE
  5
23D
330
216
100
AcDbEntity
  8
0
  6
Continuous
 62
     7
100
AcDbPolyline
 90
        2
 70
     0
 43
0.2
 10
508.444762
 20
28.103997
 10
508.665903
 20
28.103997
  0
LWPOLYLINE
  5
23E
330
216
100
AcDbEntity
  8
0
  6
Continuous
 62
     7
100
AcDbPolyline
 90
        2
 70
     0
 43
0.2
 10
508.665903
 20
28.103997
 10
508.665903
 20
29.256025
  0
LWPOLYLINE
  5
23F
330
216
100
AcDbEntity
  8
0
  6
Continuous
 62
     7
100
AcDbPolyline
 90
        2
 70
     1
 43
0.2
 10
508.40288
 20
29.785979
 42
1.0
 10
508.708047
 20
29.785979
 42
1.0
  0
SPLINE
  5
240
330
216
100
AcDbEntity
  8
0
  6
Continuous
 62
     7
100
AcDbSpline
 70
     3
 71
     3
 72
    17
 73
    13
 74
     0
 42
0.000000001
 43
0.0000001
 40
0.0
 40
0.0
 40
0.0
 40
0.0
 40
1.0
 40
1.0
 40
1.0
 40
2.0
 40
2.0
 40
2.0
 40
3.0
 40
3.0
 40
3.0
 40
4.0
 40
4.0
 40
4.0
 40
4.0
 10
510.7961867708
 20
28.2615434441
 30
0.0
 10
510.5622219251
 20
28.2615434441
 30
0.0
 10
510.4318925144
 20
28.4635802012
 30
0.0
 10
510.4318925144
 20
28.6797490631
 30
0.0
 10
510.4318925144
 20
28.8943476912
 30
0.0
 10
510.5677177436
 20
29.0932439806
 30
0.0
 10
510.7961867708
 20
29.0932439806
 30
0.0
 10
511.035647435
 20
29.0932439806
 30
0.0
 10
511.1712109585
 20
28.9042925056
 30
0.0
 10
511.1712109585
 20
28.6797490631
 30
0.0
 10
511.1712109585
 20
28.4536353868
 30
0.0
 10
511.0380027858
 20
28.2615434441
 30
0.0
 10
510.7961867708
 20
28.2615434441
 30
0.0
  0
SPLINE
  5
241
330
216
100
AcDbEntity
  8
0
  6
Continuous
 62
     7
100
AcDbSpline
 70
     3
 71
     3
 72
    50
 73
    46
 74
     0
 42
0.000000001
 43
0.0000001
 40
0.0
 40
0.0
 40
0.0
 40
0.0
 40
1.0
 40
1.0
 40
1.0
 40
2.0
 40
2.0
 40
2.0
 40
3.0
 40
3.0
 40
3.0
 40
4.0
 40
4.0
 40
4.0
 40
5.0
 40
5.0
 40
5.0
 40
6.0
 40
6.0
 40
6.0
 40
7.0
 40
7.0
 40
7.0
 40
8.0
 40
8.0
 40
8.0
 40
9.0
 40
9.0
 40
9.0
 40
10.0
 40
10.0
 40
10.0
 40
11.0
 40
11.0
 40
11.0
 40
12.0
 40
12.0
 40
12.0
 40
13.0
 40
13.0
 40
13.0
 40
14.0
 40
14.0
 40
14.0
 40
15.0
 40
15.0
 40
15.0
 40
15.0
 10
511.380313768
 20
29.2565483024
 30
0.0
 10
511.380313768
 20
29.2565483024
 30
0.0
 10
511.1586490876
 20
29.2565483024
 30
0.0
 10
511.1586490876
 20
29.2565483024
 30
0.0
 10
511.1586490876
 20
29.2565483024
 30
0.0
 10
511.1586490876
 20
29.0592222468
 30
0.0
 10
511.1586490876
 20
29.0592222468
 30
0.0
 10
511.1586490876
 20
29.0592222468
 30
0.0
 10
511.153938386
 20
29.0592222468
 30
0.0
 10
511.153938386
 20
29.0592222468
 30
0.0
 10
511.0626031163
 20
29.2021135284
 30
0.0
 10
510.9246842419
 20
29.2905700361
 30
0.0
 10
510.7519585169
 20
29.2905700361
 30
0.0
 10
510.4195923491
 20
29.2905700361
 30
0.0
 10
510.2104895396
 20
29.0026938278
 30
0.0
 10
510.2104895396
 20
28.6870768212
 30
0.0
 10
510.2104895396
 20
28.3573277098
 30
0.0
 10
510.4075538895
 20
28.0642173886
 30
0.0
 10
510.7624267427
 20
28.0642173886
 30
0.0
 10
510.9246842419
 20
28.0642173886
 30
0.0
 10
511.0646967614
 20
28.1526738962
 30
0.0
 10
511.153938386
 20
28.2835267182
 30
0.0
 10
511.153938386
 20
28.2835267182
 30
0.0
 10
511.1586490876
 20
28.2835267182
 30
0.0
 10
511.1586490876
 20
28.2835267182
 30
0.0
 10
511.1586490876
 20
28.2835267182
 30
0.0
 10
511.1586490876
 20
28.0642173886
 30
0.0
 10
511.1586490876
 20
28.0642173886
 30
0.0
 10
511.1586490876
 20
27.8276354865
 30
0.0
 10
511.1021206685
 20
27.6407776567
 30
0.0
 10
510.8288999763
 20
27.6407776567
 30
0.0
 10
510.6266015135
 20
27.6407776567
 30
0.0
 10
510.4839719375
 20
27.7590686078
 30
0.0
 10
510.4839719375
 20
27.9652926552
 30
0.0
 10
510.4839719375
 20
27.9652926552
 30
0.0
 10
510.2623072571
 20
27.9652926552
 30
0.0
 10
510.2623072571
 20
27.9652926552
 30
0.0
 10
510.2672796644
 20
27.6407776567
 30
0.0
 10
510.498365748
 20
27.4439750125
 30
0.0
 10
510.8186934561
 20
27.4439750125
 30
0.0
 10
511.2667335186
 20
27.4439750125
 30
0.0
 10
511.380313768
 20
27.7292341644
 30
0.0
 10
511.380313768
 20
28.1259799206
 30
0.0
 10
511.380313768
 20
28.1259799206
 30
0.0
 10
511.380313768
 20
29.2565483024
 30
0.0
 10
511.380313768
 20
29.2565483024
 30
0.0
  0
SPLINE
  5
242
330
216
100
AcDbEntity
  8
0
  6
Continuous
 62
     7
100
AcDbSpline
 70
     3
 71
     3
 72
    44
 73
    40
 74
     0
 42
0.000000001
 43
0.0000001
 40
0.0
 40
0.0
 40
0.0
 40
0.0
 40
1.0
 40
1.0
 40
1.0
 40
2.0
 40
2.0
 40
2.0
 40
3.0
 40
3.0
 40
3.0
 40
4.0
 40
4.0
 40
4.0
 40
5.0
 40
5.0
 40
5.0
 40
6.0
 40
6.0
 40
6.0
 40
7.0
 40
7.0
 40
7.0
 40
8.0
 40
8.0
 40
8.0
 40
9.0
 40
9.0
 40
9.0
 40
10.0
 40
10.0
 40
10.0
 40
11.0
 40
11.0
 40
11.0
 40
12.0
 40
12.0
 40
12.0
 40
13.0
 40
13.0
 40
13.0
 40
13.0
 10
512.9492391034
 20
30.2416083461
 30
0.0
 10
512.9492391034
 20
30.2416083461
 30
0.0
 10
512.9492391034
 20
28.1034732352
 30
0.0
 10
512.9492391034
 20
28.1034732352
 30
0.0
 10
512.9492391034
 20
28.1034732352
 30
0.0
 10
513.1706420782
 20
28.1034732352
 30
0.0
 10
513.1706420782
 20
28.1034732352
 30
0.0
 10
513.1706420782
 20
28.1034732352
 30
0.0
 10
513.1706420782
 20
28.6331654585
 30
0.0
 10
513.1706420782
 20
28.6331654585
 30
0.0
 10
513.1706420782
 20
28.8430533849
 30
0.0
 10
513.1706420782
 20
29.0937673918
 30
0.0
 10
513.4559012301
 20
29.0937673918
 30
0.0
 10
513.6828000234
 20
29.0937673918
 30
0.0
 10
513.7097557047
 20
28.9608209247
 30
0.0
 10
513.7097557047
 20
28.7645416918
 30
0.0
 10
513.7097557047
 20
28.7645416918
 30
0.0
 10
513.7097557047
 20
28.1034732352
 30
0.0
 10
513.7097557047
 20
28.1034732352
 30
0.0
 10
513.7097557047
 20
28.1034732352
 30
0.0
 10
513.9316820907
 20
28.1034732352
 30
0.0
 10
513.9316820907
 20
28.1034732352
 30
0.0
 10
513.9316820907
 20
28.1034732352
 30
0.0
 10
513.9316820907
 20
28.7907122562
 30
0.0
 10
513.9316820907
 20
28.7907122562
 30
0.0
 10
513.9316820907
 20
29.0712607065
 30
0.0
 10
513.847674579
 20
29.2910934474
 30
0.0
 10
513.5226361693
 20
29.2910934474
 30
0.0
 10
513.3828853554
 20
29.2910934474
 30
0.0
 10
513.2447047754
 20
29.2246202138
 30
0.0
 10
513.1753527798
 20
29.1016185612
 30
0.0
 10
513.1753527798
 20
29.1016185612
 30
0.0
 10
513.1706420782
 20
29.1016185612
 30
0.0
 10
513.1706420782
 20
29.1016185612
 30
0.0
 10
513.1706420782
 20
29.1016185612
 30
0.0
 10
513.1706420782
 20
30.2416083461
 30
0.0
 10
513.1706420782
 20
30.2416083461
 30
0.0
 10
513.1706420782
 20
30.2416083461
 30
0.0
 10
512.9492391034
 20
30.2416083461
 30
0.0
 10
512.9492391034
 20
30.2416083461
 30
0.0
  0
LWPOLYLINE
  5
243
330
216
100
AcDbEntity
  8
0
  6
Continuous
 62
     7
100
AcDbPolyline
 90
        2
 70
     0
 43
0.2
 10
515.771473
 20
29.049277
 10
515.987903
 20
29.049277
  0
LWPOLYLINE
  5
244
330
216
100
AcDbEntity
  8
0
  6
Continuous
 62
     7
100
AcDbPolyline
 90
        2
 70
     0
 43
0.2
 10
515.987903
 20
29.049277
 10
515.987903
 20
29.256025
  0
LWPOLYLINE
  5
245
330
216
100
AcDbEntity
  8
0
  6
Continuous
 62
     7
100
AcDbPolyline
 90
        2
 70
     0
 43
0.2
 10
515.987903
 20
29.256025
 10
515.771473
 20
29.256025
  0
LWPOLYLINE
  5
246
330
216
100
AcDbEntity
  8
0
  6
Continuous
 62
     7
100
AcDbPolyline
 90
        2
 70
     0
 43
0.2
 10
515.771473
 20
29.256025
 10
515.771473
 20
29.696737
  0
LWPOLYLINE
  5
247
330
216
100
AcDbEntity
  8
0
  6
Continuous
 62
     7
100
AcDbPolyline
 90
        2
 70
     0
 43
0.2
 10
515.771473
 20
29.696737
 10
515.549808
 20
29.696737
  0
LWPOLYLINE
  5
248
330
216
100
AcDbEntity
  8
0
  6
Continuous
 62
     7
100
AcDbPolyline
 90
        2
 70
     0
 43
0.2
 10
515.549808
 20
29.696737
 10
515.549808
 20
29.256025
  0
LWPOLYLINE
  5
249
330
216
100
AcDbEntity
  8
0
  6
Continuous
 62
     7
100
AcDbPolyline
 90
        2
 70
     0
 43
0.2
 10
515.549808
 20
29.256025
 10
515.429162
 20
29.256025
  0
LWPOLYLINE
  5
24A
330
216
100
AcDbEntity
  8
0
  6
Continuous
 62
     7
100
AcDbPolyline
 90
        2
 70
     0
 43
0.2
 10
515.429162
 20
29.256025
 10
515.429162
 20
29.049277
  0
LWPOLYLINE
  5
24B
330
216
100
AcDbEntity
  8
0
  6
Continuous
 62
     7
100
AcDbPolyline
 90
        2
 70
     0
 43
0.2
 10
515.429162
 20
29.049277
 10
515.549808
 20
29.049277
  0
LWPOLYLINE
  5
24C
330
216
100
AcDbEntity
  8
0
  6
Continuous
 62
     7
100
AcDbPolyline
 90
        2
 70
     0
 43
0.2
 10
515.549808
 20
29.049277
 10
515.549808
 20
28.103473
  0
LWPOLYLINE
  5
24D
330
216
100
AcDbEntity
  8
0
  6
Continuous
 62
     7
100
AcDbPolyline
 90
        2
 70
     0
 43
0.2
 10
515.549808
 20
28.103473
 10
515.771473
 20
28.103473
  0
LWPOLYLINE
  5
24E
330
216
100
AcDbEntity
  8
0
  6
Continuous
 62
     7
100
AcDbPolyline
 90
        2
 70
     0
 43
0.2
 10
515.771473
 20
28.103473
 10
515.771473
 20
29.049277
  0
SPLINE
  5
24F
330
216
100
AcDbEntity
  8
0
  6
Continuous
 62
     7
100
AcDbSpline
 70
     3
 71
     3
 72
    20
 73
    16
 74
     0
 42
0.000000001
 43
0.0000001
 40
0.0
 40
0.0
 40
0.0
 40
0.0
 40
1.0
 40
1.0
 40
1.0
 40
2.0
 40
2.0
 40
2.0
 40
3.0
 40
3.0
 40
3.0
 40
4.0
 40
4.0
 40
4.0
 40
5.0
 40
5.0
 40
5.0
 40
5.0
 10
503.5534830749
 20
38.4643996786
 30
0.0
 10
503.5534830749
 20
38.4643996786
 30
0.0
 10
505.8698397293
 20
35.6348382564
 30
0.0
 10
505.8698397293
 20
35.6348382564
 30
0.0
 10
505.2181926759
 20
34.9826677917
 30
0.0
 10
504.4413194719
 20
34.2467515209
 30
0.0
 10
503.4701298273
 20
34.2467515209
 30
0.0
 10
502.4715919428
 20
34.2467515209
 30
0.0
 10
501.5282739493
 20
35.1763299682
 30
0.0
 10
501.5282739493
 20
36.1755221167
 30
0.0
 10
501.5282739493
 20
37.1747142653
 30
0.0
 10
502.7071270224
 20
37.8813195039
 30
0.0
 10
503.4286494827
 20
38.3811772838
 30
0.0
 10
503.4286494827
 20
38.3811772838
 30
0.0
 10
503.5534830749
 20
38.4643996786
 30
0.0
 10
503.5534830749
 20
38.4643996786
 30
0.0
  0
SPLINE
  5
250
330
216
100
AcDbEntity
  8
0
  6
Continuous
 62
     7
100
AcDbSpline
 70
     3
 71
     3
 72
    23
 73
    19
 74
     0
 42
0.000000001
 43
0.0000001
 40
0.0
 40
0.0
 40
0.0
 40
0.0
 40
1.0
 40
1.0
 40
1.0
 40
2.0
 40
2.0
 40
2.0
 40
3.0
 40
3.0
 40
3.0
 40
4.0
 40
4.0
 40
4.0
 40
5.0
 40
5.0
 40
5.0
 40
6.0
 40
6.0
 40
6.0
 40
6.0
 10
503.8308910574
 20
40.1021535983
 30
0.0
 10
503.8308910574
 20
40.1021535983
 30
0.0
 10
503.4843927849
 20
40.5454829591
 30
0.0
 10
503.4843927849
 20
40.5454829591
 30
0.0
 10
503.1785897399
 20
40.9335924291
 30
0.0
 10
502.8597014128
 20
41.3220944575
 30
0.0
 10
502.8597014128
 20
41.8490387716
 30
0.0
 10
502.8597014128
 20
42.5152104882
 30
0.0
 10
503.4010395373
 20
42.9589324075
 30
0.0
 10
504.0249457924
 20
42.9589324075
 30
0.0
 10
504.7187274545
 20
42.9589324075
 30
0.0
 10
505.2459334742
 20
42.5566908328
 30
0.0
 10
505.2459334742
 20
41.8216905318
 30
0.0
 10
505.2459334742
 20
41.0584260213
 30
0.0
 10
504.5246727195
 20
40.6283127955
 30
0.0
 10
503.9975975526
 20
40.2125933801
 30
0.0
 10
503.9975975526
 20
40.2125933801
 30
0.0
 10
503.8308910574
 20
40.1021535983
 30
0.0
 10
503.8308910574
 20
40.1021535983
 30
0.0
  0
SPLINE
  5
251
330
216
100
AcDbEntity
  8
0
  6
Continuous
 62
     7
100
AcDbSpline
 70
     3
 71
     3
 72
    50
 73
    46
 74
     0
 42
0.000000001
 43
0.0000001
 40
0.0
 40
0.0
 40
0.0
 40
0.0
 40
1.0
 40
1.0
 40
1.0
 40
2.0
 40
2.0
 40
2.0
 40
3.0
 40
3.0
 40
3.0
 40
4.0
 40
4.0
 40
4.0
 40
5.0
 40
5.0
 40
5.0
 40
6.0
 40
6.0
 40
6.0
 40
7.0
 40
7.0
 40
7.0
 40
8.0
 40
8.0
 40
8.0
 40
9.0
 40
9.0
 40
9.0
 40
10.0
 40
10.0
 40
10.0
 40
11.0
 40
11.0
 40
11.0
 40
12.0
 40
12.0
 40
12.0
 40
13.0
 40
13.0
 40
13.0
 40
14.0
 40
14.0
 40
14.0
 40
15.0
 40
15.0
 40
15.0
 40
15.0
 10
507.7844782204
 20
33.3035643802
 30
0.0
 10
507.7844782204
 20
33.3035643802
 30
0.0
 10
509.3937062249
 20
33.3035643802
 30
0.0
 10
509.3937062249
 20
33.3035643802
 30
0.0
 10
509.3937062249
 20
33.3035643802
 30
0.0
 10
507.5206789313
 20
35.6207061516
 30
0.0
 10
507.5206789313
 20
35.6207061516
 30
0.0
 10
507.5206789313
 20
35.6207061516
 30
0.0
 10
508.7970173567
 20
37.1181858462
 30
0.0
 10
508.7970173567
 20
37.1181858462
 30
0.0
 10
508.7970173567
 20
37.1181858462
 30
0.0
 10
507.964793409
 20
37.9791974147
 30
0.0
 10
507.964793409
 20
37.9791974147
 30
0.0
 10
507.964793409
 20
37.9791974147
 30
0.0
 10
506.7441982857
 20
36.5638932923
 30
0.0
 10
506.7441982857
 20
36.5638932923
 30
0.0
 10
506.7441982857
 20
36.5638932923
 30
0.0
 10
504.5662839169
 20
39.1992691267
 30
0.0
 10
504.5662839169
 20
39.1992691267
 30
0.0
 10
505.4398573563
 20
39.8373074867
 30
0.0
 10
506.4665285975
 20
40.6283127955
 30
0.0
 10
506.4665285975
 20
41.8071658686
 30
0.0
 10
506.4665285975
 20
43.1808587936
 30
0.0
 10
505.3286324577
 20
43.985341943
 30
0.0
 10
504.0533408548
 20
43.985341943
 30
0.0
 10
502.6799096354
 20
43.985341943
 30
0.0
 10
501.6389754367
 20
43.1391167434
 30
0.0
 10
501.6389754367
 20
41.6964643812
 30
0.0
 10
501.6389754367
 20
40.8088896898
 30
0.0
 10
502.1943148131
 20
40.0320164857
 30
0.0
 10
502.79048027
 20
39.4075868193
 30
0.0
 10
502.79048027
 20
39.4075868193
 30
0.0
 10
502.1385715109
 20
38.9359932489
 30
0.0
 10
502.1385715109
 20
38.9359932489
 30
0.0
 10
501.1400336265
 20
38.2147324943
 30
0.0
 10
500.3071554147
 20
37.4934717396
 30
0.0
 10
500.3071554147
 20
36.1619134232
 30
0.0
 10
500.3071554147
 20
34.3582381252
 30
0.0
 10
501.7642015873
 20
33.0816379941
 30
0.0
 10
503.5117410247
 20
33.0816379941
 30
0.0
 10
504.7465991056
 20
33.0816379941
 30
0.0
 10
505.8559693302
 20
33.7898134666
 30
0.0
 10
506.6468437862
 20
34.7183450913
 30
0.0
 10
506.6468437862
 20
34.7183450913
 30
0.0
 10
507.7844782204
 20
33.3035643802
 30
0.0
 10
507.7844782204
 20
33.3035643802
 30
0.0
  0
LINE
  5
252
330
216
100
AcDbEntity
  8
0
  6
Continuous
 62
     7
100
AcDbLine
 10
493.58734
 20
31.277439
 30
0.0
 11
516.00125
 21
31.277439
 31
0.0
  0
LINE
  5
253
330
216
100
AcDbEntity
  8
0
  6
Continuous
 62
     7
100
AcDbLine
 10
516.00125
 20
31.277439
 30
0.0
 11
516.00125
 21
53.69135
 31
0.0
  0
LINE
  5
254
330
216
100
AcDbEntity
  8
0
  6
Continuous
 62
     7
100
AcDbLine
 10
516.00125
 20
53.69135
 30
0.0
 11
493.58734
 21
53.69135
 31
0.0
  0
LINE
  5
255
330
216
100
AcDbEntity
  8
0
  6
Continuous
 62
     7
100
AcDbLine
 10
493.58734
 20
53.69135
 30
0.0
 11
493.58734
 21
31.277439
 31
0.0
  0
ENDBLK
  5
256
330
216
100
AcDbEntity
  8
0
  6
ByBlock
 62
     0
100
AcDbBlockEnd
  0
BLOCK
  5
26F
330
217
100
AcDbEntity
  8
0
100
AcDbBlockBegin
  2
*T4
 70
     1
 10
0.0
 20
0.0
 30
0.0
  3
*T4
  1
*T4
  0
LINE
  5
270
330
217
100
AcDbEntity
  8
0
  6
Continuous
 62
     2
100
AcDbLine
 10
0.0
 20
0.0
 30
0.0
 11
90.0
 21
0.0
 31
0.0
  0
LINE
  5
271
330
217
100
AcDbEntity
  8
0
  6
Continuous
 62
     2
100
AcDbLine
 10
0.0
 20
0.0
 30
0.0
 11
0.0
 21
-40.0
 31
0.0
  0
LINE
  5
272
330
217
100
AcDbEntity
  8
0
  6
Continuous
 62
     2
100
AcDbLine
 10
30.0
 20
-6.0
 30
0.0
 11
90.0
 21
-6.0
 31
0.0
  0
LINE
  5
273
330
217
100
AcDbEntity
  8
0
  6
Continuous
 62
     2
100
AcDbLine
 10
30.0
 20
-12.0
 30
0.0
 11
90.0
 21
-12.0
 31
0.0
  0
LINE
  5
274
330
217
100
AcDbEntity
  8
0
  6
Continuous
 62
     2
100
AcDbLine
 10
30.0
 20
-22.0
 30
0.0
 11
90.0
 21
-22.0
 31
0.0
  0
LINE
  5
275
330
217
100
AcDbEntity
  8
0
  6
Continuous
 62
     2
100
AcDbLine
 10
0.0
 20
-27.0
 30
0.0
 11
90.0
 21
-27.0
 31
0.0
  0
LINE
  5
276
330
217
100
AcDbEntity
  8
0
  6
Continuous
 62
     2
100
AcDbLine
 10
0.0
 20
-40.0
 30
0.0
 11
90.0
 21
-40.0
 31
0.0
  0
LINE
  5
277
330
217
100
AcDbEntity
  8
0
  6
Continuous
 62
     2
100
AcDbLine
 10
30.0
 20
0.0
 30
0.0
 11
30.0
 21
-27.0
 31
0.0
  0
LINE
  5
278
330
217
100
AcDbEntity
  8
0
  6
Continuous
 62
     2
100
AcDbLine
 10
70.0
 20
0.0
 30
0.0
 11
70.0
 21
-12.0
 31
0.0
  0
LINE
  5
279
330
217
100
AcDbEntity
  8
0
  6
Continuous
 62
     2
100
AcDbLine
 10
90.0
 20
0.0
 30
0.0
 11
90.0
 21
-40.0
 31
0.0
  0
MTEXT
  5
27A
330
217
100
AcDbEntity
  8
9_SOLID
  6
Continuous
 62
     2
100
AcDbMText
 10
31.4875
 20
-1.5
 30
0.0
 40
3.0
 41
29.0
 46
0.0
 71
     1
 72
     1
  1
240656
  7
TEXTSTYLE_3
 73
     1
 44
0.9
  0
MTEXT
  5
27B
330
217
100
AcDbEntity
  8
9_SOLID
  6
Continuous
 62
     2
100
AcDbMText
 10
71.4875
 20
-1.75
 30
0.0
 40
3.5
 41
30.333333
 46
0.0
 71
     1
 72
     1
  1
Rev:00
  7
TEXTSTYLE_3
 73
     1
 44
0.9
  0
MTEXT
  5
27C
330
217
100
AcDbEntity
  8
9_SOLID
  6
Continuous
 62
     2
100
AcDbMText
 10
31.4875
 20
-7.75
 30
0.0
 40
3.5
 41
37.833333
 46
0.0
 71
     1
 72
     1
  1
Scale:1:1
  7
TEXTSTYLE_3
 73
     1
 44
0.9
  0
MTEXT
  5
27D
330
217
100
AcDbEntity
  8
9_SOLID
  6
Continuous
 62
     2
100
AcDbMText
 10
71.4875
 20
-7.25
 30
0.0
 40
3.5
 41
11.333333
 46
0.0
 71
     1
 72
     1
  1
A1
  7
TEXTSTYLE_3
 73
     1
 44
0.9
  0
MTEXT
  5
27E
330
217
100
AcDbEntity
  8
9_SOLID
  6
Continuous
 62
     2
100
AcDbMText
 10
31.4875
 20
-15.75
 30
0.0
 40
2.5
 41
114.404762
 46
0.0
 71
     1
 72
     1
  1
KIT ANTIVENTO ALTOPIANO S L4m
  7
TEXTSTYLE_3
 73
     1
 44
0.9
  0
MTEXT
  5
27F
330
217
100
AcDbEntity
  8
9_SOLID
  6
Continuous
 62
     2
100
AcDbMText
 10
31.4875
 20
-23.25
 30
0.0
 40
2.5
 41
48.333333
 46
0.0
 71
     1
 72
     1
  1
DATE:03.06.24
  7
TEXTSTYLE_3
 73
     1
 44
0.9
  0
MTEXT
  5
280
330
217
100
AcDbEntity
  8
9_SOLID
  6
Continuous
 62
     2
100
AcDbMText
 10
1.4875
 20
-27.3125
 30
0.0
 40
2.25
 41
179.464286
 46
0.0
 71
     1
 72
     1
  1
Any integral or partial reproductions are prohibited \Pwithout prior authorisation of L {\Ftxt.shx;\W0.190476;\H2.250000; }& L Luce & Light s.r.l., \Pin accordance with the law in force. \PAll rights reserved.
  7
TEXTSTYLE_3
 73
     1
 44
0.9
  0
ENDBLK
  5
281
330
217
100
AcDbEntity
  8
0
  6
ByBlock
 62
     0
100
AcDbBlockEnd
  0
ENDSEC
  0
SECTION
  2
ENTITIES
  0
LINE
  5
282
330
212
100
AcDbEntity
 67
     1
  8
0
  6
Continuous
 62
     7
100
AcDbLine
 10
0.0
 20
0.0
 30
0.0
 11
594.0
 21
0.0
 31
0.0
  0
LINE
  5
283
330
212
100
AcDbEntity
 67
     1
  8
0
  6
Continuous
 62
     7
100
AcDbLine
 10
594.0
 20
0.0
 30
0.0
 11
594.0
 21
841.0
 31
0.0
  0
LINE
  5
284
330
212
100
AcDbEntity
 67
     1
  8
0
  6
Continuous
 62
     7
100
AcDbLine
 10
0.0
 20
841.0
 30
0.0
 11
594.0
 21
841.0
 31
0.0
  0
LINE
  5
285
330
212
100
AcDbEntity
 67
     1
  8
0
  6
Continuous
 62
     7
100
AcDbLine
 10
0.0
 20
0.0
 30
0.0
 11
0.0
 21
841.0
 31
0.0
  0
VIEWPORT
  5
286
330
212
100
AcDbEntity
 67
     1
  8
0
100
AcDbViewport
 10
0.0
 20
0.0
 30
0.0
 40
1932.214876
 41
841.0
 68
     1
 69
     1
 12
297.0
 22
420.5
 13
0.0
 23
0.0
 14
10.0
 24
10.0
 15
10.0
 25
10.0
 16
0.0
 26
0.0
 36
1.0
 17
0.0
 27
0.0
 37
0.0
 42
50.0
 43
0.0
 44
0.0
 45
841.0
 50
0.0
 51
0.0
 72
   100
 90
    32880
  1

281
     0
 71
     1
 74
     0
110
0.0
120
0.0
130
0.0
111
1.0
121
0.0
131
0.0
112
0.0
122
1.0
132
0.0
 79
     0
146
0.0
170
     0
 61
     5
292
     1
282
     1
141
0.0
142
0.0
 63
   256
361
467
  0
LINE
  5
287
330
212
100
AcDbEntity
 67
     1
  8
3_ALL_AXES
  6
Continuous
 62
     7
100
AcDbLine
 10
136.749788
 20
792.133159
 30
0.0
 11
137.499571
 21
792.133159
 31
0.0
  0
LINE
  5
288
330
212
100
AcDbEntity
 67
     1
  8
3_ALL_AXES
  6
Continuous
 62
     7
100
AcDbLine
 10
137.499571
 20
792.133159
 30
0.0
 11
138.249788
 21
792.133159
 31
0.0
  0
LINE
  5
289
330
212
100
AcDbEntity
 67
     1
  8
3_ALL_AXES
  6
Continuous
 62
     7
100
AcDbLine
 10
136.749788
 20
792.133159
 30
0.0
 11
136.000005
 21
792.133159
 31
0.0
  0
LINE
  5
28A
330
212
100
AcDbEntity
 67
     1
  8
3_ALL_AXES
  6
Continuous
 62
     7
100
AcDbLine
 10
136.000005
 20
792.133159
 30
0.0
 11
135.249788
 21
792.133159
 31
0.0
  0
LINE
  5
28B
330
212
100
AcDbEntity
 67
     1
  8
3_ALL_AXES
  6
Continuous
 62
     7
100
AcDbLine
 10
136.749788
 20
801.481628
 30
0.0
 11
130.749788
 21
801.481628
 31
0.0
  0
LINE
  5
28C
330
212
100
AcDbEntity
 67
     1
  8
3_ALL_AXES
  6
Continuous
 62
     7
100
AcDbLine
 10
130.749788
 20
801.481628
 30
0.0
 11
130.249788
 21
801.481628
 31
0.0
  0
LINE
  5
28D
330
212
100
AcDbEntity
 67
     1
  8
3_ALL_AXES
  6
Continuous
 62
     7
100
AcDbLine
 10
130.249788
 20
801.481628
 30
0.0
 11
128.790508
 21
801.481628
 31
0.0
  0
LINE
  5
28E
330
212
100
AcDbEntity
 67
     1
  8
3_ALL_AXES
  6
Continuous
 62
     7
100
AcDbLine
 10
128.790508
 20
801.481628
 30
0.0
 11
128.749788
 21
801.481628
 31
0.0
  0
LINE
  5
28F
330
212
100
AcDbEntity
 67
     1
  8
3_ALL_AXES
  6
Continuous
 62
     7
100
AcDbLine
 10
128.749788
 20
801.481628
 30
0.0
 11
127.999788
 21
801.481628
 31
0.0
  0
LINE
  5
290
330
212
100
AcDbEntity
 67
     1
  8
3_ALL_AXES
  6
Continuous
 62
     7
100
AcDbLine
 10
136.749788
 20
800.481628
 30
0.0
 11
142.749788
 21
800.481628
 31
0.0
  0
LINE
  5
291
330
212
100
AcDbEntity
 67
     1
  8
3_ALL_AXES
  6
Continuous
 62
     7
100
AcDbLine
 10
142.749788
 20
800.481628
 30
0.0
 11
145.499788
 21
800.481628
 31
0.0
  0
LINE
  5
292
330
212
100
AcDbEntity
 67
     1
  8
3_ALL_AXES
  6
Continuous
 62
     7
100
AcDbLine
 10
136.749788
 20
800.481628
 30
0.0
 11
130.749788
 21
800.481628
 31
0.0
  0
LINE
  5
293
330
212
100
AcDbEntity
 67
     1
  8
3_ALL_AXES
  6
Continuous
 62
     7
100
AcDbLine
 10
130.749788
 20
800.481628
 30
0.0
 11
127.999788
 21
800.481628
 31
0.0
  0
LINE
  5
294
330
212
100
AcDbEntity
 67
     1
  8
3_ALL_AXES
  6
Continuous
 62
     7
100
AcDbLine
 10
136.749788
 20
801.481628
 30
0.0
 11
142.749788
 21
801.481628
 31
0.0
  0
LINE
  5
295
330
212
100
AcDbEntity
 67
     1
  8
3_ALL_AXES
  6
Continuous
 62
     7
100
AcDbLine
 10
142.749788
 20
801.481628
 30
0.0
 11
143.249788
 21
801.481628
 31
0.0
  0
LINE
  5
296
330
212
100
AcDbEntity
 67
     1
  8
3_ALL_AXES
  6
Continuous
 62
     7
100
AcDbLine
 10
143.249788
 20
801.481628
 30
0.0
 11
144.709068
 21
801.481628
 31
0.0
  0
LINE
  5
297
330
212
100
AcDbEntity
 67
     1
  8
3_ALL_AXES
  6
Continuous
 62
     7
100
AcDbLine
 10
144.709068
 20
801.481628
 30
0.0
 11
144.749788
 21
801.481628
 31
0.0
  0
LINE
  5
298
330
212
100
AcDbEntity
 67
     1
  8
3_ALL_AXES
  6
Continuous
 62
     7
100
AcDbLine
 10
144.749788
 20
801.481628
 30
0.0
 11
145.499788
 21
801.481628
 31
0.0
  0
LINE
  5
299
330
212
100
AcDbEntity
 67
     1
  8
3_ALL_AXES
  6
Continuous
 62
     7
100
AcDbLine
 10
127.999788
 20
801.481628
 30
0.0
 11
127.999788
 21
800.481628
 31
0.0
  0
ARC
  5
29A
330
212
100
AcDbEntity
 67
     1
  8
3_ALL_AXES
  6
Continuous
 62
     7
100
AcDbCircle
 10
136.749788
 20
804.981628
 30
0.0
 40
7.5
100
AcDbArc
 50
216.869898
 51
258.463041
  0
LINE
  5
29B
330
212
100
AcDbEntity
 67
     1
  8
3_ALL_AXES
  6
Continuous
 62
     7
100
AcDbLine
 10
135.249788
 20
797.633159
 30
0.0
 11
135.249788
 21
792.133159
 31
0.0
  0
LINE
  5
29C
330
212
100
AcDbEntity
 67
     1
  8
3_ALL_AXES
  6
Continuous
 62
     7
100
AcDbLine
 10
138.249788
 20
797.633159
 30
0.0
 11
138.249788
 21
792.133159
 31
0.0
  0
ARC
  5
29D
330
212
100
AcDbEntity
 67
     1
  8
3_ALL_AXES
  6
Continuous
 62
     7
100
AcDbCircle
 10
136.749788
 20
804.981628
 30
0.0
 40
7.5
100
AcDbArc
 50
281.536959
 51
323.130102
  0
LINE
  5
29E
330
212
100
AcDbEntity
 67
     1
  8
3_ALL_AXES
  6
Continuous
 62
     7
100
AcDbLine
 10
145.499788
 20
801.481628
 30
0.0
 11
145.499788
 21
800.481628
 31
0.0
  0
LWPOLYLINE
  5
29F
330
212
100
AcDbEntity
 67
     1
  8
3_ALL_AXES
  6
Continuous
 62
     7
100
AcDbPolyline
 90
       22
 70
     0
 43
0.0
 10
136.749788
 20
797.633159
 10
136.637693
 20
797.633159
 10
136.526224
 20
797.633159
 10
136.416006
 20
797.633159
 10
136.307655
 20
797.633159
 10
136.201776
 20
797.633159
 10
136.098962
 20
797.633159
 10
135.999788
 20
797.633159
 10
135.904808
 20
797.633159
 10
135.814553
 20
797.633159
 10
135.729529
 20
797.633159
 10
135.65021
 20
797.633159
 10
135.57704
 20
797.633159
 10
135.51043
 20
797.633159
 10
135.45075
 20
797.633159
 10
135.398334
 20
797.633159
 10
135.353477
 20
797.633159
 10
135.316428
 20
797.633159
 10
135.287396
 20
797.633159
 10
135.266541
 20
797.633159
 10
135.253982
 20
797.633159
 10
135.249788
 20
797.633159
  0
LWPOLYLINE
  5
2A0
330
212
100
AcDbEntity
 67
     1
  8
3_ALL_AXES
  6
Continuous
 62
     7
100
AcDbPolyline
 90
       22
 70
     0
 43
0.0
 10
136.749788
 20
797.633159
 10
136.861883
 20
797.633159
 10
136.973351
 20
797.633159
 10
137.083569
 20
797.633159
 10
137.19192
 20
797.633159
 10
137.297799
 20
797.633159
 10
137.400613
 20
797.633159
 10
137.499788
 20
797.633159
 10
137.594768
 20
797.633159
 10
137.685022
 20
797.633159
 10
137.770047
 20
797.633159
 10
137.849366
 20
797.633159
 10
137.922535
 20
797.633159
 10
137.989146
 20
797.633159
 10
138.048826
 20
797.633159
 10
138.101241
 20
797.633159
 10
138.146098
 20
797.633159
 10
138.183147
 20
797.633159
 10
138.21218
 20
797.633159
 10
138.233034
 20
797.633159
 10
138.245593
 20
797.633159
 10
138.249788
 20
797.633159
  0
LINE
  5
2A1
330
212
100
AcDbEntity
 67
     1
  8
3_ALL_AXES
  6
Continuous
 62
     7
100
AcDbLine
 10
96.749788
 20
792.133159
 30
0.0
 11
97.499571
 21
792.133159
 31
0.0
  0
LINE
  5
2A2
330
212
100
AcDbEntity
 67
     1
  8
3_ALL_AXES
  6
Continuous
 62
     7
100
AcDbLine
 10
97.499571
 20
792.133159
 30
0.0
 11
98.249788
 21
792.133159
 31
0.0
  0
LINE
  5
2A3
330
212
100
AcDbEntity
 67
     1
  8
3_ALL_AXES
  6
Continuous
 62
     7
100
AcDbLine
 10
96.749788
 20
792.133159
 30
0.0
 11
96.000005
 21
792.133159
 31
0.0
  0
LINE
  5
2A4
330
212
100
AcDbEntity
 67
     1
  8
3_ALL_AXES
  6
Continuous
 62
     7
100
AcDbLine
 10
96.000005
 20
792.133159
 30
0.0
 11
95.249788
 21
792.133159
 31
0.0
  0
LINE
  5
2A5
330
212
100
AcDbEntity
 67
     1
  8
3_ALL_AXES
  6
Continuous
 62
     7
100
AcDbLine
 10
96.749788
 20
801.481628
 30
0.0
 11
90.749788
 21
801.481628
 31
0.0
  0
LINE
  5
2A6
330
212
100
AcDbEntity
 67
     1
  8
3_ALL_AXES
  6
Continuous
 62
     7
100
AcDbLine
 10
90.749788
 20
801.481628
 30
0.0
 11
90.249788
 21
801.481628
 31
0.0
  0
LINE
  5
2A7
330
212
100
AcDbEntity
 67
     1
  8
3_ALL_AXES
  6
Continuous
 62
     7
100
AcDbLine
 10
90.249788
 20
801.481628
 30
0.0
 11
88.790508
 21
801.481628
 31
0.0
  0
LINE
  5
2A8
330
212
100
AcDbEntity
 67
     1
  8
3_ALL_AXES
  6
Continuous
 62
     7
100
AcDbLine
 10
88.790508
 20
801.481628
 30
0.0
 11
88.749788
 21
801.481628
 31
0.0
  0
LINE
  5
2A9
330
212
100
AcDbEntity
 67
     1
  8
3_ALL_AXES
  6
Continuous
 62
     7
100
AcDbLine
 10
88.749788
 20
801.481628
 30
0.0
 11
87.999788
 21
801.481628
 31
0.0
  0
LINE
  5
2AA
330
212
100
AcDbEntity
 67
     1
  8
3_ALL_AXES
  6
Continuous
 62
     7
100
AcDbLine
 10
96.749788
 20
800.481628
 30
0.0
 11
102.749788
 21
800.481628
 31
0.0
  0
LINE
  5
2AB
330
212
100
AcDbEntity
 67
     1
  8
3_ALL_AXES
  6
Continuous
 62
     7
100
AcDbLine
 10
102.749788
 20
800.481628
 30
0.0
 11
105.499788
 21
800.481628
 31
0.0
  0
LINE
  5
2AC
330
212
100
AcDbEntity
 67
     1
  8
3_ALL_AXES
  6
Continuous
 62
     7
100
AcDbLine
 10
96.749788
 20
800.481628
 30
0.0
 11
90.749788
 21
800.481628
 31
0.0
  0
LINE
  5
2AD
330
212
100
AcDbEntity
 67
     1
  8
3_ALL_AXES
  6
Continuous
 62
     7
100
AcDbLine
 10
90.749788
 20
800.481628
 30
0.0
 11
87.999788
 21
800.481628
 31
0.0
  0
LINE
  5
2AE
330
212
100
AcDbEntity
 67
     1
  8
3_ALL_AXES
  6
Continuous
 62
     7
100
AcDbLine
 10
96.749788
 20
801.481628
 30
0.0
 11
102.749788
 21
801.481628
 31
0.0
  0
LINE
  5
2AF
330
212
100
AcDbEntity
 67
     1
  8
3_ALL_AXES
  6
Continuous
 62
     7
100
AcDbLine
 10
102.749788
 20
801.481628
 30
0.0
 11
103.249788
 21
801.481628
 31
0.0
  0
LINE
  5
2B0
330
212
100
AcDbEntity
 67
     1
  8
3_ALL_AXES
  6
Continuous
 62
     7
100
AcDbLine
 10
103.249788
 20
801.481628
 30
0.0
 11
104.709068
 21
801.481628
 31
0.0
  0
LINE
  5
2B1
330
212
100
AcDbEntity
 67
     1
  8
3_ALL_AXES
  6
Continuous
 62
     7
100
AcDbLine
 10
104.709068
 20
801.481628
 30
0.0
 11
104.749788
 21
801.481628
 31
0.0
  0
LINE
  5
2B2
330
212
100
AcDbEntity
 67
     1
  8
3_ALL_AXES
  6
Continuous
 62
     7
100
AcDbLine
 10
104.749788
 20
801.481628
 30
0.0
 11
105.499788
 21
801.481628
 31
0.0
  0
LINE
  5
2B3
330
212
100
AcDbEntity
 67
     1
  8
3_ALL_AXES
  6
Continuous
 62
     7
100
AcDbLine
 10
87.999788
 20
801.481628
 30
0.0
 11
87.999788
 21
800.481628
 31
0.0
  0
ARC
  5
2B4
330
212
100
AcDbEntity
 67
     1
  8
3_ALL_AXES
  6
Continuous
 62
     7
100
AcDbCircle
 10
96.749788
 20
804.981628
 30
0.0
 40
7.5
100
AcDbArc
 50
216.869898
 51
258.463041
  0
LINE
  5
2B5
330
212
100
AcDbEntity
 67
     1
  8
3_ALL_AXES
  6
Continuous
 62
     7
100
AcDbLine
 10
95.249788
 20
797.633159
 30
0.0
 11
95.249788
 21
792.133159
 31
0.0
  0
LINE
  5
2B6
330
212
100
AcDbEntity
 67
     1
  8
3_ALL_AXES
  6
Continuous
 62
     7
100
AcDbLine
 10
98.249788
 20
797.633159
 30
0.0
 11
98.249788
 21
792.133159
 31
0.0
  0
ARC
  5
2B7
330
212
100
AcDbEntity
 67
     1
  8
3_ALL_AXES
  6
Continuous
 62
     7
100
AcDbCircle
 10
96.749788
 20
804.981628
 30
0.0
 40
7.5
100
AcDbArc
 50
281.536959
 51
323.130102
  0
LINE
  5
2B8
330
212
100
AcDbEntity
 67
     1
  8
3_ALL_AXES
  6
Continuous
 62
     7
100
AcDbLine
 10
105.499788
 20
801.481628
 30
0.0
 11
105.499788
 21
800.481628
 31
0.0
  0
LWPOLYLINE
  5
2B9
330
212
100
AcDbEntity
 67
     1
  8
3_ALL_AXES
  6
Continuous
 62
     7
100
AcDbPolyline
 90
       22
 70
     0
 43
0.0
 10
96.749788
 20
797.633159
 10
96.637693
 20
797.633159
 10
96.526224
 20
797.633159
 10
96.416006
 20
797.633159
 10
96.307655
 20
797.633159
 10
96.201776
 20
797.633159
 10
96.098962
 20
797.633159
 10
95.999788
 20
797.633159
 10
95.904808
 20
797.633159
 10
95.814553
 20
797.633159
 10
95.729529
 20
797.633159
 10
95.65021
 20
797.633159
 10
95.57704
 20
797.633159
 10
95.51043
 20
797.633159
 10
95.45075
 20
797.633159
 10
95.398334
 20
797.633159
 10
95.353477
 20
797.633159
 10
95.316428
 20
797.633159
 10
95.287396
 20
797.633159
 10
95.266541
 20
797.633159
 10
95.253982
 20
797.633159
 10
95.249788
 20
797.633159
  0
LWPOLYLINE
  5
2BA
330
212
100
AcDbEntity
 67
     1
  8
3_ALL_AXES
  6
Continuous
 62
     7
100
AcDbPolyline
 90
       22
 70
     0
 43
0.0
 10
96.749788
 20
797.633159
 10
96.861883
 20
797.633159
 10
96.973351
 20
797.633159
 10
97.083569
 20
797.633159
 10
97.19192
 20
797.633159
 10
97.297799
 20
797.633159
 10
97.400613
 20
797.633159
 10
97.499788
 20
797.633159
 10
97.594768
 20
797.633159
 10
97.685022
 20
797.633159
 10
97.770047
 20
797.633159
 10
97.849366
 20
797.633159
 10
97.922535
 20
797.633159
 10
97.989146
 20
797.633159
 10
98.048826
 20
797.633159
 10
98.101241
 20
797.633159
 10
98.146098
 20
797.633159
 10
98.183147
 20
797.633159
 10
98.21218
 20
797.633159
 10
98.233034
 20
797.633159
 10
98.245593
 20
797.633159
 10
98.249788
 20
797.633159
  0
LINE
  5
2BB
330
212
100
AcDbEntity
 67
     1
  8
3_ALL_AXES
  6
Continuous
 62
     7
100
AcDbLine
 10
56.749788
 20
792.133159
 30
0.0
 11
57.499571
 21
792.133159
 31
0.0
  0
LINE
  5
2BC
330
212
100
AcDbEntity
 67
     1
  8
3_ALL_AXES
  6
Continuous
 62
     7
100
AcDbLine
 10
57.499571
 20
792.133159
 30
0.0
 11
58.249788
 21
792.133159
 31
0.0
  0
LINE
  5
2BD
330
212
100
AcDbEntity
 67
     1
  8
3_ALL_AXES
  6
Continuous
 62
     7
100
AcDbLine
 10
56.749788
 20
792.133159
 30
0.0
 11
56.000005
 21
792.133159
 31
0.0
  0
LINE
  5
2BE
330
212
100
AcDbEntity
 67
     1
  8
3_ALL_AXES
  6
Continuous
 62
     7
100
AcDbLine
 10
56.000005
 20
792.133159
 30
0.0
 11
55.249788
 21
792.133159
 31
0.0
  0
LINE
  5
2BF
330
212
100
AcDbEntity
 67
     1
  8
3_ALL_AXES
  6
Continuous
 62
     7
100
AcDbLine
 10
56.749788
 20
801.481628
 30
0.0
 11
50.749788
 21
801.481628
 31
0.0
  0
LINE
  5
2C0
330
212
100
AcDbEntity
 67
     1
  8
3_ALL_AXES
  6
Continuous
 62
     7
100
AcDbLine
 10
50.749788
 20
801.481628
 30
0.0
 11
50.249788
 21
801.481628
 31
0.0
  0
LINE
  5
2C1
330
212
100
AcDbEntity
 67
     1
  8
3_ALL_AXES
  6
Continuous
 62
     7
100
AcDbLine
 10
50.249788
 20
801.481628
 30
0.0
 11
48.790508
 21
801.481628
 31
0.0
  0
LINE
  5
2C2
330
212
100
AcDbEntity
 67
     1
  8
3_ALL_AXES
  6
Continuous
 62
     7
100
AcDbLine
 10
48.790508
 20
801.481628
 30
0.0
 11
48.749788
 21
801.481628
 31
0.0
  0
LINE
  5
2C3
330
212
100
AcDbEntity
 67
     1
  8
3_ALL_AXES
  6
Continuous
 62
     7
100
AcDbLine
 10
48.749788
 20
801.481628
 30
0.0
 11
47.999788
 21
801.481628
 31
0.0
  0
LINE
  5
2C4
330
212
100
AcDbEntity
 67
     1
  8
3_ALL_AXES
  6
Continuous
 62
     7
100
AcDbLine
 10
56.749788
 20
800.481628
 30
0.0
 11
62.749788
 21
800.481628
 31
0.0
  0
LINE
  5
2C5
330
212
100
AcDbEntity
 67
     1
  8
3_ALL_AXES
  6
Continuous
 62
     7
100
AcDbLine
 10
62.749788
 20
800.481628
 30
0.0
 11
65.499788
 21
800.481628
 31
0.0
  0
LINE
  5
2C6
330
212
100
AcDbEntity
 67
     1
  8
3_ALL_AXES
  6
Continuous
 62
     7
100
AcDbLine
 10
56.749788
 20
800.481628
 30
0.0
 11
50.749788
 21
800.481628
 31
0.0
  0
LINE
  5
2C7
330
212
100
AcDbEntity
 67
     1
  8
3_ALL_AXES
  6
Continuous
 62
     7
100
AcDbLine
 10
50.749788
 20
800.481628
 30
0.0
 11
47.999788
 21
800.481628
 31
0.0
  0
LINE
  5
2C8
330
212
100
AcDbEntity
 67
     1
  8
3_ALL_AXES
  6
Continuous
 62
     7
100
AcDbLine
 10
56.749788
 20
801.481628
 30
0.0
 11
62.749788
 21
801.481628
 31
0.0
  0
LINE
  5
2C9
330
212
100
AcDbEntity
 67
     1
  8
3_ALL_AXES
  6
Continuous
 62
     7
100
AcDbLine
 10
62.749788
 20
801.481628
 30
0.0
 11
63.249788
 21
801.481628
 31
0.0
  0
LINE
  5
2CA
330
212
100
AcDbEntity
 67
     1
  8
3_ALL_AXES
  6
Continuous
 62
     7
100
AcDbLine
 10
63.249788
 20
801.481628
 30
0.0
 11
64.709068
 21
801.481628
 31
0.0
  0
LINE
  5
2CB
330
212
100
AcDbEntity
 67
     1
  8
3_ALL_AXES
  6
Continuous
 62
     7
100
AcDbLine
 10
64.709068
 20
801.481628
 30
0.0
 11
64.749788
 21
801.481628
 31
0.0
  0
LINE
  5
2CC
330
212
100
AcDbEntity
 67
     1
  8
3_ALL_AXES
  6
Continuous
 62
     7
100
AcDbLine
 10
64.749788
 20
801.481628
 30
0.0
 11
65.499788
 21
801.481628
 31
0.0
  0
LINE
  5
2CD
330
212
100
AcDbEntity
 67
     1
  8
3_ALL_AXES
  6
Continuous
 62
     7
100
AcDbLine
 10
47.999788
 20
801.481628
 30
0.0
 11
47.999788
 21
800.481628
 31
0.0
  0
ARC
  5
2CE
330
212
100
AcDbEntity
 67
     1
  8
3_ALL_AXES
  6
Continuous
 62
     7
100
AcDbCircle
 10
56.749788
 20
804.981628
 30
0.0
 40
7.5
100
AcDbArc
 50
216.869898
 51
258.463041
  0
LINE
  5
2CF
330
212
100
AcDbEntity
 67
     1
  8
3_ALL_AXES
  6
Continuous
 62
     7
100
AcDbLine
 10
55.249788
 20
797.633159
 30
0.0
 11
55.249788
 21
792.133159
 31
0.0
  0
LINE
  5
2D0
330
212
100
AcDbEntity
 67
     1
  8
3_ALL_AXES
  6
Continuous
 62
     7
100
AcDbLine
 10
58.249788
 20
797.633159
 30
0.0
 11
58.249788
 21
792.133159
 31
0.0
  0
ARC
  5
2D1
330
212
100
AcDbEntity
 67
     1
  8
3_ALL_AXES
  6
Continuous
 62
     7
100
AcDbCircle
 10
56.749788
 20
804.981628
 30
0.0
 40
7.5
100
AcDbArc
 50
281.536959
 51
323.130102
  0
LINE
  5
2D2
330
212
100
AcDbEntity
 67
     1
  8
3_ALL_AXES
  6
Continuous
 62
     7
100
AcDbLine
 10
65.499788
 20
801.481628
 30
0.0
 11
65.499788
 21
800.481628
 31
0.0
  0
LWPOLYLINE
  5
2D3
330
212
100
AcDbEntity
 67
     1
  8
3_ALL_AXES
  6
Continuous
 62
     7
100
AcDbPolyline
 90
       22
 70
     0
 43
0.0
 10
56.749788
 20
797.633159
 10
56.637693
 20
797.633159
 10
56.526224
 20
797.633159
 10
56.416006
 20
797.633159
 10
56.307655
 20
797.633159
 10
56.201776
 20
797.633159
 10
56.098962
 20
797.633159
 10
55.999788
 20
797.633159
 10
55.904808
 20
797.633159
 10
55.814553
 20
797.633159
 10
55.729529
 20
797.633159
 10
55.65021
 20
797.633159
 10
55.57704
 20
797.633159
 10
55.51043
 20
797.633159
 10
55.45075
 20
797.633159
 10
55.398334
 20
797.633159
 10
55.353477
 20
797.633159
 10
55.316428
 20
797.633159
 10
55.287396
 20
797.633159
 10
55.266541
 20
797.633159
 10
55.253982
 20
797.633159
 10
55.249788
 20
797.633159
  0
LWPOLYLINE
  5
2D4
330
212
100
AcDbEntity
 67
     1
  8
3_ALL_AXES
  6
Continuous
 62
     7
100
AcDbPolyline
 90
       22
 70
     0
 43
0.0
 10
56.749788
 20
797.633159
 10
56.861883
 20
797.633159
 10
56.973351
 20
797.633159
 10
57.083569
 20
797.633159
 10
57.19192
 20
797.633159
 10
57.297799
 20
797.633159
 10
57.400613
 20
797.633159
 10
57.499788
 20
797.633159
 10
57.594768
 20
797.633159
 10
57.685022
 20
797.633159
 10
57.770047
 20
797.633159
 10
57.849366
 20
797.633159
 10
57.922535
 20
797.633159
 10
57.989146
 20
797.633159
 10
58.048826
 20
797.633159
 10
58.101241
 20
797.633159
 10
58.146098
 20
797.633159
 10
58.183147
 20
797.633159
 10
58.21218
 20
797.633159
 10
58.233034
 20
797.633159
 10
58.245593
 20
797.633159
 10
58.249788
 20
797.633159
  0
LWPOLYLINE
  5
2D5
330
212
100
AcDbEntity
 67
     1
  8
3_ALL_AXES
  6
Continuous
 62
     7
100
AcDbPolyline
 90
       25
 70
     0
 43
0.0
 10
144.607905
 20
814.481628
 10
144.608536
 20
814.580265
 10
144.610355
 20
814.677701
 10
144.613339
 20
814.773939
 10
144.617477
 20
814.86941
 10
144.622688
 20
814.963682
 10
144.628828
 20
815.055452
 10
144.63583
 20
815.144638
 10
144.643593
 20
815.231322
 10
144.651913
 20
815.314446
 10
144.660695
 20
815.39397
 10
144.669816
 20
815.469933
 10
144.679045
 20
815.541401
 10
144.688273
 20
815.608324
 10
144.697373
 20
815.670751
 10
144.706117
 20
815.727891
 10
144.714402
 20
815.779688
 10
144.722113
 20
815.826199
 10
144.729056
 20
815.866806
 10
144.73515
 20
815.901439
 10
144.740307
 20
815.930169
 10
144.744395
 20
815.952593
 10
144.747368
 20
815.968623
 10
144.749182
 20
815.978347
 10
144.749203
 20
815.978465
  0
LINE
  5
2D6
330
212
100
AcDbEntity
 67
     1
  8
3_ALL_AXES
  6
Continuous
 62
     7
100
AcDbLine
 10
144.749203
 20
815.978465
 30
0.0
 11
144.749788
 21
815.981628
 31
0.0
  0
LWPOLYLINE
  5
2D7
330
212
100
AcDbEntity
 67
     1
  8
3_ALL_AXES
  6
Continuous
 62
     7
100
AcDbPolyline
 90
        3
 70
     0
 43
0.0
 10
144.747368
 20
812.994634
 10
144.749182
 20
812.98491
 10
144.749788
 20
812.981628
  0
LINE
  5
2D8
330
212
100
AcDbEntity
 67
     1
  8
3_ALL_AXES
  6
Continuous
 62
     7
100
AcDbLine
 10
146.749706
 20
821.481628
 30
0.0
 11
139.149788
 21
821.481628
 31
0.0
  0
LINE
  5
2D9
330
212
100
AcDbEntity
 67
     1
  8
3_ALL_AXES
  6
Continuous
 62
     7
100
AcDbLine
 10
139.149788
 20
821.481628
 30
0.0
 11
136.749788
 21
821.481628
 31
0.0
  0
LINE
  5
2DA
330
212
100
AcDbEntity
 67
     1
  8
3_ALL_AXES
  6
Continuous
 62
     7
100
AcDbLine
 10
146.749706
 20
819.481628
 30
0.0
 11
144.749788
 21
819.481628
 31
0.0
  0
LINE
  5
2DB
330
212
100
AcDbEntity
 67
     1
  8
3_ALL_AXES
  6
Continuous
 62
     7
100
AcDbLine
 10
144.749788
 20
819.481628
 30
0.0
 11
136.749788
 21
819.481628
 31
0.0
  0
LINE
  5
2DC
330
212
100
AcDbEntity
 67
     1
  8
3_ALL_AXES
  6
Continuous
 62
     7
100
AcDbLine
 10
146.749788
 20
819.481628
 30
0.0
 11
146.749788
 21
821.481628
 31
0.0
  0
LINE
  5
2DD
330
212
100
AcDbEntity
 67
     1
  8
3_ALL_AXES
  6
Continuous
 62
     7
100
AcDbLine
 10
144.749788
 20
815.981628
 30
0.0
 11
144.749187
 21
815.978375
 31
0.0
  0
LINE
  5
2DE
330
212
100
AcDbEntity
 67
     1
  8
3_ALL_AXES
  6
Continuous
 62
     7
100
AcDbLine
 10
144.749788
 20
815.981628
 30
0.0
 11
144.749788
 21
819.481628
 31
0.0
  0
LWPOLYLINE
  5
2DF
330
212
100
AcDbEntity
 67
     1
  8
3_ALL_AXES
  6
Continuous
 62
     7
100
AcDbPolyline
 90
        3
 70
     0
 43
0.0
 10
144.749788
 20
812.981628
 10
144.749187
 20
812.984882
 10
144.747379
 20
812.994578
  0
LWPOLYLINE
  5
2E0
330
212
100
AcDbEntity
 67
     1
  8
3_ALL_AXES
  6
Continuous
 62
     7
100
AcDbPolyline
 90
       23
 70
     0
 43
0.0
 10
144.747379
 20
812.994578
 10
144.744411
 20
813.010576
 10
144.740329
 20
813.032964
 10
144.735179
 20
813.061654
 10
144.729091
 20
813.096245
 10
144.722155
 20
813.136805
 10
144.714451
 20
813.183266
 10
144.706171
 20
813.235017
 10
144.697431
 20
813.292116
 10
144.688333
 20
813.354505
 10
144.679106
 20
813.421399
 10
144.669876
 20
813.492849
 10
144.660751
 20
813.568805
 10
144.651964
 20
813.648331
 10
144.643637
 20
813.731472
 10
144.635867
 20
813.818185
 10
144.628857
 20
813.907406
 10
144.62271
 20
813.999214
 10
144.617493
 20
814.09353
 10
144.613349
 20
814.18906
 10
144.61036
 20
814.28537
 10
144.608538
 20
814.382893
 10
144.607905
 20
814.481628
  0
LINE
  5
2E1
330
212
100
AcDbEntity
 67
     1
  8
3_ALL_AXES
  6
Continuous
 62
     7
100
AcDbLine
 10
128.749788
 20
801.481628
 30
0.0
 11
128.749788
 21
819.481628
 31
0.0
  0
LINE
  5
2E2
330
212
100
AcDbEntity
 67
     1
  8
3_ALL_AXES
  6
Continuous
 62
     7
100
AcDbLine
 10
144.749788
 20
801.481628
 30
0.0
 11
144.749788
 21
812.981628
 31
0.0
  0
LINE
  5
2E3
330
212
100
AcDbEntity
 67
     1
  8
3_ALL_AXES
  6
Continuous
 62
     7
100
AcDbLine
 10
126.749788
 20
819.481628
 30
0.0
 11
126.749788
 21
821.481628
 31
0.0
  0
LINE
  5
2E4
330
212
100
AcDbEntity
 67
     1
  8
3_ALL_AXES
  6
Continuous
 62
     7
100
AcDbLine
 10
126.749869
 20
819.481628
 30
0.0
 11
128.749788
 21
819.481628
 31
0.0
  0
LINE
  5
2E5
330
212
100
AcDbEntity
 67
     1
  8
3_ALL_AXES
  6
Continuous
 62
     7
100
AcDbLine
 10
128.749788
 20
819.481628
 30
0.0
 11
136.749788
 21
819.481628
 31
0.0
  0
LINE
  5
2E6
330
212
100
AcDbEntity
 67
     1
  8
3_ALL_AXES
  6
Continuous
 62
     7
100
AcDbLine
 10
126.749869
 20
821.481628
 30
0.0
 11
134.349788
 21
821.481628
 31
0.0
  0
LINE
  5
2E7
330
212
100
AcDbEntity
 67
     1
  8
3_ALL_AXES
  6
Continuous
 62
     7
100
AcDbLine
 10
134.349788
 20
821.481628
 30
0.0
 11
136.749788
 21
821.481628
 31
0.0
  0
LWPOLYLINE
  5
2E8
330
212
100
AcDbEntity
 67
     1
  8
3_ALL_AXES
  6
Continuous
 62
     7
100
AcDbPolyline
 90
       25
 70
     0
 43
0.0
 10
104.607905
 20
814.481628
 10
104.608536
 20
814.580265
 10
104.610355
 20
814.677701
 10
104.613339
 20
814.773939
 10
104.617477
 20
814.86941
 10
104.622688
 20
814.963682
 10
104.628828
 20
815.055452
 10
104.63583
 20
815.144638
 10
104.643593
 20
815.231322
 10
104.651913
 20
815.314446
 10
104.660695
 20
815.39397
 10
104.669816
 20
815.469933
 10
104.679045
 20
815.541401
 10
104.688273
 20
815.608324
 10
104.697373
 20
815.670751
 10
104.706117
 20
815.727891
 10
104.714402
 20
815.779688
 10
104.722113
 20
815.826199
 10
104.729056
 20
815.866806
 10
104.73515
 20
815.901439
 10
104.740307
 20
815.930169
 10
104.744395
 20
815.952593
 10
104.747368
 20
815.968623
 10
104.749182
 20
815.978347
 10
104.749203
 20
815.978465
  0
LINE
  5
2E9
330
212
100
AcDbEntity
 67
     1
  8
3_ALL_AXES
  6
Continuous
 62
     7
100
AcDbLine
 10
104.749203
 20
815.978465
 30
0.0
 11
104.749788
 21
815.981628
 31
0.0
  0
LWPOLYLINE
  5
2EA
330
212
100
AcDbEntity
 67
     1
  8
3_ALL_AXES
  6
Continuous
 62
     7
100
AcDbPolyline
 90
        3
 70
     0
 43
0.0
 10
104.747368
 20
812.994634
 10
104.749182
 20
812.98491
 10
104.749788
 20
812.981628
  0
LINE
  5
2EB
330
212
100
AcDbEntity
 67
     1
  8
3_ALL_AXES
  6
Continuous
 62
     7
100
AcDbLine
 10
106.749706
 20
821.481628
 30
0.0
 11
99.149788
 21
821.481628
 31
0.0
  0
LINE
  5
2EC
330
212
100
AcDbEntity
 67
     1
  8
3_ALL_AXES
  6
Continuous
 62
     7
100
AcDbLine
 10
99.149788
 20
821.481628
 30
0.0
 11
96.749788
 21
821.481628
 31
0.0
  0
LINE
  5
2ED
330
212
100
AcDbEntity
 67
     1
  8
3_ALL_AXES
  6
Continuous
 62
     7
100
AcDbLine
 10
106.749706
 20
819.481628
 30
0.0
 11
104.749788
 21
819.481628
 31
0.0
  0
LINE
  5
2EE
330
212
100
AcDbEntity
 67
     1
  8
3_ALL_AXES
  6
Continuous
 62
     7
100
AcDbLine
 10
104.749788
 20
819.481628
 30
0.0
 11
96.749788
 21
819.481628
 31
0.0
  0
LINE
  5
2EF
330
212
100
AcDbEntity
 67
     1
  8
3_ALL_AXES
  6
Continuous
 62
     7
100
AcDbLine
 10
106.749788
 20
819.481628
 30
0.0
 11
106.749788
 21
821.481628
 31
0.0
  0
LINE
  5
2F0
330
212
100
AcDbEntity
 67
     1
  8
3_ALL_AXES
  6
Continuous
 62
     7
100
AcDbLine
 10
104.749788
 20
815.981628
 30
0.0
 11
104.749187
 21
815.978375
 31
0.0
  0
LINE
  5
2F1
330
212
100
AcDbEntity
 67
     1
  8
3_ALL_AXES
  6
Continuous
 62
     7
100
AcDbLine
 10
104.749788
 20
815.981628
 30
0.0
 11
104.749788
 21
819.481628
 31
0.0
  0
LWPOLYLINE
  5
2F2
330
212
100
AcDbEntity
 67
     1
  8
3_ALL_AXES
  6
Continuous
 62
     7
100
AcDbPolyline
 90
        3
 70
     0
 43
0.0
 10
104.749788
 20
812.981628
 10
104.749187
 20
812.984882
 10
104.747379
 20
812.994578
  0
LWPOLYLINE
  5
2F3
330
212
100
AcDbEntity
 67
     1
  8
3_ALL_AXES
  6
Continuous
 62
     7
100
AcDbPolyline
 90
       23
 70
     0
 43
0.0
 10
104.747379
 20
812.994578
 10
104.744411
 20
813.010576
 10
104.740329
 20
813.032964
 10
104.735179
 20
813.061654
 10
104.729091
 20
813.096245
 10
104.722155
 20
813.136805
 10
104.714451
 20
813.183266
 10
104.706171
 20
813.235017
 10
104.697431
 20
813.292116
 10
104.688333
 20
813.354505
 10
104.679106
 20
813.421399
 10
104.669876
 20
813.492849
 10
104.660751
 20
813.568805
 10
104.651964
 20
813.648331
 10
104.643637
 20
813.731472
 10
104.635867
 20
813.818185
 10
104.628857
 20
813.907406
 10
104.62271
 20
813.999214
 10
104.617493
 20
814.09353
 10
104.613349
 20
814.18906
 10
104.61036
 20
814.28537
 10
104.608538
 20
814.382893
 10
104.607905
 20
814.481628
  0
LINE
  5
2F4
330
212
100
AcDbEntity
 67
     1
  8
3_ALL_AXES
  6
Continuous
 62
     7
100
AcDbLine
 10
88.749788
 20
801.481628
 30
0.0
 11
88.749788
 21
819.481628
 31
0.0
  0
LINE
  5
2F5
330
212
100
AcDbEntity
 67
     1
  8
3_ALL_AXES
  6
Continuous
 62
     7
100
AcDbLine
 10
104.749788
 20
801.481628
 30
0.0
 11
104.749788
 21
812.981628
 31
0.0
  0
LINE
  5
2F6
330
212
100
AcDbEntity
 67
     1
  8
3_ALL_AXES
  6
Continuous
 62
     7
100
AcDbLine
 10
86.749788
 20
819.481628
 30
0.0
 11
86.749788
 21
821.481628
 31
0.0
  0
LINE
  5
2F7
330
212
100
AcDbEntity
 67
     1
  8
3_ALL_AXES
  6
Continuous
 62
     7
100
AcDbLine
 10
86.749869
 20
819.481628
 30
0.0
 11
88.749788
 21
819.481628
 31
0.0
  0
LINE
  5
2F8
330
212
100
AcDbEntity
 67
     1
  8
3_ALL_AXES
  6
Continuous
 62
     7
100
AcDbLine
 10
88.749788
 20
819.481628
 30
0.0
 11
96.749788
 21
819.481628
 31
0.0
  0
LINE
  5
2F9
330
212
100
AcDbEntity
 67
     1
  8
3_ALL_AXES
  6
Continuous
 62
     7
100
AcDbLine
 10
86.749869
 20
821.481628
 30
0.0
 11
94.349788
 21
821.481628
 31
0.0
  0
LINE
  5
2FA
330
212
100
AcDbEntity
 67
     1
  8
3_ALL_AXES
  6
Continuous
 62
     7
100
AcDbLine
 10
94.349788
 20
821.481628
 30
0.0
 11
96.749788
 21
821.481628
 31
0.0
  0
LWPOLYLINE
  5
2FB
330
212
100
AcDbEntity
 67
     1
  8
3_ALL_AXES
  6
Continuous
 62
     7
100
AcDbPolyline
 90
       25
 70
     0
 43
0.0
 10
64.607905
 20
814.481628
 10
64.608536
 20
814.580265
 10
64.610355
 20
814.677701
 10
64.613339
 20
814.773939
 10
64.617477
 20
814.86941
 10
64.622688
 20
814.963682
 10
64.628828
 20
815.055452
 10
64.63583
 20
815.144638
 10
64.643593
 20
815.231322
 10
64.651913
 20
815.314446
 10
64.660695
 20
815.39397
 10
64.669816
 20
815.469933
 10
64.679045
 20
815.541401
 10
64.688273
 20
815.608324
 10
64.697373
 20
815.670751
 10
64.706117
 20
815.727891
 10
64.714402
 20
815.779688
 10
64.722113
 20
815.826199
 10
64.729056
 20
815.866806
 10
64.73515
 20
815.901439
 10
64.740307
 20
815.930169
 10
64.744395
 20
815.952593
 10
64.747368
 20
815.968623
 10
64.749182
 20
815.978347
 10
64.749203
 20
815.978465
  0
LINE
  5
2FC
330
212
100
AcDbEntity
 67
     1
  8
3_ALL_AXES
  6
Continuous
 62
     7
100
AcDbLine
 10
64.749203
 20
815.978465
 30
0.0
 11
64.749788
 21
815.981628
 31
0.0
  0
LWPOLYLINE
  5
2FD
330
212
100
AcDbEntity
 67
     1
  8
3_ALL_AXES
  6
Continuous
 62
     7
100
AcDbPolyline
 90
        3
 70
     0
 43
0.0
 10
64.747368
 20
812.994634
 10
64.749182
 20
812.98491
 10
64.749788
 20
812.981628
  0
LINE
  5
2FE
330
212
100
AcDbEntity
 67
     1
  8
3_ALL_AXES
  6
Continuous
 62
     7
100
AcDbLine
 10
66.749706
 20
821.481628
 30
0.0
 11
59.149788
 21
821.481628
 31
0.0
  0
LINE
  5
2FF
330
212
100
AcDbEntity
 67
     1
  8
3_ALL_AXES
  6
Continuous
 62
     7
100
AcDbLine
 10
59.149788
 20
821.481628
 30
0.0
 11
56.749788
 21
821.481628
 31
0.0
  0
LINE
  5
300
330
212
100
AcDbEntity
 67
     1
  8
3_ALL_AXES
  6
Continuous
 62
     7
100
AcDbLine
 10
66.749706
 20
819.481628
 30
0.0
 11
64.749788
 21
819.481628
 31
0.0
  0
LINE
  5
301
330
212
100
AcDbEntity
 67
     1
  8
3_ALL_AXES
  6
Continuous
 62
     7
100
AcDbLine
 10
64.749788
 20
819.481628
 30
0.0
 11
56.749788
 21
819.481628
 31
0.0
  0
LINE
  5
302
330
212
100
AcDbEntity
 67
     1
  8
3_ALL_AXES
  6
Continuous
 62
     7
100
AcDbLine
 10
66.749788
 20
819.481628
 30
0.0
 11
66.749788
 21
821.481628
 31
0.0
  0
LINE
  5
303
330
212
100
AcDbEntity
 67
     1
  8
3_ALL_AXES
  6
Continuous
 62
     7
100
AcDbLine
 10
64.749788
 20
815.981628
 30
0.0
 11
64.749187
 21
815.978375
 31
0.0
  0
LINE
  5
304
330
212
100
AcDbEntity
 67
     1
  8
3_ALL_AXES
  6
Continuous
 62
     7
100
AcDbLine
 10
64.749788
 20
815.981628
 30
0.0
 11
64.749788
 21
819.481628
 31
0.0
  0
LWPOLYLINE
  5
305
330
212
100
AcDbEntity
 67
     1
  8
3_ALL_AXES
  6
Continuous
 62
     7
100
AcDbPolyline
 90
        3
 70
     0
 43
0.0
 10
64.749788
 20
812.981628
 10
64.749187
 20
812.984882
 10
64.747379
 20
812.994578
  0
LWPOLYLINE
  5
306
330
212
100
AcDbEntity
 67
     1
  8
3_ALL_AXES
  6
Continuous
 62
     7
100
AcDbPolyline
 90
       23
 70
     0
 43
0.0
 10
64.747379
 20
812.994578
 10
64.744411
 20
813.010576
 10
64.740329
 20
813.032964
 10
64.735179
 20
813.061654
 10
64.729091
 20
813.096245
 10
64.722155
 20
813.136805
 10
64.714451
 20
813.183266
 10
64.706171
 20
813.235017
 10
64.697431
 20
813.292116
 10
64.688333
 20
813.354505
 10
64.679106
 20
813.421399
 10
64.669876
 20
813.492849
 10
64.660751
 20
813.568805
 10
64.651964
 20
813.648331
 10
64.643637
 20
813.731472
 10
64.635867
 20
813.818185
 10
64.628857
 20
813.907406
 10
64.62271
 20
813.999214
 10
64.617493
 20
814.09353
 10
64.613349
 20
814.18906
 10
64.61036
 20
814.28537
 10
64.608538
 20
814.382893
 10
64.607905
 20
814.481628
  0
LINE
  5
307
330
212
100
AcDbEntity
 67
     1
  8
3_ALL_AXES
  6
Continuous
 62
     7
100
AcDbLine
 10
48.749788
 20
801.481628
 30
0.0
 11
48.749788
 21
819.481628
 31
0.0
  0
LINE
  5
308
330
212
100
AcDbEntity
 67
     1
  8
3_ALL_AXES
  6
Continuous
 62
     7
100
AcDbLine
 10
64.749788
 20
801.481628
 30
0.0
 11
64.749788
 21
812.981628
 31
0.0
  0
LINE
  5
309
330
212
100
AcDbEntity
 67
     1
  8
3_ALL_AXES
  6
Continuous
 62
     7
100
AcDbLine
 10
46.749788
 20
819.481628
 30
0.0
 11
46.749788
 21
821.481628
 31
0.0
  0
LINE
  5
30A
330
212
100
AcDbEntity
 67
     1
  8
3_ALL_AXES
  6
Continuous
 62
     7
100
AcDbLine
 10
46.749869
 20
819.481628
 30
0.0
 11
48.749788
 21
819.481628
 31
0.0
  0
LINE
  5
30B
330
212
100
AcDbEntity
 67
     1
  8
3_ALL_AXES
  6
Continuous
 62
     7
100
AcDbLine
 10
48.749788
 20
819.481628
 30
0.0
 11
56.749788
 21
819.481628
 31
0.0
  0
LINE
  5
30C
330
212
100
AcDbEntity
 67
     1
  8
3_ALL_AXES
  6
Continuous
 62
     7
100
AcDbLine
 10
46.749869
 20
821.481628
 30
0.0
 11
54.349788
 21
821.481628
 31
0.0
  0
LINE
  5
30D
330
212
100
AcDbEntity
 67
     1
  8
3_ALL_AXES
  6
Continuous
 62
     7
100
AcDbLine
 10
54.349788
 20
821.481628
 30
0.0
 11
56.749788
 21
821.481628
 31
0.0
  0
LINE
  5
30E
330
212
100
AcDbEntity
 67
     1
  8
02___PRT_ALL_AXES
  6
Continuous
 62
     7
100
AcDbLine
 10
136.249788
 20
436.41759
 30
0.0
 11
136.249788
 21
792.133159
 31
0.0
  0
LINE
  5
30F
330
212
100
AcDbEntity
 67
     1
  8
02___PRT_ALL_AXES
  6
Continuous
 62
     7
100
AcDbLine
 10
137.249788
 20
436.41759
 30
0.0
 11
137.249788
 21
792.133159
 31
0.0
  0
LINE
  5
310
330
212
100
AcDbEntity
 67
     1
  8
02___PRT_ALL_AXES
  6
Continuous
 62
     7
100
AcDbLine
 10
96.249788
 20
436.41759
 30
0.0
 11
96.249788
 21
792.133159
 31
0.0
  0
LINE
  5
311
330
212
100
AcDbEntity
 67
     1
  8
02___PRT_ALL_AXES
  6
Continuous
 62
     7
100
AcDbLine
 10
97.249788
 20
436.41759
 30
0.0
 11
97.249788
 21
792.133159
 31
0.0
  0
LINE
  5
312
330
212
100
AcDbEntity
 67
     1
  8
02___PRT_ALL_AXES
  6
Continuous
 62
     7
100
AcDbLine
 10
56.249788
 20
436.41759
 30
0.0
 11
56.249788
 21
792.133159
 31
0.0
  0
LINE
  5
313
330
212
100
AcDbEntity
 67
     1
  8
02___PRT_ALL_AXES
  6
Continuous
 62
     7
100
AcDbLine
 10
57.249788
 20
436.41759
 30
0.0
 11
57.249788
 21
792.133159
 31
0.0
  0
LINE
  5
314
330
212
100
AcDbEntity
 67
     1
  8
0
  6
Continuous
 62
     7
100
AcDbLine
 10
56.249788
 20
436.41759
 30
0.0
 11
57.249788
 21
436.41759
 31
0.0
  0
LINE
  5
315
330
212
100
AcDbEntity
 67
     1
  8
0
  6
Continuous
 62
     7
100
AcDbLine
 10
96.249788
 20
436.41759
 30
0.0
 11
97.249788
 21
436.41759
 31
0.0
  0
LINE
  5
316
330
212
100
AcDbEntity
 67
     1
  8
0
  6
Continuous
 62
     7
100
AcDbLine
 10
136.249788
 20
436.41759
 30
0.0
 11
137.249788
 21
436.41759
 31
0.0
  0
LINE
  5
317
330
212
100
AcDbEntity
 67
     1
  8
7_ALL_FEATURES
  6
Continuous
 62
     7
100
AcDbLine
 10
137.699712
 20
16.050669
 30
0.0
 11
136.749788
 21
16.050669
 31
0.0
  0
ARC
  5
318
330
212
100
AcDbEntity
 67
     1
  8
7_ALL_FEATURES
  6
Continuous
 62
     7
100
AcDbCircle
 10
137.699788
 20
16.550669
 30
0.0
 40
0.5
100
AcDbArc
 50
270.0
 51
360.0
  0
LWPOLYLINE
  5
319
330
212
100
AcDbEntity
 67
     1
  8
7_ALL_FEATURES
  6
Continuous
 62
     7
100
AcDbPolyline
 90
       24
 70
     0
 43
0.0
 10
137.675969
 20
16.050669
 10
137.680589
 20
16.050669
 10
137.692861
 20
16.050669
 10
137.699017
 20
16.050669
 10
137.699017
 20
16.050669
 10
137.692861
 20
16.050669
 10
137.680589
 20
16.050669
 10
137.66228
 20
16.050669
 10
137.638053
 20
16.050669
 10
137.608066
 20
16.050669
 10
137.572512
 20
16.050669
 10
137.531622
 20
16.050669
 10
137.485662
 20
16.050669
 10
137.43493
 20
16.050669
 10
137.379754
 20
16.050669
 10
137.320493
 20
16.050669
 10
137.25753
 20
16.050669
 10
137.191275
 20
16.050669
 10
137.122156
 20
16.050669
 10
137.050622
 20
16.050669
 10
136.977138
 20
16.050669
 10
136.902178
 20
16.050669
 10
136.826231
 20
16.050669
 10
136.749788
 20
16.050669
  0
LWPOLYLINE
  5
31A
330
212
100
AcDbEntity
 67
     1
  8
7_ALL_FEATURES
  6
Continuous
 62
     7
100
AcDbPolyline
 90
       18
 70
     0
 43
0.0
 10
136.749788
 20
16.050669
 10
136.826231
 20
16.050669
 10
136.902178
 20
16.050669
 10
136.977138
 20
16.050669
 10
137.050622
 20
16.050669
 10
137.122156
 20
16.050669
 10
137.191275
 20
16.050669
 10
137.25753
 20
16.050669
 10
137.320493
 20
16.050669
 10
137.379754
 20
16.050669
 10
137.43493
 20
16.050669
 10
137.485662
 20
16.050669
 10
137.531622
 20
16.050669
 10
137.572512
 20
16.050669
 10
137.608066
 20
16.050669
 10
137.638053
 20
16.050669
 10
137.66228
 20
16.050669
 10
137.675969
 20
16.050669
  0
ARC
  5
31B
330
212
100
AcDbEntity
 67
     1
  8
7_ALL_FEATURES
  6
Continuous
 62
     7
100
AcDbCircle
 10
135.799788
 20
16.550669
 30
0.0
 40
0.5
100
AcDbArc
 50
180.0
 51
270.0
  0
LINE
  5
31C
330
212
100
AcDbEntity
 67
     1
  8
7_ALL_FEATURES
  6
Continuous
 62
     7
100
AcDbLine
 10
136.749788
 20
16.050669
 30
0.0
 11
135.799864
 21
16.050669
 31
0.0
  0
LWPOLYLINE
  5
31D
330
212
100
AcDbEntity
 67
     1
  8
7_ALL_FEATURES
  6
Continuous
 62
     7
100
AcDbPolyline
 90
       24
 70
     0
 43
0.0
 10
135.823606
 20
16.050669
 10
135.818987
 20
16.050669
 10
135.806714
 20
16.050669
 10
135.800558
 20
16.050669
 10
135.800558
 20
16.050669
 10
135.806714
 20
16.050669
 10
135.818987
 20
16.050669
 10
135.837296
 20
16.050669
 10
135.861522
 20
16.050669
 10
135.89151
 20
16.050669
 10
135.927064
 20
16.050669
 10
135.967953
 20
16.050669
 10
136.013913
 20
16.050669
 10
136.064645
 20
16.050669
 10
136.119821
 20
16.050669
 10
136.179083
 20
16.050669
 10
136.242045
 20
16.050669
 10
136.308301
 20
16.050669
 10
136.377419
 20
16.050669
 10
136.448953
 20
16.050669
 10
136.522438
 20
16.050669
 10
136.597397
 20
16.050669
 10
136.673344
 20
16.050669
 10
136.749788
 20
16.050669
  0
LWPOLYLINE
  5
31E
330
212
100
AcDbEntity
 67
     1
  8
7_ALL_FEATURES
  6
Continuous
 62
     7
100
AcDbPolyline
 90
       18
 70
     0
 43
0.0
 10
136.749788
 20
16.050669
 10
136.673344
 20
16.050669
 10
136.597397
 20
16.050669
 10
136.522438
 20
16.050669
 10
136.448953
 20
16.050669
 10
136.377419
 20
16.050669
 10
136.308301
 20
16.050669
 10
136.242045
 20
16.050669
 10
136.179083
 20
16.050669
 10
136.119821
 20
16.050669
 10
136.064645
 20
16.050669
 10
136.013913
 20
16.050669
 10
135.967953
 20
16.050669
 10
135.927064
 20
16.050669
 10
135.89151
 20
16.050669
 10
135.861522
 20
16.050669
 10
135.837295
 20
16.050669
 10
135.823606
 20
16.050669
  0
LINE
  5
31F
330
212
100
AcDbEntity
 67
     1
  8
7_ALL_FEATURES
  6
Continuous
 62
     7
100
AcDbLine
 10
138.199788
 20
16.550669
 30
0.0
 11
138.199788
 21
18.900669
 31
0.0
  0
ARC
  5
320
330
212
100
AcDbEntity
 67
     1
  8
7_ALL_FEATURES
  6
Continuous
 62
     7
100
AcDbCircle
 10
137.699788
 20
34.050669
 30
0.0
 40
0.5
100
AcDbArc
 50
0.0
 51
90.0
  0
LINE
  5
321
330
212
100
AcDbEntity
 67
     1
  8
7_ALL_FEATURES
  6
Continuous
 62
     7
100
AcDbLine
 10
135.299788
 20
16.550669
 30
0.0
 11
135.299788
 21
18.900669
 31
0.0
  0
LWPOLYLINE
  5
322
330
212
100
AcDbEntity
 67
     1
  8
7_ALL_FEATURES
  6
Continuous
 62
     7
100
AcDbPolyline
 90
       21
 70
     0
 43
0.0
 10
137.675969
 20
34.550669
 10
137.680589
 20
34.550669
 10
137.692861
 20
34.550669
 10
137.699017
 20
34.550669
 10
137.699017
 20
34.550669
 10
137.692861
 20
34.550669
 10
137.680589
 20
34.550669
 10
137.66228
 20
34.550669
 10
137.638053
 20
34.550669
 10
137.608066
 20
34.550669
 10
137.572512
 20
34.550669
 10
137.531622
 20
34.550669
 10
137.485662
 20
34.550669
 10
137.43493
 20
34.550669
 10
137.379754
 20
34.550669
 10
137.320493
 20
34.550669
 10
137.25753
 20
34.550669
 10
137.191275
 20
34.550669
 10
137.122156
 20
34.550669
 10
137.050622
 20
34.550669
 10
136.977138
 20
34.550669
  0
LWPOLYLINE
  5
323
330
212
100
AcDbEntity
 67
     1
  8
7_ALL_FEATURES
  6
Continuous
 62
     7
100
AcDbPolyline
 90
       28
 70
     0
 43
0.0
 10
138.199788
 20
18.900669
 10
138.199788
 20
19.051845
 10
138.199788
 20
19.20251
 10
138.199788
 20
19.352154
 10
138.199788
 20
19.50027
 10
138.199788
 20
19.646357
 10
138.199788
 20
19.789921
 10
138.199788
 20
19.930476
 10
138.199788
 20
20.067546
 10
138.199788
 20
20.200669
 10
138.199788
 20
20.329392
 10
138.199788
 20
20.453281
 10
138.199788
 20
20.571916
 10
138.199788
 20
20.684897
 10
138.199788
 20
20.79184
 10
138.199788
 20
20.892384
 10
138.199788
 20
20.986189
 10
138.199788
 20
21.072937
 10
138.199788
 20
21.152335
 10
138.199788
 20
21.224113
 10
138.199788
 20
21.28803
 10
138.199788
 20
21.343869
 10
138.199788
 20
21.391441
 10
138.199788
 20
21.430585
 10
138.199788
 20
21.461169
 10
138.199788
 20
21.483088
 10
138.199788
 20
21.49627
 10
138.199788
 20
21.500669
  0
LINE
  5
324
330
212
100
AcDbEntity
 67
     1
  8
7_ALL_FEATURES
  6
Continuous
 62
     7
100
AcDbLine
 10
136.749788
 20
34.550669
 30
0.0
 11
137.249788
 21
34.550669
 31
0.0
  0
LINE
  5
325
330
212
100
AcDbEntity
 67
     1
  8
7_ALL_FEATURES
  6
Continuous
 62
     7
100
AcDbLine
 10
137.249788
 20
34.550669
 30
0.0
 11
137.572131
 21
34.550669
 31
0.0
  0
LINE
  5
326
330
212
100
AcDbEntity
 67
     1
  8
7_ALL_FEATURES
  6
Continuous
 62
     7
100
AcDbLine
 10
137.572131
 20
34.550669
 30
0.0
 11
137.699712
 21
34.550669
 31
0.0
  0
LWPOLYLINE
  5
327
330
212
100
AcDbEntity
 67
     1
  8
7_ALL_FEATURES
  6
Continuous
 62
     7
100
AcDbPolyline
 90
        8
 70
     0
 43
0.0
 10
136.749788
 20
34.550669
 10
136.826231
 20
34.550669
 10
136.902178
 20
34.550669
 10
136.977138
 20
34.550669
 10
137.050622
 20
34.550669
 10
137.122156
 20
34.550669
 10
137.191275
 20
34.550669
 10
137.249788
 20
34.550669
  0
LWPOLYLINE
  5
328
330
212
100
AcDbEntity
 67
     1
  8
7_ALL_FEATURES
  6
Continuous
 62
     7
100
AcDbPolyline
 90
        8
 70
     0
 43
0.0
 10
137.249788
 20
34.550669
 10
137.25753
 20
34.550669
 10
137.320493
 20
34.550669
 10
137.379754
 20
34.550669
 10
137.43493
 20
34.550669
 10
137.485662
 20
34.550669
 10
137.531622
 20
34.550669
 10
137.572512
 20
34.550669
  0
LWPOLYLINE
  5
329
330
212
100
AcDbEntity
 67
     1
  8
7_ALL_FEATURES
  6
Continuous
 62
     7
100
AcDbPolyline
 90
        5
 70
     0
 43
0.0
 10
137.572512
 20
34.550669
 10
137.608066
 20
34.550669
 10
137.638053
 20
34.550669
 10
137.66228
 20
34.550669
 10
137.675969
 20
34.550669
  0
LINE
  5
32A
330
212
100
AcDbEntity
 67
     1
  8
7_ALL_FEATURES
  6
Continuous
 62
     7
100
AcDbLine
 10
135.799864
 20
34.550669
 30
0.0
 11
136.249788
 21
34.550669
 31
0.0
  0
LINE
  5
32B
330
212
100
AcDbEntity
 67
     1
  8
7_ALL_FEATURES
  6
Continuous
 62
     7
100
AcDbLine
 10
136.249788
 20
34.550669
 30
0.0
 11
136.523851
 21
34.550669
 31
0.0
  0
LINE
  5
32C
330
212
100
AcDbEntity
 67
     1
  8
7_ALL_FEATURES
  6
Continuous
 62
     7
100
AcDbLine
 10
136.523851
 20
34.550669
 30
0.0
 11
136.749788
 21
34.550669
 31
0.0
  0
ARC
  5
32D
330
212
100
AcDbEntity
 67
     1
  8
7_ALL_FEATURES
  6
Continuous
 62
     7
100
AcDbCircle
 10
136.749788
 20
21.500669
 30
0.0
 40
1.45
100
AcDbArc
 50
0.0
 51
90.0
  0
ARC
  5
32E
330
212
100
AcDbEntity
 67
     1
  8
7_ALL_FEATURES
  6
Continuous
 62
     7
100
AcDbCircle
 10
136.749788
 20
21.500669
 30
0.0
 40
1.45
100
AcDbArc
 50
0.0
 51
90.0
  0
LWPOLYLINE
  5
32F
330
212
100
AcDbEntity
 67
     1
  8
7_ALL_FEATURES
  6
Continuous
 62
     7
100
AcDbPolyline
 90
       28
 70
     0
 43
0.0
 10
135.299788
 20
18.900669
 10
135.299788
 20
19.051845
 10
135.299788
 20
19.20251
 10
135.299788
 20
19.352154
 10
135.299788
 20
19.50027
 10
135.299788
 20
19.646357
 10
135.299788
 20
19.789921
 10
135.299788
 20
19.930476
 10
135.299788
 20
20.067546
 10
135.299788
 20
20.200669
 10
135.299788
 20
20.329392
 10
135.299788
 20
20.453281
 10
135.299788
 20
20.571916
 10
135.299788
 20
20.684897
 10
135.299788
 20
20.79184
 10
135.299788
 20
20.892384
 10
135.299788
 20
20.986189
 10
135.299788
 20
21.072937
 10
135.299788
 20
21.152335
 10
135.299788
 20
21.224113
 10
135.299788
 20
21.28803
 10
135.299788
 20
21.343869
 10
135.299788
 20
21.391441
 10
135.299788
 20
21.430585
 10
135.299788
 20
21.461169
 10
135.299788
 20
21.483088
 10
135.299788
 20
21.49627
 10
135.299788
 20
21.500669
  0
ARC
  5
330
330
212
100
AcDbEntity
 67
     1
  8
7_ALL_FEATURES
  6
Continuous
 62
     7
100
AcDbCircle
 10
135.799788
 20
34.050669
 30
0.0
 40
0.5
100
AcDbArc
 50
90.0
 51
180.0
  0
ARC
  5
331
330
212
100
AcDbEntity
 67
     1
  8
7_ALL_FEATURES
  6
Continuous
 62
     7
100
AcDbCircle
 10
136.749788
 20
21.500669
 30
0.0
 40
1.45
100
AcDbArc
 50
178.081831
 51
180.0
  0
ARC
  5
332
330
212
100
AcDbEntity
 67
     1
  8
7_ALL_FEATURES
  6
Continuous
 62
     7
100
AcDbCircle
 10
136.749788
 20
21.500669
 30
0.0
 40
1.45
100
AcDbArc
 50
93.921602
 51
178.081831
  0
ARC
  5
333
330
212
100
AcDbEntity
 67
     1
  8
7_ALL_FEATURES
  6
Continuous
 62
     7
100
AcDbCircle
 10
136.749788
 20
21.500669
 30
0.0
 40
1.45
100
AcDbArc
 50
90.0
 51
93.921602
  0
ARC
  5
334
330
212
100
AcDbEntity
 67
     1
  8
7_ALL_FEATURES
  6
Continuous
 62
     7
100
AcDbCircle
 10
136.749788
 20
21.500669
 30
0.0
 40
1.45
100
AcDbArc
 50
90.0
 51
93.921536
  0
ARC
  5
335
330
212
100
AcDbEntity
 67
     1
  8
7_ALL_FEATURES
  6
Continuous
 62
     7
100
AcDbCircle
 10
136.749788
 20
21.500669
 30
0.0
 40
1.45
100
AcDbArc
 50
93.921536
 51
178.081852
  0
ARC
  5
336
330
212
100
AcDbEntity
 67
     1
  8
7_ALL_FEATURES
  6
Continuous
 62
     7
100
AcDbCircle
 10
136.749788
 20
21.500669
 30
0.0
 40
1.45
100
AcDbArc
 50
178.081852
 51
180.0
  0
LWPOLYLINE
  5
337
330
212
100
AcDbEntity
 67
     1
  8
7_ALL_FEATURES
  6
Continuous
 62
     7
100
AcDbPolyline
 90
       18
 70
     0
 43
0.0
 10
135.823606
 20
34.550669
 10
135.818987
 20
34.550669
 10
135.806714
 20
34.550669
 10
135.800558
 20
34.550669
 10
135.800558
 20
34.550669
 10
135.806714
 20
34.550669
 10
135.818987
 20
34.550669
 10
135.837296
 20
34.550669
 10
135.861522
 20
34.550669
 10
135.89151
 20
34.550669
 10
135.927064
 20
34.550669
 10
135.967953
 20
34.550669
 10
136.013913
 20
34.550669
 10
136.064645
 20
34.550669
 10
136.119821
 20
34.550669
 10
136.179083
 20
34.550669
 10
136.242045
 20
34.550669
 10
136.249788
 20
34.550669
  0
LWPOLYLINE
  5
338
330
212
100
AcDbEntity
 67
     1
  8
7_ALL_FEATURES
  6
Continuous
 62
     7
100
AcDbPolyline
 90
        5
 70
     0
 43
0.0
 10
136.249788
 20
34.550669
 10
136.308301
 20
34.550669
 10
136.377419
 20
34.550669
 10
136.448953
 20
34.550669
 10
136.522438
 20
34.550669
  0
LWPOLYLINE
  5
339
330
212
100
AcDbEntity
 67
     1
  8
7_ALL_FEATURES
  6
Continuous
 62
     7
100
AcDbPolyline
 90
        4
 70
     0
 43
0.0
 10
136.522438
 20
34.550669
 10
136.597397
 20
34.550669
 10
136.673344
 20
34.550669
 10
136.749788
 20
34.550669
  0
LWPOLYLINE
  5
33A
330
212
100
AcDbEntity
 67
     1
  8
7_ALL_FEATURES
  6
Continuous
 62
     7
100
AcDbPolyline
 90
        5
 70
     0
 43
0.0
 10
135.927064
 20
34.550669
 10
135.89151
 20
34.550669
 10
135.861522
 20
34.550669
 10
135.837295
 20
34.550669
 10
135.823606
 20
34.550669
  0
ARC
  5
33B
330
212
100
AcDbEntity
 67
     1
  8
7_ALL_FEATURES
  6
Continuous
 62
     7
100
AcDbCircle
 10
136.749788
 20
21.500669
 30
0.0
 40
1.45
100
AcDbArc
 50
180.0
 51
181.918169
  0
LWPOLYLINE
  5
33C
330
212
100
AcDbEntity
 67
     1
  8
7_ALL_FEATURES
  6
Continuous
 62
     7
100
AcDbPolyline
 90
       28
 70
     0
 43
0.0
 10
138.199788
 20
21.500669
 10
138.199788
 20
21.505067
 10
138.199788
 20
21.518249
 10
138.199788
 20
21.540168
 10
138.199788
 20
21.570752
 10
138.199788
 20
21.609896
 10
138.199788
 20
21.657468
 10
138.199788
 20
21.713307
 10
138.199788
 20
21.777224
 10
138.199788
 20
21.849002
 10
138.199788
 20
21.9284
 10
138.199788
 20
22.015148
 10
138.199788
 20
22.108953
 10
138.199788
 20
22.209497
 10
138.199788
 20
22.31644
 10
138.199788
 20
22.429421
 10
138.199788
 20
22.548056
 10
138.199788
 20
22.671945
 10
138.199788
 20
22.800669
 10
138.199788
 20
22.933791
 10
138.199788
 20
23.070861
 10
138.199788
 20
23.211416
 10
138.199788
 20
23.35498
 10
138.199788
 20
23.501067
 10
138.199788
 20
23.649183
 10
138.199788
 20
23.798827
 10
138.199788
 20
23.949492
 10
138.199788
 20
24.100669
  0
LINE
  5
33D
330
212
100
AcDbEntity
 67
     1
  8
02___PRT_ALL_AXES
  6
Continuous
 62
     7
100
AcDbLine
 10
137.249788
 20
34.550669
 30
0.0
 11
137.249788
 21
431.417388
 31
0.0
  0
LINE
  5
33E
330
212
100
AcDbEntity
 67
     1
  8
02___PRT_ALL_AXES
  6
Continuous
 62
     7
100
AcDbLine
 10
136.249788
 20
34.550669
 30
0.0
 11
136.249788
 21
431.417388
 31
0.0
  0
LINE
  5
33F
330
212
100
AcDbEntity
 67
     1
  8
7_ALL_FEATURES
  6
Continuous
 62
     7
100
AcDbLine
 10
135.299788
 20
24.100669
 30
0.0
 11
135.299788
 21
34.050669
 31
0.0
  0
LINE
  5
340
330
212
100
AcDbEntity
 67
     1
  8
7_ALL_FEATURES
  6
Continuous
 62
     7
100
AcDbLine
 10
138.199788
 20
24.100669
 30
0.0
 11
138.199788
 21
34.050669
 31
0.0
  0
LWPOLYLINE
  5
341
330
212
100
AcDbEntity
 67
     1
  8
7_ALL_FEATURES
  6
Continuous
 62
     7
100
AcDbPolyline
 90
       28
 70
     0
 43
0.0
 10
135.299788
 20
21.500669
 10
135.299788
 20
21.505067
 10
135.299788
 20
21.518249
 10
135.299788
 20
21.540168
 10
135.299788
 20
21.570752
 10
135.299788
 20
21.609896
 10
135.299788
 20
21.657468
 10
135.299788
 20
21.713307
 10
135.299788
 20
21.777224
 10
135.299788
 20
21.849002
 10
135.299788
 20
21.9284
 10
135.299788
 20
22.015148
 10
135.299788
 20
22.108953
 10
135.299788
 20
22.209497
 10
135.299788
 20
22.31644
 10
135.299788
 20
22.429421
 10
135.299788
 20
22.548056
 10
135.299788
 20
22.671945
 10
135.299788
 20
22.800669
 10
135.299788
 20
22.933791
 10
135.299788
 20
23.070861
 10
135.299788
 20
23.211416
 10
135.299788
 20
23.35498
 10
135.299788
 20
23.501067
 10
135.299788
 20
23.649183
 10
135.299788
 20
23.798827
 10
135.299788
 20
23.949492
 10
135.299788
 20
24.100669
  0
LWPOLYLINE
  5
342
330
212
100
AcDbEntity
 67
     1
  8
7_ALL_FEATURES
  6
Continuous
 62
     9
100
AcDbPolyline
 90
       78
 70
     0
 43
0.0
 10
135.299788
 20
18.900669
 10
135.299864
 20
18.900669
 10
135.300475
 20
18.900669
 10
135.301698
 20
18.900669
 10
135.303531
 20
18.900669
 10
135.305973
 20
18.900669
 10
135.309024
 20
18.900669
 10
135.312683
 20
18.900669
 10
135.316948
 20
18.900669
 10
135.321816
 20
18.900669
 10
135.327287
 20
18.900669
 10
135.333358
 20
18.900669
 10
135.340025
 20
18.900669
 10
135.347287
 20
18.900669
 10
135.355141
 20
18.900669
 10
135.363582
 20
18.900669
 10
135.372607
 20
18.900669
 10
135.382214
 20
18.900669
 10
135.392397
 20
18.900669
 10
135.403152
 20
18.900669
 10
135.414475
 20
18.900669
 10
135.426361
 20
18.900669
 10
135.438804
 20
18.900669
 10
135.451801
 20
18.900669
 10
135.465345
 20
18.900669
 10
135.47943
 20
18.900669
 10
135.494051
 20
18.900669
 10
135.509201
 20
18.900669
 10
135.524874
 20
18.900669
 10
135.541064
 20
18.900669
 10
135.557764
 20
18.900669
 10
135.574966
 20
18.900669
 10
135.592663
 20
18.900669
 10
135.610848
 20
18.900669
 10
135.629513
 20
18.900669
 10
135.648651
 20
18.900669
 10
135.668252
 20
18.900669
 10
135.68831
 20
18.900669
 10
135.708815
 20
18.900669
 10
135.72976
 20
18.900669
 10
135.751134
 20
18.900669
 10
135.772929
 20
18.900669
 10
135.795136
 20
18.900669
 10
135.817746
 20
18.900669
 10
135.840748
 20
18.900669
 10
135.864134
 20
18.900669
 10
135.887893
 20
18.900669
 10
135.912016
 20
18.900669
 10
135.936491
 20
18.900669
 10
135.96131
 20
18.900669
 10
135.986461
 20
18.900669
 10
136.011934
 20
18.900669
 10
136.037718
 20
18.900669
 10
136.063802
 20
18.900669
 10
136.090175
 20
18.900669
 10
136.116827
 20
18.900669
 10
136.143745
 20
18.900669
 10
136.170919
 20
18.900669
 10
136.198337
 20
18.900669
 10
136.225987
 20
18.900669
 10
136.253858
 20
18.900669
 10
136.281939
 20
18.900669
 10
136.310216
 20
18.900669
 10
136.338679
 20
18.900669
 10
136.367315
 20
18.900669
 10
136.396113
 20
18.900669
 10
136.425059
 20
18.900669
 10
136.454143
 20
18.900669
 10
136.483351
 20
18.900669
 10
136.512671
 20
18.900669
 10
136.542092
 20
18.900669
 10
136.5716
 20
18.900669
 10
136.601183
 20
18.900669
 10
136.630829
 20
18.900669
 10
136.660524
 20
18.900669
 10
136.690258
 20
18.900669
 10
136.720017
 20
18.900669
 10
136.749788
 20
18.900669
  0
LWPOLYLINE
  5
343
330
212
100
AcDbEntity
 67
     1
  8
7_ALL_FEATURES
  6
Continuous
 62
     9
100
AcDbPolyline
 90
       24
 70
     0
 43
0.0
 10
136.749788
 20
16.550669
 10
136.648641
 20
16.550669
 10
136.547987
 20
16.550669
 10
136.448316
 20
16.550669
 10
136.350114
 20
16.550669
 10
136.253858
 20
16.550669
 10
136.16002
 20
16.550669
 10
136.069054
 20
16.550669
 10
135.981405
 20
16.550669
 10
135.897499
 20
16.550669
 10
135.817746
 20
16.550669
 10
135.742533
 20
16.550669
 10
135.672228
 20
16.550669
 10
135.607172
 20
16.550669
 10
135.547683
 20
16.550669
 10
135.494051
 20
16.550669
 10
135.446536
 20
16.550669
 10
135.405371
 20
16.550669
 10
135.370756
 20
16.550669
 10
135.342859
 20
16.550669
 10
135.321816
 20
16.550669
 10
135.307731
 20
16.550669
 10
135.300671
 20
16.550669
 10
135.299788
 20
16.550669
  0
LWPOLYLINE
  5
344
330
212
100
AcDbEntity
 67
     1
  8
7_ALL_FEATURES
  6
Continuous
 62
     9
100
AcDbPolyline
 90
       24
 70
     0
 43
0.0
 10
136.749788
 20
34.050669
 10
136.850935
 20
34.050669
 10
136.951589
 20
34.050669
 10
137.05126
 20
34.050669
 10
137.149462
 20
34.050669
 10
137.245717
 20
34.050669
 10
137.339556
 20
34.050669
 10
137.430521
 20
34.050669
 10
137.518171
 20
34.050669
 10
137.602076
 20
34.050669
 10
137.68183
 20
34.050669
 10
137.757042
 20
34.050669
 10
137.827348
 20
34.050669
 10
137.892403
 20
34.050669
 10
137.951892
 20
34.050669
 10
138.005525
 20
34.050669
 10
138.053039
 20
34.050669
 10
138.094204
 20
34.050669
 10
138.12882
 20
34.050669
 10
138.156717
 20
34.050669
 10
138.177759
 20
34.050669
 10
138.191844
 20
34.050669
 10
138.198904
 20
34.050669
 10
138.199788
 20
34.050669
  0
LWPOLYLINE
  5
345
330
212
100
AcDbEntity
 67
     1
  8
7_ALL_FEATURES
  6
Continuous
 62
     9
100
AcDbPolyline
 90
       78
 70
     0
 43
0.0
 10
136.749788
 20
24.100669
 10
136.779559
 20
24.100669
 10
136.809317
 20
24.100669
 10
136.839051
 20
24.100669
 10
136.868747
 20
24.100669
 10
136.898393
 20
24.100669
 10
136.927976
 20
24.100669
 10
136.957484
 20
24.100669
 10
136.986904
 20
24.100669
 10
137.016225
 20
24.100669
 10
137.045433
 20
24.100669
 10
137.074516
 20
24.100669
 10
137.103463
 20
24.100669
 10
137.13226
 20
24.100669
 10
137.160896
 20
24.100669
 10
137.189359
 20
24.100669
 10
137.217637
 20
24.100669
 10
137.245717
 20
24.100669
 10
137.273588
 20
24.100669
 10
137.301238
 20
24.100669
 10
137.328656
 20
24.100669
 10
137.35583
 20
24.100669
 10
137.382749
 20
24.100669
 10
137.4094
 20
24.100669
 10
137.435773
 20
24.100669
 10
137.461858
 20
24.100669
 10
137.487641
 20
24.100669
 10
137.513114
 20
24.100669
 10
137.538265
 20
24.100669
 10
137.563084
 20
24.100669
 10
137.58756
 20
24.100669
 10
137.611682
 20
24.100669
 10
137.635441
 20
24.100669
 10
137.658827
 20
24.100669
 10
137.68183
 20
24.100669
 10
137.704439
 20
24.100669
 10
137.726646
 20
24.100669
 10
137.748442
 20
24.100669
 10
137.769816
 20
24.100669
 10
137.79076
 20
24.100669
 10
137.811265
 20
24.100669
 10
137.831323
 20
24.100669
 10
137.850925
 20
24.100669
 10
137.870062
 20
24.100669
 10
137.888728
 20
24.100669
 10
137.906913
 20
24.100669
 10
137.92461
 20
24.100669
 10
137.941812
 20
24.100669
 10
137.958511
 20
24.100669
 10
137.974701
 20
24.100669
 10
137.990374
 20
24.100669
 10
138.005525
 20
24.100669
 10
138.020145
 20
24.100669
 10
138.034231
 20
24.100669
 10
138.047774
 20
24.100669
 10
138.060771
 20
24.100669
 10
138.073215
 20
24.100669
 10
138.085101
 20
24.100669
 10
138.096424
 20
24.100669
 10
138.107179
 20
24.100669
 10
138.117362
 20
24.100669
 10
138.126968
 20
24.100669
 10
138.135994
 20
24.100669
 10
138.144435
 20
24.100669
 10
138.152288
 20
24.100669
 10
138.15955
 20
24.100669
 10
138.166218
 20
24.100669
 10
138.172288
 20
24.100669
 10
138.177759
 20
24.100669
 10
138.182628
 20
24.100669
 10
138.186892
 20
24.100669
 10
138.190551
 20
24.100669
 10
138.193602
 20
24.100669
 10
138.196045
 20
24.100669
 10
138.197878
 20
24.100669
 10
138.1991
 20
24.100669
 10
138.199711
 20
24.100669
 10
138.199788
 20
24.100669
  0
LWPOLYLINE
  5
346
330
212
100
AcDbEntity
 67
     1
  8
7_ALL_FEATURES
  6
Continuous
 62
     9
100
AcDbPolyline
 90
       78
 70
     0
 43
0.0
 10
136.749788
 20
18.900669
 10
136.779559
 20
18.900669
 10
136.809317
 20
18.900669
 10
136.839051
 20
18.900669
 10
136.868747
 20
18.900669
 10
136.898393
 20
18.900669
 10
136.927976
 20
18.900669
 10
136.957484
 20
18.900669
 10
136.986904
 20
18.900669
 10
137.016225
 20
18.900669
 10
137.045433
 20
18.900669
 10
137.074516
 20
18.900669
 10
137.103463
 20
18.900669
 10
137.13226
 20
18.900669
 10
137.160896
 20
18.900669
 10
137.189359
 20
18.900669
 10
137.217637
 20
18.900669
 10
137.245717
 20
18.900669
 10
137.273588
 20
18.900669
 10
137.301238
 20
18.900669
 10
137.328656
 20
18.900669
 10
137.35583
 20
18.900669
 10
137.382749
 20
18.900669
 10
137.4094
 20
18.900669
 10
137.435773
 20
18.900669
 10
137.461858
 20
18.900669
 10
137.487641
 20
18.900669
 10
137.513114
 20
18.900669
 10
137.538265
 20
18.900669
 10
137.563084
 20
18.900669
 10
137.58756
 20
18.900669
 10
137.611682
 20
18.900669
 10
137.635441
 20
18.900669
 10
137.658827
 20
18.900669
 10
137.68183
 20
18.900669
 10
137.704439
 20
18.900669
 10
137.726646
 20
18.900669
 10
137.748442
 20
18.900669
 10
137.769816
 20
18.900669
 10
137.79076
 20
18.900669
 10
137.811265
 20
18.900669
 10
137.831323
 20
18.900669
 10
137.850925
 20
18.900669
 10
137.870062
 20
18.900669
 10
137.888728
 20
18.900669
 10
137.906913
 20
18.900669
 10
137.92461
 20
18.900669
 10
137.941812
 20
18.900669
 10
137.958511
 20
18.900669
 10
137.974701
 20
18.900669
 10
137.990374
 20
18.900669
 10
138.005525
 20
18.900669
 10
138.020145
 20
18.900669
 10
138.034231
 20
18.900669
 10
138.047774
 20
18.900669
 10
138.060771
 20
18.900669
 10
138.073215
 20
18.900669
 10
138.085101
 20
18.900669
 10
138.096424
 20
18.900669
 10
138.107179
 20
18.900669
 10
138.117362
 20
18.900669
 10
138.126968
 20
18.900669
 10
138.135994
 20
18.900669
 10
138.144435
 20
18.900669
 10
138.152288
 20
18.900669
 10
138.15955
 20
18.900669
 10
138.166218
 20
18.900669
 10
138.172288
 20
18.900669
 10
138.177759
 20
18.900669
 10
138.182628
 20
18.900669
 10
138.186892
 20
18.900669
 10
138.190551
 20
18.900669
 10
138.193602
 20
18.900669
 10
138.196045
 20
18.900669
 10
138.197878
 20
18.900669
 10
138.1991
 20
18.900669
 10
138.199711
 20
18.900669
 10
138.199788
 20
18.900669
  0
LWPOLYLINE
  5
347
330
212
100
AcDbEntity
 67
     1
  8
7_ALL_FEATURES
  6
Continuous
 62
     9
100
AcDbPolyline
 90
       24
 70
     0
 43
0.0
 10
135.299788
 20
34.050669
 10
135.300671
 20
34.050669
 10
135.307731
 20
34.050669
 10
135.321816
 20
34.050669
 10
135.342859
 20
34.050669
 10
135.370756
 20
34.050669
 10
135.405371
 20
34.050669
 10
135.446536
 20
34.050669
 10
135.494051
 20
34.050669
 10
135.547683
 20
34.050669
 10
135.607172
 20
34.050669
 10
135.672228
 20
34.050669
 10
135.742533
 20
34.050669
 10
135.817746
 20
34.050669
 10
135.897499
 20
34.050669
 10
135.981405
 20
34.050669
 10
136.069054
 20
34.050669
 10
136.16002
 20
34.050669
 10
136.253859
 20
34.050669
 10
136.350114
 20
34.050669
 10
136.448316
 20
34.050669
 10
136.547987
 20
34.050669
 10
136.648641
 20
34.050669
 10
136.749788
 20
34.050669
  0
LWPOLYLINE
  5
348
330
212
100
AcDbEntity
 67
     1
  8
7_ALL_FEATURES
  6
Continuous
 62
     9
100
AcDbPolyline
 90
       24
 70
     0
 43
0.0
 10
138.199788
 20
16.550669
 10
138.198904
 20
16.550669
 10
138.191844
 20
16.550669
 10
138.177759
 20
16.550669
 10
138.156717
 20
16.550669
 10
138.12882
 20
16.550669
 10
138.094204
 20
16.550669
 10
138.053039
 20
16.550669
 10
138.005525
 20
16.550669
 10
137.951892
 20
16.550669
 10
137.892403
 20
16.550669
 10
137.827348
 20
16.550669
 10
137.757042
 20
16.550669
 10
137.68183
 20
16.550669
 10
137.602076
 20
16.550669
 10
137.518171
 20
16.550669
 10
137.430521
 20
16.550669
 10
137.339556
 20
16.550669
 10
137.245717
 20
16.550669
 10
137.149462
 20
16.550669
 10
137.05126
 20
16.550669
 10
136.951589
 20
16.550669
 10
136.850935
 20
16.550669
 10
136.749788
 20
16.550669
  0
LWPOLYLINE
  5
349
330
212
100
AcDbEntity
 67
     1
  8
7_ALL_FEATURES
  6
Continuous
 62
     9
100
AcDbPolyline
 90
       78
 70
     0
 43
0.0
 10
135.299788
 20
24.100669
 10
135.299864
 20
24.100669
 10
135.300475
 20
24.100669
 10
135.301698
 20
24.100669
 10
135.303531
 20
24.100669
 10
135.305973
 20
24.100669
 10
135.309024
 20
24.100669
 10
135.312683
 20
24.100669
 10
135.316948
 20
24.100669
 10
135.321816
 20
24.100669
 10
135.327287
 20
24.100669
 10
135.333358
 20
24.100669
 10
135.340025
 20
24.100669
 10
135.347287
 20
24.100669
 10
135.355141
 20
24.100669
 10
135.363582
 20
24.100669
 10
135.372607
 20
24.100669
 10
135.382214
 20
24.100669
 10
135.392397
 20
24.100669
 10
135.403152
 20
24.100669
 10
135.414475
 20
24.100669
 10
135.426361
 20
24.100669
 10
135.438804
 20
24.100669
 10
135.451801
 20
24.100669
 10
135.465345
 20
24.100669
 10
135.47943
 20
24.100669
 10
135.494051
 20
24.100669
 10
135.509201
 20
24.100669
 10
135.524874
 20
24.100669
 10
135.541064
 20
24.100669
 10
135.557764
 20
24.100669
 10
135.574966
 20
24.100669
 10
135.592663
 20
24.100669
 10
135.610848
 20
24.100669
 10
135.629513
 20
24.100669
 10
135.648651
 20
24.100669
 10
135.668252
 20
24.100669
 10
135.68831
 20
24.100669
 10
135.708815
 20
24.100669
 10
135.72976
 20
24.100669
 10
135.751134
 20
24.100669
 10
135.772929
 20
24.100669
 10
135.795136
 20
24.100669
 10
135.817746
 20
24.100669
 10
135.840748
 20
24.100669
 10
135.864134
 20
24.100669
 10
135.887893
 20
24.100669
 10
135.912016
 20
24.100669
 10
135.936491
 20
24.100669
 10
135.96131
 20
24.100669
 10
135.986461
 20
24.100669
 10
136.011934
 20
24.100669
 10
136.037718
 20
24.100669
 10
136.063802
 20
24.100669
 10
136.090175
 20
24.100669
 10
136.116827
 20
24.100669
 10
136.143745
 20
24.100669
 10
136.170919
 20
24.100669
 10
136.198337
 20
24.100669
 10
136.225987
 20
24.100669
 10
136.253858
 20
24.100669
 10
136.281939
 20
24.100669
 10
136.310216
 20
24.100669
 10
136.338679
 20
24.100669
 10
136.367315
 20
24.100669
 10
136.396113
 20
24.100669
 10
136.425059
 20
24.100669
 10
136.454143
 20
24.100669
 10
136.483351
 20
24.100669
 10
136.512671
 20
24.100669
 10
136.542092
 20
24.100669
 10
136.5716
 20
24.100669
 10
136.601183
 20
24.100669
 10
136.630829
 20
24.100669
 10
136.660524
 20
24.100669
 10
136.690258
 20
24.100669
 10
136.720017
 20
24.100669
 10
136.749788
 20
24.100669
  0
LINE
  5
34A
330
212
100
AcDbEntity
 67
     1
  8
7_ALL_FEATURES
  6
Continuous
 62
     7
100
AcDbLine
 10
97.699712
 20
16.050669
 30
0.0
 11
96.749788
 21
16.050669
 31
0.0
  0
ARC
  5
34B
330
212
100
AcDbEntity
 67
     1
  8
7_ALL_FEATURES
  6
Continuous
 62
     7
100
AcDbCircle
 10
97.699788
 20
16.550669
 30
0.0
 40
0.5
100
AcDbArc
 50
270.0
 51
360.0
  0
LWPOLYLINE
  5
34C
330
212
100
AcDbEntity
 67
     1
  8
7_ALL_FEATURES
  6
Continuous
 62
     7
100
AcDbPolyline
 90
       24
 70
     0
 43
0.0
 10
97.675969
 20
16.050669
 10
97.680589
 20
16.050669
 10
97.692861
 20
16.050669
 10
97.699017
 20
16.050669
 10
97.699017
 20
16.050669
 10
97.692861
 20
16.050669
 10
97.680589
 20
16.050669
 10
97.66228
 20
16.050669
 10
97.638053
 20
16.050669
 10
97.608066
 20
16.050669
 10
97.572512
 20
16.050669
 10
97.531622
 20
16.050669
 10
97.485662
 20
16.050669
 10
97.43493
 20
16.050669
 10
97.379754
 20
16.050669
 10
97.320493
 20
16.050669
 10
97.25753
 20
16.050669
 10
97.191275
 20
16.050669
 10
97.122156
 20
16.050669
 10
97.050622
 20
16.050669
 10
96.977138
 20
16.050669
 10
96.902178
 20
16.050669
 10
96.826231
 20
16.050669
 10
96.749788
 20
16.050669
  0
LWPOLYLINE
  5
34D
330
212
100
AcDbEntity
 67
     1
  8
7_ALL_FEATURES
  6
Continuous
 62
     7
100
AcDbPolyline
 90
       18
 70
     0
 43
0.0
 10
96.749788
 20
16.050669
 10
96.826231
 20
16.050669
 10
96.902178
 20
16.050669
 10
96.977138
 20
16.050669
 10
97.050622
 20
16.050669
 10
97.122156
 20
16.050669
 10
97.191275
 20
16.050669
 10
97.25753
 20
16.050669
 10
97.320493
 20
16.050669
 10
97.379754
 20
16.050669
 10
97.43493
 20
16.050669
 10
97.485662
 20
16.050669
 10
97.531622
 20
16.050669
 10
97.572512
 20
16.050669
 10
97.608066
 20
16.050669
 10
97.638053
 20
16.050669
 10
97.66228
 20
16.050669
 10
97.675969
 20
16.050669
  0
ARC
  5
34E
330
212
100
AcDbEntity
 67
     1
  8
7_ALL_FEATURES
  6
Continuous
 62
     7
100
AcDbCircle
 10
95.799788
 20
16.550669
 30
0.0
 40
0.5
100
AcDbArc
 50
180.0
 51
270.0
  0
LINE
  5
34F
330
212
100
AcDbEntity
 67
     1
  8
7_ALL_FEATURES
  6
Continuous
 62
     7
100
AcDbLine
 10
96.749788
 20
16.050669
 30
0.0
 11
95.799864
 21
16.050669
 31
0.0
  0
LWPOLYLINE
  5
350
330
212
100
AcDbEntity
 67
     1
  8
7_ALL_FEATURES
  6
Continuous
 62
     7
100
AcDbPolyline
 90
       24
 70
     0
 43
0.0
 10
95.823606
 20
16.050669
 10
95.818987
 20
16.050669
 10
95.806714
 20
16.050669
 10
95.800558
 20
16.050669
 10
95.800558
 20
16.050669
 10
95.806714
 20
16.050669
 10
95.818987
 20
16.050669
 10
95.837296
 20
16.050669
 10
95.861522
 20
16.050669
 10
95.89151
 20
16.050669
 10
95.927064
 20
16.050669
 10
95.967953
 20
16.050669
 10
96.013913
 20
16.050669
 10
96.064645
 20
16.050669
 10
96.119821
 20
16.050669
 10
96.179083
 20
16.050669
 10
96.242045
 20
16.050669
 10
96.308301
 20
16.050669
 10
96.377419
 20
16.050669
 10
96.448953
 20
16.050669
 10
96.522438
 20
16.050669
 10
96.597397
 20
16.050669
 10
96.673344
 20
16.050669
 10
96.749788
 20
16.050669
  0
LWPOLYLINE
  5
351
330
212
100
AcDbEntity
 67
     1
  8
7_ALL_FEATURES
  6
Continuous
 62
     7
100
AcDbPolyline
 90
       18
 70
     0
 43
0.0
 10
96.749788
 20
16.050669
 10
96.673344
 20
16.050669
 10
96.597397
 20
16.050669
 10
96.522438
 20
16.050669
 10
96.448953
 20
16.050669
 10
96.377419
 20
16.050669
 10
96.308301
 20
16.050669
 10
96.242045
 20
16.050669
 10
96.179083
 20
16.050669
 10
96.119821
 20
16.050669
 10
96.064645
 20
16.050669
 10
96.013913
 20
16.050669
 10
95.967953
 20
16.050669
 10
95.927064
 20
16.050669
 10
95.89151
 20
16.050669
 10
95.861522
 20
16.050669
 10
95.837295
 20
16.050669
 10
95.823606
 20
16.050669
  0
LINE
  5
352
330
212
100
AcDbEntity
 67
     1
  8
7_ALL_FEATURES
  6
Continuous
 62
     7
100
AcDbLine
 10
98.199788
 20
16.550669
 30
0.0
 11
98.199788
 21
18.900669
 31
0.0
  0
ARC
  5
353
330
212
100
AcDbEntity
 67
     1
  8
7_ALL_FEATURES
  6
Continuous
 62
     7
100
AcDbCircle
 10
97.699788
 20
34.050669
 30
0.0
 40
0.5
100
AcDbArc
 50
0.0
 51
90.0
  0
LINE
  5
354
330
212
100
AcDbEntity
 67
     1
  8
7_ALL_FEATURES
  6
Continuous
 62
     7
100
AcDbLine
 10
95.299788
 20
16.550669
 30
0.0
 11
95.299788
 21
18.900669
 31
0.0
  0
LWPOLYLINE
  5
355
330
212
100
AcDbEntity
 67
     1
  8
7_ALL_FEATURES
  6
Continuous
 62
     7
100
AcDbPolyline
 90
       21
 70
     0
 43
0.0
 10
97.675969
 20
34.550669
 10
97.680589
 20
34.550669
 10
97.692861
 20
34.550669
 10
97.699017
 20
34.550669
 10
97.699017
 20
34.550669
 10
97.692861
 20
34.550669
 10
97.680589
 20
34.550669
 10
97.66228
 20
34.550669
 10
97.638053
 20
34.550669
 10
97.608066
 20
34.550669
 10
97.572512
 20
34.550669
 10
97.531622
 20
34.550669
 10
97.485662
 20
34.550669
 10
97.43493
 20
34.550669
 10
97.379754
 20
34.550669
 10
97.320493
 20
34.550669
 10
97.25753
 20
34.550669
 10
97.191275
 20
34.550669
 10
97.122156
 20
34.550669
 10
97.050622
 20
34.550669
 10
96.977138
 20
34.550669
  0
LWPOLYLINE
  5
356
330
212
100
AcDbEntity
 67
     1
  8
7_ALL_FEATURES
  6
Continuous
 62
     7
100
AcDbPolyline
 90
       28
 70
     0
 43
0.0
 10
98.199788
 20
18.900669
 10
98.199788
 20
19.051845
 10
98.199788
 20
19.20251
 10
98.199788
 20
19.352154
 10
98.199788
 20
19.50027
 10
98.199788
 20
19.646357
 10
98.199788
 20
19.789921
 10
98.199788
 20
19.930476
 10
98.199788
 20
20.067546
 10
98.199788
 20
20.200669
 10
98.199788
 20
20.329392
 10
98.199788
 20
20.453281
 10
98.199788
 20
20.571916
 10
98.199788
 20
20.684897
 10
98.199788
 20
20.79184
 10
98.199788
 20
20.892384
 10
98.199788
 20
20.986189
 10
98.199788
 20
21.072937
 10
98.199788
 20
21.152335
 10
98.199788
 20
21.224113
 10
98.199788
 20
21.28803
 10
98.199788
 20
21.343869
 10
98.199788
 20
21.391441
 10
98.199788
 20
21.430585
 10
98.199788
 20
21.461169
 10
98.199788
 20
21.483088
 10
98.199788
 20
21.49627
 10
98.199788
 20
21.500669
  0
LINE
  5
357
330
212
100
AcDbEntity
 67
     1
  8
7_ALL_FEATURES
  6
Continuous
 62
     7
100
AcDbLine
 10
96.749788
 20
34.550669
 30
0.0
 11
97.249788
 21
34.550669
 31
0.0
  0
LINE
  5
358
330
212
100
AcDbEntity
 67
     1
  8
7_ALL_FEATURES
  6
Continuous
 62
     7
100
AcDbLine
 10
97.249788
 20
34.550669
 30
0.0
 11
97.572131
 21
34.550669
 31
0.0
  0
LINE
  5
359
330
212
100
AcDbEntity
 67
     1
  8
7_ALL_FEATURES
  6
Continuous
 62
     7
100
AcDbLine
 10
97.572131
 20
34.550669
 30
0.0
 11
97.699712
 21
34.550669
 31
0.0
  0
LWPOLYLINE
  5
35A
330
212
100
AcDbEntity
 67
     1
  8
7_ALL_FEATURES
  6
Continuous
 62
     7
100
AcDbPolyline
 90
        8
 70
     0
 43
0.0
 10
96.749788
 20
34.550669
 10
96.826231
 20
34.550669
 10
96.902178
 20
34.550669
 10
96.977138
 20
34.550669
 10
97.050622
 20
34.550669
 10
97.122156
 20
34.550669
 10
97.191275
 20
34.550669
 10
97.249788
 20
34.550669
  0
LWPOLYLINE
  5
35B
330
212
100
AcDbEntity
 67
     1
  8
7_ALL_FEATURES
  6
Continuous
 62
     7
100
AcDbPolyline
 90
        8
 70
     0
 43
0.0
 10
97.249788
 20
34.550669
 10
97.25753
 20
34.550669
 10
97.320493
 20
34.550669
 10
97.379754
 20
34.550669
 10
97.43493
 20
34.550669
 10
97.485662
 20
34.550669
 10
97.531622
 20
34.550669
 10
97.572512
 20
34.550669
  0
LWPOLYLINE
  5
35C
330
212
100
AcDbEntity
 67
     1
  8
7_ALL_FEATURES
  6
Continuous
 62
     7
100
AcDbPolyline
 90
        5
 70
     0
 43
0.0
 10
97.572512
 20
34.550669
 10
97.608066
 20
34.550669
 10
97.638053
 20
34.550669
 10
97.66228
 20
34.550669
 10
97.675969
 20
34.550669
  0
LINE
  5
35D
330
212
100
AcDbEntity
 67
     1
  8
7_ALL_FEATURES
  6
Continuous
 62
     7
100
AcDbLine
 10
95.799864
 20
34.550669
 30
0.0
 11
96.249788
 21
34.550669
 31
0.0
  0
LINE
  5
35E
330
212
100
AcDbEntity
 67
     1
  8
7_ALL_FEATURES
  6
Continuous
 62
     7
100
AcDbLine
 10
96.249788
 20
34.550669
 30
0.0
 11
96.523851
 21
34.550669
 31
0.0
  0
LINE
  5
35F
330
212
100
AcDbEntity
 67
     1
  8
7_ALL_FEATURES
  6
Continuous
 62
     7
100
AcDbLine
 10
96.523851
 20
34.550669
 30
0.0
 11
96.749788
 21
34.550669
 31
0.0
  0
ARC
  5
360
330
212
100
AcDbEntity
 67
     1
  8
7_ALL_FEATURES
  6
Continuous
 62
     7
100
AcDbCircle
 10
96.749788
 20
21.500669
 30
0.0
 40
1.45
100
AcDbArc
 50
0.0
 51
90.0
  0
ARC
  5
361
330
212
100
AcDbEntity
 67
     1
  8
7_ALL_FEATURES
  6
Continuous
 62
     7
100
AcDbCircle
 10
96.749788
 20
21.500669
 30
0.0
 40
1.45
100
AcDbArc
 50
0.0
 51
90.0
  0
LWPOLYLINE
  5
362
330
212
100
AcDbEntity
 67
     1
  8
7_ALL_FEATURES
  6
Continuous
 62
     7
100
AcDbPolyline
 90
       28
 70
     0
 43
0.0
 10
95.299788
 20
18.900669
 10
95.299788
 20
19.051845
 10
95.299788
 20
19.20251
 10
95.299788
 20
19.352154
 10
95.299788
 20
19.50027
 10
95.299788
 20
19.646357
 10
95.299788
 20
19.789921
 10
95.299788
 20
19.930476
 10
95.299788
 20
20.067546
 10
95.299788
 20
20.200669
 10
95.299788
 20
20.329392
 10
95.299788
 20
20.453281
 10
95.299788
 20
20.571916
 10
95.299788
 20
20.684897
 10
95.299788
 20
20.79184
 10
95.299788
 20
20.892384
 10
95.299788
 20
20.986189
 10
95.299788
 20
21.072937
 10
95.299788
 20
21.152335
 10
95.299788
 20
21.224113
 10
95.299788
 20
21.28803
 10
95.299788
 20
21.343869
 10
95.299788
 20
21.391441
 10
95.299788
 20
21.430585
 10
95.299788
 20
21.461169
 10
95.299788
 20
21.483088
 10
95.299788
 20
21.49627
 10
95.299788
 20
21.500669
  0
ARC
  5
363
330
212
100
AcDbEntity
 67
     1
  8
7_ALL_FEATURES
  6
Continuous
 62
     7
100
AcDbCircle
 10
95.799788
 20
34.050669
 30
0.0
 40
0.5
100
AcDbArc
 50
90.0
 51
180.0
  0
ARC
  5
364
330
212
100
AcDbEntity
 67
     1
  8
7_ALL_FEATURES
  6
Continuous
 62
     7
100
AcDbCircle
 10
96.749788
 20
21.500669
 30
0.0
 40
1.45
100
AcDbArc
 50
178.081831
 51
180.0
  0
ARC
  5
365
330
212
100
AcDbEntity
 67
     1
  8
7_ALL_FEATURES
  6
Continuous
 62
     7
100
AcDbCircle
 10
96.749788
 20
21.500669
 30
0.0
 40
1.45
100
AcDbArc
 50
93.921602
 51
178.081831
  0
ARC
  5
366
330
212
100
AcDbEntity
 67
     1
  8
7_ALL_FEATURES
  6
Continuous
 62
     7
100
AcDbCircle
 10
96.749788
 20
21.500669
 30
0.0
 40
1.45
100
AcDbArc
 50
90.0
 51
93.921602
  0
ARC
  5
367
330
212
100
AcDbEntity
 67
     1
  8
7_ALL_FEATURES
  6
Continuous
 62
     7
100
AcDbCircle
 10
96.749788
 20
21.500669
 30
0.0
 40
1.45
100
AcDbArc
 50
90.0
 51
93.921536
  0
ARC
  5
368
330
212
100
AcDbEntity
 67
     1
  8
7_ALL_FEATURES
  6
Continuous
 62
     7
100
AcDbCircle
 10
96.749788
 20
21.500669
 30
0.0
 40
1.45
100
AcDbArc
 50
93.921536
 51
178.081852
  0
ARC
  5
369
330
212
100
AcDbEntity
 67
     1
  8
7_ALL_FEATURES
  6
Continuous
 62
     7
100
AcDbCircle
 10
96.749788
 20
21.500669
 30
0.0
 40
1.45
100
AcDbArc
 50
178.081852
 51
180.0
  0
LWPOLYLINE
  5
36A
330
212
100
AcDbEntity
 67
     1
  8
7_ALL_FEATURES
  6
Continuous
 62
     7
100
AcDbPolyline
 90
       18
 70
     0
 43
0.0
 10
95.823606
 20
34.550669
 10
95.818987
 20
34.550669
 10
95.806714
 20
34.550669
 10
95.800558
 20
34.550669
 10
95.800558
 20
34.550669
 10
95.806714
 20
34.550669
 10
95.818987
 20
34.550669
 10
95.837296
 20
34.550669
 10
95.861522
 20
34.550669
 10
95.89151
 20
34.550669
 10
95.927064
 20
34.550669
 10
95.967953
 20
34.550669
 10
96.013913
 20
34.550669
 10
96.064645
 20
34.550669
 10
96.119821
 20
34.550669
 10
96.179083
 20
34.550669
 10
96.242045
 20
34.550669
 10
96.249788
 20
34.550669
  0
LWPOLYLINE
  5
36B
330
212
100
AcDbEntity
 67
     1
  8
7_ALL_FEATURES
  6
Continuous
 62
     7
100
AcDbPolyline
 90
        5
 70
     0
 43
0.0
 10
96.249788
 20
34.550669
 10
96.308301
 20
34.550669
 10
96.377419
 20
34.550669
 10
96.448953
 20
34.550669
 10
96.522438
 20
34.550669
  0
LWPOLYLINE
  5
36C
330
212
100
AcDbEntity
 67
     1
  8
7_ALL_FEATURES
  6
Continuous
 62
     7
100
AcDbPolyline
 90
        4
 70
     0
 43
0.0
 10
96.522438
 20
34.550669
 10
96.597397
 20
34.550669
 10
96.673344
 20
34.550669
 10
96.749788
 20
34.550669
  0
LWPOLYLINE
  5
36D
330
212
100
AcDbEntity
 67
     1
  8
7_ALL_FEATURES
  6
Continuous
 62
     7
100
AcDbPolyline
 90
        5
 70
     0
 43
0.0
 10
95.927064
 20
34.550669
 10
95.89151
 20
34.550669
 10
95.861522
 20
34.550669
 10
95.837295
 20
34.550669
 10
95.823606
 20
34.550669
  0
ARC
  5
36E
330
212
100
AcDbEntity
 67
     1
  8
7_ALL_FEATURES
  6
Continuous
 62
     7
100
AcDbCircle
 10
96.749788
 20
21.500669
 30
0.0
 40
1.45
100
AcDbArc
 50
180.0
 51
181.918169
  0
LWPOLYLINE
  5
36F
330
212
100
AcDbEntity
 67
     1
  8
7_ALL_FEATURES
  6
Continuous
 62
     7
100
AcDbPolyline
 90
       28
 70
     0
 43
0.0
 10
98.199788
 20
21.500669
 10
98.199788
 20
21.505067
 10
98.199788
 20
21.518249
 10
98.199788
 20
21.540168
 10
98.199788
 20
21.570752
 10
98.199788
 20
21.609896
 10
98.199788
 20
21.657468
 10
98.199788
 20
21.713307
 10
98.199788
 20
21.777224
 10
98.199788
 20
21.849002
 10
98.199788
 20
21.9284
 10
98.199788
 20
22.015148
 10
98.199788
 20
22.108953
 10
98.199788
 20
22.209497
 10
98.199788
 20
22.31644
 10
98.199788
 20
22.429421
 10
98.199788
 20
22.548056
 10
98.199788
 20
22.671945
 10
98.199788
 20
22.800669
 10
98.199788
 20
22.933791
 10
98.199788
 20
23.070861
 10
98.199788
 20
23.211416
 10
98.199788
 20
23.35498
 10
98.199788
 20
23.501067
 10
98.199788
 20
23.649183
 10
98.199788
 20
23.798827
 10
98.199788
 20
23.949492
 10
98.199788
 20
24.100669
  0
LINE
  5
370
330
212
100
AcDbEntity
 67
     1
  8
02___PRT_ALL_AXES
  6
Continuous
 62
     7
100
AcDbLine
 10
97.249788
 20
34.550669
 30
0.0
 11
97.249788
 21
431.417388
 31
0.0
  0
LINE
  5
371
330
212
100
AcDbEntity
 67
     1
  8
02___PRT_ALL_AXES
  6
Continuous
 62
     7
100
AcDbLine
 10
96.249788
 20
34.550669
 30
0.0
 11
96.249788
 21
431.417388
 31
0.0
  0
LINE
  5
372
330
212
100
AcDbEntity
 67
     1
  8
7_ALL_FEATURES
  6
Continuous
 62
     7
100
AcDbLine
 10
95.299788
 20
24.100669
 30
0.0
 11
95.299788
 21
34.050669
 31
0.0
  0
LINE
  5
373
330
212
100
AcDbEntity
 67
     1
  8
7_ALL_FEATURES
  6
Continuous
 62
     7
100
AcDbLine
 10
98.199788
 20
24.100669
 30
0.0
 11
98.199788
 21
34.050669
 31
0.0
  0
LWPOLYLINE
  5
374
330
212
100
AcDbEntity
 67
     1
  8
7_ALL_FEATURES
  6
Continuous
 62
     7
100
AcDbPolyline
 90
       28
 70
     0
 43
0.0
 10
95.299788
 20
21.500669
 10
95.299788
 20
21.505067
 10
95.299788
 20
21.518249
 10
95.299788
 20
21.540168
 10
95.299788
 20
21.570752
 10
95.299788
 20
21.609896
 10
95.299788
 20
21.657468
 10
95.299788
 20
21.713307
 10
95.299788
 20
21.777224
 10
95.299788
 20
21.849002
 10
95.299788
 20
21.9284
 10
95.299788
 20
22.015148
 10
95.299788
 20
22.108953
 10
95.299788
 20
22.209497
 10
95.299788
 20
22.31644
 10
95.299788
 20
22.429421
 10
95.299788
 20
22.548056
 10
95.299788
 20
22.671945
 10
95.299788
 20
22.800669
 10
95.299788
 20
22.933791
 10
95.299788
 20
23.070861
 10
95.299788
 20
23.211416
 10
95.299788
 20
23.35498
 10
95.299788
 20
23.501067
 10
95.299788
 20
23.649183
 10
95.299788
 20
23.798827
 10
95.299788
 20
23.949492
 10
95.299788
 20
24.100669
  0
LWPOLYLINE
  5
375
330
212
100
AcDbEntity
 67
     1
  8
7_ALL_FEATURES
  6
Continuous
 62
     9
100
AcDbPolyline
 90
       78
 70
     0
 43
0.0
 10
95.299788
 20
18.900669
 10
95.299864
 20
18.900669
 10
95.300475
 20
18.900669
 10
95.301698
 20
18.900669
 10
95.303531
 20
18.900669
 10
95.305973
 20
18.900669
 10
95.309024
 20
18.900669
 10
95.312683
 20
18.900669
 10
95.316948
 20
18.900669
 10
95.321816
 20
18.900669
 10
95.327287
 20
18.900669
 10
95.333358
 20
18.900669
 10
95.340025
 20
18.900669
 10
95.347287
 20
18.900669
 10
95.355141
 20
18.900669
 10
95.363582
 20
18.900669
 10
95.372607
 20
18.900669
 10
95.382214
 20
18.900669
 10
95.392397
 20
18.900669
 10
95.403152
 20
18.900669
 10
95.414475
 20
18.900669
 10
95.426361
 20
18.900669
 10
95.438804
 20
18.900669
 10
95.451801
 20
18.900669
 10
95.465345
 20
18.900669
 10
95.47943
 20
18.900669
 10
95.494051
 20
18.900669
 10
95.509201
 20
18.900669
 10
95.524874
 20
18.900669
 10
95.541064
 20
18.900669
 10
95.557764
 20
18.900669
 10
95.574966
 20
18.900669
 10
95.592663
 20
18.900669
 10
95.610848
 20
18.900669
 10
95.629513
 20
18.900669
 10
95.648651
 20
18.900669
 10
95.668252
 20
18.900669
 10
95.68831
 20
18.900669
 10
95.708815
 20
18.900669
 10
95.72976
 20
18.900669
 10
95.751134
 20
18.900669
 10
95.772929
 20
18.900669
 10
95.795136
 20
18.900669
 10
95.817746
 20
18.900669
 10
95.840748
 20
18.900669
 10
95.864134
 20
18.900669
 10
95.887893
 20
18.900669
 10
95.912016
 20
18.900669
 10
95.936491
 20
18.900669
 10
95.96131
 20
18.900669
 10
95.986461
 20
18.900669
 10
96.011934
 20
18.900669
 10
96.037718
 20
18.900669
 10
96.063802
 20
18.900669
 10
96.090175
 20
18.900669
 10
96.116827
 20
18.900669
 10
96.143745
 20
18.900669
 10
96.170919
 20
18.900669
 10
96.198337
 20
18.900669
 10
96.225987
 20
18.900669
 10
96.253858
 20
18.900669
 10
96.281939
 20
18.900669
 10
96.310216
 20
18.900669
 10
96.338679
 20
18.900669
 10
96.367315
 20
18.900669
 10
96.396113
 20
18.900669
 10
96.425059
 20
18.900669
 10
96.454143
 20
18.900669
 10
96.483351
 20
18.900669
 10
96.512671
 20
18.900669
 10
96.542092
 20
18.900669
 10
96.5716
 20
18.900669
 10
96.601183
 20
18.900669
 10
96.630829
 20
18.900669
 10
96.660524
 20
18.900669
 10
96.690258
 20
18.900669
 10
96.720017
 20
18.900669
 10
96.749788
 20
18.900669
  0
LWPOLYLINE
  5
376
330
212
100
AcDbEntity
 67
     1
  8
7_ALL_FEATURES
  6
Continuous
 62
     9
100
AcDbPolyline
 90
       24
 70
     0
 43
0.0
 10
96.749788
 20
16.550669
 10
96.648641
 20
16.550669
 10
96.547987
 20
16.550669
 10
96.448316
 20
16.550669
 10
96.350114
 20
16.550669
 10
96.253858
 20
16.550669
 10
96.16002
 20
16.550669
 10
96.069054
 20
16.550669
 10
95.981405
 20
16.550669
 10
95.897499
 20
16.550669
 10
95.817746
 20
16.550669
 10
95.742533
 20
16.550669
 10
95.672228
 20
16.550669
 10
95.607172
 20
16.550669
 10
95.547683
 20
16.550669
 10
95.494051
 20
16.550669
 10
95.446536
 20
16.550669
 10
95.405371
 20
16.550669
 10
95.370756
 20
16.550669
 10
95.342859
 20
16.550669
 10
95.321816
 20
16.550669
 10
95.307731
 20
16.550669
 10
95.300671
 20
16.550669
 10
95.299788
 20
16.550669
  0
LWPOLYLINE
  5
377
330
212
100
AcDbEntity
 67
     1
  8
7_ALL_FEATURES
  6
Continuous
 62
     9
100
AcDbPolyline
 90
       24
 70
     0
 43
0.0
 10
96.749788
 20
34.050669
 10
96.850935
 20
34.050669
 10
96.951589
 20
34.050669
 10
97.05126
 20
34.050669
 10
97.149462
 20
34.050669
 10
97.245717
 20
34.050669
 10
97.339556
 20
34.050669
 10
97.430521
 20
34.050669
 10
97.518171
 20
34.050669
 10
97.602076
 20
34.050669
 10
97.68183
 20
34.050669
 10
97.757042
 20
34.050669
 10
97.827348
 20
34.050669
 10
97.892403
 20
34.050669
 10
97.951892
 20
34.050669
 10
98.005525
 20
34.050669
 10
98.053039
 20
34.050669
 10
98.094204
 20
34.050669
 10
98.12882
 20
34.050669
 10
98.156717
 20
34.050669
 10
98.177759
 20
34.050669
 10
98.191844
 20
34.050669
 10
98.198904
 20
34.050669
 10
98.199788
 20
34.050669
  0
LWPOLYLINE
  5
378
330
212
100
AcDbEntity
 67
     1
  8
7_ALL_FEATURES
  6
Continuous
 62
     9
100
AcDbPolyline
 90
       78
 70
     0
 43
0.0
 10
96.749788
 20
24.100669
 10
96.779559
 20
24.100669
 10
96.809317
 20
24.100669
 10
96.839051
 20
24.100669
 10
96.868747
 20
24.100669
 10
96.898393
 20
24.100669
 10
96.927976
 20
24.100669
 10
96.957484
 20
24.100669
 10
96.986904
 20
24.100669
 10
97.016225
 20
24.100669
 10
97.045433
 20
24.100669
 10
97.074516
 20
24.100669
 10
97.103463
 20
24.100669
 10
97.13226
 20
24.100669
 10
97.160896
 20
24.100669
 10
97.189359
 20
24.100669
 10
97.217637
 20
24.100669
 10
97.245717
 20
24.100669
 10
97.273588
 20
24.100669
 10
97.301238
 20
24.100669
 10
97.328656
 20
24.100669
 10
97.35583
 20
24.100669
 10
97.382749
 20
24.100669
 10
97.4094
 20
24.100669
 10
97.435773
 20
24.100669
 10
97.461858
 20
24.100669
 10
97.487641
 20
24.100669
 10
97.513114
 20
24.100669
 10
97.538265
 20
24.100669
 10
97.563084
 20
24.100669
 10
97.58756
 20
24.100669
 10
97.611682
 20
24.100669
 10
97.635441
 20
24.100669
 10
97.658827
 20
24.100669
 10
97.68183
 20
24.100669
 10
97.704439
 20
24.100669
 10
97.726646
 20
24.100669
 10
97.748442
 20
24.100669
 10
97.769816
 20
24.100669
 10
97.79076
 20
24.100669
 10
97.811265
 20
24.100669
 10
97.831323
 20
24.100669
 10
97.850925
 20
24.100669
 10
97.870062
 20
24.100669
 10
97.888728
 20
24.100669
 10
97.906913
 20
24.100669
 10
97.92461
 20
24.100669
 10
97.941812
 20
24.100669
 10
97.958511
 20
24.100669
 10
97.974701
 20
24.100669
 10
97.990374
 20
24.100669
 10
98.005525
 20
24.100669
 10
98.020145
 20
24.100669
 10
98.034231
 20
24.100669
 10
98.047774
 20
24.100669
 10
98.060771
 20
24.100669
 10
98.073215
 20
24.100669
 10
98.085101
 20
24.100669
 10
98.096424
 20
24.100669
 10
98.107179
 20
24.100669
 10
98.117362
 20
24.100669
 10
98.126968
 20
24.100669
 10
98.135994
 20
24.100669
 10
98.144435
 20
24.100669
 10
98.152288
 20
24.100669
 10
98.15955
 20
24.100669
 10
98.166218
 20
24.100669
 10
98.172288
 20
24.100669
 10
98.177759
 20
24.100669
 10
98.182628
 20
24.100669
 10
98.186892
 20
24.100669
 10
98.190551
 20
24.100669
 10
98.193602
 20
24.100669
 10
98.196045
 20
24.100669
 10
98.197878
 20
24.100669
 10
98.1991
 20
24.100669
 10
98.199711
 20
24.100669
 10
98.199788
 20
24.100669
  0
LWPOLYLINE
  5
379
330
212
100
AcDbEntity
 67
     1
  8
7_ALL_FEATURES
  6
Continuous
 62
     9
100
AcDbPolyline
 90
       78
 70
     0
 43
0.0
 10
96.749788
 20
18.900669
 10
96.779559
 20
18.900669
 10
96.809317
 20
18.900669
 10
96.839051
 20
18.900669
 10
96.868747
 20
18.900669
 10
96.898393
 20
18.900669
 10
96.927976
 20
18.900669
 10
96.957484
 20
18.900669
 10
96.986904
 20
18.900669
 10
97.016225
 20
18.900669
 10
97.045433
 20
18.900669
 10
97.074516
 20
18.900669
 10
97.103463
 20
18.900669
 10
97.13226
 20
18.900669
 10
97.160896
 20
18.900669
 10
97.189359
 20
18.900669
 10
97.217637
 20
18.900669
 10
97.245717
 20
18.900669
 10
97.273588
 20
18.900669
 10
97.301238
 20
18.900669
 10
97.328656
 20
18.900669
 10
97.35583
 20
18.900669
 10
97.382749
 20
18.900669
 10
97.4094
 20
18.900669
 10
97.435773
 20
18.900669
 10
97.461858
 20
18.900669
 10
97.487641
 20
18.900669
 10
97.513114
 20
18.900669
 10
97.538265
 20
18.900669
 10
97.563084
 20
18.900669
 10
97.58756
 20
18.900669
 10
97.611682
 20
18.900669
 10
97.635441
 20
18.900669
 10
97.658827
 20
18.900669
 10
97.68183
 20
18.900669
 10
97.704439
 20
18.900669
 10
97.726646
 20
18.900669
 10
97.748442
 20
18.900669
 10
97.769816
 20
18.900669
 10
97.79076
 20
18.900669
 10
97.811265
 20
18.900669
 10
97.831323
 20
18.900669
 10
97.850925
 20
18.900669
 10
97.870062
 20
18.900669
 10
97.888728
 20
18.900669
 10
97.906913
 20
18.900669
 10
97.92461
 20
18.900669
 10
97.941812
 20
18.900669
 10
97.958511
 20
18.900669
 10
97.974701
 20
18.900669
 10
97.990374
 20
18.900669
 10
98.005525
 20
18.900669
 10
98.020145
 20
18.900669
 10
98.034231
 20
18.900669
 10
98.047774
 20
18.900669
 10
98.060771
 20
18.900669
 10
98.073215
 20
18.900669
 10
98.085101
 20
18.900669
 10
98.096424
 20
18.900669
 10
98.107179
 20
18.900669
 10
98.117362
 20
18.900669
 10
98.126968
 20
18.900669
 10
98.135994
 20
18.900669
 10
98.144435
 20
18.900669
 10
98.152288
 20
18.900669
 10
98.15955
 20
18.900669
 10
98.166218
 20
18.900669
 10
98.172288
 20
18.900669
 10
98.177759
 20
18.900669
 10
98.182628
 20
18.900669
 10
98.186892
 20
18.900669
 10
98.190551
 20
18.900669
 10
98.193602
 20
18.900669
 10
98.196045
 20
18.900669
 10
98.197878
 20
18.900669
 10
98.1991
 20
18.900669
 10
98.199711
 20
18.900669
 10
98.199788
 20
18.900669
  0
LWPOLYLINE
  5
37A
330
212
100
AcDbEntity
 67
     1
  8
7_ALL_FEATURES
  6
Continuous
 62
     9
100
AcDbPolyline
 90
       24
 70
     0
 43
0.0
 10
95.299788
 20
34.050669
 10
95.300671
 20
34.050669
 10
95.307731
 20
34.050669
 10
95.321816
 20
34.050669
 10
95.342859
 20
34.050669
 10
95.370756
 20
34.050669
 10
95.405371
 20
34.050669
 10
95.446536
 20
34.050669
 10
95.494051
 20
34.050669
 10
95.547683
 20
34.050669
 10
95.607172
 20
34.050669
 10
95.672228
 20
34.050669
 10
95.742533
 20
34.050669
 10
95.817746
 20
34.050669
 10
95.897499
 20
34.050669
 10
95.981405
 20
34.050669
 10
96.069054
 20
34.050669
 10
96.16002
 20
34.050669
 10
96.253859
 20
34.050669
 10
96.350114
 20
34.050669
 10
96.448316
 20
34.050669
 10
96.547987
 20
34.050669
 10
96.648641
 20
34.050669
 10
96.749788
 20
34.050669
  0
LWPOLYLINE
  5
37B
330
212
100
AcDbEntity
 67
     1
  8
7_ALL_FEATURES
  6
Continuous
 62
     9
100
AcDbPolyline
 90
       24
 70
     0
 43
0.0
 10
98.199788
 20
16.550669
 10
98.198904
 20
16.550669
 10
98.191844
 20
16.550669
 10
98.177759
 20
16.550669
 10
98.156717
 20
16.550669
 10
98.12882
 20
16.550669
 10
98.094204
 20
16.550669
 10
98.053039
 20
16.550669
 10
98.005525
 20
16.550669
 10
97.951892
 20
16.550669
 10
97.892403
 20
16.550669
 10
97.827348
 20
16.550669
 10
97.757042
 20
16.550669
 10
97.68183
 20
16.550669
 10
97.602076
 20
16.550669
 10
97.518171
 20
16.550669
 10
97.430521
 20
16.550669
 10
97.339556
 20
16.550669
 10
97.245717
 20
16.550669
 10
97.149462
 20
16.550669
 10
97.05126
 20
16.550669
 10
96.951589
 20
16.550669
 10
96.850935
 20
16.550669
 10
96.749788
 20
16.550669
  0
LWPOLYLINE
  5
37C
330
212
100
AcDbEntity
 67
     1
  8
7_ALL_FEATURES
  6
Continuous
 62
     9
100
AcDbPolyline
 90
       78
 70
     0
 43
0.0
 10
95.299788
 20
24.100669
 10
95.299864
 20
24.100669
 10
95.300475
 20
24.100669
 10
95.301698
 20
24.100669
 10
95.303531
 20
24.100669
 10
95.305973
 20
24.100669
 10
95.309024
 20
24.100669
 10
95.312683
 20
24.100669
 10
95.316948
 20
24.100669
 10
95.321816
 20
24.100669
 10
95.327287
 20
24.100669
 10
95.333358
 20
24.100669
 10
95.340025
 20
24.100669
 10
95.347287
 20
24.100669
 10
95.355141
 20
24.100669
 10
95.363582
 20
24.100669
 10
95.372607
 20
24.100669
 10
95.382214
 20
24.100669
 10
95.392397
 20
24.100669
 10
95.403152
 20
24.100669
 10
95.414475
 20
24.100669
 10
95.426361
 20
24.100669
 10
95.438804
 20
24.100669
 10
95.451801
 20
24.100669
 10
95.465345
 20
24.100669
 10
95.47943
 20
24.100669
 10
95.494051
 20
24.100669
 10
95.509201
 20
24.100669
 10
95.524874
 20
24.100669
 10
95.541064
 20
24.100669
 10
95.557764
 20
24.100669
 10
95.574966
 20
24.100669
 10
95.592663
 20
24.100669
 10
95.610848
 20
24.100669
 10
95.629513
 20
24.100669
 10
95.648651
 20
24.100669
 10
95.668252
 20
24.100669
 10
95.68831
 20
24.100669
 10
95.708815
 20
24.100669
 10
95.72976
 20
24.100669
 10
95.751134
 20
24.100669
 10
95.772929
 20
24.100669
 10
95.795136
 20
24.100669
 10
95.817746
 20
24.100669
 10
95.840748
 20
24.100669
 10
95.864134
 20
24.100669
 10
95.887893
 20
24.100669
 10
95.912016
 20
24.100669
 10
95.936491
 20
24.100669
 10
95.96131
 20
24.100669
 10
95.986461
 20
24.100669
 10
96.011934
 20
24.100669
 10
96.037718
 20
24.100669
 10
96.063802
 20
24.100669
 10
96.090175
 20
24.100669
 10
96.116827
 20
24.100669
 10
96.143745
 20
24.100669
 10
96.170919
 20
24.100669
 10
96.198337
 20
24.100669
 10
96.225987
 20
24.100669
 10
96.253858
 20
24.100669
 10
96.281939
 20
24.100669
 10
96.310216
 20
24.100669
 10
96.338679
 20
24.100669
 10
96.367315
 20
24.100669
 10
96.396113
 20
24.100669
 10
96.425059
 20
24.100669
 10
96.454143
 20
24.100669
 10
96.483351
 20
24.100669
 10
96.512671
 20
24.100669
 10
96.542092
 20
24.100669
 10
96.5716
 20
24.100669
 10
96.601183
 20
24.100669
 10
96.630829
 20
24.100669
 10
96.660524
 20
24.100669
 10
96.690258
 20
24.100669
 10
96.720017
 20
24.100669
 10
96.749788
 20
24.100669
  0
LINE
  5
37D
330
212
100
AcDbEntity
 67
     1
  8
7_ALL_FEATURES
  6
Continuous
 62
     7
100
AcDbLine
 10
57.699712
 20
16.050669
 30
0.0
 11
56.749788
 21
16.050669
 31
0.0
  0
ARC
  5
37E
330
212
100
AcDbEntity
 67
     1
  8
7_ALL_FEATURES
  6
Continuous
 62
     7
100
AcDbCircle
 10
57.699788
 20
16.550669
 30
0.0
 40
0.5
100
AcDbArc
 50
270.0
 51
360.0
  0
LWPOLYLINE
  5
37F
330
212
100
AcDbEntity
 67
     1
  8
7_ALL_FEATURES
  6
Continuous
 62
     7
100
AcDbPolyline
 90
       24
 70
     0
 43
0.0
 10
57.675969
 20
16.050669
 10
57.680589
 20
16.050669
 10
57.692861
 20
16.050669
 10
57.699017
 20
16.050669
 10
57.699017
 20
16.050669
 10
57.692861
 20
16.050669
 10
57.680589
 20
16.050669
 10
57.66228
 20
16.050669
 10
57.638053
 20
16.050669
 10
57.608066
 20
16.050669
 10
57.572512
 20
16.050669
 10
57.531622
 20
16.050669
 10
57.485662
 20
16.050669
 10
57.43493
 20
16.050669
 10
57.379754
 20
16.050669
 10
57.320493
 20
16.050669
 10
57.25753
 20
16.050669
 10
57.191275
 20
16.050669
 10
57.122156
 20
16.050669
 10
57.050622
 20
16.050669
 10
56.977138
 20
16.050669
 10
56.902178
 20
16.050669
 10
56.826231
 20
16.050669
 10
56.749788
 20
16.050669
  0
LWPOLYLINE
  5
380
330
212
100
AcDbEntity
 67
     1
  8
7_ALL_FEATURES
  6
Continuous
 62
     7
100
AcDbPolyline
 90
       18
 70
     0
 43
0.0
 10
56.749788
 20
16.050669
 10
56.826231
 20
16.050669
 10
56.902178
 20
16.050669
 10
56.977138
 20
16.050669
 10
57.050622
 20
16.050669
 10
57.122156
 20
16.050669
 10
57.191275
 20
16.050669
 10
57.25753
 20
16.050669
 10
57.320493
 20
16.050669
 10
57.379754
 20
16.050669
 10
57.43493
 20
16.050669
 10
57.485662
 20
16.050669
 10
57.531622
 20
16.050669
 10
57.572512
 20
16.050669
 10
57.608066
 20
16.050669
 10
57.638053
 20
16.050669
 10
57.66228
 20
16.050669
 10
57.675969
 20
16.050669
  0
ARC
  5
381
330
212
100
AcDbEntity
 67
     1
  8
7_ALL_FEATURES
  6
Continuous
 62
     7
100
AcDbCircle
 10
55.799788
 20
16.550669
 30
0.0
 40
0.5
100
AcDbArc
 50
180.0
 51
270.0
  0
LINE
  5
382
330
212
100
AcDbEntity
 67
     1
  8
7_ALL_FEATURES
  6
Continuous
 62
     7
100
AcDbLine
 10
56.749788
 20
16.050669
 30
0.0
 11
55.799864
 21
16.050669
 31
0.0
  0
LWPOLYLINE
  5
383
330
212
100
AcDbEntity
 67
     1
  8
7_ALL_FEATURES
  6
Continuous
 62
     7
100
AcDbPolyline
 90
       24
 70
     0
 43
0.0
 10
55.823606
 20
16.050669
 10
55.818987
 20
16.050669
 10
55.806714
 20
16.050669
 10
55.800558
 20
16.050669
 10
55.800558
 20
16.050669
 10
55.806714
 20
16.050669
 10
55.818987
 20
16.050669
 10
55.837296
 20
16.050669
 10
55.861522
 20
16.050669
 10
55.89151
 20
16.050669
 10
55.927064
 20
16.050669
 10
55.967953
 20
16.050669
 10
56.013913
 20
16.050669
 10
56.064645
 20
16.050669
 10
56.119821
 20
16.050669
 10
56.179083
 20
16.050669
 10
56.242045
 20
16.050669
 10
56.308301
 20
16.050669
 10
56.377419
 20
16.050669
 10
56.448953
 20
16.050669
 10
56.522438
 20
16.050669
 10
56.597397
 20
16.050669
 10
56.673344
 20
16.050669
 10
56.749788
 20
16.050669
  0
LWPOLYLINE
  5
384
330
212
100
AcDbEntity
 67
     1
  8
7_ALL_FEATURES
  6
Continuous
 62
     7
100
AcDbPolyline
 90
       18
 70
     0
 43
0.0
 10
56.749788
 20
16.050669
 10
56.673344
 20
16.050669
 10
56.597397
 20
16.050669
 10
56.522438
 20
16.050669
 10
56.448953
 20
16.050669
 10
56.377419
 20
16.050669
 10
56.308301
 20
16.050669
 10
56.242045
 20
16.050669
 10
56.179083
 20
16.050669
 10
56.119821
 20
16.050669
 10
56.064645
 20
16.050669
 10
56.013913
 20
16.050669
 10
55.967953
 20
16.050669
 10
55.927064
 20
16.050669
 10
55.89151
 20
16.050669
 10
55.861522
 20
16.050669
 10
55.837295
 20
16.050669
 10
55.823606
 20
16.050669
  0
LINE
  5
385
330
212
100
AcDbEntity
 67
     1
  8
7_ALL_FEATURES
  6
Continuous
 62
     7
100
AcDbLine
 10
58.199788
 20
16.550669
 30
0.0
 11
58.199788
 21
18.900669
 31
0.0
  0
ARC
  5
386
330
212
100
AcDbEntity
 67
     1
  8
7_ALL_FEATURES
  6
Continuous
 62
     7
100
AcDbCircle
 10
57.699788
 20
34.050669
 30
0.0
 40
0.5
100
AcDbArc
 50
0.0
 51
90.0
  0
LINE
  5
387
330
212
100
AcDbEntity
 67
     1
  8
7_ALL_FEATURES
  6
Continuous
 62
     7
100
AcDbLine
 10
55.299788
 20
16.550669
 30
0.0
 11
55.299788
 21
18.900669
 31
0.0
  0
LWPOLYLINE
  5
388
330
212
100
AcDbEntity
 67
     1
  8
7_ALL_FEATURES
  6
Continuous
 62
     7
100
AcDbPolyline
 90
       21
 70
     0
 43
0.0
 10
57.675969
 20
34.550669
 10
57.680589
 20
34.550669
 10
57.692861
 20
34.550669
 10
57.699017
 20
34.550669
 10
57.699017
 20
34.550669
 10
57.692861
 20
34.550669
 10
57.680589
 20
34.550669
 10
57.66228
 20
34.550669
 10
57.638053
 20
34.550669
 10
57.608066
 20
34.550669
 10
57.572512
 20
34.550669
 10
57.531622
 20
34.550669
 10
57.485662
 20
34.550669
 10
57.43493
 20
34.550669
 10
57.379754
 20
34.550669
 10
57.320493
 20
34.550669
 10
57.25753
 20
34.550669
 10
57.191275
 20
34.550669
 10
57.122156
 20
34.550669
 10
57.050622
 20
34.550669
 10
56.977138
 20
34.550669
  0
LWPOLYLINE
  5
389
330
212
100
AcDbEntity
 67
     1
  8
7_ALL_FEATURES
  6
Continuous
 62
     7
100
AcDbPolyline
 90
       28
 70
     0
 43
0.0
 10
58.199788
 20
18.900669
 10
58.199788
 20
19.051845
 10
58.199788
 20
19.20251
 10
58.199788
 20
19.352154
 10
58.199788
 20
19.50027
 10
58.199788
 20
19.646357
 10
58.199788
 20
19.789921
 10
58.199788
 20
19.930476
 10
58.199788
 20
20.067546
 10
58.199788
 20
20.200669
 10
58.199788
 20
20.329392
 10
58.199788
 20
20.453281
 10
58.199788
 20
20.571916
 10
58.199788
 20
20.684897
 10
58.199788
 20
20.79184
 10
58.199788
 20
20.892384
 10
58.199788
 20
20.986189
 10
58.199788
 20
21.072937
 10
58.199788
 20
21.152335
 10
58.199788
 20
21.224113
 10
58.199788
 20
21.28803
 10
58.199788
 20
21.343869
 10
58.199788
 20
21.391441
 10
58.199788
 20
21.430585
 10
58.199788
 20
21.461169
 10
58.199788
 20
21.483088
 10
58.199788
 20
21.49627
 10
58.199788
 20
21.500669
  0
LINE
  5
38A
330
212
100
AcDbEntity
 67
     1
  8
7_ALL_FEATURES
  6
Continuous
 62
     7
100
AcDbLine
 10
56.749788
 20
34.550669
 30
0.0
 11
57.249788
 21
34.550669
 31
0.0
  0
LINE
  5
38B
330
212
100
AcDbEntity
 67
     1
  8
7_ALL_FEATURES
  6
Continuous
 62
     7
100
AcDbLine
 10
57.249788
 20
34.550669
 30
0.0
 11
57.572131
 21
34.550669
 31
0.0
  0
LINE
  5
38C
330
212
100
AcDbEntity
 67
     1
  8
7_ALL_FEATURES
  6
Continuous
 62
     7
100
AcDbLine
 10
57.572131
 20
34.550669
 30
0.0
 11
57.699712
 21
34.550669
 31
0.0
  0
LWPOLYLINE
  5
38D
330
212
100
AcDbEntity
 67
     1
  8
7_ALL_FEATURES
  6
Continuous
 62
     7
100
AcDbPolyline
 90
        8
 70
     0
 43
0.0
 10
56.749788
 20
34.550669
 10
56.826231
 20
34.550669
 10
56.902178
 20
34.550669
 10
56.977138
 20
34.550669
 10
57.050622
 20
34.550669
 10
57.122156
 20
34.550669
 10
57.191275
 20
34.550669
 10
57.249788
 20
34.550669
  0
LWPOLYLINE
  5
38E
330
212
100
AcDbEntity
 67
     1
  8
7_ALL_FEATURES
  6
Continuous
 62
     7
100
AcDbPolyline
 90
        8
 70
     0
 43
0.0
 10
57.249788
 20
34.550669
 10
57.25753
 20
34.550669
 10
57.320493
 20
34.550669
 10
57.379754
 20
34.550669
 10
57.43493
 20
34.550669
 10
57.485662
 20
34.550669
 10
57.531622
 20
34.550669
 10
57.572512
 20
34.550669
  0
LWPOLYLINE
  5
38F
330
212
100
AcDbEntity
 67
     1
  8
7_ALL_FEATURES
  6
Continuous
 62
     7
100
AcDbPolyline
 90
        5
 70
     0
 43
0.0
 10
57.572512
 20
34.550669
 10
57.608066
 20
34.550669
 10
57.638053
 20
34.550669
 10
57.66228
 20
34.550669
 10
57.675969
 20
34.550669
  0
LINE
  5
390
330
212
100
AcDbEntity
 67
     1
  8
7_ALL_FEATURES
  6
Continuous
 62
     7
100
AcDbLine
 10
55.799864
 20
34.550669
 30
0.0
 11
56.249788
 21
34.550669
 31
0.0
  0
LINE
  5
391
330
212
100
AcDbEntity
 67
     1
  8
7_ALL_FEATURES
  6
Continuous
 62
     7
100
AcDbLine
 10
56.249788
 20
34.550669
 30
0.0
 11
56.523851
 21
34.550669
 31
0.0
  0
LINE
  5
392
330
212
100
AcDbEntity
 67
     1
  8
7_ALL_FEATURES
  6
Continuous
 62
     7
100
AcDbLine
 10
56.523851
 20
34.550669
 30
0.0
 11
56.749788
 21
34.550669
 31
0.0
  0
ARC
  5
393
330
212
100
AcDbEntity
 67
     1
  8
7_ALL_FEATURES
  6
Continuous
 62
     7
100
AcDbCircle
 10
56.749788
 20
21.500669
 30
0.0
 40
1.45
100
AcDbArc
 50
0.0
 51
90.0
  0
ARC
  5
394
330
212
100
AcDbEntity
 67
     1
  8
7_ALL_FEATURES
  6
Continuous
 62
     7
100
AcDbCircle
 10
56.749788
 20
21.500669
 30
0.0
 40
1.45
100
AcDbArc
 50
0.0
 51
90.0
  0
LWPOLYLINE
  5
395
330
212
100
AcDbEntity
 67
     1
  8
7_ALL_FEATURES
  6
Continuous
 62
     7
100
AcDbPolyline
 90
       28
 70
     0
 43
0.0
 10
55.299788
 20
18.900669
 10
55.299788
 20
19.051845
 10
55.299788
 20
19.20251
 10
55.299788
 20
19.352154
 10
55.299788
 20
19.50027
 10
55.299788
 20
19.646357
 10
55.299788
 20
19.789921
 10
55.299788
 20
19.930476
 10
55.299788
 20
20.067546
 10
55.299788
 20
20.200669
 10
55.299788
 20
20.329392
 10
55.299788
 20
20.453281
 10
55.299788
 20
20.571916
 10
55.299788
 20
20.684897
 10
55.299788
 20
20.79184
 10
55.299788
 20
20.892384
 10
55.299788
 20
20.986189
 10
55.299788
 20
21.072937
 10
55.299788
 20
21.152335
 10
55.299788
 20
21.224113
 10
55.299788
 20
21.28803
 10
55.299788
 20
21.343869
 10
55.299788
 20
21.391441
 10
55.299788
 20
21.430585
 10
55.299788
 20
21.461169
 10
55.299788
 20
21.483088
 10
55.299788
 20
21.49627
 10
55.299788
 20
21.500669
  0
ARC
  5
396
330
212
100
AcDbEntity
 67
     1
  8
7_ALL_FEATURES
  6
Continuous
 62
     7
100
AcDbCircle
 10
55.799788
 20
34.050669
 30
0.0
 40
0.5
100
AcDbArc
 50
90.0
 51
180.0
  0
ARC
  5
397
330
212
100
AcDbEntity
 67
     1
  8
7_ALL_FEATURES
  6
Continuous
 62
     7
100
AcDbCircle
 10
56.749788
 20
21.500669
 30
0.0
 40
1.45
100
AcDbArc
 50
178.081831
 51
180.0
  0
ARC
  5
398
330
212
100
AcDbEntity
 67
     1
  8
7_ALL_FEATURES
  6
Continuous
 62
     7
100
AcDbCircle
 10
56.749788
 20
21.500669
 30
0.0
 40
1.45
100
AcDbArc
 50
93.921602
 51
178.081831
  0
ARC
  5
399
330
212
100
AcDbEntity
 67
     1
  8
7_ALL_FEATURES
  6
Continuous
 62
     7
100
AcDbCircle
 10
56.749788
 20
21.500669
 30
0.0
 40
1.45
100
AcDbArc
 50
90.0
 51
93.921602
  0
ARC
  5
39A
330
212
100
AcDbEntity
 67
     1
  8
7_ALL_FEATURES
  6
Continuous
 62
     7
100
AcDbCircle
 10
56.749788
 20
21.500669
 30
0.0
 40
1.45
100
AcDbArc
 50
90.0
 51
93.921536
  0
ARC
  5
39B
330
212
100
AcDbEntity
 67
     1
  8
7_ALL_FEATURES
  6
Continuous
 62
     7
100
AcDbCircle
 10
56.749788
 20
21.500669
 30
0.0
 40
1.45
100
AcDbArc
 50
93.921536
 51
178.081852
  0
ARC
  5
39C
330
212
100
AcDbEntity
 67
     1
  8
7_ALL_FEATURES
  6
Continuous
 62
     7
100
AcDbCircle
 10
56.749788
 20
21.500669
 30
0.0
 40
1.45
100
AcDbArc
 50
178.081852
 51
180.0
  0
LWPOLYLINE
  5
39D
330
212
100
AcDbEntity
 67
     1
  8
7_ALL_FEATURES
  6
Continuous
 62
     7
100
AcDbPolyline
 90
       18
 70
     0
 43
0.0
 10
55.823606
 20
34.550669
 10
55.818987
 20
34.550669
 10
55.806714
 20
34.550669
 10
55.800558
 20
34.550669
 10
55.800558
 20
34.550669
 10
55.806714
 20
34.550669
 10
55.818987
 20
34.550669
 10
55.837296
 20
34.550669
 10
55.861522
 20
34.550669
 10
55.89151
 20
34.550669
 10
55.927064
 20
34.550669
 10
55.967953
 20
34.550669
 10
56.013913
 20
34.550669
 10
56.064645
 20
34.550669
 10
56.119821
 20
34.550669
 10
56.179083
 20
34.550669
 10
56.242045
 20
34.550669
 10
56.249788
 20
34.550669
  0
LWPOLYLINE
  5
39E
330
212
100
AcDbEntity
 67
     1
  8
7_ALL_FEATURES
  6
Continuous
 62
     7
100
AcDbPolyline
 90
        5
 70
     0
 43
0.0
 10
56.249788
 20
34.550669
 10
56.308301
 20
34.550669
 10
56.377419
 20
34.550669
 10
56.448953
 20
34.550669
 10
56.522438
 20
34.550669
  0
LWPOLYLINE
  5
39F
330
212
100
AcDbEntity
 67
     1
  8
7_ALL_FEATURES
  6
Continuous
 62
     7
100
AcDbPolyline
 90
        4
 70
     0
 43
0.0
 10
56.522438
 20
34.550669
 10
56.597397
 20
34.550669
 10
56.673344
 20
34.550669
 10
56.749788
 20
34.550669
  0
LWPOLYLINE
  5
3A0
330
212
100
AcDbEntity
 67
     1
  8
7_ALL_FEATURES
  6
Continuous
 62
     7
100
AcDbPolyline
 90
        5
 70
     0
 43
0.0
 10
55.927064
 20
34.550669
 10
55.89151
 20
34.550669
 10
55.861522
 20
34.550669
 10
55.837295
 20
34.550669
 10
55.823606
 20
34.550669
  0
ARC
  5
3A1
330
212
100
AcDbEntity
 67
     1
  8
7_ALL_FEATURES
  6
Continuous
 62
     7
100
AcDbCircle
 10
56.749788
 20
21.500669
 30
0.0
 40
1.45
100
AcDbArc
 50
180.0
 51
181.918169
  0
LWPOLYLINE
  5
3A2
330
212
100
AcDbEntity
 67
     1
  8
7_ALL_FEATURES
  6
Continuous
 62
     7
100
AcDbPolyline
 90
       28
 70
     0
 43
0.0
 10
58.199788
 20
21.500669
 10
58.199788
 20
21.505067
 10
58.199788
 20
21.518249
 10
58.199788
 20
21.540168
 10
58.199788
 20
21.570752
 10
58.199788
 20
21.609896
 10
58.199788
 20
21.657468
 10
58.199788
 20
21.713307
 10
58.199788
 20
21.777224
 10
58.199788
 20
21.849002
 10
58.199788
 20
21.9284
 10
58.199788
 20
22.015148
 10
58.199788
 20
22.108953
 10
58.199788
 20
22.209497
 10
58.199788
 20
22.31644
 10
58.199788
 20
22.429421
 10
58.199788
 20
22.548056
 10
58.199788
 20
22.671945
 10
58.199788
 20
22.800669
 10
58.199788
 20
22.933791
 10
58.199788
 20
23.070861
 10
58.199788
 20
23.211416
 10
58.199788
 20
23.35498
 10
58.199788
 20
23.501067
 10
58.199788
 20
23.649183
 10
58.199788
 20
23.798827
 10
58.199788
 20
23.949492
 10
58.199788
 20
24.100669
  0
LINE
  5
3A3
330
212
100
AcDbEntity
 67
     1
  8
02___PRT_ALL_AXES
  6
Continuous
 62
     7
100
AcDbLine
 10
57.249788
 20
34.550669
 30
0.0
 11
57.249788
 21
431.417388
 31
0.0
  0
LINE
  5
3A4
330
212
100
AcDbEntity
 67
     1
  8
02___PRT_ALL_AXES
  6
Continuous
 62
     7
100
AcDbLine
 10
56.249788
 20
34.550669
 30
0.0
 11
56.249788
 21
431.417388
 31
0.0
  0
LINE
  5
3A5
330
212
100
AcDbEntity
 67
     1
  8
7_ALL_FEATURES
  6
Continuous
 62
     7
100
AcDbLine
 10
55.299788
 20
24.100669
 30
0.0
 11
55.299788
 21
34.050669
 31
0.0
  0
LINE
  5
3A6
330
212
100
AcDbEntity
 67
     1
  8
7_ALL_FEATURES
  6
Continuous
 62
     7
100
AcDbLine
 10
58.199788
 20
24.100669
 30
0.0
 11
58.199788
 21
34.050669
 31
0.0
  0
LWPOLYLINE
  5
3A7
330
212
100
AcDbEntity
 67
     1
  8
7_ALL_FEATURES
  6
Continuous
 62
     7
100
AcDbPolyline
 90
       28
 70
     0
 43
0.0
 10
55.299788
 20
21.500669
 10
55.299788
 20
21.505067
 10
55.299788
 20
21.518249
 10
55.299788
 20
21.540168
 10
55.299788
 20
21.570752
 10
55.299788
 20
21.609896
 10
55.299788
 20
21.657468
 10
55.299788
 20
21.713307
 10
55.299788
 20
21.777224
 10
55.299788
 20
21.849002
 10
55.299788
 20
21.9284
 10
55.299788
 20
22.015148
 10
55.299788
 20
22.108953
 10
55.299788
 20
22.209497
 10
55.299788
 20
22.31644
 10
55.299788
 20
22.429421
 10
55.299788
 20
22.548056
 10
55.299788
 20
22.671945
 10
55.299788
 20
22.800669
 10
55.299788
 20
22.933791
 10
55.299788
 20
23.070861
 10
55.299788
 20
23.211416
 10
55.299788
 20
23.35498
 10
55.299788
 20
23.501067
 10
55.299788
 20
23.649183
 10
55.299788
 20
23.798827
 10
55.299788
 20
23.949492
 10
55.299788
 20
24.100669
  0
LWPOLYLINE
  5
3A8
330
212
100
AcDbEntity
 67
     1
  8
7_ALL_FEATURES
  6
Continuous
 62
     9
100
AcDbPolyline
 90
       78
 70
     0
 43
0.0
 10
55.299788
 20
18.900669
 10
55.299864
 20
18.900669
 10
55.300475
 20
18.900669
 10
55.301698
 20
18.900669
 10
55.303531
 20
18.900669
 10
55.305973
 20
18.900669
 10
55.309024
 20
18.900669
 10
55.312683
 20
18.900669
 10
55.316948
 20
18.900669
 10
55.321816
 20
18.900669
 10
55.327287
 20
18.900669
 10
55.333358
 20
18.900669
 10
55.340025
 20
18.900669
 10
55.347287
 20
18.900669
 10
55.355141
 20
18.900669
 10
55.363582
 20
18.900669
 10
55.372607
 20
18.900669
 10
55.382214
 20
18.900669
 10
55.392397
 20
18.900669
 10
55.403152
 20
18.900669
 10
55.414475
 20
18.900669
 10
55.426361
 20
18.900669
 10
55.438804
 20
18.900669
 10
55.451801
 20
18.900669
 10
55.465345
 20
18.900669
 10
55.47943
 20
18.900669
 10
55.494051
 20
18.900669
 10
55.509201
 20
18.900669
 10
55.524874
 20
18.900669
 10
55.541064
 20
18.900669
 10
55.557764
 20
18.900669
 10
55.574966
 20
18.900669
 10
55.592663
 20
18.900669
 10
55.610848
 20
18.900669
 10
55.629513
 20
18.900669
 10
55.648651
 20
18.900669
 10
55.668252
 20
18.900669
 10
55.68831
 20
18.900669
 10
55.708815
 20
18.900669
 10
55.72976
 20
18.900669
 10
55.751134
 20
18.900669
 10
55.772929
 20
18.900669
 10
55.795136
 20
18.900669
 10
55.817746
 20
18.900669
 10
55.840748
 20
18.900669
 10
55.864134
 20
18.900669
 10
55.887893
 20
18.900669
 10
55.912016
 20
18.900669
 10
55.936491
 20
18.900669
 10
55.96131
 20
18.900669
 10
55.986461
 20
18.900669
 10
56.011934
 20
18.900669
 10
56.037718
 20
18.900669
 10
56.063802
 20
18.900669
 10
56.090175
 20
18.900669
 10
56.116827
 20
18.900669
 10
56.143745
 20
18.900669
 10
56.170919
 20
18.900669
 10
56.198337
 20
18.900669
 10
56.225987
 20
18.900669
 10
56.253858
 20
18.900669
 10
56.281939
 20
18.900669
 10
56.310216
 20
18.900669
 10
56.338679
 20
18.900669
 10
56.367315
 20
18.900669
 10
56.396113
 20
18.900669
 10
56.425059
 20
18.900669
 10
56.454143
 20
18.900669
 10
56.483351
 20
18.900669
 10
56.512671
 20
18.900669
 10
56.542092
 20
18.900669
 10
56.5716
 20
18.900669
 10
56.601183
 20
18.900669
 10
56.630829
 20
18.900669
 10
56.660524
 20
18.900669
 10
56.690258
 20
18.900669
 10
56.720017
 20
18.900669
 10
56.749788
 20
18.900669
  0
LWPOLYLINE
  5
3A9
330
212
100
AcDbEntity
 67
     1
  8
7_ALL_FEATURES
  6
Continuous
 62
     9
100
AcDbPolyline
 90
       24
 70
     0
 43
0.0
 10
56.749788
 20
16.550669
 10
56.648641
 20
16.550669
 10
56.547987
 20
16.550669
 10
56.448316
 20
16.550669
 10
56.350114
 20
16.550669
 10
56.253858
 20
16.550669
 10
56.16002
 20
16.550669
 10
56.069054
 20
16.550669
 10
55.981405
 20
16.550669
 10
55.897499
 20
16.550669
 10
55.817746
 20
16.550669
 10
55.742533
 20
16.550669
 10
55.672228
 20
16.550669
 10
55.607172
 20
16.550669
 10
55.547683
 20
16.550669
 10
55.494051
 20
16.550669
 10
55.446536
 20
16.550669
 10
55.405371
 20
16.550669
 10
55.370756
 20
16.550669
 10
55.342859
 20
16.550669
 10
55.321816
 20
16.550669
 10
55.307731
 20
16.550669
 10
55.300671
 20
16.550669
 10
55.299788
 20
16.550669
  0
LWPOLYLINE
  5
3AA
330
212
100
AcDbEntity
 67
     1
  8
7_ALL_FEATURES
  6
Continuous
 62
     9
100
AcDbPolyline
 90
       24
 70
     0
 43
0.0
 10
56.749788
 20
34.050669
 10
56.850935
 20
34.050669
 10
56.951589
 20
34.050669
 10
57.05126
 20
34.050669
 10
57.149462
 20
34.050669
 10
57.245717
 20
34.050669
 10
57.339556
 20
34.050669
 10
57.430521
 20
34.050669
 10
57.518171
 20
34.050669
 10
57.602076
 20
34.050669
 10
57.68183
 20
34.050669
 10
57.757042
 20
34.050669
 10
57.827348
 20
34.050669
 10
57.892403
 20
34.050669
 10
57.951892
 20
34.050669
 10
58.005525
 20
34.050669
 10
58.053039
 20
34.050669
 10
58.094204
 20
34.050669
 10
58.12882
 20
34.050669
 10
58.156717
 20
34.050669
 10
58.177759
 20
34.050669
 10
58.191844
 20
34.050669
 10
58.198904
 20
34.050669
 10
58.199788
 20
34.050669
  0
LWPOLYLINE
  5
3AB
330
212
100
AcDbEntity
 67
     1
  8
7_ALL_FEATURES
  6
Continuous
 62
     9
100
AcDbPolyline
 90
       78
 70
     0
 43
0.0
 10
56.749788
 20
24.100669
 10
56.779559
 20
24.100669
 10
56.809317
 20
24.100669
 10
56.839051
 20
24.100669
 10
56.868747
 20
24.100669
 10
56.898393
 20
24.100669
 10
56.927976
 20
24.100669
 10
56.957484
 20
24.100669
 10
56.986904
 20
24.100669
 10
57.016225
 20
24.100669
 10
57.045433
 20
24.100669
 10
57.074516
 20
24.100669
 10
57.103463
 20
24.100669
 10
57.13226
 20
24.100669
 10
57.160896
 20
24.100669
 10
57.189359
 20
24.100669
 10
57.217637
 20
24.100669
 10
57.245717
 20
24.100669
 10
57.273588
 20
24.100669
 10
57.301238
 20
24.100669
 10
57.328656
 20
24.100669
 10
57.35583
 20
24.100669
 10
57.382749
 20
24.100669
 10
57.4094
 20
24.100669
 10
57.435773
 20
24.100669
 10
57.461858
 20
24.100669
 10
57.487641
 20
24.100669
 10
57.513114
 20
24.100669
 10
57.538265
 20
24.100669
 10
57.563084
 20
24.100669
 10
57.58756
 20
24.100669
 10
57.611682
 20
24.100669
 10
57.635441
 20
24.100669
 10
57.658827
 20
24.100669
 10
57.68183
 20
24.100669
 10
57.704439
 20
24.100669
 10
57.726646
 20
24.100669
 10
57.748442
 20
24.100669
 10
57.769816
 20
24.100669
 10
57.79076
 20
24.100669
 10
57.811265
 20
24.100669
 10
57.831323
 20
24.100669
 10
57.850925
 20
24.100669
 10
57.870062
 20
24.100669
 10
57.888728
 20
24.100669
 10
57.906913
 20
24.100669
 10
57.92461
 20
24.100669
 10
57.941812
 20
24.100669
 10
57.958511
 20
24.100669
 10
57.974701
 20
24.100669
 10
57.990374
 20
24.100669
 10
58.005525
 20
24.100669
 10
58.020145
 20
24.100669
 10
58.034231
 20
24.100669
 10
58.047774
 20
24.100669
 10
58.060771
 20
24.100669
 10
58.073215
 20
24.100669
 10
58.085101
 20
24.100669
 10
58.096424
 20
24.100669
 10
58.107179
 20
24.100669
 10
58.117362
 20
24.100669
 10
58.126968
 20
24.100669
 10
58.135994
 20
24.100669
 10
58.144435
 20
24.100669
 10
58.152288
 20
24.100669
 10
58.15955
 20
24.100669
 10
58.166218
 20
24.100669
 10
58.172288
 20
24.100669
 10
58.177759
 20
24.100669
 10
58.182628
 20
24.100669
 10
58.186892
 20
24.100669
 10
58.190551
 20
24.100669
 10
58.193602
 20
24.100669
 10
58.196045
 20
24.100669
 10
58.197878
 20
24.100669
 10
58.1991
 20
24.100669
 10
58.199711
 20
24.100669
 10
58.199788
 20
24.100669
  0
LWPOLYLINE
  5
3AC
330
212
100
AcDbEntity
 67
     1
  8
7_ALL_FEATURES
  6
Continuous
 62
     9
100
AcDbPolyline
 90
       78
 70
     0
 43
0.0
 10
56.749788
 20
18.900669
 10
56.779559
 20
18.900669
 10
56.809317
 20
18.900669
 10
56.839051
 20
18.900669
 10
56.868747
 20
18.900669
 10
56.898393
 20
18.900669
 10
56.927976
 20
18.900669
 10
56.957484
 20
18.900669
 10
56.986904
 20
18.900669
 10
57.016225
 20
18.900669
 10
57.045433
 20
18.900669
 10
57.074516
 20
18.900669
 10
57.103463
 20
18.900669
 10
57.13226
 20
18.900669
 10
57.160896
 20
18.900669
 10
57.189359
 20
18.900669
 10
57.217637
 20
18.900669
 10
57.245717
 20
18.900669
 10
57.273588
 20
18.900669
 10
57.301238
 20
18.900669
 10
57.328656
 20
18.900669
 10
57.35583
 20
18.900669
 10
57.382749
 20
18.900669
 10
57.4094
 20
18.900669
 10
57.435773
 20
18.900669
 10
57.461858
 20
18.900669
 10
57.487641
 20
18.900669
 10
57.513114
 20
18.900669
 10
57.538265
 20
18.900669
 10
57.563084
 20
18.900669
 10
57.58756
 20
18.900669
 10
57.611682
 20
18.900669
 10
57.635441
 20
18.900669
 10
57.658827
 20
18.900669
 10
57.68183
 20
18.900669
 10
57.704439
 20
18.900669
 10
57.726646
 20
18.900669
 10
57.748442
 20
18.900669
 10
57.769816
 20
18.900669
 10
57.79076
 20
18.900669
 10
57.811265
 20
18.900669
 10
57.831323
 20
18.900669
 10
57.850925
 20
18.900669
 10
57.870062
 20
18.900669
 10
57.888728
 20
18.900669
 10
57.906913
 20
18.900669
 10
57.92461
 20
18.900669
 10
57.941812
 20
18.900669
 10
57.958511
 20
18.900669
 10
57.974701
 20
18.900669
 10
57.990374
 20
18.900669
 10
58.005525
 20
18.900669
 10
58.020145
 20
18.900669
 10
58.034231
 20
18.900669
 10
58.047774
 20
18.900669
 10
58.060771
 20
18.900669
 10
58.073215
 20
18.900669
 10
58.085101
 20
18.900669
 10
58.096424
 20
18.900669
 10
58.107179
 20
18.900669
 10
58.117362
 20
18.900669
 10
58.126968
 20
18.900669
 10
58.135994
 20
18.900669
 10
58.144435
 20
18.900669
 10
58.152288
 20
18.900669
 10
58.15955
 20
18.900669
 10
58.166218
 20
18.900669
 10
58.172288
 20
18.900669
 10
58.177759
 20
18.900669
 10
58.182628
 20
18.900669
 10
58.186892
 20
18.900669
 10
58.190551
 20
18.900669
 10
58.193602
 20
18.900669
 10
58.196045
 20
18.900669
 10
58.197878
 20
18.900669
 10
58.1991
 20
18.900669
 10
58.199711
 20
18.900669
 10
58.199788
 20
18.900669
  0
LWPOLYLINE
  5
3AD
330
212
100
AcDbEntity
 67
     1
  8
7_ALL_FEATURES
  6
Continuous
 62
     9
100
AcDbPolyline
 90
       24
 70
     0
 43
0.0
 10
55.299788
 20
34.050669
 10
55.300671
 20
34.050669
 10
55.307731
 20
34.050669
 10
55.321816
 20
34.050669
 10
55.342859
 20
34.050669
 10
55.370756
 20
34.050669
 10
55.405371
 20
34.050669
 10
55.446536
 20
34.050669
 10
55.494051
 20
34.050669
 10
55.547683
 20
34.050669
 10
55.607172
 20
34.050669
 10
55.672228
 20
34.050669
 10
55.742533
 20
34.050669
 10
55.817746
 20
34.050669
 10
55.897499
 20
34.050669
 10
55.981405
 20
34.050669
 10
56.069054
 20
34.050669
 10
56.16002
 20
34.050669
 10
56.253859
 20
34.050669
 10
56.350114
 20
34.050669
 10
56.448316
 20
34.050669
 10
56.547987
 20
34.050669
 10
56.648641
 20
34.050669
 10
56.749788
 20
34.050669
  0
LWPOLYLINE
  5
3AE
330
212
100
AcDbEntity
 67
     1
  8
7_ALL_FEATURES
  6
Continuous
 62
     9
100
AcDbPolyline
 90
       24
 70
     0
 43
0.0
 10
58.199788
 20
16.550669
 10
58.198904
 20
16.550669
 10
58.191844
 20
16.550669
 10
58.177759
 20
16.550669
 10
58.156717
 20
16.550669
 10
58.12882
 20
16.550669
 10
58.094204
 20
16.550669
 10
58.053039
 20
16.550669
 10
58.005525
 20
16.550669
 10
57.951892
 20
16.550669
 10
57.892403
 20
16.550669
 10
57.827348
 20
16.550669
 10
57.757042
 20
16.550669
 10
57.68183
 20
16.550669
 10
57.602076
 20
16.550669
 10
57.518171
 20
16.550669
 10
57.430521
 20
16.550669
 10
57.339556
 20
16.550669
 10
57.245717
 20
16.550669
 10
57.149462
 20
16.550669
 10
57.05126
 20
16.550669
 10
56.951589
 20
16.550669
 10
56.850935
 20
16.550669
 10
56.749788
 20
16.550669
  0
LWPOLYLINE
  5
3AF
330
212
100
AcDbEntity
 67
     1
  8
7_ALL_FEATURES
  6
Continuous
 62
     9
100
AcDbPolyline
 90
       78
 70
     0
 43
0.0
 10
55.299788
 20
24.100669
 10
55.299864
 20
24.100669
 10
55.300475
 20
24.100669
 10
55.301698
 20
24.100669
 10
55.303531
 20
24.100669
 10
55.305973
 20
24.100669
 10
55.309024
 20
24.100669
 10
55.312683
 20
24.100669
 10
55.316948
 20
24.100669
 10
55.321816
 20
24.100669
 10
55.327287
 20
24.100669
 10
55.333358
 20
24.100669
 10
55.340025
 20
24.100669
 10
55.347287
 20
24.100669
 10
55.355141
 20
24.100669
 10
55.363582
 20
24.100669
 10
55.372607
 20
24.100669
 10
55.382214
 20
24.100669
 10
55.392397
 20
24.100669
 10
55.403152
 20
24.100669
 10
55.414475
 20
24.100669
 10
55.426361
 20
24.100669
 10
55.438804
 20
24.100669
 10
55.451801
 20
24.100669
 10
55.465345
 20
24.100669
 10
55.47943
 20
24.100669
 10
55.494051
 20
24.100669
 10
55.509201
 20
24.100669
 10
55.524874
 20
24.100669
 10
55.541064
 20
24.100669
 10
55.557764
 20
24.100669
 10
55.574966
 20
24.100669
 10
55.592663
 20
24.100669
 10
55.610848
 20
24.100669
 10
55.629513
 20
24.100669
 10
55.648651
 20
24.100669
 10
55.668252
 20
24.100669
 10
55.68831
 20
24.100669
 10
55.708815
 20
24.100669
 10
55.72976
 20
24.100669
 10
55.751134
 20
24.100669
 10
55.772929
 20
24.100669
 10
55.795136
 20
24.100669
 10
55.817746
 20
24.100669
 10
55.840748
 20
24.100669
 10
55.864134
 20
24.100669
 10
55.887893
 20
24.100669
 10
55.912016
 20
24.100669
 10
55.936491
 20
24.100669
 10
55.96131
 20
24.100669
 10
55.986461
 20
24.100669
 10
56.011934
 20
24.100669
 10
56.037718
 20
24.100669
 10
56.063802
 20
24.100669
 10
56.090175
 20
24.100669
 10
56.116827
 20
24.100669
 10
56.143745
 20
24.100669
 10
56.170919
 20
24.100669
 10
56.198337
 20
24.100669
 10
56.225987
 20
24.100669
 10
56.253858
 20
24.100669
 10
56.281939
 20
24.100669
 10
56.310216
 20
24.100669
 10
56.338679
 20
24.100669
 10
56.367315
 20
24.100669
 10
56.396113
 20
24.100669
 10
56.425059
 20
24.100669
 10
56.454143
 20
24.100669
 10
56.483351
 20
24.100669
 10
56.512671
 20
24.100669
 10
56.542092
 20
24.100669
 10
56.5716
 20
24.100669
 10
56.601183
 20
24.100669
 10
56.630829
 20
24.100669
 10
56.660524
 20
24.100669
 10
56.690258
 20
24.100669
 10
56.720017
 20
24.100669
 10
56.749788
 20
24.100669
  0
LINE
  5
3B0
330
212
100
AcDbEntity
 67
     1
  8
0
  6
Continuous
 62
     7
100
AcDbLine
 10
137.249788
 20
431.417388
 30
0.0
 11
136.249788
 21
431.417388
 31
0.0
  0
LINE
  5
3B1
330
212
100
AcDbEntity
 67
     1
  8
0
  6
Continuous
 62
     7
100
AcDbLine
 10
97.249788
 20
431.417388
 30
0.0
 11
96.249788
 21
431.417388
 31
0.0
  0
LINE
  5
3B2
330
212
100
AcDbEntity
 67
     1
  8
0
  6
Continuous
 62
     7
100
AcDbLine
 10
57.249788
 20
431.417388
 30
0.0
 11
56.249788
 21
431.417388
 31
0.0
  0
LINE
  5
3B3
330
212
100
AcDbEntity
 67
     1
  8
3_ALL_AXES
  6
Continuous
 62
     7
100
AcDbLine
 10
276.922607
 20
792.133159
 30
0.0
 11
276.172607
 21
792.133159
 31
0.0
  0
LINE
  5
3B4
330
212
100
AcDbEntity
 67
     1
  8
3_ALL_AXES
  6
Continuous
 62
     7
100
AcDbLine
 10
276.172607
 20
792.133159
 30
0.0
 11
274.672607
 21
792.133159
 31
0.0
  0
LINE
  5
3B5
330
212
100
AcDbEntity
 67
     1
  8
3_ALL_AXES
  6
Continuous
 62
     7
100
AcDbLine
 10
274.672607
 20
792.133159
 30
0.0
 11
273.922607
 21
792.133159
 31
0.0
  0
LINE
  5
3B6
330
212
100
AcDbEntity
 67
     1
  8
3_ALL_AXES
  6
Continuous
 62
     7
100
AcDbLine
 10
284.172607
 20
801.481628
 30
0.0
 11
283.422607
 21
801.481628
 31
0.0
  0
LINE
  5
3B7
330
212
100
AcDbEntity
 67
     1
  8
3_ALL_AXES
  6
Continuous
 62
     7
100
AcDbLine
 10
283.422607
 20
801.481628
 30
0.0
 11
283.381887
 21
801.481628
 31
0.0
  0
LINE
  5
3B8
330
212
100
AcDbEntity
 67
     1
  8
3_ALL_AXES
  6
Continuous
 62
     7
100
AcDbLine
 10
283.381887
 20
801.481628
 30
0.0
 11
281.922607
 21
801.481628
 31
0.0
  0
LINE
  5
3B9
330
212
100
AcDbEntity
 67
     1
  8
3_ALL_AXES
  6
Continuous
 62
     7
100
AcDbLine
 10
281.922607
 20
801.481628
 30
0.0
 11
281.422607
 21
801.481628
 31
0.0
  0
LINE
  5
3BA
330
212
100
AcDbEntity
 67
     1
  8
3_ALL_AXES
  6
Continuous
 62
     7
100
AcDbLine
 10
281.422607
 20
801.481628
 30
0.0
 11
269.422607
 21
801.481628
 31
0.0
  0
LINE
  5
3BB
330
212
100
AcDbEntity
 67
     1
  8
3_ALL_AXES
  6
Continuous
 62
     7
100
AcDbLine
 10
269.422607
 20
801.481628
 30
0.0
 11
268.922607
 21
801.481628
 31
0.0
  0
LINE
  5
3BC
330
212
100
AcDbEntity
 67
     1
  8
3_ALL_AXES
  6
Continuous
 62
     7
100
AcDbLine
 10
268.922607
 20
801.481628
 30
0.0
 11
267.463327
 21
801.481628
 31
0.0
  0
LINE
  5
3BD
330
212
100
AcDbEntity
 67
     1
  8
3_ALL_AXES
  6
Continuous
 62
     7
100
AcDbLine
 10
267.463327
 20
801.481628
 30
0.0
 11
267.422607
 21
801.481628
 31
0.0
  0
LINE
  5
3BE
330
212
100
AcDbEntity
 67
     1
  8
3_ALL_AXES
  6
Continuous
 62
     7
100
AcDbLine
 10
267.422607
 20
801.481628
 30
0.0
 11
266.672607
 21
801.481628
 31
0.0
  0
LINE
  5
3BF
330
212
100
AcDbEntity
 67
     1
  8
3_ALL_AXES
  6
Continuous
 62
     7
100
AcDbLine
 10
284.172607
 20
800.481628
 30
0.0
 11
281.422607
 21
800.481628
 31
0.0
  0
LINE
  5
3C0
330
212
100
AcDbEntity
 67
     1
  8
3_ALL_AXES
  6
Continuous
 62
     7
100
AcDbLine
 10
281.422607
 20
800.481628
 30
0.0
 11
269.422607
 21
800.481628
 31
0.0
  0
LINE
  5
3C1
330
212
100
AcDbEntity
 67
     1
  8
3_ALL_AXES
  6
Continuous
 62
     7
100
AcDbLine
 10
269.422607
 20
800.481628
 30
0.0
 11
266.672607
 21
800.481628
 31
0.0
  0
LINE
  5
3C2
330
212
100
AcDbEntity
 67
     1
  8
3_ALL_AXES
  6
Continuous
 62
     7
100
AcDbLine
 10
284.172607
 20
801.481628
 30
0.0
 11
284.172607
 21
800.481628
 31
0.0
  0
LINE
  5
3C3
330
212
100
AcDbEntity
 67
     1
  8
3_ALL_AXES
  6
Continuous
 62
     7
100
AcDbLine
 10
266.672607
 20
801.481628
 30
0.0
 11
266.672607
 21
800.481628
 31
0.0
  0
ARC
  5
3C4
330
212
100
AcDbEntity
 67
     1
  8
3_ALL_AXES
  6
Continuous
 62
     7
100
AcDbCircle
 10
275.422607
 20
804.981628
 30
0.0
 40
7.5
100
AcDbArc
 50
281.536959
 51
323.130102
  0
ARC
  5
3C5
330
212
100
AcDbEntity
 67
     1
  8
3_ALL_AXES
  6
Continuous
 62
     7
100
AcDbCircle
 10
275.422607
 20
804.981628
 30
0.0
 40
7.5
100
AcDbArc
 50
216.869898
 51
258.463041
  0
LINE
  5
3C6
330
212
100
AcDbEntity
 67
     1
  8
3_ALL_AXES
  6
Continuous
 62
     7
100
AcDbLine
 10
276.922607
 20
797.633159
 30
0.0
 11
276.922607
 21
792.133159
 31
0.0
  0
LINE
  5
3C7
330
212
100
AcDbEntity
 67
     1
  8
3_ALL_AXES
  6
Continuous
 62
     7
100
AcDbLine
 10
273.922607
 20
797.633159
 30
0.0
 11
273.922607
 21
792.133159
 31
0.0
  0
LWPOLYLINE
  5
3C8
330
212
100
AcDbEntity
 67
     1
  8
3_ALL_AXES
  6
Continuous
 62
     7
100
AcDbPolyline
 90
       15
 70
     0
 43
0.0
 10
276.922607
 20
797.633159
 10
276.884999
 20
797.633159
 10
276.774061
 20
797.633159
 10
276.595355
 20
797.633159
 10
276.357842
 20
797.633159
 10
276.073433
 20
797.633159
 10
275.756389
 20
797.633159
 10
275.422607
 20
797.633159
 10
275.088826
 20
797.633159
 10
274.771782
 20
797.633159
 10
274.487373
 20
797.633159
 10
274.24986
 20
797.633159
 10
274.071154
 20
797.633159
 10
273.960216
 20
797.633159
 10
273.922607
 20
797.633159
  0
LINE
  5
3C9
330
212
100
AcDbEntity
 67
     1
  8
3_ALL_AXES
  6
Continuous
 62
     7
100
AcDbLine
 10
265.422607
 20
819.481628
 30
0.0
 11
267.422607
 21
819.481628
 31
0.0
  0
LINE
  5
3CA
330
212
100
AcDbEntity
 67
     1
  8
3_ALL_AXES
  6
Continuous
 62
     7
100
AcDbLine
 10
267.422607
 20
819.481628
 30
0.0
 11
283.422607
 21
819.481628
 31
0.0
  0
LINE
  5
3CB
330
212
100
AcDbEntity
 67
     1
  8
3_ALL_AXES
  6
Continuous
 62
     7
100
AcDbLine
 10
283.422607
 20
819.481628
 30
0.0
 11
285.422607
 21
819.481628
 31
0.0
  0
LINE
  5
3CC
330
212
100
AcDbEntity
 67
     1
  8
3_ALL_AXES
  6
Continuous
 62
     7
100
AcDbLine
 10
265.422607
 20
821.481628
 30
0.0
 11
273.022607
 21
821.481628
 31
0.0
  0
LINE
  5
3CD
330
212
100
AcDbEntity
 67
     1
  8
3_ALL_AXES
  6
Continuous
 62
     7
100
AcDbLine
 10
273.022607
 20
821.481628
 30
0.0
 11
277.822607
 21
821.481628
 31
0.0
  0
LINE
  5
3CE
330
212
100
AcDbEntity
 67
     1
  8
3_ALL_AXES
  6
Continuous
 62
     7
100
AcDbLine
 10
277.822607
 20
821.481628
 30
0.0
 11
285.422607
 21
821.481628
 31
0.0
  0
LINE
  5
3CF
330
212
100
AcDbEntity
 67
     1
  8
3_ALL_AXES
  6
Continuous
 62
     7
100
AcDbLine
 10
285.422607
 20
819.481628
 30
0.0
 11
285.422607
 21
821.481628
 31
0.0
  0
LINE
  5
3D0
330
212
100
AcDbEntity
 67
     1
  8
3_ALL_AXES
  6
Continuous
 62
     7
100
AcDbLine
 10
265.422607
 20
819.481628
 30
0.0
 11
265.422607
 21
821.481628
 31
0.0
  0
LINE
  5
3D1
330
212
100
AcDbEntity
 67
     1
  8
3_ALL_AXES
  6
Continuous
 62
     7
100
AcDbLine
 10
283.422607
 20
801.481628
 30
0.0
 11
283.422607
 21
819.481628
 31
0.0
  0
LINE
  5
3D2
330
212
100
AcDbEntity
 67
     1
  8
3_ALL_AXES
  6
Continuous
 62
     7
100
AcDbLine
 10
267.422607
 20
801.481628
 30
0.0
 11
267.422607
 21
819.481628
 31
0.0
  0
LINE
  5
3D3
330
212
100
AcDbEntity
 67
     1
  8
02___PRT_ALL_AXES
  6
Continuous
 62
     7
100
AcDbLine
 10
274.922607
 20
436.41759
 30
0.0
 11
274.922607
 21
792.133159
 31
0.0
  0
LINE
  5
3D4
330
212
100
AcDbEntity
 67
     1
  8
02___PRT_ALL_AXES
  6
Continuous
 62
     7
100
AcDbLine
 10
275.922607
 20
436.41759
 30
0.0
 11
275.922607
 21
792.133159
 31
0.0
  0
LINE
  5
3D5
330
212
100
AcDbEntity
 67
     1
  8
0
  6
Continuous
 62
     7
100
AcDbLine
 10
274.922607
 20
436.41759
 30
0.0
 11
275.922607
 21
436.41759
 31
0.0
  0
ARC
  5
3D6
330
212
100
AcDbEntity
 67
     1
  8
7_ALL_FEATURES
  6
Continuous
 62
     7
100
AcDbCircle
 10
278.022607
 20
24.100669
 30
0.0
 40
4.05
100
AcDbArc
 50
180.0
 51
270.0
  0
LINE
  5
3D7
330
212
100
AcDbEntity
 67
     1
  8
7_ALL_FEATURES
  6
Continuous
 62
     7
100
AcDbLine
 10
281.572607
 20
16.050669
 30
0.0
 11
280.508009
 21
16.050669
 31
0.0
  0
LINE
  5
3D8
330
212
100
AcDbEntity
 67
     1
  8
7_ALL_FEATURES
  6
Continuous
 62
     7
100
AcDbLine
 10
280.508009
 20
16.050669
 30
0.0
 11
279.672607
 21
16.050669
 31
0.0
  0
LINE
  5
3D9
330
212
100
AcDbEntity
 67
     1
  8
7_ALL_FEATURES
  6
Continuous
 62
     7
100
AcDbLine
 10
282.072607
 20
16.550669
 30
0.0
 11
282.072607
 21
18.900669
 31
0.0
  0
LINE
  5
3DA
330
212
100
AcDbEntity
 67
     1
  8
7_ALL_FEATURES
  6
Continuous
 62
     7
100
AcDbLine
 10
279.172607
 20
16.550669
 30
0.0
 11
279.172607
 21
18.900669
 31
0.0
  0
ARC
  5
3DB
330
212
100
AcDbEntity
 67
     1
  8
7_ALL_FEATURES
  6
Continuous
 62
     7
100
AcDbCircle
 10
278.022607
 20
18.900669
 30
0.0
 40
4.05
100
AcDbArc
 50
0.0
 51
90.0
  0
ARC
  5
3DC
330
212
100
AcDbEntity
 67
     1
  8
7_ALL_FEATURES
  6
Continuous
 62
     7
100
AcDbCircle
 10
278.022607
 20
18.900669
 30
0.0
 40
1.15
100
AcDbArc
 50
0.0
 51
90.0
  0
ARC
  5
3DD
330
212
100
AcDbEntity
 67
     1
  8
7_ALL_FEATURES
  6
Continuous
 62
     7
100
AcDbCircle
 10
278.022607
 20
24.100669
 30
0.0
 40
1.15
100
AcDbArc
 50
180.0
 51
270.0
  0
ARC
  5
3DE
330
212
100
AcDbEntity
 67
     1
  8
7_ALL_FEATURES
  6
Continuous
 62
     7
100
AcDbCircle
 10
278.022607
 20
24.100669
 30
0.0
 40
4.05
100
AcDbArc
 50
180.0
 51
270.0
  0
ARC
  5
3DF
330
212
100
AcDbEntity
 67
     1
  8
7_ALL_FEATURES
  6
Continuous
 62
     7
100
AcDbCircle
 10
279.672607
 20
16.550669
 30
0.0
 40
0.5
100
AcDbArc
 50
180.0
 51
270.0
  0
LINE
  5
3E0
330
212
100
AcDbEntity
 67
     1
  8
7_ALL_FEATURES
  6
Continuous
 62
     7
100
AcDbLine
 10
274.472607
 20
34.550669
 30
0.0
 11
274.922607
 21
34.550669
 31
0.0
  0
LINE
  5
3E1
330
212
100
AcDbEntity
 67
     1
  8
7_ALL_FEATURES
  6
Continuous
 62
     7
100
AcDbLine
 10
274.922607
 20
34.550669
 30
0.0
 11
275.085418
 21
34.550669
 31
0.0
  0
LINE
  5
3E2
330
212
100
AcDbEntity
 67
     1
  8
7_ALL_FEATURES
  6
Continuous
 62
     7
100
AcDbLine
 10
275.085418
 20
34.550669
 30
0.0
 11
275.537272
 21
34.550669
 31
0.0
  0
LINE
  5
3E3
330
212
100
AcDbEntity
 67
     1
  8
7_ALL_FEATURES
  6
Continuous
 62
     7
100
AcDbLine
 10
275.537272
 20
34.550669
 30
0.0
 11
275.922607
 21
34.550669
 31
0.0
  0
LINE
  5
3E4
330
212
100
AcDbEntity
 67
     1
  8
7_ALL_FEATURES
  6
Continuous
 62
     7
100
AcDbLine
 10
275.922607
 20
34.550669
 30
0.0
 11
276.1343
 21
34.550669
 31
0.0
  0
LINE
  5
3E5
330
212
100
AcDbEntity
 67
     1
  8
7_ALL_FEATURES
  6
Continuous
 62
     7
100
AcDbLine
 10
276.1343
 20
34.550669
 30
0.0
 11
276.372607
 21
34.550669
 31
0.0
  0
ARC
  5
3E6
330
212
100
AcDbEntity
 67
     1
  8
7_ALL_FEATURES
  6
Continuous
 62
     7
100
AcDbCircle
 10
281.572607
 20
16.550669
 30
0.0
 40
0.5
100
AcDbArc
 50
270.0
 51
360.0
  0
ARC
  5
3E7
330
212
100
AcDbEntity
 67
     1
  8
7_ALL_FEATURES
  6
Continuous
 62
     7
100
AcDbCircle
 10
276.372607
 20
34.050669
 30
0.0
 40
0.5
100
AcDbArc
 50
0.0
 51
90.0
  0
LINE
  5
3E8
330
212
100
AcDbEntity
 67
     1
  8
7_ALL_FEATURES
  6
Continuous
 62
     7
100
AcDbLine
 10
276.872607
 20
24.100669
 30
0.0
 11
276.872607
 21
34.050669
 31
0.0
  0
LINE
  5
3E9
330
212
100
AcDbEntity
 67
     1
  8
7_ALL_FEATURES
  6
Continuous
 62
     7
100
AcDbLine
 10
273.972607
 20
24.100669
 30
0.0
 11
273.972607
 21
34.050669
 31
0.0
  0
LINE
  5
3EA
330
212
100
AcDbEntity
 67
     1
  8
02___PRT_ALL_AXES
  6
Continuous
 62
     7
100
AcDbLine
 10
274.922607
 20
34.550669
 30
0.0
 11
274.922607
 21
431.417388
 31
0.0
  0
LINE
  5
3EB
330
212
100
AcDbEntity
 67
     1
  8
02___PRT_ALL_AXES
  6
Continuous
 62
     7
100
AcDbLine
 10
275.922607
 20
34.550669
 30
0.0
 11
275.922607
 21
431.417388
 31
0.0
  0
ARC
  5
3EC
330
212
100
AcDbEntity
 67
     1
  8
7_ALL_FEATURES
  6
Continuous
 62
     7
100
AcDbCircle
 10
274.472607
 20
34.050669
 30
0.0
 40
0.5
100
AcDbArc
 50
90.0
 51
180.0
  0
LWPOLYLINE
  5
3ED
330
212
100
AcDbEntity
 67
     1
  8
7_ALL_FEATURES
  6
Continuous
 62
     9
100
AcDbPolyline
 90
       52
 70
     0
 43
0.0
 10
273.972607
 20
24.100669
 10
273.975358
 20
24.100669
 10
273.983598
 20
24.100669
 10
273.997296
 20
24.100669
 10
274.016402
 20
24.100669
 10
274.040842
 20
24.100669
 10
274.070523
 20
24.100669
 10
274.105333
 20
24.100669
 10
274.14514
 20
24.100669
 10
274.189793
 20
24.100669
 10
274.239122
 20
24.100669
 10
274.292941
 20
24.100669
 10
274.351045
 20
24.100669
 10
274.413213
 20
24.100669
 10
274.479211
 20
24.100669
 10
274.548787
 20
24.100669
 10
274.621678
 20
24.100669
 10
274.697607
 20
24.100669
 10
274.776287
 20
24.100669
 10
274.857418
 20
24.100669
 10
274.940693
 20
24.100669
 10
275.025796
 20
24.100669
 10
275.112404
 20
24.100669
 10
275.20019
 20
24.100669
 10
275.288818
 20
24.100669
 10
275.377955
 20
24.100669
 10
275.46726
 20
24.100669
 10
275.556397
 20
24.100669
 10
275.645025
 20
24.100669
 10
275.73281
 20
24.100669
 10
275.819419
 20
24.100669
 10
275.904522
 20
24.100669
 10
275.987797
 20
24.100669
 10
276.068928
 20
24.100669
 10
276.147607
 20
24.100669
 10
276.223537
 20
24.100669
 10
276.296428
 20
24.100669
 10
276.366004
 20
24.100669
 10
276.432002
 20
24.100669
 10
276.49417
 20
24.100669
 10
276.552274
 20
24.100669
 10
276.606093
 20
24.100669
 10
276.655422
 20
24.100669
 10
276.700075
 20
24.100669
 10
276.739882
 20
24.100669
 10
276.774692
 20
24.100669
 10
276.804373
 20
24.100669
 10
276.828813
 20
24.100669
 10
276.847918
 20
24.100669
 10
276.861617
 20
24.100669
 10
276.869857
 20
24.100669
 10
276.872607
 20
24.100669
  0
LWPOLYLINE
  5
3EE
330
212
100
AcDbEntity
 67
     1
  8
7_ALL_FEATURES
  6
Continuous
 62
     9
100
AcDbPolyline
 90
       52
 70
     0
 43
0.0
 10
278.022607
 20
20.050669
 10
278.022607
 20
20.053419
 10
278.022607
 20
20.061659
 10
278.022607
 20
20.075358
 10
278.022607
 20
20.094463
 10
278.022607
 20
20.118903
 10
278.022607
 20
20.148584
 10
278.022607
 20
20.183394
 10
278.022607
 20
20.223201
 10
278.022607
 20
20.267854
 10
278.022607
 20
20.317183
 10
278.022607
 20
20.371002
 10
278.022607
 20
20.429106
 10
278.022607
 20
20.491274
 10
278.022607
 20
20.557272
 10
278.022607
 20
20.626848
 10
278.022607
 20
20.699739
 10
278.022607
 20
20.775669
 10
278.022607
 20
20.854348
 10
278.022607
 20
20.935479
 10
278.022607
 20
21.018754
 10
278.022607
 20
21.103857
 10
278.022607
 20
21.190466
 10
278.022607
 20
21.278251
 10
278.022607
 20
21.366879
 10
278.022607
 20
21.456016
 10
278.022607
 20
21.545321
 10
278.022607
 20
21.634458
 10
278.022607
 20
21.723086
 10
278.022607
 20
21.810871
 10
278.022607
 20
21.89748
 10
278.022607
 20
21.982583
 10
278.022607
 20
22.065858
 10
278.022607
 20
22.146989
 10
278.022607
 20
22.225669
 10
278.022607
 20
22.301598
 10
278.022607
 20
22.374489
 10
278.022607
 20
22.444065
 10
278.022607
 20
22.510063
 10
278.022607
 20
22.572231
 10
278.022607
 20
22.630335
 10
278.022607
 20
22.684154
 10
278.022607
 20
22.733483
 10
278.022607
 20
22.778136
 10
278.022607
 20
22.817943
 10
278.022607
 20
22.852753
 10
278.022607
 20
22.882434
 10
278.022607
 20
22.906874
 10
278.022607
 20
22.92598
 10
278.022607
 20
22.939678
 10
278.022607
 20
22.947918
 10
278.022607
 20
22.950669
  0
LWPOLYLINE
  5
3EF
330
212
100
AcDbEntity
 67
     1
  8
7_ALL_FEATURES
  6
Continuous
 62
     9
100
AcDbPolyline
 90
       52
 70
     0
 43
0.0
 10
279.172607
 20
18.900669
 10
279.175358
 20
18.900669
 10
279.183598
 20
18.900669
 10
279.197296
 20
18.900669
 10
279.216402
 20
18.900669
 10
279.240842
 20
18.900669
 10
279.270523
 20
18.900669
 10
279.305333
 20
18.900669
 10
279.34514
 20
18.900669
 10
279.389793
 20
18.900669
 10
279.439122
 20
18.900669
 10
279.492941
 20
18.900669
 10
279.551045
 20
18.900669
 10
279.613213
 20
18.900669
 10
279.679211
 20
18.900669
 10
279.748787
 20
18.900669
 10
279.821678
 20
18.900669
 10
279.897607
 20
18.900669
 10
279.976287
 20
18.900669
 10
280.057418
 20
18.900669
 10
280.140693
 20
18.900669
 10
280.225796
 20
18.900669
 10
280.312404
 20
18.900669
 10
280.40019
 20
18.900669
 10
280.488818
 20
18.900669
 10
280.577955
 20
18.900669
 10
280.66726
 20
18.900669
 10
280.756397
 20
18.900669
 10
280.845025
 20
18.900669
 10
280.93281
 20
18.900669
 10
281.019419
 20
18.900669
 10
281.104522
 20
18.900669
 10
281.187797
 20
18.900669
 10
281.268928
 20
18.900669
 10
281.347607
 20
18.900669
 10
281.423537
 20
18.900669
 10
281.496428
 20
18.900669
 10
281.566004
 20
18.900669
 10
281.632002
 20
18.900669
 10
281.69417
 20
18.900669
 10
281.752274
 20
18.900669
 10
281.806093
 20
18.900669
 10
281.855422
 20
18.900669
 10
281.900075
 20
18.900669
 10
281.939882
 20
18.900669
 10
281.974692
 20
18.900669
 10
282.004373
 20
18.900669
 10
282.028813
 20
18.900669
 10
282.047918
 20
18.900669
 10
282.061617
 20
18.900669
 10
282.069857
 20
18.900669
 10
282.072607
 20
18.900669
  0
LWPOLYLINE
  5
3F0
330
212
100
AcDbEntity
 67
     1
  8
7_ALL_FEATURES
  6
Continuous
 62
     9
100
AcDbPolyline
 90
       16
 70
     0
 43
0.0
 10
282.072607
 20
16.550669
 10
282.040921
 20
16.550669
 10
281.947248
 20
16.550669
 10
281.795682
 20
16.550669
 10
281.592847
 20
16.550669
 10
281.347607
 20
16.550669
 10
281.070682
 20
16.550669
 10
280.774174
 20
16.550669
 10
280.471041
 20
16.550669
 10
280.174533
 20
16.550669
 10
279.897607
 20
16.550669
 10
279.652368
 20
16.550669
 10
279.449533
 20
16.550669
 10
279.297967
 20
16.550669
 10
279.204293
 20
16.550669
 10
279.172607
 20
16.550669
  0
LWPOLYLINE
  5
3F1
330
212
100
AcDbEntity
 67
     1
  8
7_ALL_FEATURES
  6
Continuous
 62
     9
100
AcDbPolyline
 90
       16
 70
     0
 43
0.0
 10
273.972607
 20
34.050669
 10
274.004293
 20
34.050669
 10
274.097967
 20
34.050669
 10
274.249533
 20
34.050669
 10
274.452368
 20
34.050669
 10
274.697607
 20
34.050669
 10
274.974533
 20
34.050669
 10
275.271041
 20
34.050669
 10
275.574174
 20
34.050669
 10
275.870682
 20
34.050669
 10
276.147607
 20
34.050669
 10
276.392847
 20
34.050669
 10
276.595682
 20
34.050669
 10
276.747248
 20
34.050669
 10
276.840921
 20
34.050669
 10
276.872607
 20
34.050669
  0
LINE
  5
3F2
330
212
100
AcDbEntity
 67
     1
  8
0
  6
Continuous
 62
     7
100
AcDbLine
 10
275.922607
 20
431.417388
 30
0.0
 11
274.922607
 21
431.417388
 31
0.0
  0
ARC
  5
3F3
330
212
100
AcDbEntity
 67
     1
  8
02___PRT_ALL_AXES
  6
Continuous
 62
     7
100
AcDbCircle
 10
430.740292
 20
412.427403
 30
0.0
 40
0.5
100
AcDbArc
 50
180.0
 51
360.0
  0
ARC
  5
3F4
330
212
100
AcDbEntity
 67
     1
  8
02___PRT_ALL_AXES
  6
Continuous
 62
     7
100
AcDbCircle
 10
430.740292
 20
412.427403
 30
0.0
 40
0.5
100
AcDbArc
 50
0.0
 51
180.0
  0
ARC
  5
3F5
330
212
100
AcDbEntity
 67
     1
  8
02___PRT_ALL_AXES
  6
Continuous
 62
     7
100
AcDbCircle
 10
430.740292
 20
372.427403
 30
0.0
 40
0.5
100
AcDbArc
 50
180.0
 51
360.0
  0
ARC
  5
3F6
330
212
100
AcDbEntity
 67
     1
  8
02___PRT_ALL_AXES
  6
Continuous
 62
     7
100
AcDbCircle
 10
430.740292
 20
372.427403
 30
0.0
 40
0.5
100
AcDbArc
 50
0.0
 51
180.0
  0
ARC
  5
3F7
330
212
100
AcDbEntity
 67
     1
  8
02___PRT_ALL_AXES
  6
Continuous
 62
     7
100
AcDbCircle
 10
430.740292
 20
332.427403
 30
0.0
 40
0.5
100
AcDbArc
 50
180.0
 51
360.0
  0
ARC
  5
3F8
330
212
100
AcDbEntity
 67
     1
  8
02___PRT_ALL_AXES
  6
Continuous
 62
     7
100
AcDbCircle
 10
430.740292
 20
332.427403
 30
0.0
 40
0.5
100
AcDbArc
 50
0.0
 51
180.0
  0
ARC
  5
3F9
330
212
100
AcDbEntity
 67
     1
  8
7_ALL_FEATURES
  6
Continuous
 62
     7
100
AcDbCircle
 10
430.740292
 20
412.427403
 30
0.0
 40
0.75
100
AcDbArc
 50
0.0
 51
32.727273
  0
ARC
  5
3FA
330
212
100
AcDbEntity
 67
     1
  8
7_ALL_FEATURES
  6
Continuous
 62
     7
100
AcDbCircle
 10
430.740292
 20
412.427403
 30
0.0
 40
0.75
100
AcDbArc
 50
32.727273
 51
147.272727
  0
ARC
  5
3FB
330
212
100
AcDbEntity
 67
     1
  8
7_ALL_FEATURES
  6
Continuous
 62
     7
100
AcDbCircle
 10
430.740292
 20
412.427403
 30
0.0
 40
0.75
100
AcDbArc
 50
147.272727
 51
180.0
  0
ARC
  5
3FC
330
212
100
AcDbEntity
 67
     1
  8
7_ALL_FEATURES
  6
Continuous
 62
     7
100
AcDbCircle
 10
430.740292
 20
412.427403
 30
0.0
 40
0.75
100
AcDbArc
 50
327.272727
 51
360.0
  0
ARC
  5
3FD
330
212
100
AcDbEntity
 67
     1
  8
7_ALL_FEATURES
  6
Continuous
 62
     7
100
AcDbCircle
 10
430.740292
 20
412.427403
 30
0.0
 40
0.75
100
AcDbArc
 50
212.727273
 51
327.272727
  0
ARC
  5
3FE
330
212
100
AcDbEntity
 67
     1
  8
7_ALL_FEATURES
  6
Continuous
 62
     7
100
AcDbCircle
 10
430.740292
 20
412.427403
 30
0.0
 40
0.75
100
AcDbArc
 50
180.0
 51
212.727273
  0
ARC
  5
3FF
330
212
100
AcDbEntity
 67
     1
  8
7_ALL_FEATURES
  6
Continuous
 62
     7
100
AcDbCircle
 10
430.740292
 20
372.427403
 30
0.0
 40
0.75
100
AcDbArc
 50
0.0
 51
32.727273
  0
ARC
  5
400
330
212
100
AcDbEntity
 67
     1
  8
7_ALL_FEATURES
  6
Continuous
 62
     7
100
AcDbCircle
 10
430.740292
 20
372.427403
 30
0.0
 40
0.75
100
AcDbArc
 50
32.727273
 51
147.272727
  0
ARC
  5
401
330
212
100
AcDbEntity
 67
     1
  8
7_ALL_FEATURES
  6
Continuous
 62
     7
100
AcDbCircle
 10
430.740292
 20
372.427403
 30
0.0
 40
0.75
100
AcDbArc
 50
147.272727
 51
180.0
  0
ARC
  5
402
330
212
100
AcDbEntity
 67
     1
  8
7_ALL_FEATURES
  6
Continuous
 62
     7
100
AcDbCircle
 10
430.740292
 20
372.427403
 30
0.0
 40
0.75
100
AcDbArc
 50
327.272727
 51
360.0
  0
ARC
  5
403
330
212
100
AcDbEntity
 67
     1
  8
7_ALL_FEATURES
  6
Continuous
 62
     7
100
AcDbCircle
 10
430.740292
 20
372.427403
 30
0.0
 40
0.75
100
AcDbArc
 50
212.727273
 51
327.272727
  0
ARC
  5
404
330
212
100
AcDbEntity
 67
     1
  8
7_ALL_FEATURES
  6
Continuous
 62
     7
100
AcDbCircle
 10
430.740292
 20
372.427403
 30
0.0
 40
0.75
100
AcDbArc
 50
180.0
 51
212.727273
  0
ARC
  5
405
330
212
100
AcDbEntity
 67
     1
  8
7_ALL_FEATURES
  6
Continuous
 62
     7
100
AcDbCircle
 10
430.740292
 20
332.427403
 30
0.0
 40
0.75
100
AcDbArc
 50
0.0
 51
32.727273
  0
ARC
  5
406
330
212
100
AcDbEntity
 67
     1
  8
7_ALL_FEATURES
  6
Continuous
 62
     7
100
AcDbCircle
 10
430.740292
 20
332.427403
 30
0.0
 40
0.75
100
AcDbArc
 50
32.727273
 51
147.272727
  0
ARC
  5
407
330
212
100
AcDbEntity
 67
     1
  8
7_ALL_FEATURES
  6
Continuous
 62
     7
100
AcDbCircle
 10
430.740292
 20
332.427403
 30
0.0
 40
0.75
100
AcDbArc
 50
147.272727
 51
180.0
  0
ARC
  5
408
330
212
100
AcDbEntity
 67
     1
  8
7_ALL_FEATURES
  6
Continuous
 62
     7
100
AcDbCircle
 10
430.740292
 20
332.427403
 30
0.0
 40
0.75
100
AcDbArc
 50
327.272727
 51
360.0
  0
ARC
  5
409
330
212
100
AcDbEntity
 67
     1
  8
7_ALL_FEATURES
  6
Continuous
 62
     7
100
AcDbCircle
 10
430.740292
 20
332.427403
 30
0.0
 40
0.75
100
AcDbArc
 50
212.727273
 51
327.272727
  0
ARC
  5
40A
330
212
100
AcDbEntity
 67
     1
  8
7_ALL_FEATURES
  6
Continuous
 62
     7
100
AcDbCircle
 10
430.740292
 20
332.427403
 30
0.0
 40
0.75
100
AcDbArc
 50
180.0
 51
212.727273
  0
ARC
  5
40B
330
212
100
AcDbEntity
 67
     1
  8
3_ALL_AXES
  6
Continuous
 62
     7
100
AcDbCircle
 10
430.740292
 20
412.427403
 30
0.0
 40
2.4
100
AcDbArc
 50
180.0
 51
360.0
  0
ARC
  5
40C
330
212
100
AcDbEntity
 67
     1
  8
3_ALL_AXES
  6
Continuous
 62
     7
100
AcDbCircle
 10
430.740292
 20
412.427403
 30
0.0
 40
2.4
100
AcDbArc
 50
0.0
 51
180.0
  0
ARC
  5
40D
330
212
100
AcDbEntity
 67
     1
  8
3_ALL_AXES
  6
Continuous
 62
     7
100
AcDbCircle
 10
430.740292
 20
412.427403
 30
0.0
 40
10.0
100
AcDbArc
 50
180.0
 51
360.0
  0
ARC
  5
40E
330
212
100
AcDbEntity
 67
     1
  8
3_ALL_AXES
  6
Continuous
 62
     7
100
AcDbCircle
 10
430.740292
 20
412.427403
 30
0.0
 40
10.0
100
AcDbArc
 50
0.0
 51
180.0
  0
ARC
  5
40F
330
212
100
AcDbEntity
 67
     1
  8
3_ALL_AXES
  6
Continuous
 62
     7
100
AcDbCircle
 10
430.740292
 20
372.427403
 30
0.0
 40
2.4
100
AcDbArc
 50
180.0
 51
360.0
  0
ARC
  5
410
330
212
100
AcDbEntity
 67
     1
  8
3_ALL_AXES
  6
Continuous
 62
     7
100
AcDbCircle
 10
430.740292
 20
372.427403
 30
0.0
 40
2.4
100
AcDbArc
 50
0.0
 51
180.0
  0
ARC
  5
411
330
212
100
AcDbEntity
 67
     1
  8
3_ALL_AXES
  6
Continuous
 62
     7
100
AcDbCircle
 10
430.740292
 20
372.427403
 30
0.0
 40
10.0
100
AcDbArc
 50
180.0
 51
360.0
  0
ARC
  5
412
330
212
100
AcDbEntity
 67
     1
  8
3_ALL_AXES
  6
Continuous
 62
     7
100
AcDbCircle
 10
430.740292
 20
372.427403
 30
0.0
 40
10.0
100
AcDbArc
 50
0.0
 51
180.0
  0
ARC
  5
413
330
212
100
AcDbEntity
 67
     1
  8
3_ALL_AXES
  6
Continuous
 62
     7
100
AcDbCircle
 10
430.740292
 20
332.427403
 30
0.0
 40
2.4
100
AcDbArc
 50
180.0
 51
360.0
  0
ARC
  5
414
330
212
100
AcDbEntity
 67
     1
  8
3_ALL_AXES
  6
Continuous
 62
     7
100
AcDbCircle
 10
430.740292
 20
332.427403
 30
0.0
 40
2.4
100
AcDbArc
 50
0.0
 51
180.0
  0
ARC
  5
415
330
212
100
AcDbEntity
 67
     1
  8
3_ALL_AXES
  6
Continuous
 62
     7
100
AcDbCircle
 10
430.740292
 20
332.427403
 30
0.0
 40
10.0
100
AcDbArc
 50
180.0
 51
360.0
  0
ARC
  5
416
330
212
100
AcDbEntity
 67
     1
  8
3_ALL_AXES
  6
Continuous
 62
     7
100
AcDbCircle
 10
430.740292
 20
332.427403
 30
0.0
 40
10.0
100
AcDbArc
 50
0.0
 51
180.0
  0
DIMENSION
  5
417
330
212
100
AcDbEntity
 67
     1
  8
0
  6
Continuous
 62
     2
100
AcDbDimension
280
     0
  2
*D1
 10
14.501947
 20
821.481628
 30
0.0
 11
14.501947
 21
418.695972
 31
0.0
 70
   160
 71
     2
 42
4035.5
 73
     0
 74
     0
 75
     0
  3
DIMSTYLE_1
100
AcDbAlignedDimension
 13
27.45604
 23
16.050669
 33
0.0
 14
25.421451
 24
821.481628
 34
0.0
 50
90.0
100
AcDbRotatedDimension
  0
DIMENSION
  5
418
330
212
100
AcDbEntity
 67
     1
  8
0
  6
Continuous
 62
     2
100
AcDbDimension
280
     0
  2
*D2
 10
66.749788
 20
833.047431
 30
0.0
 11
56.749788
 21
833.047431
 31
0.0
 70
   160
  1
%%c<>
 71
     2
 42
20.0
 73
     0
 74
     0
 75
     0
  3
DIMSTYLE_2
100
AcDbAlignedDimension
 13
46.749788
 23
828.402858
 33
0.0
 14
66.749788
 24
828.647137
 34
0.0
100
AcDbRotatedDimension
  0
INSERT
  5
419
330
212
100
AcDbEntity
 67
     1
  8
0
  6
Continuous
 62
     2
100
AcDbBlockReference
  2
LOGO2_BL0
 10
504.79423
 20
40.567663
 30
0.0
  0
ACAD_TABLE
  5
41A
102
{ACAD_XDICTIONARY
360
46F
102
}
330
212
100
AcDbEntity
 67
     1
  8
0
  6
Continuous
 62
     2
160
              3576
310
F80D000019000000880000001D000000000000000000F03F0000000000000000000000000000000052A8EBAC7DAF7E400000000000000000000000000000F03F0000000000000000252D4B2AA9084B4000000000000000000000000000000000000000000000F03F0000000000000000000000000000000000000000000000
310
000000000000000000000000000000F03F54000000200000000200000000000000000000000000000000000000000000000000000000000000008056400000000000000000000000000000000000000000000000000000000000000000000000000000F03F5400000020000000020000000000000000000000000000000000
310
00000000000000000000000000000000000000000000000044C0000000000000000000000000000000000000000000000000000000000000F03F5400000020000000020000000000000000003E4000000000000018C00000000000000000000000000080564000000000000018C00000000000000000000000000000000000
310
00000000000000000000000000F03F5400000020000000020000000000000000003E4000000000000028C00000000000000000000000000080564000000000000028C0000000000000000000000000000000000000000000000000000000000000F03F5400000020000000020000000000000000003E4000000000000036C0
310
0000000000000000000000000080564000000000000036C0000000000000000000000000000000000000000000000000000000000000F03F54000000200000000200000000000000000000000000000000003BC0000000000000000000000000008056400000000000003BC000000000000000000000000000000000000000
310
0000000000000000000000F03F540000002000000002000000000000000000000000000000000044C00000000000000000000000000080564000000000000044C0000000000000000000000000000000000000000000000000000000000000F03F5400000020000000020000000000000000003E4000000000000000000000
310
0000000000000000000000003E400000000000003BC0000000000000000000000000000000000000000000000000000000000000F03F540000002000000002000000000000000080514000000000000000000000000000000000000000000080514000000000000028C0000000000000000000000000000000000000000000
310
000000000000000000F03F540000002000000002000000000000000080564000000000000000000000000000000000000000000080564000000000000044C0000000000000000000000000000000000000000000000000000000000000F03F0C0000001000000013000000BC00000026000000CDCCCCCCCC7C3F4000000000
310
000012C0000000000000000000000000000000000000000000000000000000000000F03F000000000000F03F00000000000000000000000000000000320034003000360035003600000000000C000000010000000000000000000840333333333333EB3F0000000000000000000000000000F03F0000000000000000000000
310
0000000000000000000000000000000000000000000000000000000000740078007400000000000000BC000000260000003333333333DF514000000000000015C0000000000000000000000000000000000000000000000000000000000000F03F000000000000F03F00000000000000000000000000000000520065007600
310
3A0030003000000000000C000000010000000000000000000C40333333333333EB3F0000000000000000000000000000F03F00000000000000000000000000000000000000000000000000000000000000000000000000000000740078007400000000000000C000000026000000CDCCCCCCCC7C3F4000000000008026C000
310
0000000000000000000000000000000000000000000000000000000000F03F000000000000F03F000000000000000000000000000000005300630061006C0065003A0031003A003100000012000000010000000000000000000C40333333333333EB3F0000000000000000000000000000F03F000000000000000000000000
310
00000000000000000000000000000000000000000000000000000000740078007400000000000000B4000000260000003333333333DF514000000000008025C0000000000000000000000000000000000000000000000000000000000000F03F000000000000F03F0000000000000000000000000000000041003100000000
310
0004000000010000000000000000000C40333333333333EB3F0000000000000000000000000000F03F00000000000000000000000000000000000000000000000000000000000000000000000000000000740078007400000000000000E800000026000000CDCCCCCCCC7C3F4000000000004032C000000000000000000000
310
0000000000000000000000000000000000000000F03F000000000000F03F000000000000000000000000000000004B0049005400200041004E0054004900560045004E0054004F00200041004C0054004F005000490041004E004F002000530020004C0034006D0000003A0000000100000000000000000004403333333333
310
33EB3F0000000000000000000000000000F03F00000000000000000000000000000000000000000000000000000000000000000000000000000000740078007400000000000000C800000026000000CDCCCCCCCC7C3F400000000000C039C0000000000000000000000000000000000000000000000000000000000000F03F
310
000000000000F03F0000000000000000000000000000000044004100540045003A00300033002E00300036002E003200340000001A000000010000000000000000000440333333333333EB3F0000000000000000000000000000F03F0000000000000000000000000000000000000000000000000000000000000000000000
310
00000000007400780074000000000000001801000026000000CDCCCCCCCCCCF73F0000000000903DC0000000000000000000000000000000000000000000000000000000000000F03F000000000000F03F0000000000000000000000000000000041006E007900200069006E00740065006700720061006C0020006F007200
310
20007000610072007400690061006C00200072006500700072006F00640075006300740069006F006E00730020006100720065002000700072006F0068006900620069007400650064000000000068000000010000000000000000000240333333333333EB3F0000000000000000000000000000F03F000000000000000000
310
00000000000000000000000000000000000000000000000000000000000000740078007400000000000000F000000026000000CDCCCCCCCCCCF73F00000000007840C0000000000000000000000000000000000000000000000000000000000000F03F000000000000F03F0000000000000000000000000000000077006900
310
740068006F007500740020007000720069006F007200200061007500740068006F007200690073006100740069006F006E0020006F00660020004C002000000042000000010000000000000000000240333333333333EB3F0000000000000000000000000000F03F0000000000000000000000000000000000000000000000
310
0000000000000000000000000000000000740078007400000000000000B8000000260000000000000000C04D4000000000007840C0000000000000000000000000000000000000000000000000000000000000F03F000000000000F03F00000000000000000000000000000000200000000200000001000000000000000000
310
02407521567F8461C83F0000000000000000000000000000F03F000000000000000000000000000000000000000000000000000000000000000000000000000000007400780074002E00730068007800000000000000E000000026000000CB811E6ADBF64D4000000000007840C00000000000000000000000000000000000
310
00000000000000000000000000F03F000000000000F03F00000000000000000000000000000000260020004C0020004C007500630065002000260020004C006900670068007400200073002E0072002E006C002E002C000000000030000000010000000000000000000240333333333333EB3F000000000000000000000000
310
0000F03F00000000000000000000000000000000000000000000000000000000000000000000000000000000740078007400000000000000F800000026000000CDCCCCCCCCCCF73F00000000002842C0000000000000000000000000000000000000000000000000000000000000F03F000000000000F03F00000000000000
310
00000000000000000069006E0020006100630063006F007200640061006E006300650020007700690074006800200074006800650020006C0061007700200069006E00200066006F007200630065002E000000000048000000010000000000000000000240333333333333EB3F0000000000000000000000000000F03F0000
310
0000000000000000000000000000000000000000000000000000000000000000000000000000740078007400000000000000D800000026000000CDCCCCCCCCCCF73F0000000000D843C0000000000000000000000000000000000000000000000000000000000000F03F000000000000F03F00000000000000000000000000
310
00000041006C006C0020007200690067006800740073002000720065007300650072007600650064002E000000000028000000010000000000000000000240333333333333EB3F0000000000000000000000000000F03F00000000000000000000000000000000000000000000000000000000000000000000000000000000
310
740078007400000000000000080000001F000000
100
AcDbBlockReference
  2
*T4
 10
490.968182
 20
54.067663
 30
0.0
100
AcDbTable
342
45C
343
217
 11
1.0
 21
0.0
 31
0.0
 90
       22
 91
        5
 92
        5
 93
        0
 94
        0
 95
        0
 96
        0
141
6.0
141
6.0
141
10.0
141
5.0
141
13.0
142
10.0
142
10.0
142
10.0
142
40.0
142
20.0
171
     1
172
     0
173
     0
174
     0
175
     3
176
     4
 91
       32
178
     0
145
0.0
140
3.5
 92
        0
301
CELL_VALUE
 93
        2
 90
        4
  1
 
 94
        0
300

302
 
304
ACVALUE_END
171
     1
172
     0
173
     1
174
     0
175
     1
176
     1
 91
        0
178
     0
145
0.0
 92
        0
301
CELL_VALUE
 93
        3
 90
        0
 91
        0
 94
        0
300

302

304
ACVALUE_END
171
     1
172
     0
173
     1
174
     0
175
     1
176
     1
 91
        0
178
     0
145
0.0
 92
        0
301
CELL_VALUE
 93
        3
 90
        0
 91
        0
 94
        0
300

302

304
ACVALUE_END
171
     1
172
     0
173
     0
174
     0
175
     1
176
     1
 91
       49
178
     0
145
0.0
170
     4
  7
TEXTSTYLE_3
140
3.0
 92
        0
301
CELL_VALUE
 93
        2
 90
        4
  1
240656
 94
        0
300

302
240656
304
ACVALUE_END
171
     1
172
     0
173
     0
174
     0
175
     1
176
     1
 91
       49
178
     0
145
0.0
170
     1
  7
TEXTSTYLE_3
140
3.5
 92
        0
301
CELL_VALUE
 93
        2
 90
        4
  1
Rev:00
 94
        0
300

302
Rev:00
304
ACVALUE_END
171
     1
172
     0
173
     1
174
     0
175
     1
176
     1
 91
        0
178
     0
145
0.0
 92
        0
301
CELL_VALUE
 93
        3
 90
        0
 91
        0
 94
        0
300

302

304
ACVALUE_END
171
     1
172
     0
173
     1
174
     0
175
     1
176
     1
 91
        0
178
     0
145
0.0
 92
        0
301
CELL_VALUE
 93
        3
 90
        0
 91
        0
 94
        0
300

302

304
ACVALUE_END
171
     1
172
     0
173
     1
174
     0
175
     1
176
     1
 91
        0
178
     0
145
0.0
 92
        0
301
CELL_VALUE
 93
        3
 90
        0
 91
        0
 94
        0
300

302

304
ACVALUE_END
171
     1
172
     0
173
     0
174
     0
175
     1
176
     1
 91
       49
178
     0
145
0.0
170
     1
  7
TEXTSTYLE_3
140
3.5
 92
        0
301
CELL_VALUE
 93
        2
 90
        4
  1
Scale:1:1
 94
        0
300

302
Scale:1:1
304
ACVALUE_END
171
     1
172
     0
173
     0
174
     0
175
     1
176
     1
 91
       49
178
     0
145
0.0
170
     4
  7
TEXTSTYLE_3
140
3.5
 92
        0
301
CELL_VALUE
 93
        2
 90
        4
  1
A1
 94
        0
300

302
A1
304
ACVALUE_END
171
     1
172
     0
173
     1
174
     0
175
     1
176
     1
 91
        0
178
     0
145
0.0
 92
        0
301
CELL_VALUE
 93
        3
 90
        0
 91
        0
 94
        0
300

302

304
ACVALUE_END
171
     1
172
     0
173
     1
174
     0
175
     1
176
     1
 91
        0
178
     0
145
0.0
 92
        0
301
CELL_VALUE
 93
        3
 90
        0
 91
        0
 94
        0
300

302

304
ACVALUE_END
171
     1
172
     0
173
     1
174
     0
175
     1
176
     1
 91
        0
178
     0
145
0.0
 92
        0
301
CELL_VALUE
 93
        3
 90
        0
 91
        0
 94
        0
300

302

304
ACVALUE_END
171
     1
172
     0
173
     0
174
     0
175
     2
176
     1
 91
       49
178
     0
145
0.0
170
     4
  7
TEXTSTYLE_3
140
2.5
 92
        0
301
CELL_VALUE
 93
        2
 90
        4
  1
KIT ANTIVENTO ALTOPIANO S L4m
 94
        0
300

302
KIT ANTIVENTO ALTOPIANO S L4m
304
ACVALUE_END
171
     1
172
     0
173
     1
174
     0
175
     1
176
     1
 91
        0
178
     0
145
0.0
 92
        0
301
CELL_VALUE
 93
        3
 90
        0
 91
        0
 94
        0
300

302

304
ACVALUE_END
171
     1
172
     0
173
     1
174
     0
175
     1
176
     1
 91
        0
178
     0
145
0.0
 92
        0
301
CELL_VALUE
 93
        3
 90
        0
 91
        0
 94
        0
300

302

304
ACVALUE_END
171
     1
172
     0
173
     1
174
     0
175
     1
176
     1
 91
        0
178
     0
145
0.0
 92
        0
301
CELL_VALUE
 93
        3
 90
        0
 91
        0
 94
        0
300

302

304
ACVALUE_END
171
     1
172
     0
173
     1
174
     0
175
     1
176
     1
 91
        0
178
     0
145
0.0
 92
        0
301
CELL_VALUE
 93
        3
 90
        0
 91
        0
 94
        0
300

302

304
ACVALUE_END
171
     1
172
     0
173
     0
174
     0
175
     2
176
     1
 91
       49
178
     0
145
0.0
170
     4
  7
TEXTSTYLE_3
140
2.5
 92
        0
301
CELL_VALUE
 93
        2
 90
        4
  1
DATE:03.06.24
 94
        0
300

302
DATE:03.06.24
304
ACVALUE_END
171
     1
172
     0
173
     1
174
     0
175
     1
176
     1
 91
        0
178
     0
145
0.0
 92
        0
301
CELL_VALUE
 93
        3
 90
        0
 91
        0
 94
        0
300

302

304
ACVALUE_END
171
     1
172
     0
173
     0
174
     0
175
     5
176
     1
 91
       49
178
     0
145
0.0
170
     4
  7
TEXTSTYLE_3
140
2.25
 92
        0
301
CELL_VALUE
 93
        2
 90
        4
  1
Any integral or partial reproductions are prohibited \Pwithout prior authorisation of L {\Ftxt.shx;\W0.190476;\H2.250000; }& L Luce & Light s.r.l., \Pin accordance with the law in force. \PAll rights reserved.
 94
        0
300

302
Any integral or partial reproductions are prohibited \Pwithout prior authorisation of L {\Ftxt.shx;\W0.190476;\H2.250000; }& L Luce & Light s.r.l., \Pin accordance with the law in force. \PAll rights reserved.
304
ACVALUE_END
171
     1
172
     0
173
     1
174
     0
175
     1
176
     1
 91
        0
178
     0
145
0.0
 92
        0
301
CELL_VALUE
 93
        3
 90
        0
 91
        0
 94
        0
300

302

304
ACVALUE_END
171
     1
172
     0
173
     1
174
     0
175
     1
176
     1
 91
        0
178
     0
145
0.0
 92
        0
301
CELL_VALUE
 93
        3
 90
        0
 91
        0
 94
        0
300

302

304
ACVALUE_END
171
     1
172
     0
173
     1
174
     0
175
     1
176
     1
 91
        0
178
     0
145
0.0
 92
        0
301
CELL_VALUE
 93
        3
 90
        0
 91
        0
 94
        0
300

302

304
ACVALUE_END
171
     1
172
     0
173
     1
174
     0
175
     1
176
     1
 91
        0
178
     0
145
0.0
 92
        0
301
CELL_VALUE
 93
        3
 90
        0
 91
        0
 94
        0
300

302

304
ACVALUE_END
  0
ENDSEC
  0
SECTION
  2
OBJECTS
  0
DICTIONARY
  5
C
330
0
100
AcDbDictionary
281
     1
  3
ACAD_DETAILVIEWSTYLE
350
478
  3
ACAD_GROUP
350
D
  3
ACAD_IMAGE_DICT
350
468
  3
ACAD_LAYOUT
350
1A
  3
ACAD_MATERIAL
350
45E
  3
ACAD_MLEADERSTYLE
350
477
  3
ACAD_MLINESTYLE
350
17
  3
ACAD_PLOTSETTINGS
350
19
  3
ACAD_PLOTSTYLENAME
350
E
  3
ACAD_SCALELIST
350
420
  3
ACAD_SECTIONVIEWSTYLE
350
479
  3
ACAD_TABLESTYLE
350
45B
  3
ACAD_VISUALSTYLE
350
442
  3
ACDB_RECOMPOSE_DATA
350
475
  3
AcDbVariableDictionary
350
471
  3
MCS_STREAM_DICT
350
464
  0
SUN
  5
467
330
286
100
AcDbSun
 90
        1
290
     0
 63
     7
421
 16777215
 40
1.0
291
     1
 91
  2455826
 92
 54000000
292
     0
 70
     2
 71
   256
280
     1
  0
DICTIONARY
  5
46F
330
41A
100
AcDbDictionary
280
     1
281
     1
  3
ACAD_XREC_ROUNDTRIP
360
470
  0
DICTIONARY
  5
478
102
{ACAD_REACTORS
330
C
102
}
330
C
100
AcDbDictionary
281
     1
  0
DICTIONARY
  5
D
102
{ACAD_REACTORS
330
C
102
}
330
C
100
AcDbDictionary
281
     1
  0
DICTIONARY
  5
468
102
{ACAD_REACTORS
330
C
102
}
330
C
100
AcDbDictionary
281
     1
  0
DICTIONARY
  5
1A
102
{ACAD_REACTORS
330
C
102
}
330
C
100
AcDbDictionary
281
     1
  3
240656_1
350
41D
  3
Model
350
41C
  0
DICTIONARY
  5
45E
102
{ACAD_REACTORS
330
C
102
}
330
C
100
AcDbDictionary
281
     1
  3
ByBlock
350
460
  3
ByLayer
350
45F
  3
Global
350
461
  0
DICTIONARY
  5
477
102
{ACAD_REACTORS
330
C
102
}
330
C
100
AcDbDictionary
281
     1
  0
DICTIONARY
  5
17
102
{ACAD_REACTORS
330
C
102
}
330
C
100
AcDbDictionary
281
     1
  3
Standard
350
18
  0
DICTIONARY
  5
19
102
{ACAD_REACTORS
330
C
102
}
330
C
100
AcDbDictionary
281
     1
  0
ACDBDICTIONARYWDFLT
  5
E
102
{ACAD_REACTORS
330
C
102
}
330
C
100
AcDbDictionary
281
     1
  3
Normal
350
F
100
AcDbDictionaryWithDefault
340
F
  0
DICTIONARY
  5
420
102
{ACAD_REACTORS
330
C
102
}
330
C
100
AcDbDictionary
281
     1
  3
A0
350
421
  3
A1
350
422
  3
A2
350
423
  3
A3
350
424
  3
A4
350
425
  3
A5
350
426
  3
A6
350
427
  3
A7
350
428
  3
A8
350
429
  3
A9
350
42A
  3
B0
350
42B
  3
B1
350
42C
  3
B2
350
42D
  3
B3
350
42E
  3
B4
350
42F
  3
B5
350
430
  3
B6
350
431
  3
B7
350
432
  3
B8
350
433
  3
B9
350
434
  3
C0
350
435
  3
C1
350
436
  3
C2
350
437
  3
C3
350
438
  3
C4
350
439
  3
C5
350
43A
  3
C6
350
43B
  3
C7
350
43C
  3
C8
350
43D
  3
C9
350
43E
  3
D0
350
43F
  3
D1
350
440
  3
D2
350
441
  0
DICTIONARY
  5
479
102
{ACAD_REACTORS
330
C
102
}
330
C
100
AcDbDictionary
281
     1
  0
DICTIONARY
  5
45B
102
{ACAD_REACTORS
330
C
102
}
330
C
100
AcDbDictionary
281
     1
  3
Standard
350
45C
  0
DICTIONARY
  5
442
102
{ACAD_REACTORS
330
C
102
}
330
C
100
AcDbDictionary
281
     1
  3
2dWireframe
350
447
  3
Basic
350
44A
  3
Brighten
350
44E
  3
ColorChange
350
452
  3
Conceptual
350
44C
  3
Dim
350
44D
  3
EdgeColorOff
350
455
  3
Facepattern
350
451
  3
Flat
350
443
  3
FlatWithEdges
350
444
  3
Gouraud
350
445
  3
GouraudWithEdges
350
446
  3
Hidden
350
449
  3
JitterOff
350
453
  3
Linepattern
350
450
  3
OverhangOff
350
454
  3
Realistic
350
44B
  3
Shaded
350
45A
  3
Shaded with edges
350
459
  3
Shades of Gray
350
456
  3
Sketchy
350
457
  3
Thicken
350
44F
  3
Wireframe
350
448
  3
X-Ray
350
458
  0
XRECORD
  5
475
102
{ACAD_REACTORS
330
C
102
}
330
C
100
AcDbXrecord
280
     1
 90
        1
330
41A
330
45C
  0
DICTIONARY
  5
471
102
{ACAD_REACTORS
330
C
102
}
330
C
100
AcDbDictionary
281
     1
  3
CANNOSCALE
350
472
  3
CTABLESTYLE
350
476
  0
DICTIONARY
  5
464
102
{ACAD_REACTORS
330
C
102
}
330
C
100
AcDbDictionary
281
     1
  3
MC_VERSION_DATA
350
46B
  3
MCS_DOCUMENT_ID
350
465
  3
MCS_PARAMS_DATA
350
469
  0
XRECORD
  5
470
102
{ACAD_REACTORS
330
46F
102
}
330
46F
100
AcDbXrecord
280
     1
102
ACAD_ROUNDTRIP_2008_TABLE_ENTITY
360
46D
 70
     2
 90
        1
 10
0.0
 20
0.0
 30
0.0
 90
        0
 90
        4
361
46E
  0
LAYOUT
  5
41D
102
{ACAD_REACTORS
330
1A
102
}
330
1A
100
AcDbPlotSettings
  1

  2
none_device
  4

  6

 40
0.0
 41
0.0
 42
0.0
 43
0.0
 44
594.0
 45
841.0
 46
0.0
 47
0.0
 48
0.0
 49
0.0
140
0.0
141
0.0
142
1.0
143
1.0
 70
     0
 72
     1
 73
     0
 74
     0
  7

 75
     0
 76
     0
 77
     2
 78
   300
147
1.0
148
0.0
149
0.0
100
AcDbLayout
  1
240656_1
 70
     0
 71
     1
 10
0.0
 20
0.0
 11
594.0
 21
841.0
 12
0.0
 22
0.0
 32
0.0
 14
0.0
 24
0.0
 34
0.0
 15
0.0
 25
0.0
 35
0.0
146
0.0
 13
0.0
 23
0.0
 33
0.0
 16
1.0
 26
0.0
 36
0.0
 17
0.0
 27
1.0
 37
0.0
 76
     0
330
212
331
286
  0
LAYOUT
  5
41C
102
{ACAD_REACTORS
330
1A
102
}
330
1A
100
AcDbPlotSettings
  1

  2
none_device
  4

  6

 40
0.0
 41
0.0
 42
0.0
 43
0.0
 44
594.0
 45
841.0
 46
0.0
 47
0.0
 48
0.0
 49
0.0
140
0.0
141
0.0
142
1.0
143
1.0
 70
  1024
 72
     1
 73
     0
 74
     0
  7

 75
     0
 76
     0
 77
     2
 78
   300
147
1.0
148
0.0
149
0.0
100
AcDbLayout
  1
Model
 70
     0
 71
     0
 10
0.0
 20
0.0
 11
594.0
 21
841.0
 12
0.0
 22
0.0
 32
0.0
 14
0.0
 24
0.0
 34
0.0
 15
0.0
 25
0.0
 35
0.0
146
0.0
 13
0.0
 23
0.0
 33
0.0
 16
1.0
 26
0.0
 36
0.0
 17
0.0
 27
1.0
 37
0.0
 76
     0
330
211
331
1F4
  0
MATERIAL
  5
460
102
{ACAD_REACTORS
330
45E
102
}
330
45E
100
AcDbMaterial
  1
ByBlock
 72
     1
 94
      127
  0
MATERIAL
  5
45F
102
{ACAD_REACTORS
330
45E
102
}
330
45E
100
AcDbMaterial
  1
ByLayer
 72
     1
 94
      127
  0
MATERIAL
  5
461
102
{ACAD_REACTORS
330
45E
102
}
330
45E
100
AcDbMaterial
  1
Global
 72
     1
 94
      127
  0
MLINESTYLE
  5
18
102
{ACAD_REACTORS
330
17
102
}
330
17
100
AcDbMlineStyle
  2
STANDARD
 70
     0
  3

 62
   256
 51
90.0
 52
90.0
 71
     2
 49
0.5
 62
   256
  6
BYLAYER
 49
-0.5
 62
   256
  6
BYLAYER
  0
ACDBPLACEHOLDER
  5
F
102
{ACAD_REACTORS
330
E
102
}
330
E
  0
SCALE
  5
421
102
{ACAD_REACTORS
330
420
102
}
330
420
100
AcDbScale
 70
     0
300
1:1
140
1.0
141
1.0
290
     1
  0
SCALE
  5
422
102
{ACAD_REACTORS
330
420
102
}
330
420
100
AcDbScale
 70
     0
300
1:2
140
1.0
141
2.0
290
     0
  0
SCALE
  5
423
102
{ACAD_REACTORS
330
420
102
}
330
420
100
AcDbScale
 70
     0
300
1:4
140
1.0
141
4.0
290
     0
  0
SCALE
  5
424
102
{ACAD_REACTORS
330
420
102
}
330
420
100
AcDbScale
 70
     0
300
1:5
140
1.0
141
5.0
290
     0
  0
SCALE
  5
425
102
{ACAD_REACTORS
330
420
102
}
330
420
100
AcDbScale
 70
     0
300
1:8
140
1.0
141
8.0
290
     0
  0
SCALE
  5
426
102
{ACAD_REACTORS
330
420
102
}
330
420
100
AcDbScale
 70
     0
300
1:10
140
1.0
141
10.0
290
     0
  0
SCALE
  5
427
102
{ACAD_REACTORS
330
420
102
}
330
420
100
AcDbScale
 70
     0
300
1:16
140
1.0
141
16.0
290
     0
  0
SCALE
  5
428
102
{ACAD_REACTORS
330
420
102
}
330
420
100
AcDbScale
 70
     0
300
1:20
140
1.0
141
20.0
290
     0
  0
SCALE
  5
429
102
{ACAD_REACTORS
330
420
102
}
330
420
100
AcDbScale
 70
     0
300
1:30
140
1.0
141
30.0
290
     0
  0
SCALE
  5
42A
102
{ACAD_REACTORS
330
420
102
}
330
420
100
AcDbScale
 70
     0
300
1:40
140
1.0
141
40.0
290
     0
  0
SCALE
  5
42B
102
{ACAD_REACTORS
330
420
102
}
330
420
100
AcDbScale
 70
     0
300
1:50
140
1.0
141
50.0
290
     0
  0
SCALE
  5
42C
102
{ACAD_REACTORS
330
420
102
}
330
420
100
AcDbScale
 70
     0
300
1:100
140
1.0
141
100.0
290
     0
  0
SCALE
  5
42D
102
{ACAD_REACTORS
330
420
102
}
330
420
100
AcDbScale
 70
     0
300
2:1
140
2.0
141
1.0
290
     0
  0
SCALE
  5
42E
102
{ACAD_REACTORS
330
420
102
}
330
420
100
AcDbScale
 70
     0
300
4:1
140
4.0
141
1.0
290
     0
  0
SCALE
  5
42F
102
{ACAD_REACTORS
330
420
102
}
330
420
100
AcDbScale
 70
     0
300
8:1
140
8.0
141
1.0
290
     0
  0
SCALE
  5
430
102
{ACAD_REACTORS
330
420
102
}
330
420
100
AcDbScale
 70
     0
300
10:1
140
10.0
141
1.0
290
     0
  0
SCALE
  5
431
102
{ACAD_REACTORS
330
420
102
}
330
420
100
AcDbScale
 70
     0
300
100:1
140
100.0
141
1.0
290
     0
  0
SCALE
  5
432
102
{ACAD_REACTORS
330
420
102
}
330
420
100
AcDbScale
 70
     0
300
1/128" = 1'-0"
140
0.007812
141
12.0
290
     0
  0
SCALE
  5
433
102
{ACAD_REACTORS
330
420
102
}
330
420
100
AcDbScale
 70
     0
300
1/64" = 1'-0"
140
0.015625
141
12.0
290
     0
  0
SCALE
  5
434
102
{ACAD_REACTORS
330
420
102
}
330
420
100
AcDbScale
 70
     0
300
1/32" = 1'-0"
140
0.03125
141
12.0
290
     0
  0
SCALE
  5
435
102
{ACAD_REACTORS
330
420
102
}
330
420
100
AcDbScale
 70
     0
300
1/16" = 1'-0"
140
0.0625
141
12.0
290
     0
  0
SCALE
  5
436
102
{ACAD_REACTORS
330
420
102
}
330
420
100
AcDbScale
 70
     0
300
3/32" = 1'-0"
140
0.09375
141
12.0
290
     0
  0
SCALE
  5
437
102
{ACAD_REACTORS
330
420
102
}
330
420
100
AcDbScale
 70
     0
300
1/8" = 1'-0"
140
0.125
141
12.0
290
     0
  0
SCALE
  5
438
102
{ACAD_REACTORS
330
420
102
}
330
420
100
AcDbScale
 70
     0
300
3/16" = 1'-0"
140
0.1875
141
12.0
290
     0
  0
SCALE
  5
439
102
{ACAD_REACTORS
330
420
102
}
330
420
100
AcDbScale
 70
     0
300
1/4" = 1'-0"
140
0.25
141
12.0
290
     0
  0
SCALE
  5
43A
102
{ACAD_REACTORS
330
420
102
}
330
420
100
AcDbScale
 70
     0
300
3/8" = 1'-0"
140
0.375
141
12.0
290
     0
  0
SCALE
  5
43B
102
{ACAD_REACTORS
330
420
102
}
330
420
100
AcDbScale
 70
     0
300
1/2" = 1'-0"
140
0.5
141
12.0
290
     0
  0
SCALE
  5
43C
102
{ACAD_REACTORS
330
420
102
}
330
420
100
AcDbScale
 70
     0
300
3/4" = 1'-0"
140
0.75
141
12.0
290
     0
  0
SCALE
  5
43D
102
{ACAD_REACTORS
330
420
102
}
330
420
100
AcDbScale
 70
     0
300
1" = 1'-0"
140
1.0
141
12.0
290
     0
  0
SCALE
  5
43E
102
{ACAD_REACTORS
330
420
102
}
330
420
100
AcDbScale
 70
     0
300
1-1/2" = 1'-0"
140
1.5
141
12.0
290
     0
  0
SCALE
  5
43F
102
{ACAD_REACTORS
330
420
102
}
330
420
100
AcDbScale
 70
     0
300
3" = 1'-0"
140
3.0
141
12.0
290
     0
  0
SCALE
  5
440
102
{ACAD_REACTORS
330
420
102
}
330
420
100
AcDbScale
 70
     0
300
6" = 1'-0"
140
6.0
141
12.0
290
     0
  0
SCALE
  5
441
102
{ACAD_REACTORS
330
420
102
}
330
420
100
AcDbScale
 70
     0
300
1'-0" = 1'-0"
140
12.0
141
12.0
290
     0
  0
TABLESTYLE
  5
45C
102
{ACAD_REACTORS
330
45B
102
}
102
{ACAD_XDICTIONARY
360
473
102
}
330
45B
100
AcDbTableStyle
  3
Standard
 70
     0
 71
     0
 40
0.06
 41
0.06
280
     0
281
     0
  7
STANDARD
140
4.5
170
     2
 62
     0
 63
   257
283
     0
 90
        4
 91
        0
  1

274
    -2
284
     1
 64
     0
275
    -2
285
     1
 65
     0
276
    -2
286
     1
 66
     0
277
    -2
287
     1
 67
     0
278
    -2
288
     1
 68
     0
279
    -2
289
     1
 69
     0
  7
STANDARD
140
6.0
170
     5
 62
     0
 63
   257
283
     0
 90
        4
 91
        0
  1

274
    -2
284
     1
 64
     0
275
    -2
285
     1
 65
     0
276
    -2
286
     1
 66
     0
277
    -2
287
     1
 67
     0
278
    -2
288
     1
 68
     0
279
    -2
289
     1
 69
     0
  7
STANDARD
140
4.5
170
     5
 62
     0
 63
   257
283
     0
 90
        4
 91
        0
  1

274
    -2
284
     1
 64
     0
275
    -2
285
     1
 65
     0
276
    -2
286
     1
 66
     0
277
    -2
287
     1
 67
     0
278
    -2
288
     1
 68
     0
279
    -2
289
     1
 69
     0
  0
VISUALSTYLE
  5
447
102
{ACAD_REACTORS
330
442
102
}
330
442
100
AcDbVisualStyle
  2
2dWireframe
 70
     4
177
     3
291
     0
 70
    58
 90
        0
176
     1
 90
        2
176
     1
 90
        0
176
     1
 90
        0
176
     1
 40
0.6
176
     1
 40
30.0
176
     1
 62
     7
420
 16777215
176
     1
 90
        1
176
     1
 90
        4
176
     1
 62
     7
176
     1
 62
   257
176
     1
 90
        1
176
     1
 90
        1
176
     1
 40
1.0
176
     1
 90
        0
176
     1
 62
   257
176
     1
 40
1.0
176
     1
 90
        1
176
     1
 90
        6
176
     1
 90
        2
176
     1
 62
     7
176
     1
 90
        5
176
     1
 90
        0
176
     1
 90
        0
176
     1
290
     0
176
     1
 90
        1
176
     1
 40
0.0
176
     1
 90
        0
176
     1
290
     1
176
     1
290
     1
176
     1
290
     0
176
     1
290
     0
176
     1
290
     0
176
     1
290
     0
176
     1
290
     0
176
     1
290
     0
176
     1
290
     0
176
     1
 90
       50
176
     1
 40
0.0
176
     1
 40
1.0
176
     1
 90
        0
176
     1
 62
    18
420
        0
176
     1
 90
       50
176
     1
 90
        3
176
     1
 62
     5
420
      255
176
     1
290
     0
176
     1
 90
       50
176
     1
 90
       50
176
     1
 90
       50
176
     1
290
     0
176
     1
 90
       50
176
     1
 62
   256
176
     0
 40
1.0
176
     0
 90
        2
176
     1
  1
strokes_ogs.tif
176
     1
290
     0
176
     1
 40
1.0
176
     1
 40
1.0
176
     1
  0
VISUALSTYLE
  5
44A
102
{ACAD_REACTORS
330
442
102
}
330
442
100
AcDbVisualStyle
  2
Basic
 70
     7
177
     3
291
     1
 70
    58
 90
        1
176
     1
 90
        0
176
     1
 90
        1
176
     1
 90
        0
176
     1
 40
0.6
176
     1
 40
30.0
176
     1
 62
     7
420
 16777215
176
     1
 90
        0
176
     1
 90
        4
176
     1
 62
     7
176
     1
 62
   257
176
     1
 90
        1
176
     1
 90
        1
176
     1
 40
1.0
176
     1
 90
        8
176
     1
 62
     7
176
     1
 40
1.0
176
     1
 90
        1
176
     1
 90
        6
176
     1
 90
        2
176
     1
 62
     7
176
     1
 90
        5
176
     1
 90
        0
176
     1
 90
        0
176
     1
290
     0
176
     1
 90
        1
176
     1
 40
0.0
176
     1
 90
        0
176
     1
290
     0
176
     1
290
     1
176
     1
290
     1
176
     1
290
     0
176
     1
290
     0
176
     1
290
     0
176
     1
290
     0
176
     1
290
     0
176
     1
290
     0
176
     1
 90
       50
176
     1
 40
0.0
176
     1
 40
1.0
176
     1
 90
        0
176
     1
 62
    18
420
        0
176
     1
 90
       50
176
     1
 90
        3
176
     1
 62
     5
420
      255
176
     1
290
     0
176
     1
 90
       50
176
     1
 90
       50
176
     1
 90
       50
176
     1
290
     0
176
     1
 90
       50
176
     1
 62
   256
176
     0
 40
1.0
176
     0
 90
        2
176
     1
  1
strokes_ogs.tif
176
     1
290
     0
176
     1
 40
1.0
176
     1
 40
1.0
176
     1
  0
VISUALSTYLE
  5
44E
102
{ACAD_REACTORS
330
442
102
}
330
442
100
AcDbVisualStyle
  2
Brighten
 70
    12
177
     3
291
     1
 70
    58
 90
        2
176
     1
 90
        2
176
     1
 90
        0
176
     1
 90
        0
176
     1
 40
0.6
176
     1
 40
30.0
176
     1
 62
     7
420
 16777215
176
     1
 90
        1
176
     1
 90
        4
176
     1
 62
     7
176
     1
 62
   257
176
     1
 90
        1
176
     1
 90
        1
176
     1
 40
1.0
176
     1
 90
        8
176
     1
 62
     7
176
     1
 40
1.0
176
     1
 90
        1
176
     1
 90
        6
176
     1
 90
        2
176
     1
 62
     7
176
     1
 90
        5
176
     1
 90
        0
176
     1
 90
        0
176
     1
290
     0
176
     1
 90
        1
176
     1
 40
50.0
176
     1
 90
        0
176
     1
290
     0
176
     1
290
     1
176
     1
290
     1
176
     1
290
     0
176
     1
290
     0
176
     1
290
     0
176
     1
290
     0
176
     1
290
     0
176
     1
290
     0
176
     1
 90
       50
176
     1
 40
0.0
176
     1
 40
1.0
176
     1
 90
        0
176
     1
 62
    18
420
        0
176
     1
 90
       50
176
     1
 90
        3
176
     1
 62
     5
420
      255
176
     1
290
     0
176
     1
 90
       50
176
     1
 90
       50
176
     1
 90
       50
176
     1
290
     0
176
     1
 90
       50
176
     1
 62
   256
176
     0
 40
1.0
176
     0
 90
        2
176
     1
  1
strokes_ogs.tif
176
     1
290
     0
176
     1
 40
1.0
176
     1
 40
1.0
176
     1
  0
VISUALSTYLE
  5
452
102
{ACAD_REACTORS
330
442
102
}
330
442
100
AcDbVisualStyle
  2
ColorChange
 70
    16
177
     3
291
     1
 70
    58
 90
        2
176
     1
 90
        2
176
     1
 90
        3
176
     1
 90
        0
176
     1
 40
0.6
176
     1
 40
30.0
176
     1
 62
     8
420
  8421504
176
     1
 90
        1
176
     1
 90
        4
176
     1
 62
     7
176
     1
 62
   257
176
     1
 90
        1
176
     1
 90
        1
176
     1
 40
1.0
176
     1
 90
        8
176
     1
 62
     8
420
  8421504
176
     1
 40
1.0
176
     1
 90
        1
176
     1
 90
        6
176
     1
 90
        2
176
     1
 62
     7
176
     1
 90
        5
176
     1
 90
        0
176
     1
 90
        0
176
     1
290
     0
176
     1
 90
        1
176
     1
 40
0.0
176
     1
 90
        0
176
     1
290
     0
176
     1
290
     1
176
     1
290
     1
176
     1
290
     0
176
     1
290
     0
176
     1
290
     0
176
     1
290
     0
176
     1
290
     0
176
     1
290
     0
176
     1
 90
       50
176
     1
 40
0.0
176
     1
 40
1.0
176
     1
 90
        0
176
     1
 62
    18
420
        0
176
     1
 90
       50
176
     1
 90
        3
176
     1
 62
     5
420
      255
176
     1
290
     0
176
     1
 90
       50
176
     1
 90
       50
176
     1
 90
       50
176
     1
290
     0
176
     1
 90
       50
176
     1
 62
   256
176
     0
 40
1.0
176
     0
 90
        2
176
     1
  1
strokes_ogs.tif
176
     1
290
     0
176
     1
 40
1.0
176
     1
 40
1.0
176
     1
  0
VISUALSTYLE
  5
44C
102
{ACAD_REACTORS
330
442
102
}
330
442
100
AcDbVisualStyle
  2
Conceptual
 70
     9
177
     3
291
     0
 70
    58
 90
        3
176
     1
 90
        2
176
     1
 90
        0
176
     1
 90
        0
176
     1
 40
0.6
176
     1
 40
30.0
176
     1
 62
     7
420
 16777215
176
     1
 90
        2
176
     1
 90
        2
176
     1
 62
     7
176
     1
 62
   257
176
     1
 90
        1
176
     1
 90
        1
176
     1
 40
179.0
176
     1
 90
        8
176
     1
 62
     7
176
     1
 40
1.0
176
     1
 90
        1
176
     1
 90
        6
176
     1
 90
        2
176
     1
 62
     7
176
     1
 90
        3
176
     1
 90
        0
176
     1
 90
        0
176
     1
290
     0
176
     1
 90
        1
176
     1
 40
0.0
176
     1
 90
        0
176
     1
290
     0
176
     1
290
     1
176
     1
290
     1
176
     1
290
     0
176
     1
290
     0
176
     1
290
     0
176
     1
290
     0
176
     1
290
     0
176
     1
290
     0
176
     1
 90
       50
176
     1
 40
0.0
176
     1
 40
1.0
176
     1
 90
        0
176
     1
 62
    18
420
        0
176
     1
 90
       50
176
     1
 90
        3
176
     1
 62
     5
420
      255
176
     1
290
     0
176
     1
 90
       50
176
     1
 90
       50
176
     1
 90
       50
176
     1
290
     0
176
     1
 90
       50
176
     1
 62
   256
176
     0
 40
1.0
176
     0
 90
        2
176
     1
  1
strokes_ogs.tif
176
     1
290
     0
176
     1
 40
1.0
176
     1
 40
1.0
176
     1
  0
VISUALSTYLE
  5
44D
102
{ACAD_REACTORS
330
442
102
}
330
442
100
AcDbVisualStyle
  2
Dim
 70
    11
177
     3
291
     1
 70
    58
 90
        2
176
     1
 90
        2
176
     1
 90
        0
176
     1
 90
        0
176
     1
 40
0.6
176
     1
 40
30.0
176
     1
 62
     7
420
 16777215
176
     1
 90
        1
176
     1
 90
        4
176
     1
 62
     7
176
     1
 62
   257
176
     1
 90
        1
176
     1
 90
        1
176
     1
 40
1.0
176
     1
 90
        8
176
     1
 62
     7
176
     1
 40
1.0
176
     1
 90
        1
176
     1
 90
        6
176
     1
 90
        2
176
     1
 62
     7
176
     1
 90
        5
176
     1
 90
        0
176
     1
 90
        0
176
     1
290
     0
176
     1
 90
        1
176
     1
 40
-50.0
176
     1
 90
        0
176
     1
290
     0
176
     1
290
     1
176
     1
290
     1
176
     1
290
     0
176
     1
290
     0
176
     1
290
     0
176
     1
290
     0
176
     1
290
     0
176
     1
290
     0
176
     1
 90
       50
176
     1
 40
0.0
176
     1
 40
1.0
176
     1
 90
        0
176
     1
 62
    18
420
        0
176
     1
 90
       50
176
     1
 90
        3
176
     1
 62
     5
420
      255
176
     1
290
     0
176
     1
 90
       50
176
     1
 90
       50
176
     1
 90
       50
176
     1
290
     0
176
     1
 90
       50
176
     1
 62
   256
176
     0
 40
1.0
176
     0
 90
        2
176
     1
  1
strokes_ogs.tif
176
     1
290
     0
176
     1
 40
1.0
176
     1
 40
1.0
176
     1
  0
VISUALSTYLE
  5
455
102
{ACAD_REACTORS
330
442
102
}
330
442
100
AcDbVisualStyle
  2
EdgeColorOff
 70
    22
177
     3
291
     1
 70
    58
 90
        2
176
     0
 90
        2
176
     0
 90
        0
176
     0
 90
        0
176
     0
 40
0.6
176
     0
 40
30.0
176
     0
 62
     7
420
 16777215
176
     0
 90
        1
176
     0
 90
        4
176
     0
 62
     7
176
     0
 62
   257
176
     0
 90
        1
176
     0
 90
        1
176
     0
 40
1.0
176
     0
 90
        8
176
     2
 62
     7
176
     0
 40
1.0
176
     0
 90
        1
176
     0
 90
        6
176
     0
 90
        2
176
     0
 62
     7
176
     0
 90
        5
176
     0
 90
        0
176
     0
 90
        0
176
     0
290
     0
176
     0
 90
        1
176
     0
 40
0.0
176
     0
 90
        0
176
     0
290
     0
176
     0
290
     1
176
     0
290
     1
176
     0
290
     0
176
     0
290
     0
176
     0
290
     0
176
     0
290
     0
176
     0
290
     0
176
     0
290
     0
176
     0
 90
       50
176
     0
 40
0.0
176
     0
 40
1.0
176
     0
 90
        0
176
     0
 62
    18
420
        0
176
     0
 90
       50
176
     0
 90
        3
176
     0
 62
     5
420
      255
176
     0
290
     0
176
     0
 90
       50
176
     0
 90
       50
176
     0
 90
       50
176
     0
290
     0
176
     0
 90
       50
176
     0
 62
   256
176
     0
 40
1.0
176
     0
 90
        2
176
     0
  1
strokes_ogs.tif
176
     0
290
     0
176
     0
 40
1.0
176
     0
 40
1.0
176
     0
  0
VISUALSTYLE
  5
451
102
{ACAD_REACTORS
330
442
102
}
330
442
100
AcDbVisualStyle
  2
Facepattern
 70
    15
177
     3
291
     1
 70
    58
 90
        2
176
     1
 90
        2
176
     1
 90
        0
176
     1
 90
        0
176
     1
 40
0.6
176
     1
 40
30.0
176
     1
 62
     7
420
 16777215
176
     1
 90
        1
176
     1
 90
        4
176
     1
 62
     7
176
     1
 62
   257
176
     1
 90
        1
176
     1
 90
        1
176
     1
 40
1.0
176
     1
 90
        8
176
     1
 62
     7
176
     1
 40
1.0
176
     1
 90
        1
176
     1
 90
        6
176
     1
 90
        2
176
     1
 62
     7
176
     1
 90
        5
176
     1
 90
        0
176
     1
 90
        0
176
     1
290
     0
176
     1
 90
        1
176
     1
 40
0.0
176
     1
 90
        0
176
     1
290
     0
176
     1
290
     1
176
     1
290
     1
176
     1
290
     0
176
     1
290
     0
176
     1
290
     0
176
     1
290
     0
176
     1
290
     0
176
     1
290
     0
176
     1
 90
       50
176
     1
 40
0.0
176
     1
 40
1.0
176
     1
 90
        0
176
     1
 62
    18
420
        0
176
     1
 90
       50
176
     1
 90
        3
176
     1
 62
     5
420
      255
176
     1
290
     0
176
     1
 90
       50
176
     1
 90
       50
176
     1
 90
       50
176
     1
290
     0
176
     1
 90
       50
176
     1
 62
   256
176
     0
 40
1.0
176
     0
 90
        2
176
     1
  1
strokes_ogs.tif
176
     1
290
     0
176
     1
 40
1.0
176
     1
 40
1.0
176
     1
  0
VISUALSTYLE
  5
443
102
{ACAD_REACTORS
330
442
102
}
330
442
100
AcDbVisualStyle
  2
Flat
 70
     0
177
     3
291
     1
 70
    58
 90
        2
176
     1
 90
        1
176
     1
 90
        1
176
     1
 90
        2
176
     1
 40
0.6
176
     1
 40
30.0
176
     1
 62
     7
420
 16777215
176
     1
 90
        0
176
     1
 90
        0
176
     1
 62
     7
176
     1
 62
   257
176
     1
 90
        1
176
     1
 90
        1
176
     1
 40
1.0
176
     1
 90
        8
176
     1
 62
     7
176
     1
 40
1.0
176
     1
 90
        1
176
     1
 90
        6
176
     1
 90
        2
176
     1
 62
     7
176
     1
 90
        5
176
     1
 90
        0
176
     1
 90
        0
176
     1
290
     0
176
     1
 90
       13
176
     1
 40
0.0
176
     1
 90
        0
176
     1
290
     0
176
     1
290
     1
176
     1
290
     1
176
     1
290
     0
176
     1
290
     0
176
     1
290
     0
176
     1
290
     0
176
     1
290
     0
176
     1
290
     0
176
     1
 90
       50
176
     1
 40
0.0
176
     1
 40
1.0
176
     1
 90
        0
176
     1
 62
    18
420
        0
176
     1
 90
       50
176
     1
 90
        3
176
     1
 62
     5
420
      255
176
     1
290
     0
176
     1
 90
       50
176
     1
 90
       50
176
     1
 90
       50
176
     1
290
     0
176
     1
 90
       50
176
     1
 62
   256
176
     0
 40
1.0
176
     0
 90
        2
176
     1
  1
strokes_ogs.tif
176
     1
290
     0
176
     1
 40
1.0
176
     1
 40
1.0
176
     1
  0
VISUALSTYLE
  5
444
102
{ACAD_REACTORS
330
442
102
}
330
442
100
AcDbVisualStyle
  2
FlatWithEdges
 70
     1
177
     3
291
     1
 70
    58
 90
        2
176
     1
 90
        1
176
     1
 90
        1
176
     1
 90
        2
176
     1
 40
0.6
176
     1
 40
30.0
176
     1
 62
     7
420
 16777215
176
     1
 90
        1
176
     1
 90
        0
176
     1
 62
     7
176
     1
 62
   257
176
     1
 90
        1
176
     1
 90
        1
176
     1
 40
1.0
176
     1
 90
        0
176
     1
 62
   257
176
     1
 40
1.0
176
     1
 90
        1
176
     1
 90
        6
176
     1
 90
        2
176
     1
 62
     7
176
     1
 90
        5
176
     1
 90
        0
176
     1
 90
        0
176
     1
290
     0
176
     1
 90
       13
176
     1
 40
0.0
176
     1
 90
        0
176
     1
290
     0
176
     1
290
     1
176
     1
290
     1
176
     1
290
     0
176
     1
290
     0
176
     1
290
     0
176
     1
290
     0
176
     1
290
     0
176
     1
290
     0
176
     1
 90
       50
176
     1
 40
0.0
176
     1
 40
1.0
176
     1
 90
        0
176
     1
 62
    18
420
        0
176
     1
 90
       50
176
     1
 90
        3
176
     1
 62
     5
420
      255
176
     1
290
     0
176
     1
 90
       50
176
     1
 90
       50
176
     1
 90
       50
176
     1
290
     0
176
     1
 90
       50
176
     1
 62
   256
176
     0
 40
1.0
176
     0
 90
        2
176
     1
  1
strokes_ogs.tif
176
     1
290
     0
176
     1
 40
1.0
176
     1
 40
1.0
176
     1
  0
VISUALSTYLE
  5
445
102
{ACAD_REACTORS
330
442
102
}
330
442
100
AcDbVisualStyle
  2
Gouraud
 70
     2
177
     3
291
     1
 70
    58
 90
        2
176
     1
 90
        2
176
     1
 90
        1
176
     1
 90
        2
176
     1
 40
0.6
176
     1
 40
30.0
176
     1
 62
     7
420
 16777215
176
     1
 90
        0
176
     1
 90
        0
176
     1
 62
     7
176
     1
 62
   257
176
     1
 90
        1
176
     1
 90
        1
176
     1
 40
1.0
176
     1
 90
        0
176
     1
 62
     7
176
     1
 40
1.0
176
     1
 90
        1
176
     1
 90
        6
176
     1
 90
        2
176
     1
 62
     7
176
     1
 90
        5
176
     1
 90
        0
176
     1
 90
        0
176
     1
290
     0
176
     1
 90
       13
176
     1
 40
0.0
176
     1
 90
        0
176
     1
290
     0
176
     1
290
     1
176
     1
290
     1
176
     1
290
     0
176
     1
290
     0
176
     1
290
     0
176
     1
290
     0
176
     1
290
     0
176
     1
290
     0
176
     1
 90
       50
176
     1
 40
0.0
176
     1
 40
1.0
176
     1
 90
        0
176
     1
 62
    18
420
        0
176
     1
 90
       50
176
     1
 90
        3
176
     1
 62
     5
420
      255
176
     1
290
     0
176
     1
 90
       50
176
     1
 90
       50
176
     1
 90
       50
176
     1
290
     0
176
     1
 90
       50
176
     1
 62
   256
176
     0
 40
1.0
176
     0
 90
        2
176
     1
  1
strokes_ogs.tif
176
     1
290
     0
176
     1
 40
1.0
176
     1
 40
1.0
176
     1
  0
VISUALSTYLE
  5
446
102
{ACAD_REACTORS
330
442
102
}
330
442
100
AcDbVisualStyle
  2
GouraudWithEdges
 70
     3
177
     3
291
     1
 70
    58
 90
        2
176
     1
 90
        2
176
     1
 90
        1
176
     1
 90
        2
176
     1
 40
0.6
176
     1
 40
30.0
176
     1
 62
     7
420
 16777215
176
     1
 90
        1
176
     1
 90
        0
176
     1
 62
     7
176
     1
 62
   257
176
     1
 90
        1
176
     1
 90
        1
176
     1
 40
1.0
176
     1
 90
        0
176
     1
 62
   257
176
     1
 40
1.0
176
     1
 90
        1
176
     1
 90
        6
176
     1
 90
        2
176
     1
 62
     7
176
     1
 90
        5
176
     1
 90
        0
176
     1
 90
        0
176
     1
290
     0
176
     1
 90
       13
176
     1
 40
0.0
176
     1
 90
        0
176
     1
290
     0
176
     1
290
     1
176
     1
290
     1
176
     1
290
     0
176
     1
290
     0
176
     1
290
     0
176
     1
290
     0
176
     1
290
     0
176
     1
290
     0
176
     1
 90
       50
176
     1
 40
0.0
176
     1
 40
1.0
176
     1
 90
        0
176
     1
 62
    18
420
        0
176
     1
 90
       50
176
     1
 90
        3
176
     1
 62
     5
420
      255
176
     1
290
     0
176
     1
 90
       50
176
     1
 90
       50
176
     1
 90
       50
176
     1
290
     0
176
     1
 90
       50
176
     1
 62
   256
176
     0
 40
1.0
176
     0
 90
        2
176
     1
  1
strokes_ogs.tif
176
     1
290
     0
176
     1
 40
1.0
176
     1
 40
1.0
176
     1
  0
VISUALSTYLE
  5
449
102
{ACAD_REACTORS
330
442
102
}
330
442
100
AcDbVisualStyle
  2
Hidden
 70
     6
177
     3
291
     0
 70
    58
 90
        1
176
     1
 90
        2
176
     1
 90
        2
176
     1
 90
        0
176
     1
 40
0.6
176
     1
 40
30.0
176
     1
 62
     7
420
 16777215
176
     1
 90
        2
176
     1
 90
        2
176
     1
 62
     7
176
     1
 62
   257
176
     1
 90
        2
176
     1
 90
        1
176
     1
 40
40.0
176
     1
 90
        0
176
     1
 62
   257
176
     1
 40
1.0
176
     1
 90
        1
176
     1
 90
        6
176
     1
 90
        2
176
     1
 62
     7
176
     1
 90
        3
176
     1
 90
        0
176
     1
 90
        0
176
     1
290
     0
176
     1
 90
        1
176
     1
 40
0.0
176
     1
 90
        0
176
     1
290
     0
176
     1
290
     1
176
     1
290
     1
176
     1
290
     0
176
     1
290
     0
176
     1
290
     0
176
     1
290
     0
176
     1
290
     0
176
     1
290
     0
176
     1
 90
       50
176
     1
 40
0.0
176
     1
 40
1.0
176
     1
 90
        0
176
     1
 62
    18
420
        0
176
     1
 90
       50
176
     1
 90
        3
176
     1
 62
     5
420
      255
176
     1
290
     0
176
     1
 90
       50
176
     1
 90
       50
176
     1
 90
       50
176
     1
290
     0
176
     1
 90
       50
176
     1
 62
   256
176
     0
 40
1.0
176
     0
 90
        2
176
     1
  1
strokes_ogs.tif
176
     1
290
     0
176
     1
 40
1.0
176
     1
 40
1.0
176
     1
  0
VISUALSTYLE
  5
453
102
{ACAD_REACTORS
330
442
102
}
330
442
100
AcDbVisualStyle
  2
JitterOff
 70
    20
177
     3
291
     1
 70
    58
 90
        2
176
     0
 90
        2
176
     0
 90
        0
176
     0
 90
        0
176
     0
 40
0.6
176
     0
 40
30.0
176
     0
 62
     7
420
 16777215
176
     0
 90
        1
176
     0
 90
        4
176
     0
 62
     7
176
     0
 62
   257
176
     0
 90
        1
176
     0
 90
        1
176
     0
 40
1.0
176
     0
 90
       10
176
     2
 62
     7
176
     0
 40
1.0
176
     0
 90
        1
176
     0
 90
        6
176
     0
 90
        2
176
     0
 62
     7
176
     0
 90
        5
176
     0
 90
        0
176
     0
 90
        0
176
     0
290
     0
176
     0
 90
        1
176
     0
 40
0.0
176
     0
 90
        0
176
     0
290
     0
176
     0
290
     1
176
     0
290
     1
176
     0
290
     0
176
     0
290
     0
176
     0
290
     0
176
     0
290
     0
176
     0
290
     0
176
     0
290
     0
176
     0
 90
       50
176
     0
 40
0.0
176
     0
 40
1.0
176
     0
 90
        0
176
     0
 62
    18
420
        0
176
     0
 90
       50
176
     0
 90
        3
176
     0
 62
     5
420
      255
176
     0
290
     0
176
     0
 90
       50
176
     0
 90
       50
176
     0
 90
       50
176
     0
290
     0
176
     0
 90
       50
176
     0
 62
   256
176
     0
 40
1.0
176
     0
 90
        2
176
     0
  1
strokes_ogs.tif
176
     0
290
     0
176
     0
 40
1.0
176
     0
 40
1.0
176
     0
  0
VISUALSTYLE
  5
450
102
{ACAD_REACTORS
330
442
102
}
330
442
100
AcDbVisualStyle
  2
Linepattern
 70
    14
177
     3
291
     1
 70
    58
 90
        2
176
     1
 90
        2
176
     1
 90
        0
176
     1
 90
        0
176
     1
 40
0.6
176
     1
 40
30.0
176
     1
 62
     7
420
 16777215
176
     1
 90
        1
176
     1
 90
        4
176
     1
 62
     7
176
     1
 62
   257
176
     1
 90
        7
176
     1
 90
        7
176
     1
 40
1.0
176
     1
 90
        8
176
     1
 62
     7
176
     1
 40
1.0
176
     1
 90
        1
176
     1
 90
        6
176
     1
 90
        2
176
     1
 62
     7
176
     1
 90
        5
176
     1
 90
        0
176
     1
 90
        0
176
     1
290
     0
176
     1
 90
        1
176
     1
 40
0.0
176
     1
 90
        0
176
     1
290
     0
176
     1
290
     1
176
     1
290
     1
176
     1
290
     0
176
     1
290
     0
176
     1
290
     0
176
     1
290
     0
176
     1
290
     0
176
     1
290
     0
176
     1
 90
       50
176
     1
 40
0.0
176
     1
 40
1.0
176
     1
 90
        0
176
     1
 62
    18
420
        0
176
     1
 90
       50
176
     1
 90
        3
176
     1
 62
     5
420
      255
176
     1
290
     0
176
     1
 90
       50
176
     1
 90
       50
176
     1
 90
       50
176
     1
290
     0
176
     1
 90
       50
176
     1
 62
   256
176
     0
 40
1.0
176
     0
 90
        2
176
     1
  1
strokes_ogs.tif
176
     1
290
     0
176
     1
 40
1.0
176
     1
 40
1.0
176
     1
  0
VISUALSTYLE
  5
454
102
{ACAD_REACTORS
330
442
102
}
330
442
100
AcDbVisualStyle
  2
OverhangOff
 70
    21
177
     3
291
     1
 70
    58
 90
        2
176
     0
 90
        2
176
     0
 90
        0
176
     0
 90
        0
176
     0
 40
0.6
176
     0
 40
30.0
176
     0
 62
     7
420
 16777215
176
     0
 90
        1
176
     0
 90
        4
176
     0
 62
     7
176
     0
 62
   257
176
     0
 90
        1
176
     0
 90
        1
176
     0
 40
1.0
176
     0
 90
        9
176
     2
 62
     7
176
     0
 40
1.0
176
     0
 90
        1
176
     0
 90
        6
176
     0
 90
        2
176
     0
 62
     7
176
     0
 90
        5
176
     0
 90
        0
176
     0
 90
        0
176
     0
290
     0
176
     0
 90
        1
176
     0
 40
0.0
176
     0
 90
        0
176
     0
290
     0
176
     0
290
     1
176
     0
290
     1
176
     0
290
     0
176
     0
290
     0
176
     0
290
     0
176
     0
290
     0
176
     0
290
     0
176
     0
290
     0
176
     0
 90
       50
176
     0
 40
0.0
176
     0
 40
1.0
176
     0
 90
        0
176
     0
 62
    18
420
        0
176
     0
 90
       50
176
     0
 90
        3
176
     0
 62
     5
420
      255
176
     0
290
     0
176
     0
 90
       50
176
     0
 90
       50
176
     0
 90
       50
176
     0
290
     0
176
     0
 90
       50
176
     0
 62
   256
176
     0
 40
1.0
176
     0
 90
        2
176
     0
  1
strokes_ogs.tif
176
     0
290
     0
176
     0
 40
1.0
176
     0
 40
1.0
176
     0
  0
VISUALSTYLE
  5
44B
102
{ACAD_REACTORS
330
442
102
}
330
442
100
AcDbVisualStyle
  2
Realistic
 70
     8
177
     3
291
     0
 70
    58
 90
        2
176
     1
 90
        3
176
     1
 90
        0
176
     1
 90
        2
176
     1
 40
0.6
176
     1
 40
30.0
176
     1
 62
     7
420
 16777215
176
     1
 90
        0
176
     1
 90
        0
176
     1
 62
     7
176
     1
 62
   257
176
     1
 90
        1
176
     1
 90
        1
176
     1
 40
1.0
176
     1
 90
        8
176
     1
 62
   257
176
     1
 40
1.0
176
     1
 90
        1
176
     1
 90
        6
176
     1
 90
        2
176
     1
 62
     7
176
     1
 90
        3
176
     1
 90
        0
176
     1
 90
        0
176
     1
290
     0
176
     1
 90
       13
176
     1
 40
0.0
176
     1
 90
        0
176
     1
290
     0
176
     1
290
     1
176
     1
290
     1
176
     1
290
     0
176
     1
290
     0
176
     1
290
     0
176
     1
290
     0
176
     1
290
     0
176
     1
290
     0
176
     1
 90
       50
176
     1
 40
0.0
176
     1
 40
1.0
176
     1
 90
        0
176
     1
 62
    18
420
        0
176
     1
 90
       50
176
     1
 90
        3
176
     1
 62
     5
420
      255
176
     1
290
     0
176
     1
 90
       50
176
     1
 90
       50
176
     1
 90
       50
176
     1
290
     0
176
     1
 90
       50
176
     1
 62
   256
176
     0
 40
1.0
176
     0
 90
        2
176
     1
  1
strokes_ogs.tif
176
     1
290
     0
176
     1
 40
1.0
176
     1
 40
1.0
176
     1
  0
VISUALSTYLE
  5
45A
102
{ACAD_REACTORS
330
442
102
}
330
442
100
AcDbVisualStyle
  2
Shaded
 70
    27
177
     3
291
     0
 70
    58
 90
        2
176
     1
 90
        2
176
     1
 90
        1
176
     1
 90
        2
176
     1
 40
0.6
176
     1
 40
30.0
176
     1
 62
     7
420
 16777215
176
     1
 90
        0
176
     1
 90
        4
176
     1
 62
     7
176
     1
 62
   257
176
     1
 90
        1
176
     1
 90
        1
176
     1
 40
1.0
176
     1
 90
        8
176
     1
 62
   257
176
     1
 40
1.0
176
     1
 90
        1
176
     1
 90
        6
176
     1
 90
        2
176
     1
 62
     8
420
  7895160
176
     1
 90
        3
176
     1
 90
        0
176
     1
 90
        0
176
     1
290
     0
176
     1
 90
        5
176
     1
 40
0.0
176
     1
 90
        0
176
     1
290
     0
176
     1
290
     1
176
     1
290
     1
176
     1
290
     0
176
     1
290
     0
176
     1
290
     0
176
     1
290
     0
176
     1
290
     0
176
     1
290
     0
176
     1
 90
       50
176
     1
 40
0.0
176
     1
 40
1.0
176
     1
 90
        0
176
     1
 62
    18
420
        0
176
     1
 90
       50
176
     1
 90
        3
176
     1
 62
     5
420
      255
176
     1
290
     0
176
     1
 90
       50
176
     1
 90
       50
176
     1
 90
       50
176
     1
290
     0
176
     1
 90
       50
176
     1
 62
   256
176
     0
 40
1.0
176
     0
 90
        2
176
     1
  1
strokes_ogs.tif
176
     1
290
     0
176
     1
 40
1.0
176
     1
 40
1.0
176
     1
  0
VISUALSTYLE
  5
459
102
{ACAD_REACTORS
330
442
102
}
330
442
100
AcDbVisualStyle
  2
Shaded with edges
 70
    26
177
     3
291
     0
 70
    58
 90
        2
176
     1
 90
        2
176
     1
 90
        1
176
     1
 90
        2
176
     1
 40
0.6
176
     1
 40
30.0
176
     1
 62
     7
420
 16777215
176
     1
 90
        1
176
     1
 90
       10
176
     1
 62
     7
176
     1
 62
   257
176
     1
 90
        2
176
     1
 90
        1
176
     1
 40
1.0
176
     1
 90
        8
176
     1
 62
   257
176
     1
 40
1.0
176
     1
 90
        1
176
     1
 90
        6
176
     1
 90
        2
176
     1
 62
     7
176
     1
 90
        3
176
     1
 90
        0
176
     1
 90
        0
176
     1
290
     0
176
     1
 90
        5
176
     1
 40
0.0
176
     1
 90
        0
176
     1
290
     0
176
     1
290
     1
176
     1
290
     1
176
     1
290
     0
176
     1
290
     0
176
     1
290
     0
176
     1
290
     0
176
     1
290
     0
176
     1
290
     0
176
     1
 90
       50
176
     1
 40
0.0
176
     1
 40
1.0
176
     1
 90
        0
176
     1
 62
    18
420
        0
176
     1
 90
       50
176
     1
 90
        3
176
     1
 62
     5
420
      255
176
     1
290
     0
176
     1
 90
       50
176
     1
 90
       50
176
     1
 90
       50
176
     1
290
     0
176
     1
 90
       50
176
     1
 62
   256
176
     0
 40
1.0
176
     0
 90
        2
176
     1
  1
strokes_ogs.tif
176
     1
290
     0
176
     1
 40
1.0
176
     1
 40
1.0
176
     1
  0
VISUALSTYLE
  5
456
102
{ACAD_REACTORS
330
442
102
}
330
442
100
AcDbVisualStyle
  2
Shades of Gray
 70
    23
177
     3
291
     0
 70
    58
 90
        2
176
     1
 90
        2
176
     1
 90
        3
176
     1
 90
        0
176
     1
 40
0.6
176
     1
 40
30.0
176
     1
 62
     7
420
 16777215
176
     1
 90
        2
176
     1
 90
        2
176
     1
 62
     7
176
     1
 62
     7
176
     1
 90
        1
176
     1
 90
        1
176
     1
 40
40.0
176
     1
 90
        8
176
     1
 62
     7
176
     1
 40
1.0
176
     1
 90
        1
176
     1
 90
        6
176
     1
 90
        2
176
     1
 62
     7
176
     1
 90
        3
176
     1
 90
        0
176
     1
 90
        0
176
     1
290
     0
176
     1
 90
        1
176
     1
 40
0.0
176
     1
 90
        0
176
     1
290
     0
176
     1
290
     1
176
     1
290
     1
176
     1
290
     0
176
     1
290
     0
176
     1
290
     0
176
     1
290
     0
176
     1
290
     0
176
     1
290
     0
176
     1
 90
       50
176
     1
 40
0.0
176
     1
 40
1.0
176
     1
 90
        0
176
     1
 62
    18
420
        0
176
     1
 90
       50
176
     1
 90
        3
176
     1
 62
     5
420
      255
176
     1
290
     0
176
     1
 90
       50
176
     1
 90
       50
176
     1
 90
       50
176
     1
290
     0
176
     1
 90
       50
176
     1
 62
   256
176
     0
 40
1.0
176
     0
 90
        2
176
     1
  1
strokes_ogs.tif
176
     1
290
     0
176
     1
 40
1.0
176
     1
 40
1.0
176
     1
  0
VISUALSTYLE
  5
457
102
{ACAD_REACTORS
330
442
102
}
330
442
100
AcDbVisualStyle
  2
Sketchy
 70
    24
177
     3
291
     0
 70
    58
 90
        1
176
     1
 90
        2
176
     1
 90
        2
176
     1
 90
        0
176
     1
 40
0.6
176
     1
 40
30.0
176
     1
 62
     7
420
 16777215
176
     1
 90
        2
176
     1
 90
        2
176
     1
 62
     7
176
     1
 62
     7
176
     1
 90
        1
176
     1
 90
        1
176
     1
 40
40.0
176
     1
 90
       11
176
     1
 62
     7
176
     1
 40
1.0
176
     1
 90
        1
176
     1
 90
        6
176
     1
 90
        2
176
     1
 62
     7
176
     1
 90
        6
176
     1
 90
        0
176
     1
 90
        0
176
     1
290
     0
176
     1
 90
        1
176
     1
 40
0.0
176
     1
 90
        0
176
     1
290
     0
176
     1
290
     1
176
     1
290
     1
176
     1
290
     0
176
     1
290
     0
176
     1
290
     0
176
     1
290
     0
176
     1
290
     0
176
     1
290
     0
176
     1
 90
       50
176
     1
 40
0.0
176
     1
 40
1.0
176
     1
 90
        0
176
     1
 62
    18
420
        0
176
     1
 90
       50
176
     1
 90
        3
176
     1
 62
     5
420
      255
176
     1
290
     0
176
     1
 90
       50
176
     1
 90
       50
176
     1
 90
       50
176
     1
290
     0
176
     1
 90
       50
176
     1
 62
   256
176
     0
 40
1.0
176
     0
 90
        2
176
     1
  1
strokes_ogs.tif
176
     1
290
     0
176
     1
 40
1.0
176
     1
 40
1.0
176
     1
  0
VISUALSTYLE
  5
44F
102
{ACAD_REACTORS
330
442
102
}
330
442
100
AcDbVisualStyle
  2
Thicken
 70
    13
177
     3
291
     1
 70
    58
 90
        2
176
     1
 90
        2
176
     1
 90
        0
176
     1
 90
        0
176
     1
 40
0.6
176
     1
 40
30.0
176
     1
 62
     7
420
 16777215
176
     1
 90
        1
176
     1
 90
        4
176
     1
 62
     7
176
     1
 62
   257
176
     1
 90
        1
176
     1
 90
        1
176
     1
 40
1.0
176
     1
 90
       12
176
     1
 62
     7
176
     1
 40
1.0
176
     1
 90
        1
176
     1
 90
        6
176
     1
 90
        2
176
     1
 62
     7
176
     1
 90
        5
176
     1
 90
        0
176
     1
 90
        0
176
     1
290
     0
176
     1
 90
        1
176
     1
 40
0.0
176
     1
 90
        0
176
     1
290
     0
176
     1
290
     1
176
     1
290
     1
176
     1
290
     0
176
     1
290
     0
176
     1
290
     0
176
     1
290
     0
176
     1
290
     0
176
     1
290
     0
176
     1
 90
       50
176
     1
 40
0.0
176
     1
 40
1.0
176
     1
 90
        0
176
     1
 62
    18
420
        0
176
     1
 90
       50
176
     1
 90
        3
176
     1
 62
     5
420
      255
176
     1
290
     0
176
     1
 90
       50
176
     1
 90
       50
176
     1
 90
       50
176
     1
290
     0
176
     1
 90
       50
176
     1
 62
   256
176
     0
 40
1.0
176
     0
 90
        2
176
     1
  1
strokes_ogs.tif
176
     1
290
     0
176
     1
 40
1.0
176
     1
 40
1.0
176
     1
  0
VISUALSTYLE
  5
448
102
{ACAD_REACTORS
330
442
102
}
330
442
100
AcDbVisualStyle
  2
Wireframe
 70
     5
177
     3
291
     0
 70
    58
 90
        0
176
     1
 90
        2
176
     1
 90
        0
176
     1
 90
        0
176
     1
 40
0.6
176
     1
 40
30.0
176
     1
 62
     7
420
 16777215
176
     1
 90
        1
176
     1
 90
        4
176
     1
 62
     7
176
     1
 62
   257
176
     1
 90
        1
176
     1
 90
        1
176
     1
 40
1.0
176
     1
 90
        0
176
     1
 62
   257
176
     1
 40
1.0
176
     1
 90
        1
176
     1
 90
        6
176
     1
 90
        2
176
     1
 62
     7
176
     1
 90
        3
176
     1
 90
        0
176
     1
 90
        0
176
     1
290
     0
176
     1
 90
        1
176
     1
 40
0.0
176
     1
 90
        0
176
     1
290
     0
176
     1
290
     1
176
     1
290
     1
176
     1
290
     0
176
     1
290
     0
176
     1
290
     0
176
     1
290
     0
176
     1
290
     0
176
     1
290
     0
176
     1
 90
       50
176
     1
 40
0.0
176
     1
 40
1.0
176
     1
 90
        0
176
     1
 62
    18
420
        0
176
     1
 90
       50
176
     1
 90
        3
176
     1
 62
     5
420
      255
176
     1
290
     0
176
     1
 90
       50
176
     1
 90
       50
176
     1
 90
       50
176
     1
290
     0
176
     1
 90
       50
176
     1
 62
   256
176
     0
 40
1.0
176
     0
 90
        2
176
     1
  1
strokes_ogs.tif
176
     1
290
     0
176
     1
 40
1.0
176
     1
 40
1.0
176
     1
  0
VISUALSTYLE
  5
458
102
{ACAD_REACTORS
330
442
102
}
330
442
100
AcDbVisualStyle
  2
X-Ray
 70
    25
177
     3
291
     0
 70
    58
 90
        2
176
     1
 90
        2
176
     1
 90
        1
176
     1
 90
        1
176
     1
 40
0.5
176
     1
 40
30.0
176
     1
 62
     7
420
 16777215
176
     1
 90
        1
176
     1
 90
        0
176
     1
 62
     7
176
     1
 62
   257
176
     1
 90
        1
176
     1
 90
        1
176
     1
 40
1.0
176
     1
 90
        8
176
     1
 62
     7
176
     1
 40
1.0
176
     1
 90
        1
176
     1
 90
        6
176
     1
 90
        2
176
     1
 62
     7
176
     1
 90
        3
176
     1
 90
        0
176
     1
 90
        0
176
     1
290
     0
176
     1
 90
       13
176
     1
 40
0.0
176
     1
 90
        0
176
     1
290
     0
176
     1
290
     1
176
     1
290
     1
176
     1
290
     0
176
     1
290
     0
176
     1
290
     0
176
     1
290
     0
176
     1
290
     0
176
     1
290
     0
176
     1
 90
       50
176
     1
 40
0.0
176
     1
 40
1.0
176
     1
 90
        0
176
     1
 62
    18
420
        0
176
     1
 90
       50
176
     1
 90
        3
176
     1
 62
     5
420
      255
176
     1
290
     0
176
     1
 90
       50
176
     1
 90
       50
176
     1
 90
       50
176
     1
290
     0
176
     1
 90
       50
176
     1
 62
   256
176
     0
 40
1.0
176
     0
 90
        2
176
     1
  1
strokes_ogs.tif
176
     1
290
     0
176
     1
 40
1.0
176
     1
 40
1.0
176
     1
  0
DICTIONARYVAR
  5
472
102
{ACAD_REACTORS
330
471
102
}
330
471
100
DictionaryVariables
280
     0
  1
1:1
  0
DICTIONARYVAR
  5
476
102
{ACAD_REACTORS
330
471
102
}
330
471
100
DictionaryVariables
280
     0
  1
Standard
  0
XRECORD
  5
46B
102
{ACAD_REACTORS
330
464
102
}
330
464
100
AcDbXrecord
280
     1
300
MC_VERSION_DATA
 90
       95
310
0600000002000000570000001C000000E404000000000000000000007801936764E5D8CF7A8393818115C460606066E0646662626666706006F214793899F8DE3171E725E6E53B3BBA2878E6951050AF75FEFFFFFF520032DE0F3057000000
  0
XRECORD
  5
465
102
{ACAD_REACTORS
330
464
102
}
330
464
100
AcDbXrecord
280
     1
300
MCS_DOCUMENT_ID
 90
       60
310
0600000002000000150000001C000000E404000000000000000000007801E33D95AFFD4DB36191CBDEB097B3BD36A479FF07020072F30C3515000000
  0
XRECORD
  5
469
102
{ACAD_REACTORS
330
464
102
}
330
464
100
AcDbXrecord
280
     1
300
MCS_PARAMS_DATA
 90
     3313
310
0600000002000000F64B00001C000000E404000000000000000000007801C55C5B6C5CC519DE9D595FD6B9DF494B53970A1A6F4A58DF92A6426A1A1210527090E23EF0543976A2BA75E25CAC160A6DA92AF5A55255A96AD556551F4A49A0CF15A03EC0438190865E482021147221409310B6900B3826B1FB7F7366CEFC73E6
310
1CAFBDDE3D9B07D8FF3F73CEF7DFE6FB67E6ECBA757EA3143929F767A4FCCE8636299AA49C90529036BB402C105929F279912F89C6DEAF6FD8BC69AB14A46C51EAC2B9898909BA39945F872C1FCD848A834A91A13B1AD51D6D5266E8A9FAF627E9AABE92BD45CA6F03BD81A3CFC24D59D990C96408C7E066656E0232E13A03
310
14B0AB01724443F05CC3F08780DFC8F19B03FC710A073DC8486413411B49060E3311A05C24C45064703B01D7CCE196A818E5C59C9268B967CBD6DED68ED59DC52EEB78BEF08E09F8223D745649346F1DE9DB35D0B777C089FC5FC3C8EB60BF1A286CF47FE3467F17CC59C5CD990B0CD948C1A77FB9F5CA0E4F479188EA541E
310
3C25A2E22BC99C8892456878B2821857F6B05492C2AD881B41409C21325211340605C9C6DC6006EC49AC088A0CCBB25B1159B72248E415019155047D5453031360047082A7405D92B72AB0F03379693EAB50870260AC609E2C6F6510BB3D081DFE4EF5EFECD71494A7B3590EC7F12C5B25CB32539229914732934ECE22AF1D
310
D259AC8B7B7649E437DE7BDFA69EADF76EE95186E95A7ED74C032DBFA66A9BF1CEF341B19B78E45DDED9EF56FE29189043E4814BF734E1FF34659991678231F23A51010DA578E8294D435524988818E84710A7B2643B4F7C134F5CC6936D1E4176D01398C4D0A83AE0A6BDC86B0BB5C3E1E8299D70A5A945AC12322FE697C4
310
9C8DC3BBBE34D2BA77FBEEA1BEFEED79D15C120DF70F0FEE1A093EF60C8FF47F4BCAB3B0ED666EDB17F5733E2B445B5E2C298985C507BB8BEBBA3A3A3774178B1D777FA5B36B9D327BBE1ED84C030BC74C9EDAB5B64D88BC405AEF1E1CD9D73A34B88F70838775AD5DDBD1B9B6BBABBB73A0ABA37F5D7BE0E757F57D1DB80F
310
037BFBB60D6D6F1DDED1DA3B3CB47D6FDF2EF8A0AD5933506CEF2FF6F7ADD9D6B56D5DFF9A60D6A95222FF670B51F8295953F8455019945B7EE9315C7A8AFEC352DE9D4B4A5050256AA6D1B42D5F0C265BEED4473538E9811F770DEFDCDD3732B86D706870E4A1D69DC303E45F6349C807B6EFCB8B8692103DC352AE816545
310
9E9E798813B5E9A692C86DD9B1A355A5424F8E0BF018466AF90D150136590E2905AA568F782650907D5A7180140B84AD0159F8156902B8F63BDA8BE1A72E29AF48322EA98B5F578631B6F5489B26184C63434803DB221A328E6B58DEAED6DB808FEB6DC068BD0DF8A4DE065CABB7018B3045EB390B3EAD7704C6EA6DC07518
310
10B79C17773A0DB6C361F03BDD064B22C8C7303844629E5064B47323116EB9039777E096BB70247238880C6E39831B9F221C81B3E543C57019D4736C30574EE2DD4AD73B12B9771099772B997713E97A974DF4CECD5D9582B938116EC00926492C777A7F676A8F441E4C882C98032C983211AE26DE8974E196022EC7174366
310
F9AE62C95769E105B5C4B012E2E82ED8CD3516C5E34D519CF0D1F6765A8551C6CC0505130A3E8ABEC46EF81CED54DC1DA04AB7BC4DB0CA082453194AB29B82400C2B438BA6322032B88FE093B3E13470C11297490C8EEF78E88158D51A8AD42283A38F61044E78707A57F8BBDFE2DF2167F36975041D1DA7FCF59430C35792
310
05112533A905D5D3CAAB4759DBB4CA160F3E9309466F934A1794E7E1154C402D3088858048DCDF7EA3E7FECD5B7A7B376D5480CBF43A7E5E49CCBE6BEB37D945B2402FC65F52AB73B67E7F3A58AE93F37A04F6B7011D680556EBCCA2819BC8A21C320F385BBDB4EE56E6E32CE2CB18E358AD7676B4C7C096B1674BAF7B1278
310
1E906198B0DF8681EA696AF34D20563061CAB731C0DB01185B8B0DCA46538BD880EB0E2C6FC3120B40E62289BC162112587895C11513E18290E892090EBF46A9321968C513E0BB89A0AE8F2431B88A7DFC9E07A7BD0A8E668E3AF3CDEA083A3A8ECFB770A00AB53712018F2859D8DB3D93C2E4D422CB77A40BB73A5DB807A7
310
0857A5727AC8838BE45965D0D3D5B29CBEEF99145F4E558AC0C3E9C23D922EDC0FD285FBA107E7958EEDE721E98018A3E3AAC64E7F5C166D7ABA81B65C437BB31D766C74A6ED6E1FBC2766B7AFDAD87156F9771BF44A2A724C461AB43EE729AAFB710D63E2111810BBA3ABC9AE6037E09AB9BF3AB40BE8309F8736AB64CAB2
310
BE7E3364E5AC569CA6976081AF5A311628A8EF68C5B3A4609E3E86AC3AA156E3E83562F4B5A292099A878C61EB3B549CF92354989982613F016CE7AD5A4D09AA1F5126387AAD451EE384D9C035A925859E39C1AA865EE9A9B8DA21CEE289167F7CF1D4C4BC7A125EC5AED5D8BB0B5A9D9144D134CFA71BF85A8D44BE568348
310
F6AA55A2F3CAEACF6982FD29118CC249D3CBF852A586F278BA70FBD3853B90085793EDE51E143F0AD06C6B4CB2242BDDBDD1419166C2865E85F9CE1648F3CBF54B2E655D5432557AB8C599EEE6E763403914E55050D879E2BFFA30F366F009F0CB378371CA9B99D05949929DD07465EA8797A3808B6B06B9536E64AF9C844C
310
903AF2F3709D3783A318A078E4F37AEBBCEC2DD1B228B722F785DC2DB9D64C476675A63353CC74E937B1FA39BFA7DB58A6AFC19E49583A4A9B6110A6BA038D3C80418F79D091B18A763C1D8524AA5361F194EC4CC4B23EDBA3192533E95398E41423EB6DCA1C239B4DBF91D13F6D762A6897D7013D496371DC8BECCAA7D45E
310
0C251095ABC98AA38E1B6540CD3DACF829EF15C38D27C2B92DA64A071D13897001094F16523EC1C9E5A99FF465029665AB5B13C49AF8984D174EA40B273D389D33BB29A272F6749622C2719C22AC925104534E7A8CF33714555C6B3CF3BE4BE0AF28994CA9B8353E0F28878DD26D8D2F007FBAAD11BD305CEB4EAB35BE08B8
310
B8D678FEB81BD9134AB6ADF10A644BBEF9C2334A81E4EAA6772450D87DD2AF49C178F020A0EBD3055FF292CC5B8AB3FC4114C86BA708ACDB15F49C43C04EBBE7FCBD0CA8A1CB2AF59CC3897035E1E39713E16AD873FE91085A131FFF19C04DBEDBF8D75406FD3B3A2842E56C8ABE82A171BC3BF89ECB0E0F287926BC7B0450
310
75E4DDA3C09F2EEF56BE2579157071BCBBE7881BD93E255BDE7D04B225A07C61BD5230DE1DBA8C1158736B225E412358525F03747D78F79897E472BCCBAF5BAF2BA0DDE3804E9B765F2F035A65DA3D910857134A7A2311AE52DA8D6E0E9C1341735A873DD47F12A16BE2E99BE9C275792B70532835F1AEDB838B7404B509F7
310
74C449519D9AA19EB28205FF5B08785CE3F9307262735AC933693C270155C7C6730AF8E9359ED3808B6B3CA387DDC6734EC9B6F1C897238DE72006D89713F9C2E58B91C6F3388D608DE70CA0A7DA7866D30F8008DC16BEAA2D26A2AAB848F4108A0CF46D0F54D7A73989E2C56D75B6B8431D2F6EAB64C5CD94644C04869974
310
1626C5B6A280378D1BEE62BCE2C3917700E714386FAA719B1D7E7D464DF7DD444F8317374E8CAA75BEF65E19D0F8F0523EC21D7470DCC60B8CAEF29753FC38EF4760CFDBF99B4673F680D0869F6742513F06849341B61DF57EE3400A02734628D75C0DBC8B68A868B98655ECA330208EA3C6F1B52E3DF1E8849E2433679564
310
431A886148B568E62C4406F75F64308EFD2F9D7039EA6D259B5B2BF91AD8396F72B01004EFC5CD6C88F911E8CCDF849C077E5C64E9488747967101058B73015D99FA9B900B808B63FFB117DCC85E50324556799F2F34BC086EC70CD18A4318C0D9FF2AB6807CDB718046B0A4BE0FE8B4D9FFA207EA504E3D7E65FA014C7226
310
B329B0E8D703AAFEBAA304E869379E693123CD68457958A4FF2F11AE86ECFF6119D078F6E7138AD87FF2370F86D6E1E34789702D76FED2134932CCA824CB8C811832A3160D33426421BD940847AF6F0C11D33DEECB1CFE9B7175D1F926045DE5BD8DBFBDBE9C081764D0049324E6DDB40A8607F34A225C4D16463974B5B836
310
F3B3A32E193EACE499B49986C93A780A6DA631A981D7A6CD34012EAECDFCF23937B23F51B26D337F80CCDBCC36A5C0ECD07DE7E7A7236D663D8D6033A419D0536D33E07F56B8C4CA7C0D48229F9610695A461A0883CE7B494E8DD95B004DF38E8247AB09FE45AC1A52EDAC32A0861DD8DA85D8A76276989D08579353913989
310
700119397510D9BB4CAB9DF096393711B4263ECE4B176E7EBA700B3C389DB3F0B5335AA6A7234288EA142D784A9083AFB414616018456CF64C3293C4CD2F49D3E5A5F0410CEE3E0F2E6A6FEA11580893E29AEE529C2FC11C4DF48D4AA628982DB44A422820F8563073C8F989CF2240392BED74F7768B819FDEDE6E09E0E29A
310
EE0AFA030B3CB273954C91D5916E83CC9BEE074FAB1E6B73B11CFB6CBEB73B4C23589D2D05F4CC9AAE2E4C768646F0614DBB4BD40606BDCC4B726A4DF72640A7DD749797013521AB4ED3C5971C1BF2225712D922FD192CAA82F186C253F467B664EED8B163100EA1787299890C1D4314EEF90B040C236113FD72905624B8F0
310
99FF03A92412CEF64B0000
  0
TABLECONTENT
  5
46D
330
470
100
AcDbLinkedData
  1

300

100
AcDbLinkedTableData
 90
        5
300
COLUMN
  1
LINKEDTABLEDATACOLUMN_BEGIN
300

 91
        0
301
CUSTOMDATA
  1
DATAMAP_BEGIN
 90
        0
309
DATAMAP_END
309
LINKEDTABLEDATACOLUMN_END
  1
FORMATTEDTABLEDATACOLUMN_BEGIN
300
COLUMNTABLEFORMAT
  1
TABLEFORMAT_BEGIN
 90
        3
170
     0
309
TABLEFORMAT_END
309
FORMATTEDTABLEDATACOLUMN_END
  1
TABLECOLUMN_BEGIN
 90
        0
 40
10.0
309
TABLECOLUMN_END
300
COLUMN
  1
LINKEDTABLEDATACOLUMN_BEGIN
300

 91
        0
301
CUSTOMDATA
  1
DATAMAP_BEGIN
 90
        0
309
DATAMAP_END
309
LINKEDTABLEDATACOLUMN_END
  1
FORMATTEDTABLEDATACOLUMN_BEGIN
300
COLUMNTABLEFORMAT
  1
TABLEFORMAT_BEGIN
 90
        3
170
     0
309
TABLEFORMAT_END
309
FORMATTEDTABLEDATACOLUMN_END
  1
TABLECOLUMN_BEGIN
 90
        0
 40
10.0
309
TABLECOLUMN_END
300
COLUMN
  1
LINKEDTABLEDATACOLUMN_BEGIN
300

 91
        0
301
CUSTOMDATA
  1
DATAMAP_BEGIN
 90
        0
309
DATAMAP_END
309
LINKEDTABLEDATACOLUMN_END
  1
FORMATTEDTABLEDATACOLUMN_BEGIN
300
COLUMNTABLEFORMAT
  1
TABLEFORMAT_BEGIN
 90
        3
170
     0
309
TABLEFORMAT_END
309
FORMATTEDTABLEDATACOLUMN_END
  1
TABLECOLUMN_BEGIN
 90
        0
 40
10.0
309
TABLECOLUMN_END
300
COLUMN
  1
LINKEDTABLEDATACOLUMN_BEGIN
300

 91
        0
301
CUSTOMDATA
  1
DATAMAP_BEGIN
 90
        0
309
DATAMAP_END
309
LINKEDTABLEDATACOLUMN_END
  1
FORMATTEDTABLEDATACOLUMN_BEGIN
300
COLUMNTABLEFORMAT
  1
TABLEFORMAT_BEGIN
 90
        3
170
     0
309
TABLEFORMAT_END
309
FORMATTEDTABLEDATACOLUMN_END
  1
TABLECOLUMN_BEGIN
 90
        0
 40
40.0
309
TABLECOLUMN_END
300
COLUMN
  1
LINKEDTABLEDATACOLUMN_BEGIN
300

 91
        0
301
CUSTOMDATA
  1
DATAMAP_BEGIN
 90
        0
309
DATAMAP_END
309
LINKEDTABLEDATACOLUMN_END
  1
FORMATTEDTABLEDATACOLUMN_BEGIN
300
COLUMNTABLEFORMAT
  1
TABLEFORMAT_BEGIN
 90
        3
170
     0
309
TABLEFORMAT_END
309
FORMATTEDTABLEDATACOLUMN_END
  1
TABLECOLUMN_BEGIN
 90
        0
 40
20.0
309
TABLECOLUMN_END
 91
        5
301
ROW
  1
LINKEDTABLEDATAROW_BEGIN
 90
        5
300
CELL
  1
LINKEDTABLEDATACELL_BEGIN
 90
        0
300

 91
        0
301
CUSTOMDATA
  1
DATAMAP_BEGIN
 90
        1
300
ACAD_ROUNDTRIP_2008_CELL_CHECKSUM
301
DATAMAP_VALUE
 93
        2
 90
        2
140
32.0
 94
        0
300

302

304
ACVALUE_END
309
DATAMAP_END
 92
        0
 95
        1
302
CONTENT
  1
CELLCONTENT_BEGIN
 90
        1
300
VALUE
 93
        2
 90
        4
  1
 
 94
        0
300

302
 
304
ACVALUE_END
 91
        0
309
CELLCONTENT_END
  1
FORMATTEDCELLCONTENT_BEGIN
170
     1
300
CONTENTFORMAT
  1
CONTENTFORMAT_BEGIN
 90
      132
 91
        0
 92
      512
 93
        0
300

 40
0.0
140
1.0
 94
        1
 62
     0
340
0
144
3.5
309
CONTENTFORMAT_END
309
FORMATTEDCELLCONTENT_END
309
LINKEDTABLEDATACELL_END
  1
FORMATTEDTABLEDATACELL_BEGIN
300
CELLTABLEFORMAT
  1
TABLEFORMAT_BEGIN
 90
        1
170
     1
 91
        0
 92
        0
 62
   257
 93
        1
300
CONTENTFORMAT
  1
CONTENTFORMAT_BEGIN
 90
        0
 91
        0
 92
      512
 93
        0
300

 40
0.0
140
1.0
 94
        1
 62
     0
340
0
144
0.18
309
CONTENTFORMAT_END
171
     0
 94
        0
309
TABLEFORMAT_END
309
FORMATTEDTABLEDATACELL_END
  1
TABLECELL_BEGIN
 90
        0
 91
        0
309
TABLECELL_END
300
CELL
  1
LINKEDTABLEDATACELL_BEGIN
 90
        0
300

 91
        0
301
CUSTOMDATA
  1
DATAMAP_BEGIN
 90
        0
309
DATAMAP_END
 92
        0
 95
        0
309
LINKEDTABLEDATACELL_END
  1
FORMATTEDTABLEDATACELL_BEGIN
300
CELLTABLEFORMAT
  1
TABLEFORMAT_BEGIN
 90
        1
170
     1
 91
        0
 92
        0
 62
   257
 93
        1
300
CONTENTFORMAT
  1
CONTENTFORMAT_BEGIN
 90
        0
 91
        0
 92
      512
 93
        0
300

 40
0.0
140
1.0
 94
        1
 62
     0
340
0
144
0.18
309
CONTENTFORMAT_END
171
     0
 94
        0
309
TABLEFORMAT_END
309
FORMATTEDTABLEDATACELL_END
  1
TABLECELL_BEGIN
 90
        0
 91
        0
309
TABLECELL_END
300
CELL
  1
LINKEDTABLEDATACELL_BEGIN
 90
        0
300

 91
        0
301
CUSTOMDATA
  1
DATAMAP_BEGIN
 90
        0
309
DATAMAP_END
 92
        0
 95
        0
309
LINKEDTABLEDATACELL_END
  1
FORMATTEDTABLEDATACELL_BEGIN
300
CELLTABLEFORMAT
  1
TABLEFORMAT_BEGIN
 90
        1
170
     1
 91
        0
 92
        0
 62
   257
 93
        1
300
CONTENTFORMAT
  1
CONTENTFORMAT_BEGIN
 90
        0
 91
        0
 92
      512
 93
        0
300

 40
0.0
140
1.0
 94
        1
 62
     0
340
0
144
0.18
309
CONTENTFORMAT_END
171
     0
 94
        0
309
TABLEFORMAT_END
309
FORMATTEDTABLEDATACELL_END
  1
TABLECELL_BEGIN
 90
        0
 91
        0
309
TABLECELL_END
300
CELL
  1
LINKEDTABLEDATACELL_BEGIN
 90
        0
300

 91
        0
301
CUSTOMDATA
  1
DATAMAP_BEGIN
 90
        1
300
ACAD_ROUNDTRIP_2008_CELL_CHECKSUM
301
DATAMAP_VALUE
 93
        2
 90
        2
140
1103.0
 94
        0
300

302

304
ACVALUE_END
309
DATAMAP_END
 92
        0
 95
        1
302
CONTENT
  1
CELLCONTENT_BEGIN
 90
        1
300
VALUE
 93
        2
 90
        4
  1
240656
 94
        0
300

302
240656
304
ACVALUE_END
 91
        0
309
CELLCONTENT_END
  1
FORMATTEDCELLCONTENT_BEGIN
170
     1
300
CONTENTFORMAT
  1
CONTENTFORMAT_BEGIN
 90
      196
 91
        0
 92
      512
 93
        0
300

 40
0.0
140
1.0
 94
        1
 62
     0
340
20F
144
3.0
309
CONTENTFORMAT_END
309
FORMATTEDCELLCONTENT_END
309
LINKEDTABLEDATACELL_END
  1
FORMATTEDTABLEDATACELL_BEGIN
300
CELLTABLEFORMAT
  1
TABLEFORMAT_BEGIN
 90
        1
170
     1
 91
       16
 92
        0
 62
   257
 93
        1
300
CONTENTFORMAT
  1
CONTENTFORMAT_BEGIN
 90
       16
 91
        0
 92
      512
 93
        0
300

 40
0.0
140
1.0
 94
        4
 62
     0
340
0
144
0.18
309
CONTENTFORMAT_END
171
     0
 94
        4
 95
        1
302
GRIDFORMAT
  1
GRIDFORMAT_BEGIN
 90
       26
 91
        1
 62
     0
 92
       -2
340
0
 93
        0
 40
0.045
309
GRIDFORMAT_END
 95
        4
302
GRIDFORMAT
  1
GRIDFORMAT_BEGIN
 90
       26
 91
        1
 62
     0
 92
       -2
340
0
 93
        0
 40
0.045
309
GRIDFORMAT_END
 95
        8
302
GRIDFORMAT
  1
GRIDFORMAT_BEGIN
 90
       26
 91
        1
 62
     0
 92
       -2
340
0
 93
        0
 40
0.045
309
GRIDFORMAT_END
 95
       32
302
GRIDFORMAT
  1
GRIDFORMAT_BEGIN
 90
       26
 91
        1
 62
     0
 92
       -2
340
0
 93
        0
 40
0.045
309
GRIDFORMAT_END
309
TABLEFORMAT_END
309
FORMATTEDTABLEDATACELL_END
  1
TABLECELL_BEGIN
 90
        0
 91
        0
309
TABLECELL_END
300
CELL
  1
LINKEDTABLEDATACELL_BEGIN
 90
        0
300

 91
        0
301
CUSTOMDATA
  1
DATAMAP_BEGIN
 90
        1
300
ACAD_ROUNDTRIP_2008_CELL_CHECKSUM
301
DATAMAP_VALUE
 93
        2
 90
        2
140
1398.0
 94
        0
300

302

304
ACVALUE_END
309
DATAMAP_END
 92
        0
 95
        1
302
CONTENT
  1
CELLCONTENT_BEGIN
 90
        1
300
VALUE
 93
        2
 90
        4
  1
Rev:00
 94
        0
300

302
Rev:00
304
ACVALUE_END
 91
        0
309
CELLCONTENT_END
  1
FORMATTEDCELLCONTENT_BEGIN
170
     1
300
CONTENTFORMAT
  1
CONTENTFORMAT_BEGIN
 90
      196
 91
        0
 92
      512
 93
        0
300

 40
0.0
140
1.0
 94
        1
 62
     0
340
20F
144
3.5
309
CONTENTFORMAT_END
309
FORMATTEDCELLCONTENT_END
309
LINKEDTABLEDATACELL_END
  1
FORMATTEDTABLEDATACELL_BEGIN
300
CELLTABLEFORMAT
  1
TABLEFORMAT_BEGIN
 90
        1
170
     1
 91
       16
 92
        0
 62
   257
 93
        1
300
CONTENTFORMAT
  1
CONTENTFORMAT_BEGIN
 90
       16
 91
        0
 92
      512
 93
        0
300

 40
0.0
140
1.0
 94
        1
 62
     0
340
0
144
0.18
309
CONTENTFORMAT_END
171
     0
 94
        4
 95
        1
302
GRIDFORMAT
  1
GRIDFORMAT_BEGIN
 90
       26
 91
        1
 62
     0
 92
       -2
340
0
 93
        0
 40
0.045
309
GRIDFORMAT_END
 95
        4
302
GRIDFORMAT
  1
GRIDFORMAT_BEGIN
 90
       26
 91
        1
 62
     0
 92
       -2
340
0
 93
        0
 40
0.045
309
GRIDFORMAT_END
 95
        8
302
GRIDFORMAT
  1
GRIDFORMAT_BEGIN
 90
       26
 91
        1
 62
     0
 92
       -2
340
0
 93
        0
 40
0.045
309
GRIDFORMAT_END
 95
       32
302
GRIDFORMAT
  1
GRIDFORMAT_BEGIN
 90
       26
 91
        1
 62
     0
 92
       -2
340
0
 93
        0
 40
0.045
309
GRIDFORMAT_END
309
TABLEFORMAT_END
309
FORMATTEDTABLEDATACELL_END
  1
TABLECELL_BEGIN
 90
        0
 91
        0
309
TABLECELL_END
 91
        0
301
CUSTOMDATA
  1
DATAMAP_BEGIN
 90
        0
309
DATAMAP_END
309
LINKEDTABLEDATAROW_END
  1
FORMATTEDTABLEDATAROW_BEGIN
300
ROWTABLEFORMAT
  1
TABLEFORMAT_BEGIN
 90
        2
170
     0
309
TABLEFORMAT_END
309
FORMATTEDTABLEDATAROW_END
  1
TABLEROW_BEGIN
 90
        1
 40
6.0
309
TABLEROW_END
301
ROW
  1
LINKEDTABLEDATAROW_BEGIN
 90
        5
300
CELL
  1
LINKEDTABLEDATACELL_BEGIN
 90
        0
300

 91
        0
301
CUSTOMDATA
  1
DATAMAP_BEGIN
 90
        0
309
DATAMAP_END
 92
        0
 95
        0
309
LINKEDTABLEDATACELL_END
  1
FORMATTEDTABLEDATACELL_BEGIN
300
CELLTABLEFORMAT
  1
TABLEFORMAT_BEGIN
 90
        1
170
     1
 91
        0
 92
        0
 62
   257
 93
        1
300
CONTENTFORMAT
  1
CONTENTFORMAT_BEGIN
 90
        0
 91
        0
 92
      512
 93
        0
300

 40
0.0
140
1.0
 94
        1
 62
     0
340
0
144
0.18
309
CONTENTFORMAT_END
171
     0
 94
        0
309
TABLEFORMAT_END
309
FORMATTEDTABLEDATACELL_END
  1
TABLECELL_BEGIN
 90
        0
 91
        0
309
TABLECELL_END
300
CELL
  1
LINKEDTABLEDATACELL_BEGIN
 90
        0
300

 91
        0
301
CUSTOMDATA
  1
DATAMAP_BEGIN
 90
        0
309
DATAMAP_END
 92
        0
 95
        0
309
LINKEDTABLEDATACELL_END
  1
FORMATTEDTABLEDATACELL_BEGIN
300
CELLTABLEFORMAT
  1
TABLEFORMAT_BEGIN
 90
        1
170
     1
 91
        0
 92
        0
 62
   257
 93
        1
300
CONTENTFORMAT
  1
CONTENTFORMAT_BEGIN
 90
        0
 91
        0
 92
      512
 93
        0
300

 40
0.0
140
1.0
 94
        1
 62
     0
340
0
144
0.18
309
CONTENTFORMAT_END
171
     0
 94
        0
309
TABLEFORMAT_END
309
FORMATTEDTABLEDATACELL_END
  1
TABLECELL_BEGIN
 90
        0
 91
        0
309
TABLECELL_END
300
CELL
  1
LINKEDTABLEDATACELL_BEGIN
 90
        0
300

 91
        0
301
CUSTOMDATA
  1
DATAMAP_BEGIN
 90
        0
309
DATAMAP_END
 92
        0
 95
        0
309
LINKEDTABLEDATACELL_END
  1
FORMATTEDTABLEDATACELL_BEGIN
300
CELLTABLEFORMAT
  1
TABLEFORMAT_BEGIN
 90
        1
170
     1
 91
        0
 92
        0
 62
   257
 93
        1
300
CONTENTFORMAT
  1
CONTENTFORMAT_BEGIN
 90
        0
 91
        0
 92
      512
 93
        0
300

 40
0.0
140
1.0
 94
        1
 62
     0
340
0
144
0.18
309
CONTENTFORMAT_END
171
     0
 94
        0
309
TABLEFORMAT_END
309
FORMATTEDTABLEDATACELL_END
  1
TABLECELL_BEGIN
 90
        0
 91
        0
309
TABLECELL_END
300
CELL
  1
LINKEDTABLEDATACELL_BEGIN
 90
        0
300

 91
        0
301
CUSTOMDATA
  1
DATAMAP_BEGIN
 90
        1
300
ACAD_ROUNDTRIP_2008_CELL_CHECKSUM
301
DATAMAP_VALUE
 93
        2
 90
        2
140
3105.0
 94
        0
300

302

304
ACVALUE_END
309
DATAMAP_END
 92
        0
 95
        1
302
CONTENT
  1
CELLCONTENT_BEGIN
 90
        1
300
VALUE
 93
        2
 90
        4
  1
Scale:1:1
 94
        0
300

302
Scale:1:1
304
ACVALUE_END
 91
        0
309
CELLCONTENT_END
  1
FORMATTEDCELLCONTENT_BEGIN
170
     1
300
CONTENTFORMAT
  1
CONTENTFORMAT_BEGIN
 90
      196
 91
        0
 92
      512
 93
        0
300

 40
0.0
140
1.0
 94
        1
 62
     0
340
20F
144
3.5
309
CONTENTFORMAT_END
309
FORMATTEDCELLCONTENT_END
309
LINKEDTABLEDATACELL_END
  1
FORMATTEDTABLEDATACELL_BEGIN
300
CELLTABLEFORMAT
  1
TABLEFORMAT_BEGIN
 90
        1
170
     1
 91
       16
 92
        0
 62
   257
 93
        1
300
CONTENTFORMAT
  1
CONTENTFORMAT_BEGIN
 90
       16
 91
        0
 92
      512
 93
        0
300

 40
0.0
140
1.0
 94
        1
 62
     0
340
0
144
0.18
309
CONTENTFORMAT_END
171
     0
 94
        4
 95
        1
302
GRIDFORMAT
  1
GRIDFORMAT_BEGIN
 90
       26
 91
        1
 62
     0
 92
       -2
340
0
 93
        0
 40
0.045
309
GRIDFORMAT_END
 95
        4
302
GRIDFORMAT
  1
GRIDFORMAT_BEGIN
 90
       26
 91
        1
 62
     0
 92
       -2
340
0
 93
        0
 40
0.045
309
GRIDFORMAT_END
 95
        8
302
GRIDFORMAT
  1
GRIDFORMAT_BEGIN
 90
       26
 91
        1
 62
     0
 92
       -2
340
0
 93
        0
 40
0.045
309
GRIDFORMAT_END
 95
       32
302
GRIDFORMAT
  1
GRIDFORMAT_BEGIN
 90
       26
 91
        1
 62
     0
 92
       -2
340
0
 93
        0
 40
0.045
309
GRIDFORMAT_END
309
TABLEFORMAT_END
309
FORMATTEDTABLEDATACELL_END
  1
TABLECELL_BEGIN
 90
        0
 91
        0
309
TABLECELL_END
300
CELL
  1
LINKEDTABLEDATACELL_BEGIN
 90
        0
300

 91
        0
301
CUSTOMDATA
  1
DATAMAP_BEGIN
 90
        1
300
ACAD_ROUNDTRIP_2008_CELL_CHECKSUM
301
DATAMAP_VALUE
 93
        2
 90
        2
140
163.0
 94
        0
300

302

304
ACVALUE_END
309
DATAMAP_END
 92
        0
 95
        1
302
CONTENT
  1
CELLCONTENT_BEGIN
 90
        1
300
VALUE
 93
        2
 90
        4
  1
A1
 94
        0
300

302
A1
304
ACVALUE_END
 91
        0
309
CELLCONTENT_END
  1
FORMATTEDCELLCONTENT_BEGIN
170
     1
300
CONTENTFORMAT
  1
CONTENTFORMAT_BEGIN
 90
      196
 91
        0
 92
      512
 93
        0
300

 40
0.0
140
1.0
 94
        1
 62
     0
340
20F
144
3.5
309
CONTENTFORMAT_END
309
FORMATTEDCELLCONTENT_END
309
LINKEDTABLEDATACELL_END
  1
FORMATTEDTABLEDATACELL_BEGIN
300
CELLTABLEFORMAT
  1
TABLEFORMAT_BEGIN
 90
        1
170
     1
 91
       16
 92
        0
 62
   257
 93
        1
300
CONTENTFORMAT
  1
CONTENTFORMAT_BEGIN
 90
       16
 91
        0
 92
      512
 93
        0
300

 40
0.0
140
1.0
 94
        4
 62
     0
340
0
144
0.18
309
CONTENTFORMAT_END
171
     0
 94
        4
 95
        1
302
GRIDFORMAT
  1
GRIDFORMAT_BEGIN
 90
       26
 91
        1
 62
     0
 92
       -2
340
0
 93
        0
 40
0.045
309
GRIDFORMAT_END
 95
        4
302
GRIDFORMAT
  1
GRIDFORMAT_BEGIN
 90
       26
 91
        1
 62
     0
 92
       -2
340
0
 93
        0
 40
0.045
309
GRIDFORMAT_END
 95
        8
302
GRIDFORMAT
  1
GRIDFORMAT_BEGIN
 90
       26
 91
        1
 62
     0
 92
       -2
340
0
 93
        0
 40
0.045
309
GRIDFORMAT_END
 95
       32
302
GRIDFORMAT
  1
GRIDFORMAT_BEGIN
 90
       26
 91
        1
 62
     0
 92
       -2
340
0
 93
        0
 40
0.045
309
GRIDFORMAT_END
309
TABLEFORMAT_END
309
FORMATTEDTABLEDATACELL_END
  1
TABLECELL_BEGIN
 90
        0
 91
        0
309
TABLECELL_END
 91
        0
301
CUSTOMDATA
  1
DATAMAP_BEGIN
 90
        0
309
DATAMAP_END
309
LINKEDTABLEDATAROW_END
  1
FORMATTEDTABLEDATAROW_BEGIN
300
ROWTABLEFORMAT
  1
TABLEFORMAT_BEGIN
 90
        2
170
     0
309
TABLEFORMAT_END
309
FORMATTEDTABLEDATAROW_END
  1
TABLEROW_BEGIN
 90
        2
 40
6.0
309
TABLEROW_END
301
ROW
  1
LINKEDTABLEDATAROW_BEGIN
 90
        5
300
CELL
  1
LINKEDTABLEDATACELL_BEGIN
 90
        0
300

 91
        0
301
CUSTOMDATA
  1
DATAMAP_BEGIN
 90
        0
309
DATAMAP_END
 92
        0
 95
        0
309
LINKEDTABLEDATACELL_END
  1
FORMATTEDTABLEDATACELL_BEGIN
300
CELLTABLEFORMAT
  1
TABLEFORMAT_BEGIN
 90
        1
170
     1
 91
        0
 92
        0
 62
   257
 93
        1
300
CONTENTFORMAT
  1
CONTENTFORMAT_BEGIN
 90
        0
 91
        0
 92
      512
 93
        0
300

 40
0.0
140
1.0
 94
        1
 62
     0
340
0
144
0.18
309
CONTENTFORMAT_END
171
     0
 94
        0
309
TABLEFORMAT_END
309
FORMATTEDTABLEDATACELL_END
  1
TABLECELL_BEGIN
 90
        0
 91
        0
309
TABLECELL_END
300
CELL
  1
LINKEDTABLEDATACELL_BEGIN
 90
        0
300

 91
        0
301
CUSTOMDATA
  1
DATAMAP_BEGIN
 90
        0
309
DATAMAP_END
 92
        0
 95
        0
309
LINKEDTABLEDATACELL_END
  1
FORMATTEDTABLEDATACELL_BEGIN
300
CELLTABLEFORMAT
  1
TABLEFORMAT_BEGIN
 90
        1
170
     1
 91
        0
 92
        0
 62
   257
 93
        1
300
CONTENTFORMAT
  1
CONTENTFORMAT_BEGIN
 90
        0
 91
        0
 92
      512
 93
        0
300

 40
0.0
140
1.0
 94
        1
 62
     0
340
0
144
0.18
309
CONTENTFORMAT_END
171
     0
 94
        0
309
TABLEFORMAT_END
309
FORMATTEDTABLEDATACELL_END
  1
TABLECELL_BEGIN
 90
        0
 91
        0
309
TABLECELL_END
300
CELL
  1
LINKEDTABLEDATACELL_BEGIN
 90
        0
300

 91
        0
301
CUSTOMDATA
  1
DATAMAP_BEGIN
 90
        0
309
DATAMAP_END
 92
        0
 95
        0
309
LINKEDTABLEDATACELL_END
  1
FORMATTEDTABLEDATACELL_BEGIN
300
CELLTABLEFORMAT
  1
TABLEFORMAT_BEGIN
 90
        1
170
     1
 91
        0
 92
        0
 62
   257
 93
        1
300
CONTENTFORMAT
  1
CONTENTFORMAT_BEGIN
 90
        0
 91
        0
 92
      512
 93
        0
300

 40
0.0
140
1.0
 94
        1
 62
     0
340
0
144
0.18
309
CONTENTFORMAT_END
171
     0
 94
        0
309
TABLEFORMAT_END
309
FORMATTEDTABLEDATACELL_END
  1
TABLECELL_BEGIN
 90
        0
 91
        0
309
TABLECELL_END
300
CELL
  1
LINKEDTABLEDATACELL_BEGIN
 90
        0
300

 91
        0
301
CUSTOMDATA
  1
DATAMAP_BEGIN
 90
        1
300
ACAD_ROUNDTRIP_2008_CELL_CHECKSUM
301
DATAMAP_VALUE
 93
        2
 90
        2
140
30634.0
 94
        0
300

302

304
ACVALUE_END
309
DATAMAP_END
 92
        0
 95
        1
302
CONTENT
  1
CELLCONTENT_BEGIN
 90
        1
300
VALUE
 93
        2
 90
        4
  1
KIT ANTIVENTO ALTOPIANO S L4m
 94
        0
300

302
KIT ANTIVENTO ALTOPIANO S L4m
304
ACVALUE_END
 91
        0
309
CELLCONTENT_END
  1
FORMATTEDCELLCONTENT_BEGIN
170
     1
300
CONTENTFORMAT
  1
CONTENTFORMAT_BEGIN
 90
      196
 91
        0
 92
      512
 93
        0
300

 40
0.0
140
1.0
 94
        1
 62
     0
340
20F
144
2.5
309
CONTENTFORMAT_END
309
FORMATTEDCELLCONTENT_END
309
LINKEDTABLEDATACELL_END
  1
FORMATTEDTABLEDATACELL_BEGIN
300
CELLTABLEFORMAT
  1
TABLEFORMAT_BEGIN
 90
        1
170
     1
 91
       16
 92
        0
 62
   257
 93
        1
300
CONTENTFORMAT
  1
CONTENTFORMAT_BEGIN
 90
       16
 91
        0
 92
      512
 93
        0
300

 40
0.0
140
1.0
 94
        4
 62
     0
340
0
144
0.18
309
CONTENTFORMAT_END
171
     0
 94
        4
 95
        1
302
GRIDFORMAT
  1
GRIDFORMAT_BEGIN
 90
       26
 91
        1
 62
     0
 92
       -2
340
0
 93
        0
 40
0.045
309
GRIDFORMAT_END
 95
        4
302
GRIDFORMAT
  1
GRIDFORMAT_BEGIN
 90
       26
 91
        1
 62
     0
 92
       -2
340
0
 93
        0
 40
0.045
309
GRIDFORMAT_END
 95
        8
302
GRIDFORMAT
  1
GRIDFORMAT_BEGIN
 90
       26
 91
        1
 62
     0
 92
       -2
340
0
 93
        0
 40
0.045
309
GRIDFORMAT_END
 95
       32
302
GRIDFORMAT
  1
GRIDFORMAT_BEGIN
 90
       26
 91
        1
 62
     0
 92
       -2
340
0
 93
        0
 40
0.045
309
GRIDFORMAT_END
309
TABLEFORMAT_END
309
FORMATTEDTABLEDATACELL_END
  1
TABLECELL_BEGIN
 90
        0
 91
        0
309
TABLECELL_END
300
CELL
  1
LINKEDTABLEDATACELL_BEGIN
 90
        0
300

 91
        0
301
CUSTOMDATA
  1
DATAMAP_BEGIN
 90
        0
309
DATAMAP_END
 92
        0
 95
        0
309
LINKEDTABLEDATACELL_END
  1
FORMATTEDTABLEDATACELL_BEGIN
300
CELLTABLEFORMAT
  1
TABLEFORMAT_BEGIN
 90
        1
170
     1
 91
        0
 92
        0
 62
   257
 93
        1
300
CONTENTFORMAT
  1
CONTENTFORMAT_BEGIN
 90
        0
 91
        0
 92
      512
 93
        0
300

 40
0.0
140
1.0
 94
        1
 62
     0
340
0
144
0.18
309
CONTENTFORMAT_END
171
     0
 94
        0
309
TABLEFORMAT_END
309
FORMATTEDTABLEDATACELL_END
  1
TABLECELL_BEGIN
 90
        0
 91
        0
309
TABLECELL_END
 91
        0
301
CUSTOMDATA
  1
DATAMAP_BEGIN
 90
        0
309
DATAMAP_END
309
LINKEDTABLEDATAROW_END
  1
FORMATTEDTABLEDATAROW_BEGIN
300
ROWTABLEFORMAT
  1
TABLEFORMAT_BEGIN
 90
        2
170
     0
309
TABLEFORMAT_END
309
FORMATTEDTABLEDATAROW_END
  1
TABLEROW_BEGIN
 90
        3
 40
10.0
309
TABLEROW_END
301
ROW
  1
LINKEDTABLEDATAROW_BEGIN
 90
        5
300
CELL
  1
LINKEDTABLEDATACELL_BEGIN
 90
        0
300

 91
        0
301
CUSTOMDATA
  1
DATAMAP_BEGIN
 90
        0
309
DATAMAP_END
 92
        0
 95
        0
309
LINKEDTABLEDATACELL_END
  1
FORMATTEDTABLEDATACELL_BEGIN
300
CELLTABLEFORMAT
  1
TABLEFORMAT_BEGIN
 90
        1
170
     1
 91
        0
 92
        0
 62
   257
 93
        1
300
CONTENTFORMAT
  1
CONTENTFORMAT_BEGIN
 90
        0
 91
        0
 92
      512
 93
        0
300

 40
0.0
140
1.0
 94
        1
 62
     0
340
0
144
0.18
309
CONTENTFORMAT_END
171
     0
 94
        0
309
TABLEFORMAT_END
309
FORMATTEDTABLEDATACELL_END
  1
TABLECELL_BEGIN
 90
        0
 91
        0
309
TABLECELL_END
300
CELL
  1
LINKEDTABLEDATACELL_BEGIN
 90
        0
300

 91
        0
301
CUSTOMDATA
  1
DATAMAP_BEGIN
 90
        0
309
DATAMAP_END
 92
        0
 95
        0
309
LINKEDTABLEDATACELL_END
  1
FORMATTEDTABLEDATACELL_BEGIN
300
CELLTABLEFORMAT
  1
TABLEFORMAT_BEGIN
 90
        1
170
     1
 91
        0
 92
        0
 62
   257
 93
        1
300
CONTENTFORMAT
  1
CONTENTFORMAT_BEGIN
 90
        0
 91
        0
 92
      512
 93
        0
300

 40
0.0
140
1.0
 94
        1
 62
     0
340
0
144
0.18
309
CONTENTFORMAT_END
171
     0
 94
        0
309
TABLEFORMAT_END
309
FORMATTEDTABLEDATACELL_END
  1
TABLECELL_BEGIN
 90
        0
 91
        0
309
TABLECELL_END
300
CELL
  1
LINKEDTABLEDATACELL_BEGIN
 90
        0
300

 91
        0
301
CUSTOMDATA
  1
DATAMAP_BEGIN
 90
        0
309
DATAMAP_END
 92
        0
 95
        0
309
LINKEDTABLEDATACELL_END
  1
FORMATTEDTABLEDATACELL_BEGIN
300
CELLTABLEFORMAT
  1
TABLEFORMAT_BEGIN
 90
        1
170
     1
 91
        0
 92
        0
 62
   257
 93
        1
300
CONTENTFORMAT
  1
CONTENTFORMAT_BEGIN
 90
        0
 91
        0
 92
      512
 93
        0
300

 40
0.0
140
1.0
 94
        1
 62
     0
340
0
144
0.18
309
CONTENTFORMAT_END
171
     0
 94
        0
309
TABLEFORMAT_END
309
FORMATTEDTABLEDATACELL_END
  1
TABLECELL_BEGIN
 90
        0
 91
        0
309
TABLECELL_END
300
CELL
  1
LINKEDTABLEDATACELL_BEGIN
 90
        0
300

 91
        0
301
CUSTOMDATA
  1
DATAMAP_BEGIN
 90
        1
300
ACAD_ROUNDTRIP_2008_CELL_CHECKSUM
301
DATAMAP_VALUE
 93
        2
 90
        2
140
4783.0
 94
        0
300

302

304
ACVALUE_END
309
DATAMAP_END
 92
        0
 95
        1
302
CONTENT
  1
CELLCONTENT_BEGIN
 90
        1
300
VALUE
 93
        2
 90
        4
  1
DATE:03.06.24
 94
        0
300

302
DATE:03.06.24
304
ACVALUE_END
 91
        0
309
CELLCONTENT_END
  1
FORMATTEDCELLCONTENT_BEGIN
170
     1
300
CONTENTFORMAT
  1
CONTENTFORMAT_BEGIN
 90
      196
 91
        0
 92
      512
 93
        0
300

 40
0.0
140
1.0
 94
        1
 62
     0
340
20F
144
2.5
309
CONTENTFORMAT_END
309
FORMATTEDCELLCONTENT_END
309
LINKEDTABLEDATACELL_END
  1
FORMATTEDTABLEDATACELL_BEGIN
300
CELLTABLEFORMAT
  1
TABLEFORMAT_BEGIN
 90
        1
170
     1
 91
       16
 92
        0
 62
   257
 93
        1
300
CONTENTFORMAT
  1
CONTENTFORMAT_BEGIN
 90
       16
 91
        0
 92
      512
 93
        0
300

 40
0.0
140
1.0
 94
        4
 62
     0
340
0
144
0.18
309
CONTENTFORMAT_END
171
     0
 94
        4
 95
        1
302
GRIDFORMAT
  1
GRIDFORMAT_BEGIN
 90
       26
 91
        1
 62
     0
 92
       -2
340
0
 93
        0
 40
0.045
309
GRIDFORMAT_END
 95
        4
302
GRIDFORMAT
  1
GRIDFORMAT_BEGIN
 90
       26
 91
        1
 62
     0
 92
       -2
340
0
 93
        0
 40
0.045
309
GRIDFORMAT_END
 95
        8
302
GRIDFORMAT
  1
GRIDFORMAT_BEGIN
 90
       26
 91
        1
 62
     0
 92
       -2
340
0
 93
        0
 40
0.045
309
GRIDFORMAT_END
 95
       32
302
GRIDFORMAT
  1
GRIDFORMAT_BEGIN
 90
       26
 91
        1
 62
     0
 92
       -2
340
0
 93
        0
 40
0.045
309
GRIDFORMAT_END
309
TABLEFORMAT_END
309
FORMATTEDTABLEDATACELL_END
  1
TABLECELL_BEGIN
 90
        0
 91
        0
309
TABLECELL_END
300
CELL
  1
LINKEDTABLEDATACELL_BEGIN
 90
        0
300

 91
        0
301
CUSTOMDATA
  1
DATAMAP_BEGIN
 90
        0
309
DATAMAP_END
 92
        0
 95
        0
309
LINKEDTABLEDATACELL_END
  1
FORMATTEDTABLEDATACELL_BEGIN
300
CELLTABLEFORMAT
  1
TABLEFORMAT_BEGIN
 90
        1
170
     1
 91
        0
 92
        0
 62
   257
 93
        1
300
CONTENTFORMAT
  1
CONTENTFORMAT_BEGIN
 90
        0
 91
        0
 92
      512
 93
        0
300

 40
0.0
140
1.0
 94
        1
 62
     0
340
0
144
0.18
309
CONTENTFORMAT_END
171
     0
 94
        0
309
TABLEFORMAT_END
309
FORMATTEDTABLEDATACELL_END
  1
TABLECELL_BEGIN
 90
        0
 91
        0
309
TABLECELL_END
 91
        0
301
CUSTOMDATA
  1
DATAMAP_BEGIN
 90
        0
309
DATAMAP_END
309
LINKEDTABLEDATAROW_END
  1
FORMATTEDTABLEDATAROW_BEGIN
300
ROWTABLEFORMAT
  1
TABLEFORMAT_BEGIN
 90
        2
170
     0
309
TABLEFORMAT_END
309
FORMATTEDTABLEDATAROW_END
  1
TABLEROW_BEGIN
 90
        3
 40
5.0
309
TABLEROW_END
301
ROW
  1
LINKEDTABLEDATAROW_BEGIN
 90
        5
300
CELL
  1
LINKEDTABLEDATACELL_BEGIN
 90
        0
300

 91
        0
301
CUSTOMDATA
  1
DATAMAP_BEGIN
 90
        1
300
ACAD_ROUNDTRIP_2008_CELL_CHECKSUM
301
DATAMAP_VALUE
 93
        2
 90
        2
140
1878387.0
 94
        0
300

302

304
ACVALUE_END
309
DATAMAP_END
 92
        0
 95
        1
302
CONTENT
  1
CELLCONTENT_BEGIN
 90
        1
300
VALUE
 93
        2
 90
        4
  1
Any integral or partial reproductions are prohibited \Pwithout prior authorisation of L {\Ftxt.shx;\W0.190476;\H2.250000; }& L Luce & Light s.r.l., \Pin accordance with the law in force. \PAll rights reserved.
 94
        0
300

302
Any integral or partial reproductions are prohibited \Pwithout prior authorisation of L {\Ftxt.shx;\W0.190476;\H2.250000; }& L Luce & Light s.r.l., \Pin accordance with the law in force. \PAll rights reserved.
304
ACVALUE_END
 91
        0
309
CELLCONTENT_END
  1
FORMATTEDCELLCONTENT_BEGIN
170
     1
300
CONTENTFORMAT
  1
CONTENTFORMAT_BEGIN
 90
      196
 91
        0
 92
      512
 93
        0
300

 40
0.0
140
1.0
 94
        1
 62
     0
340
20F
144
2.25
309
CONTENTFORMAT_END
309
FORMATTEDCELLCONTENT_END
309
LINKEDTABLEDATACELL_END
  1
FORMATTEDTABLEDATACELL_BEGIN
300
CELLTABLEFORMAT
  1
TABLEFORMAT_BEGIN
 90
        1
170
     1
 91
       16
 92
        0
 62
   257
 93
        1
300
CONTENTFORMAT
  1
CONTENTFORMAT_BEGIN
 90
       16
 91
        0
 92
      512
 93
        0
300

 40
0.0
140
1.0
 94
        4
 62
     0
340
0
144
0.18
309
CONTENTFORMAT_END
171
     0
 94
        4
 95
        1
302
GRIDFORMAT
  1
GRIDFORMAT_BEGIN
 90
       26
 91
        1
 62
     0
 92
       -2
340
0
 93
        0
 40
0.045
309
GRIDFORMAT_END
 95
        4
302
GRIDFORMAT
  1
GRIDFORMAT_BEGIN
 90
       26
 91
        1
 62
     0
 92
       -2
340
0
 93
        0
 40
0.045
309
GRIDFORMAT_END
 95
        8
302
GRIDFORMAT
  1
GRIDFORMAT_BEGIN
 90
       26
 91
        1
 62
     0
 92
       -2
340
0
 93
        0
 40
0.045
309
GRIDFORMAT_END
 95
       32
302
GRIDFORMAT
  1
GRIDFORMAT_BEGIN
 90
       26
 91
        1
 62
     0
 92
       -2
340
0
 93
        0
 40
0.045
309
GRIDFORMAT_END
309
TABLEFORMAT_END
309
FORMATTEDTABLEDATACELL_END
  1
TABLECELL_BEGIN
 90
        0
 91
        0
309
TABLECELL_END
300
CELL
  1
LINKEDTABLEDATACELL_BEGIN
 90
        0
300

 91
        0
301
CUSTOMDATA
  1
DATAMAP_BEGIN
 90
        0
309
DATAMAP_END
 92
        0
 95
        0
309
LINKEDTABLEDATACELL_END
  1
FORMATTEDTABLEDATACELL_BEGIN
300
CELLTABLEFORMAT
  1
TABLEFORMAT_BEGIN
 90
        1
170
     1
 91
        0
 92
        0
 62
   257
 93
        1
300
CONTENTFORMAT
  1
CONTENTFORMAT_BEGIN
 90
        0
 91
        0
 92
      512
 93
        0
300

 40
0.0
140
1.0
 94
        1
 62
     0
340
0
144
0.18
309
CONTENTFORMAT_END
171
     0
 94
        0
309
TABLEFORMAT_END
309
FORMATTEDTABLEDATACELL_END
  1
TABLECELL_BEGIN
 90
        0
 91
        0
309
TABLECELL_END
300
CELL
  1
LINKEDTABLEDATACELL_BEGIN
 90
        0
300

 91
        0
301
CUSTOMDATA
  1
DATAMAP_BEGIN
 90
        0
309
DATAMAP_END
 92
        0
 95
        0
309
LINKEDTABLEDATACELL_END
  1
FORMATTEDTABLEDATACELL_BEGIN
300
CELLTABLEFORMAT
  1
TABLEFORMAT_BEGIN
 90
        1
170
     1
 91
        0
 92
        0
 62
   257
 93
        1
300
CONTENTFORMAT
  1
CONTENTFORMAT_BEGIN
 90
        0
 91
        0
 92
      512
 93
        0
300

 40
0.0
140
1.0
 94
        1
 62
     0
340
0
144
0.18
309
CONTENTFORMAT_END
171
     0
 94
        0
309
TABLEFORMAT_END
309
FORMATTEDTABLEDATACELL_END
  1
TABLECELL_BEGIN
 90
        0
 91
        0
309
TABLECELL_END
300
CELL
  1
LINKEDTABLEDATACELL_BEGIN
 90
        0
300

 91
        0
301
CUSTOMDATA
  1
DATAMAP_BEGIN
 90
        0
309
DATAMAP_END
 92
        0
 95
        0
309
LINKEDTABLEDATACELL_END
  1
FORMATTEDTABLEDATACELL_BEGIN
300
CELLTABLEFORMAT
  1
TABLEFORMAT_BEGIN
 90
        1
170
     1
 91
        0
 92
        0
 62
   257
 93
        1
300
CONTENTFORMAT
  1
CONTENTFORMAT_BEGIN
 90
        0
 91
        0
 92
      512
 93
        0
300

 40
0.0
140
1.0
 94
        1
 62
     0
340
0
144
0.18
309
CONTENTFORMAT_END
171
     0
 94
        0
309
TABLEFORMAT_END
309
FORMATTEDTABLEDATACELL_END
  1
TABLECELL_BEGIN
 90
        0
 91
        0
309
TABLECELL_END
300
CELL
  1
LINKEDTABLEDATACELL_BEGIN
 90
        0
300

 91
        0
301
CUSTOMDATA
  1
DATAMAP_BEGIN
 90
        0
309
DATAMAP_END
 92
        0
 95
        0
309
LINKEDTABLEDATACELL_END
  1
FORMATTEDTABLEDATACELL_BEGIN
300
CELLTABLEFORMAT
  1
TABLEFORMAT_BEGIN
 90
        1
170
     1
 91
        0
 92
        0
 62
   257
 93
        1
300
CONTENTFORMAT
  1
CONTENTFORMAT_BEGIN
 90
        0
 91
        0
 92
      512
 93
        0
300

 40
0.0
140
1.0
 94
        1
 62
     0
340
0
144
0.18
309
CONTENTFORMAT_END
171
     0
 94
        0
309
TABLEFORMAT_END
309
FORMATTEDTABLEDATACELL_END
  1
TABLECELL_BEGIN
 90
        0
 91
        0
309
TABLECELL_END
 91
        0
301
CUSTOMDATA
  1
DATAMAP_BEGIN
 90
        0
309
DATAMAP_END
309
LINKEDTABLEDATAROW_END
  1
FORMATTEDTABLEDATAROW_BEGIN
300
ROWTABLEFORMAT
  1
TABLEFORMAT_BEGIN
 90
        2
170
     0
309
TABLEFORMAT_END
309
FORMATTEDTABLEDATAROW_END
  1
TABLEROW_BEGIN
 90
        3
 40
13.0
309
TABLEROW_END
100
AcDbFormattedTableData
300
TABLEFORMAT
  1
TABLEFORMAT_BEGIN
 90
        4
170
     1
 91
    15360
 92
        0
 62
   257
 93
        1
300
CONTENTFORMAT
  1
CONTENTFORMAT_BEGIN
 90
        0
 91
        0
 92
      512
 93
        0
300

 40
0.0
140
1.0
 94
        1
 62
     0
340
0
144
0.18
309
CONTENTFORMAT_END
171
     1
301
MARGIN
  1
CELLMARGIN_BEGIN
 40
0.06
 40
0.06
 40
0.06
 40
0.06
 40
0.06
 40
0.06
309
CELLMARGIN_END
 94
        0
309
TABLEFORMAT_END
 90
        4
 91
        0
 92
        0
 93
        3
 94
        2
 91
        2
 92
        3
 93
        2
 94
        4
 91
        3
 92
        3
 93
        3
 94
        4
 91
        4
 92
        0
 93
        4
 94
        4
100
AcDbTableContent
340
45C
  0
TABLEGEOMETRY
  5
46E
330
470
100
AcDbTableGeometry
 90
        5
 91
        5
 92
       25
 93
        0
 40
0.0
 41
0.0
330
0
 94
        0
 93
        0
 40
0.0
 41
0.0
330
0
 94
        0
 93
        0
 40
0.0
 41
0.0
330
0
 94
        0
 93
        0
 40
0.0
 41
0.0
330
0
 94
        0
 93
        0
 40
0.0
 41
0.0
330
0
 94
        0
 93
        0
 40
0.0
 41
0.0
330
0
 94
        0
 93
        0
 40
0.0
 41
0.0
330
0
 94
        0
 93
        0
 40
0.0
 41
0.0
330
0
 94
        0
 93
        0
 40
0.0
 41
0.0
330
0
 94
        0
 93
        0
 40
0.0
 41
0.0
330
0
 94
        0
 93
        0
 40
0.0
 41
0.0
330
0
 94
        0
 93
        0
 40
0.0
 41
0.0
330
0
 94
        0
 93
        0
 40
0.0
 41
0.0
330
0
 94
        0
 93
        0
 40
0.0
 41
0.0
330
0
 94
        0
 93
        0
 40
0.0
 41
0.0
330
0
 94
        0
 93
        0
 40
0.0
 41
0.0
330
0
 94
        0
 93
        0
 40
0.0
 41
0.0
330
0
 94
        0
 93
        0
 40
0.0
 41
0.0
330
0
 94
        0
 93
        0
 40
0.0
 41
0.0
330
0
 94
        0
 93
        0
 40
0.0
 41
0.0
330
0
 94
        0
 93
        0
 40
0.0
 41
0.0
330
0
 94
        0
 93
        0
 40
0.0
 41
0.0
330
0
 94
        0
 93
        0
 40
0.0
 41
0.0
330
0
 94
        0
 93
        0
 40
0.0
 41
0.0
330
0
 94
        0
 93
        0
 40
0.0
 41
0.0
330
0
 94
        0
  0
DICTIONARY
  5
473
330
45C
100
AcDbDictionary
280
     1
281
     1
  3
ACAD_ROUNDTRIP_2008_TABLESTYLE_CELLSTYLEMAP
360
474
  0
CELLSTYLEMAP
  5
474
102
{ACAD_REACTORS
330
473
102
}
330
473
100
AcDbCellStyleMap
 90
        3
300
CELLSTYLE
  1
TABLEFORMAT_BEGIN
 90
        5
170
     1
 91
        0
 92
        0
 62
   257
 93
        1
300
CONTENTFORMAT
  1
CONTENTFORMAT_BEGIN
 90
        0
 91
        0
 92
        4
 93
        0
300

 40
0.0
140
1.0
 94
        5
 62
     0
340
11
144
6.0
309
CONTENTFORMAT_END
171
     1
301
MARGIN
  1
CELLMARGIN_BEGIN
 40
1.5
 40
1.5
 40
1.5
 40
1.5
 40
1.5
 40
1.5
309
CELLMARGIN_END
 94
        6
 95
        1
302
GRIDFORMAT
  1
GRIDFORMAT_BEGIN
 90
        0
 91
        1
 62
     0
 92
       -2
340
14
 93
        0
 40
0.045
309
GRIDFORMAT_END
 95
        2
302
GRIDFORMAT
  1
GRIDFORMAT_BEGIN
 90
        0
 91
        1
 62
     0
 92
       -2
340
14
 93
        0
 40
0.045
309
GRIDFORMAT_END
 95
        4
302
GRIDFORMAT
  1
GRIDFORMAT_BEGIN
 90
        0
 91
        1
 62
     0
 92
       -2
340
14
 93
        0
 40
0.045
309
GRIDFORMAT_END
 95
        8
302
GRIDFORMAT
  1
GRIDFORMAT_BEGIN
 90
        0
 91
        1
 62
     0
 92
       -2
340
14
 93
        0
 40
0.045
309
GRIDFORMAT_END
 95
       16
302
GRIDFORMAT
  1
GRIDFORMAT_BEGIN
 90
        0
 91
        1
 62
     0
 92
       -2
340
14
 93
        0
 40
0.045
309
GRIDFORMAT_END
 95
       32
302
GRIDFORMAT
  1
GRIDFORMAT_BEGIN
 90
        0
 91
        1
 62
     0
 92
       -2
340
14
 93
        0
 40
0.045
309
GRIDFORMAT_END
309
TABLEFORMAT_END
  1
CELLSTYLE_BEGIN
 90
        1
 91
        1
300
_TITLE
309
CELLSTYLE_END
300
CELLSTYLE
  1
TABLEFORMAT_BEGIN
 90
        5
170
     1
 91
        0
 92
        0
 62
   257
 93
        1
300
CONTENTFORMAT
  1
CONTENTFORMAT_BEGIN
 90
        0
 91
        0
 92
        4
 93
        0
300

 40
0.0
140
1.0
 94
        5
 62
     0
340
11
144
4.5
309
CONTENTFORMAT_END
171
     1
301
MARGIN
  1
CELLMARGIN_BEGIN
 40
1.5
 40
1.5
 40
1.5
 40
1.5
 40
1.5
 40
1.5
309
CELLMARGIN_END
 94
        6
 95
        1
302
GRIDFORMAT
  1
GRIDFORMAT_BEGIN
 90
        0
 91
        1
 62
     0
 92
       -2
340
14
 93
        0
 40
0.045
309
GRIDFORMAT_END
 95
        2
302
GRIDFORMAT
  1
GRIDFORMAT_BEGIN
 90
        0
 91
        1
 62
     0
 92
       -2
340
14
 93
        0
 40
0.045
309
GRIDFORMAT_END
 95
        4
302
GRIDFORMAT
  1
GRIDFORMAT_BEGIN
 90
        0
 91
        1
 62
     0
 92
       -2
340
14
 93
        0
 40
0.045
309
GRIDFORMAT_END
 95
        8
302
GRIDFORMAT
  1
GRIDFORMAT_BEGIN
 90
        0
 91
        1
 62
     0
 92
       -2
340
14
 93
        0
 40
0.045
309
GRIDFORMAT_END
 95
       16
302
GRIDFORMAT
  1
GRIDFORMAT_BEGIN
 90
        0
 91
        1
 62
     0
 92
       -2
340
14
 93
        0
 40
0.045
309
GRIDFORMAT_END
 95
       32
302
GRIDFORMAT
  1
GRIDFORMAT_BEGIN
 90
        0
 91
        1
 62
     0
 92
       -2
340
14
 93
        0
 40
0.045
309
GRIDFORMAT_END
309
TABLEFORMAT_END
  1
CELLSTYLE_BEGIN
 90
        2
 91
        1
300
_HEADER
309
CELLSTYLE_END
300
CELLSTYLE
  1
TABLEFORMAT_BEGIN
 90
        5
170
     1
 91
        0
 92
        0
 62
   257
 93
        1
300
CONTENTFORMAT
  1
CONTENTFORMAT_BEGIN
 90
        0
 91
        0
 92
        4
 93
        0
300

 40
0.0
140
1.0
 94
        2
 62
     0
340
11
144
4.5
309
CONTENTFORMAT_END
171
     1
301
MARGIN
  1
CELLMARGIN_BEGIN
 40
1.5
 40
1.5
 40
1.5
 40
1.5
 40
1.5
 40
1.5
309
CELLMARGIN_END
 94
        6
 95
        1
302
GRIDFORMAT
  1
GRIDFORMAT_BEGIN
 90
        0
 91
        1
 62
     0
 92
       -2
340
14
 93
        0
 40
0.045
309
GRIDFORMAT_END
 95
        2
302
GRIDFORMAT
  1
GRIDFORMAT_BEGIN
 90
        0
 91
        1
 62
     0
 92
       -2
340
14
 93
        0
 40
0.045
309
GRIDFORMAT_END
 95
        4
302
GRIDFORMAT
  1
GRIDFORMAT_BEGIN
 90
        0
 91
        1
 62
     0
 92
       -2
340
14
 93
        0
 40
0.045
309
GRIDFORMAT_END
 95
        8
302
GRIDFORMAT
  1
GRIDFORMAT_BEGIN
 90
        0
 91
        1
 62
     0
 92
       -2
340
14
 93
        0
 40
0.045
309
GRIDFORMAT_END
 95
       16
302
GRIDFORMAT
  1
GRIDFORMAT_BEGIN
 90
        0
 91
        1
 62
     0
 92
       -2
340
14
 93
        0
 40
0.045
309
GRIDFORMAT_END
 95
       32
302
GRIDFORMAT
  1
GRIDFORMAT_BEGIN
 90
        0
 91
        1
 62
     0
 92
       -2
340
14
 93
        0
 40
0.045
309
GRIDFORMAT_END
309
TABLEFORMAT_END
  1
CELLSTYLE_BEGIN
 90
        3
 91
        2
300
_DATA
309
CELLSTYLE_END
  0
ENDSEC
  0
EOF
