999
DXF file: 6f4_c_045.dxf
999
Pro/ENGINEER 2016360 by Parametric Technology Corporation
  0
SECTION
  2
HEADER
  9
$ACADVER
  1
AC1014
  9
$DWGCODEPAGE
  3
ANSI_1252
  9
$EXTMAX
 10
3200.0
 20
2500.0
 30
0.0
  9
$EXTMIN
 10
0.0
 20
0.0
 30
0.0
  9
$LIMMIN
 10
0.0
 20
0.0
  9
$LIMMAX
 10
3200.0
 20
2500.0
  9
$VIEWCTR
 10
1600.0
 20
1250.0
  9
$VIEWSIZE
 40
2500.0
  9
$CLAYER
  8
0
  9
$LTSCALE
 40
176.0
  9
$CELTYPE
  6
BYLAYER
  9
$DIMSCALE
 40
1.0
  9
$DIMASZ
 40
2.5
  9
$DIMEXO
 40
0.75
  9
$DIMDLI
 40
121.6
  9
$DIMEXE
 40
0.75
  9
$DIMCEN
 40
28.8
  9
$DIMLFAC
 40
1.0
  9
$DIMBLK
  1
_CLOSED
  9
$DIMALT
 70
0
  9
$DIMALTF
 40
25.4
  9
$DIMTXT
 40
3.0
  9
$DIMTOL
 70
1
  9
$DIMLIM
 70
0
  9
$DIMTFAC
 40
1.0
  9
$DIMTP
 40
0.01
  9
$DIMTM
 40
0.01
  9
$DIMGAP
 40
0.625
  9
$AUNITS
 70
0
  9
$PDMODE
 70
3
  9
$PDSIZE
 40
0.3125
  9
$HANDSEED
  5
5C1
  9
$TILEMODE
 70
1
  9
$MEASUREMENT
 70
1
  0
ENDSEC
  0
SECTION
  2
CLASSES
  0
ENDSEC
  0
SECTION
  2
TABLES
  0
TABLE
  2
VPORT
  5
8
100
AcDbSymbolTable
 70
2
  0
VPORT
  5
1F4
100
AcDbSymbolTableRecord
100
AcDbViewportTableRecord
  2
*ACTIVE
 70
0
 10
0.0
 20
0.0
 11
1.0
 21
1.0
 12
1600.0
 22
1250.0
 13
0.0
 23
0.0
 14
1.0
 24
1.0
 15
0.0
 25
0.0
 16
0.0
 26
0.0
 36
1.0
 17
0.0
 27
0.0
 37
0.0
 40
2500.0
 41
1.28
 42
50.0
 43
0.0
 44
0.0
 50
0.0
 51
0.0
 71
0
 72
100
 73
1
 74
1
 75
0
 76
0
 77
0
 78
0
  0
ENDTAB
  0
TABLE
  2
LTYPE
  5
5
100
AcDbSymbolTable
 70
6
  0
LTYPE
  5
14
100
AcDbSymbolTableRecord
100
AcDbLinetypeTableRecord
  2
BYBLOCK
 70
0
  3

 72
65
 73
0
 40
0.0
  0
LTYPE
  5
15
100
AcDbSymbolTableRecord
100
AcDbLinetypeTableRecord
  2
BYLAYER
 70
0
  3

 72
65
 73
0
 40
0.0
  0
LTYPE
  5
16
100
AcDbSymbolTableRecord
100
AcDbLinetypeTableRecord
  2
CONTINUOUS
 70
64
  3
Solid line
 72
65
 73
0
 40
0.0
  0
LTYPE
  5
1F5
100
AcDbSymbolTableRecord
100
AcDbLinetypeTableRecord
  2
CENTER
 70
64
  3
____ _ ____ _ ____ _ ____ _ ____ _ ____ _ ____
 72
65
 73
4
 40
0.6
 49
0.375
 74
0
 49
-0.075
 74
0
 49
0.075
 74
0
 49
-0.075
 74
0
  0
LTYPE
  5
1F6
100
AcDbSymbolTableRecord
100
AcDbLinetypeTableRecord
  2
HIDDEN
 70
64
  3
- - - - - - - - - - - - - - - - - - - -
 72
65
 73
2
 40
0.2
 49
0.1
 74
0
 49
-0.1
 74
0
  0
LTYPE
  5
1F7
100
AcDbSymbolTableRecord
100
AcDbLinetypeTableRecord
  2
PHANTOM
 70
64
  3
_____ _ _ _____ _ _ _____ _ _ _____
 72
65
 73
6
 40
0.8
 49
0.45
 74
0
 49
-0.05
 74
0
 49
0.1
 74
0
 49
-0.05
 74
0
 49
0.1
 74
0
 49
-0.05
 74
0
  0
LTYPE
  5
1F8
100
AcDbSymbolTableRecord
100
AcDbLinetypeTableRecord
  2
DOT
 70
64
  3
. . . . . . . . . . . . . . . . . . . .
 72
65
 73
2
 40
0.2
 49
0.1
 74
0
 49
-0.1
 74
0
  0
LTYPE
  5
1F9
100
AcDbSymbolTableRecord
100
AcDbLinetypeTableRecord
  2
DASHED
 70
64
  3
- - - - - - - - - - - - - - - - - - - -
 72
65
 73
2
 40
0.2
 49
0.1
 74
0
 49
-0.1
 74
0
  0
ENDTAB
  0
TABLE
  2
LAYER
  5
2
100
AcDbSymbolTable
 70
36
  0
LAYER
  5
10
100
AcDbSymbolTableRecord
100
AcDbLayerTableRecord
  2
0
 70
0
 62
7
  6
CONTINUOUS
  0
LAYER
  5
1FA
100
AcDbSymbolTableRecord
100
AcDbLayerTableRecord
  2
DEFAULT_1
 70
0
 62
7
  6
CENTER
  0
LAYER
  5
1FB
100
AcDbSymbolTableRecord
100
AcDbLayerTableRecord
  2
DEFAULT_2
 70
0
 62
8
  6
HIDDEN
  0
LAYER
  5
1FC
100
AcDbSymbolTableRecord
100
AcDbLayerTableRecord
  2
DEFAULT_3
 70
0
 62
7
  6
PHANTOM
  0
LAYER
  5
1FD
100
AcDbSymbolTableRecord
100
AcDbLayerTableRecord
  2
1_ALL_PLANES
 70
0
 62
7
  6
CONTINUOUS
  0
LAYER
  5
1FE
100
AcDbSymbolTableRecord
100
AcDbLayerTableRecord
  2
2_ALL_CSYS
 70
0
 62
7
  6
CONTINUOUS
  0
LAYER
  5
1FF
100
AcDbSymbolTableRecord
100
AcDbLayerTableRecord
  2
3_ALL_AXES
 70
0
 62
7
  6
CONTINUOUS
  0
LAYER
  5
200
100
AcDbSymbolTableRecord
100
AcDbLayerTableRecord
  2
4_ALL_POINTS
 70
0
 62
7
  6
CONTINUOUS
  0
LAYER
  5
201
100
AcDbSymbolTableRecord
100
AcDbLayerTableRecord
  2
5_ALL_CURVES
 70
0
 62
7
  6
CONTINUOUS
  0
LAYER
  5
202
100
AcDbSymbolTableRecord
100
AcDbLayerTableRecord
  2
5__COSTRUZIONE
 70
0
 62
7
  6
CONTINUOUS
  0
LAYER
  5
203
100
AcDbSymbolTableRecord
100
AcDbLayerTableRecord
  2
6_ALL_SURFS
 70
0
 62
7
  6
CONTINUOUS
  0
LAYER
  5
204
100
AcDbSymbolTableRecord
100
AcDbLayerTableRecord
  2
7_ALL_FEATURES
 70
0
 62
7
  6
CONTINUOUS
  0
LAYER
  5
205
100
AcDbSymbolTableRecord
100
AcDbLayerTableRecord
  2
9_SOLID
 70
0
 62
7
  6
CONTINUOUS
  0
LAYER
  5
206
100
AcDbSymbolTableRecord
100
AcDbLayerTableRecord
  2
PR9036
 70
0
 62
7
  6
CONTINUOUS
  0
LAYER
  5
207
100
AcDbSymbolTableRecord
100
AcDbLayerTableRecord
  2
WHITE
 70
0
 62
7
  6
CONTINUOUS
  0
LAYER
  5
208
100
AcDbSymbolTableRecord
100
AcDbLayerTableRecord
  2
XXX_SOLIDO
 70
0
 62
7
  6
CONTINUOUS
  0
ENDTAB
  0
TABLE
  2
STYLE
  5
3
100
AcDbSymbolTable
 70
1
  0
STYLE
  5
11
100
AcDbSymbolTableRecord
100
AcDbTextStyleTableRecord
  2
STANDARD
 70
0
 40
0.0
 41
1.0
 50
0.0
 71
0
 42
0.2
  3
arial.ttf
  4

  0
STYLE
  5
209
100
AcDbSymbolTableRecord
100
AcDbTextStyleTableRecord
  2
TEXTSTYLE_1
 70
0
 40
0.0
 41
0.8
 50
0.0
 71
0
 42
0.2
  3
gdt
  4

  0
STYLE
  5
20A
100
AcDbSymbolTableRecord
100
AcDbTextStyleTableRecord
  2
TEXTSTYLE_2
 70
0
 40
0.0
 41
0.85
 50
0.0
 71
0
 42
0.2
  3
txt
  4

  0
ENDTAB
  0
TABLE
  2
VIEW
  5
6
100
AcDbSymbolTable
 70
0
  0
ENDTAB
  0
TABLE
  2
UCS
  5
7
100
AcDbSymbolTable
 70
0
  0
ENDTAB
  0
TABLE
  2
APPID
  5
9
100
AcDbSymbolTable
 70
1
  0
APPID
  5
20B
100
AcDbSymbolTableRecord
100
AcDbRegAppTableRecord
  2
ACAD
 70
0
  0
ENDTAB
  0
TABLE
  2
BLOCK_RECORD
  5
1
100
AcDbSymbolTable
 70
0
  0
BLOCK_RECORD
  5
1F
100
AcDbSymbolTableRecord
100
AcDbBlockTableRecord
  2
*MODEL_SPACE
  0
BLOCK_RECORD
  5
1B
100
AcDbSymbolTableRecord
100
AcDbBlockTableRecord
  2
*PAPER_SPACE
  0
BLOCK_RECORD
  5
20C
100
AcDbSymbolTableRecord
100
AcDbBlockTableRecord
  2
_CLOSED
  0
BLOCK_RECORD
  5
20D
100
AcDbSymbolTableRecord
100
AcDbBlockTableRecord
  2
*D0
  0
BLOCK_RECORD
  5
20E
100
AcDbSymbolTableRecord
100
AcDbBlockTableRecord
  2
*D1
  0
BLOCK_RECORD
  5
20F
100
AcDbSymbolTableRecord
100
AcDbBlockTableRecord
  2
*D2
  0
BLOCK_RECORD
  5
210
100
AcDbSymbolTableRecord
100
AcDbBlockTableRecord
  2
*D3
  0
BLOCK_RECORD
  5
211
100
AcDbSymbolTableRecord
100
AcDbBlockTableRecord
  2
LOGO2_BL0
  0
ENDTAB
  0
TABLE
  2
DIMSTYLE
  5
A
100
AcDbSymbolTable
 70
1
  0
DIMSTYLE
105
212
100
AcDbSymbolTableRecord
100
AcDbDimStyleTableRecord
  2
STANDARD
 70
0
  3

  4

  5
_CLOSED
  6
_CLOSED
  7
_CLOSED
 40
1.0
 41
2.5
 42
0.75
 43
0.38
 44
0.75
 45
0.0
 46
0.0
 47
0.01
 48
0.01
140
3.0
141
0.09
142
0.0
143
25.4
144
1.0
145
0.0
146
1.0
147
0.625
 71
1.0
 72
0.0
 73
0
 74
0
 75
0
 76
0
 77
1
 78
8
 79
2
170
0
171
1
172
0
173
0
174
0
175
0
176
0
177
0
178
0
270
2
179
2
271
2
272
2
273
2
274
2
275
0
280
0
281
0
282
0
283
1
284
8
285
0
286
0
287
3
288
0
340
11
  0
DIMSTYLE
105
213
100
AcDbSymbolTableRecord
100
AcDbDimStyleTableRecord
  2
DIMSTYLE_1
 70
0
  3

  4

  5
_CLOSED
  6
_CLOSED
  7
_CLOSED
 40
1.0
 41
2.5
 42
0.75
 43
0.38
 44
0.75
 45
0.0
 46
0.0
 47
0.3
 48
0.3
140
10.0
141
0.09
142
0.0
143
25.4
144
1.0
145
0.0
146
1.0
147
2.5
 71
0.0
 72
0.0
 73
0
 74
0
 75
0
 76
0
 77
1
 78
8
 79
2
170
0
171
1
172
0
173
0
174
0
175
0
176
0
177
0
178
0
270
2
179
2
271
2
272
2
273
2
274
2
275
0
280
0
281
0
282
0
283
1
284
8
285
0
286
0
287
3
288
0
340
11
  0
DIMSTYLE
105
214
100
AcDbSymbolTableRecord
100
AcDbDimStyleTableRecord
  2
DIMSTYLE_2
 70
0
  3

  4

  5
_CLOSED
  6
_CLOSED
  7
_CLOSED
 40
1.0
 41
2.5
 42
0.75
 43
0.38
 44
0.75
 45
0.0
 46
0.0
 47
2.0
 48
2.0
140
10.0
141
0.09
142
0.0
143
25.4
144
1.0
145
0.0
146
1.0
147
2.5
 71
0.0
 72
0.0
 73
0
 74
0
 75
0
 76
0
 77
1
 78
8
 79
2
170
0
171
1
172
0
173
0
174
0
175
0
176
0
177
0
178
0
270
2
179
2
271
2
272
2
273
2
274
2
275
0
280
0
281
0
282
0
283
1
284
8
285
0
286
0
287
3
288
0
340
11
  0
ENDTAB
  0
ENDSEC
  0
SECTION
  2
BLOCKS
  0
BLOCK
  5
20
100
AcDbEntity
  8
0
100
AcDbBlockBegin
  2
*MODEL_SPACE
 70
0
 10
0.0
 20
0.0
 30
0.0
  3
*MODEL_SPACE
  1

  0
ENDBLK
  5
21
100
AcDbEntity
  8
0
100
AcDbBlockEnd
  0
BLOCK
  5
1C
100
AcDbEntity
  8
0
100
AcDbBlockBegin
  2
*PAPER_SPACE
 70
0
 10
0.0
 20
0.0
 30
0.0
  3
*PAPER_SPACE
  1

  0
ENDBLK
  5
1D
100
AcDbEntity
  8
0
100
AcDbBlockEnd
  0
BLOCK
  5
215
100
AcDbEntity
  8
0
100
AcDbBlockBegin
 62
2
  6
CONTINUOUS
  2
LOGO2_BL0
 70
64
 10
3113.3767684765
 20
37.2776170738
  3
LOGO2_BL0
  1

  0
LINE
  5
216
100
AcDbEntity
  8
0
100
AcDbLine
 62
7
  6
CONTINUOUS
 10
3105.1196937047
 20
40.4731084126
 11
3103.8153527753
 21
40.4731084126
  0
LINE
  5
217
100
AcDbEntity
  8
0
100
AcDbLine
 62
7
  6
CONTINUOUS
 10
3103.8153527753
 20
40.4731084126
 11
3103.8153527753
 21
30.0140423528
  0
LINE
  5
218
100
AcDbEntity
  8
0
100
AcDbLine
 62
7
  6
CONTINUOUS
 10
3103.8153527753
 20
30.0140423528
 11
3108.2964076636
 21
30.0140423528
  0
LINE
  5
219
100
AcDbEntity
  8
0
100
AcDbLine
 62
7
  6
CONTINUOUS
 10
3108.2964076636
 20
30.0140423528
 11
3108.2964076636
 21
31.2068966778
  0
LINE
  5
21A
100
AcDbEntity
  8
0
100
AcDbLine
 62
7
  6
CONTINUOUS
 10
3108.2964076636
 20
31.2068966778
 11
3105.1196937047
 21
31.2068966778
  0
LINE
  5
21B
100
AcDbEntity
  8
0
100
AcDbLine
 62
7
  6
CONTINUOUS
 10
3105.1196937047
 20
31.2068966778
 11
3105.1196937047
 21
40.4731084126
  0
LINE
  5
21C
100
AcDbEntity
  8
0
100
AcDbLine
 62
7
  6
CONTINUOUS
 10
3120.056019921
 20
40.4731084126
 11
3118.7522024029
 21
40.4731084126
  0
LINE
  5
21D
100
AcDbEntity
  8
0
100
AcDbLine
 62
7
  6
CONTINUOUS
 10
3118.7522024029
 20
40.4731084126
 11
3118.7522024029
 21
30.0140423528
  0
LINE
  5
21E
100
AcDbEntity
  8
0
100
AcDbLine
 62
7
  6
CONTINUOUS
 10
3118.7522024029
 20
30.0140423528
 11
3123.233388144
 21
30.0140423528
  0
LINE
  5
21F
100
AcDbEntity
  8
0
100
AcDbLine
 62
7
  6
CONTINUOUS
 10
3123.233388144
 20
30.0140423528
 11
3123.233388144
 21
31.2068966778
  0
LINE
  5
220
100
AcDbEntity
  8
0
100
AcDbLine
 62
7
  6
CONTINUOUS
 10
3123.233388144
 20
31.2068966778
 11
3120.056019921
 21
31.2068966778
  0
LINE
  5
221
100
AcDbEntity
  8
0
100
AcDbLine
 62
7
  6
CONTINUOUS
 10
3120.056019921
 20
31.2068966778
 11
3120.056019921
 21
40.4731084126
  0
LWPOLYLINE
  5
222
100
AcDbEntity
  8
0
100
AcDbPolyline
 62
7
  6
CONTINUOUS
 90
2
 70
0
 43
0.2
 10
3102.1697476862
 20
26.6704910458
 10
3102.1697476862
 20
24.8134277965
  0
LWPOLYLINE
  5
223
100
AcDbEntity
  8
0
100
AcDbPolyline
 62
7
  6
CONTINUOUS
 90
2
 70
0
 43
0.2
 10
3102.1697476862
 20
24.8134277965
 10
3102.9654636966
 20
24.8134277965
  0
LWPOLYLINE
  5
224
100
AcDbEntity
  8
0
100
AcDbPolyline
 62
7
  6
CONTINUOUS
 90
2
 70
0
 43
0.2
 10
3102.9654636966
 20
24.8134277965
 10
3102.9654636966
 20
25.0254093681
  0
LWPOLYLINE
  5
225
100
AcDbEntity
  8
0
100
AcDbPolyline
 62
7
  6
CONTINUOUS
 90
2
 70
0
 43
0.2
 10
3102.9654636966
 20
25.0254093681
 10
3102.4013571811
 20
25.0254093681
  0
LWPOLYLINE
  5
226
100
AcDbEntity
  8
0
100
AcDbPolyline
 62
7
  6
CONTINUOUS
 90
2
 70
0
 43
0.2
 10
3102.4013571811
 20
25.0254093681
 10
3102.4013571811
 20
26.6704910458
  0
LWPOLYLINE
  5
227
100
AcDbEntity
  8
0
100
AcDbPolyline
 62
7
  6
CONTINUOUS
 90
2
 70
0
 43
0.2
 10
3102.4013571811
 20
26.6704910458
 10
3102.1697476862
 20
26.6704910458
  0
SPLINE
  5
228
100
AcDbEntity
  8
0
100
AcDbSpline
 62
7
  6
CONTINUOUS
 70
2
 71
3
 72
35
 73
31
 74
0
 42
0.0000001
 43
0.0000001
 44
0.0000000001
 40
0.0
 40
0.0
 40
0.0
 40
0.0
 40
1.0
 40
1.0
 40
1.0
 40
2.0
 40
2.0
 40
2.0
 40
3.0
 40
3.0
 40
3.0
 40
4.0
 40
4.0
 40
4.0
 40
5.0
 40
5.0
 40
5.0
 40
6.0
 40
6.0
 40
6.0
 40
7.0
 40
7.0
 40
7.0
 40
8.0
 40
8.0
 40
8.0
 40
9.0
 40
9.0
 40
9.0
 40
10.0
 40
10.0
 40
10.0
 40
10.0
 10
3104.3637569522
 20
25.9659794524
 30
0.0
 10
3104.3637569522
 20
25.9659794524
 30
0.0
 10
3104.3637569522
 20
25.3038641732
 30
0.0
 10
3104.3637569522
 20
25.3038641732
 30
0.0
 10
3104.3637569522
 20
24.9887705779
 30
0.0
 10
3104.511620641
 20
24.7741719499
 30
0.0
 10
3104.8517071253
 20
24.7741719499
 30
0.0
 10
3105.1912701983
 20
24.7741719499
 30
0.0
 10
3105.3393955928
 20
24.9887705779
 30
0.0
 10
3105.3393955928
 20
25.3038641732
 30
0.0
 10
3105.3393955928
 20
25.3038641732
 30
0.0
 10
3105.3393955928
 20
25.9659794524
 30
0.0
 10
3105.3393955928
 20
25.9659794524
 30
0.0
 10
3105.3393955928
 20
25.9659794524
 30
0.0
 10
3105.1173383539
 20
25.9659794524
 30
0.0
 10
3105.1173383539
 20
25.9659794524
 30
0.0
 10
3105.1173383539
 20
25.9659794524
 30
0.0
 10
3105.1173383539
 20
25.328987915
 30
0.0
 10
3105.1173383539
 20
25.328987915
 30
0.0
 10
3105.1173383539
 20
25.1431769078
 30
0.0
 10
3105.0706238964
 20
24.9803959973
 30
0.0
 10
3104.8517071253
 20
24.9803959973
 30
0.0
 10
3104.6322669428
 20
24.9803959973
 30
0.0
 10
3104.5855524854
 20
25.1431769078
 30
0.0
 10
3104.5855524854
 20
25.328987915
 30
0.0
 10
3104.5855524854
 20
25.328987915
 30
0.0
 10
3104.5855524854
 20
25.9659794524
 30
0.0
 10
3104.5855524854
 20
25.9659794524
 30
0.0
 10
3104.5855524854
 20
25.9659794524
 30
0.0
 10
3104.3637569522
 20
25.9659794524
 30
0.0
 10
3104.3637569522
 20
25.9659794524
 30
0.0
  0
SPLINE
  5
229
100
AcDbEntity
  8
0
100
AcDbSpline
 62
7
  6
CONTINUOUS
 70
2
 71
3
 72
35
 73
31
 74
0
 42
0.0000001
 43
0.0000001
 44
0.0000000001
 40
0.0
 40
0.0
 40
0.0
 40
0.0
 40
1.0
 40
1.0
 40
1.0
 40
2.0
 40
2.0
 40
2.0
 40
3.0
 40
3.0
 40
3.0
 40
4.0
 40
4.0
 40
4.0
 40
5.0
 40
5.0
 40
5.0
 40
6.0
 40
6.0
 40
6.0
 40
7.0
 40
7.0
 40
7.0
 40
8.0
 40
8.0
 40
8.0
 40
9.0
 40
9.0
 40
9.0
 40
10.0
 40
10.0
 40
10.0
 40
10.0
 10
3107.76252815
 20
25.9246299606
 30
0.0
 10
3107.6740716423
 20
25.9759242668
 30
0.0
 10
3107.5606222457
 20
26.0010480087
 30
0.0
 10
3107.4569868107
 20
26.0010480087
 30
0.0
 10
3107.1021139575
 20
26.0010480087
 30
0.0
 10
3106.8266687672
 20
25.7372487196
 30
0.0
 10
3106.8266687672
 20
25.37975881
 30
0.0
 10
3106.8266687672
 20
25.0348307713
 30
0.0
 10
3107.1051235724
 20
24.7746953612
 30
0.0
 10
3107.4446866454
 20
24.7746953612
 30
0.0
 10
3107.5606222457
 20
24.7746953612
 30
0.0
 10
3107.6613789186
 20
24.7966786353
 30
0.0
 10
3107.76252815
 20
24.8505899979
 30
0.0
 10
3107.76252815
 20
24.8505899979
 30
0.0
 10
3107.76252815
 20
25.1332320934
 30
0.0
 10
3107.76252815
 20
25.1332320934
 30
0.0
 10
3107.6786514911
 20
25.0400648841
 30
0.0
 10
3107.5751469089
 20
24.9809194086
 30
0.0
 10
3107.4470419962
 20
24.9809194086
 30
0.0
 10
3107.2133388562
 20
24.9809194086
 30
0.0
 10
3107.048071742
 20
25.1531217223
 30
0.0
 10
3107.048071742
 20
25.3897036244
 30
0.0
 10
3107.048071742
 20
25.601685196
 30
0.0
 10
3107.2158250598
 20
25.7937771387
 30
0.0
 10
3107.4326481858
 20
25.7937771387
 30
0.0
 10
3107.5654638001
 20
25.7937771387
 30
0.0
 10
3107.6740716423
 20
25.739865776
 30
0.0
 10
3107.76252815
 20
25.6388473975
 30
0.0
 10
3107.76252815
 20
25.6388473975
 30
0.0
 10
3107.76252815
 20
25.9246299606
 30
0.0
 10
3107.76252815
 20
25.9246299606
 30
0.0
  0
SPLINE
  5
22A
100
AcDbEntity
  8
0
100
AcDbSpline
 62
7
  6
CONTINUOUS
 70
2
 71
3
 72
32
 73
28
 74
0
 42
0.0000001
 43
0.0000001
 44
0.0000000001
 40
0.0
 40
0.0
 40
0.0
 40
0.0
 40
1.0
 40
1.0
 40
1.0
 40
2.0
 40
2.0
 40
2.0
 40
3.0
 40
3.0
 40
3.0
 40
4.0
 40
4.0
 40
4.0
 40
5.0
 40
5.0
 40
5.0
 40
6.0
 40
6.0
 40
6.0
 40
7.0
 40
7.0
 40
7.0
 40
8.0
 40
8.0
 40
8.0
 40
9.0
 40
9.0
 40
9.0
 40
9.0
 10
3110.2943994022
 20
25.3530648343
 30
0.0
 10
3110.2943994022
 20
25.3530648343
 30
0.0
 10
3110.2943994022
 20
25.387086568
 30
0.0
 10
3110.2943994022
 20
25.387086568
 30
0.0
 10
3110.2943994022
 20
25.7293975503
 30
0.0
 10
3110.1215428244
 20
26.0010480087
 30
0.0
 10
3109.7548932172
 20
26.0010480087
 30
0.0
 10
3109.3832712028
 20
26.0010480087
 30
0.0
 10
3109.193534611
 20
25.7346316631
 30
0.0
 10
3109.193534611
 20
25.37975881
 30
0.0
 10
3109.193534611
 20
25.0400648841
 30
0.0
 10
3109.4076098277
 20
24.7741719499
 30
0.0
 10
3109.7597347716
 20
24.7741719499
 30
0.0
 10
3109.9837548029
 20
24.7741719499
 30
0.0
 10
3110.1859224128
 20
24.8898458445
 30
0.0
 10
3110.2943994022
 20
25.0892655452
 30
0.0
 10
3110.2943994022
 20
25.0892655452
 30
0.0
 10
3110.1067564555
 20
25.1960414479
 30
0.0
 10
3110.1067564555
 20
25.1960414479
 30
0.0
 10
3110.0232723551
 20
25.0573374566
 30
0.0
 10
3109.9320679382
 20
24.9714980054
 30
0.0
 10
3109.7624826809
 20
24.9714980054
 30
0.0
 10
3109.5505011093
 20
24.9714980054
 30
0.0
 10
3109.4175546422
 20
25.15626219
 30
0.0
 10
3109.4151992914
 20
25.3530648343
 30
0.0
 10
3109.4151992914
 20
25.3530648343
 30
0.0
 10
3110.2943994022
 20
25.3530648343
 30
0.0
 10
3110.2943994022
 20
25.3530648343
 30
0.0
  0
SPLINE
  5
22B
100
AcDbEntity
  8
0
100
AcDbSpline
 62
7
  6
CONTINUOUS
 70
2
 71
3
 72
14
 73
10
 74
0
 42
0.0000001
 43
0.0000001
 44
0.0000000001
 40
0.0
 40
0.0
 40
0.0
 40
0.0
 40
1.0
 40
1.0
 40
1.0
 40
2.0
 40
2.0
 40
2.0
 40
3.0
 40
3.0
 40
3.0
 40
3.0
 10
3109.427237751
 20
25.5205564464
 30
0.0
 10
3109.4548476965
 20
25.6854310021
 30
0.0
 10
3109.5826909035
 20
25.8084326547
 30
0.0
 10
3109.7548932172
 20
25.8084326547
 30
0.0
 10
3109.9320679382
 20
25.8084326547
 30
0.0
 10
3110.0455173348
 20
25.6927587601
 30
0.0
 10
3110.0727347218
 20
25.5205564464
 30
0.0
 10
3110.0727347218
 20
25.5205564464
 30
0.0
 10
3109.427237751
 20
25.5205564464
 30
0.0
 10
3109.427237751
 20
25.5205564464
 30
0.0
  0
SPLINE
  5
22C
100
AcDbEntity
  8
0
100
AcDbSpline
 62
7
  6
CONTINUOUS
 70
2
 71
3
 72
20
 73
16
 74
0
 42
0.0000001
 43
0.0000001
 44
0.0000000001
 40
0.0
 40
0.0
 40
0.0
 40
0.0
 40
1.0
 40
1.0
 40
1.0
 40
2.0
 40
2.0
 40
2.0
 40
3.0
 40
3.0
 40
3.0
 40
4.0
 40
4.0
 40
4.0
 40
5.0
 40
5.0
 40
5.0
 40
5.0
 10
3112.3184308524
 20
25.7299209615
 30
0.0
 10
3112.3184308524
 20
25.7299209615
 30
0.0
 10
3112.729570419
 20
25.2274461252
 30
0.0
 10
3112.729570419
 20
25.2274461252
 30
0.0
 10
3112.6135039659
 20
25.1117722306
 30
0.0
 10
3112.4757159444
 20
24.9814428199
 30
0.0
 10
3112.3037753363
 20
24.9814428199
 30
0.0
 10
3112.1263389098
 20
24.9814428199
 30
0.0
 10
3111.9588472976
 20
25.1457939643
 30
0.0
 10
3111.9588472976
 20
25.3227069796
 30
0.0
 10
3111.9588472976
 20
25.5006668175
 30
0.0
 10
3112.1686043712
 20
25.6268089378
 30
0.0
 10
3112.2961858727
 20
25.7147420342
 30
0.0
 10
3112.2961858727
 20
25.7147420342
 30
0.0
 10
3112.3184308524
 20
25.7299209615
 30
0.0
 10
3112.3184308524
 20
25.7299209615
 30
0.0
  0
SPLINE
  5
22D
100
AcDbEntity
  8
0
100
AcDbSpline
 62
7
  6
CONTINUOUS
 70
2
 71
3
 72
23
 73
19
 74
0
 42
0.0000001
 43
0.0000001
 44
0.0000000001
 40
0.0
 40
0.0
 40
0.0
 40
0.0
 40
1.0
 40
1.0
 40
1.0
 40
2.0
 40
2.0
 40
2.0
 40
3.0
 40
3.0
 40
3.0
 40
4.0
 40
4.0
 40
4.0
 40
5.0
 40
5.0
 40
5.0
 40
6.0
 40
6.0
 40
6.0
 40
6.0
 10
3112.3677623663
 20
26.0209376376
 30
0.0
 10
3112.3677623663
 20
26.0209376376
 30
0.0
 10
3112.3061306871
 20
26.0994493308
 30
0.0
 10
3112.3061306871
 20
26.0994493308
 30
0.0
 10
3112.2522193245
 20
26.1680162095
 30
0.0
 10
3112.1954291998
 20
26.2371064995
 30
0.0
 10
3112.1954291998
 20
26.33079712
 30
0.0
 10
3112.1954291998
 20
26.4496114824
 30
0.0
 10
3112.2913443183
 20
26.527076353
 30
0.0
 10
3112.4023075113
 20
26.527076353
 30
0.0
 10
3112.5255708696
 20
26.527076353
 30
0.0
 10
3112.6188689316
 20
26.4558924178
 30
0.0
 10
3112.6188689316
 20
26.3255630071
 30
0.0
 10
3112.6188689316
 20
26.1905228949
 30
0.0
 10
3112.4907640189
 20
26.1141048468
 30
0.0
 10
3112.3972042512
 20
26.0403038553
 30
0.0
 10
3112.3972042512
 20
26.0403038553
 30
0.0
 10
3112.3677623663
 20
26.0209376376
 30
0.0
 10
3112.3677623663
 20
26.0209376376
 30
0.0
  0
SPLINE
  5
22E
100
AcDbEntity
  8
0
100
AcDbSpline
 62
7
  6
CONTINUOUS
 70
2
 71
3
 72
50
 73
46
 74
0
 42
0.0000001
 43
0.0000001
 44
0.0000000001
 40
0.0
 40
0.0
 40
0.0
 40
0.0
 40
1.0
 40
1.0
 40
1.0
 40
2.0
 40
2.0
 40
2.0
 40
3.0
 40
3.0
 40
3.0
 40
4.0
 40
4.0
 40
4.0
 40
5.0
 40
5.0
 40
5.0
 40
6.0
 40
6.0
 40
6.0
 40
7.0
 40
7.0
 40
7.0
 40
8.0
 40
8.0
 40
8.0
 40
9.0
 40
9.0
 40
9.0
 40
10.0
 40
10.0
 40
10.0
 40
11.0
 40
11.0
 40
11.0
 40
12.0
 40
12.0
 40
12.0
 40
13.0
 40
13.0
 40
13.0
 40
14.0
 40
14.0
 40
14.0
 40
15.0
 40
15.0
 40
15.0
 40
15.0
 10
3113.069918609
 20
24.8139512078
 30
0.0
 10
3113.069918609
 20
24.8139512078
 30
0.0
 10
3113.3553086137
 20
24.8139512078
 30
0.0
 10
3113.3553086137
 20
24.8139512078
 30
0.0
 10
3113.3553086137
 20
24.8139512078
 30
0.0
 10
3113.0229424459
 20
25.2248290688
 30
0.0
 10
3113.0229424459
 20
25.2248290688
 30
0.0
 10
3113.0229424459
 20
25.2248290688
 30
0.0
 10
3113.2494486807
 20
25.490722003
 30
0.0
 10
3113.2494486807
 20
25.490722003
 30
0.0
 10
3113.2494486807
 20
25.490722003
 30
0.0
 10
3113.1011924334
 20
25.643558099
 30
0.0
 10
3113.1011924334
 20
25.643558099
 30
0.0
 10
3113.1011924334
 20
25.643558099
 30
0.0
 10
3112.8852852772
 20
25.3923206809
 30
0.0
 10
3112.8852852772
 20
25.3923206809
 30
0.0
 10
3112.8852852772
 20
25.3923206809
 30
0.0
 10
3112.4982226298
 20
25.8602503722
 30
0.0
 10
3112.4982226298
 20
25.8602503722
 30
0.0
 10
3112.6536757823
 20
25.974354033
 30
0.0
 10
3112.8359537633
 20
26.1141048468
 30
0.0
 10
3112.8359537633
 20
26.323469362
 30
0.0
 10
3112.8359537633
 20
26.5673790221
 30
0.0
 10
3112.6339170062
 20
26.710793715
 30
0.0
 10
3112.4074107713
 20
26.710793715
 30
0.0
 10
3112.1632394055
 20
26.710793715
 30
0.0
 10
3111.9788677794
 20
26.5600512641
 30
0.0
 10
3111.9788677794
 20
26.3035797331
 30
0.0
 10
3111.9788677794
 20
26.1460329354
 30
0.0
 10
3112.0775308072
 20
26.0083757667
 30
0.0
 10
3112.1828673288
 20
25.8974125737
 30
0.0
 10
3112.1828673288
 20
25.8974125737
 30
0.0
 10
3112.067324287
 20
25.8136667676
 30
0.0
 10
3112.067324287
 20
25.8136667676
 30
0.0
 10
3111.8896261548
 20
25.6854310021
 30
0.0
 10
3111.7422858773
 20
25.5577186478
 30
0.0
 10
3111.7422858773
 20
25.3206133344
 30
0.0
 10
3111.7422858773
 20
25.0002856263
 30
0.0
 10
3112.0008510535
 20
24.7741719499
 30
0.0
 10
3112.3112339472
 20
24.7741719499
 30
0.0
 10
3112.5301507183
 20
24.7741719499
 30
0.0
 10
3112.727345921
 20
24.8992672477
 30
0.0
 10
3112.8676201462
 20
25.065188626
 30
0.0
 10
3112.8676201462
 20
25.065188626
 30
0.0
 10
3113.069918609
 20
24.8139512078
 30
0.0
 10
3113.069918609
 20
24.8139512078
 30
0.0
  0
LWPOLYLINE
  5
22F
100
AcDbEntity
  8
0
100
AcDbPolyline
 62
7
  6
CONTINUOUS
 90
2
 70
0
 43
0.2
 10
3115.0053626987
 20
26.6704910458
 10
3114.7740149094
 20
26.6704910458
  0
LWPOLYLINE
  5
230
100
AcDbEntity
  8
0
100
AcDbPolyline
 62
7
  6
CONTINUOUS
 90
2
 70
0
 43
0.2
 10
3114.7740149094
 20
26.6704910458
 10
3114.7740149094
 20
24.8134277965
  0
LWPOLYLINE
  5
231
100
AcDbEntity
  8
0
100
AcDbPolyline
 62
7
  6
CONTINUOUS
 90
2
 70
0
 43
0.2
 10
3114.7740149094
 20
24.8134277965
 10
3115.5693383614
 20
24.8134277965
  0
LWPOLYLINE
  5
232
100
AcDbEntity
  8
0
100
AcDbPolyline
 62
7
  6
CONTINUOUS
 90
2
 70
0
 43
0.2
 10
3115.5693383614
 20
24.8134277965
 10
3115.5693383614
 20
25.0254093681
  0
LWPOLYLINE
  5
233
100
AcDbEntity
  8
0
100
AcDbPolyline
 62
7
  6
CONTINUOUS
 90
2
 70
0
 43
0.2
 10
3115.5693383614
 20
25.0254093681
 10
3115.0053626987
 20
25.0254093681
  0
LWPOLYLINE
  5
234
100
AcDbEntity
  8
0
100
AcDbPolyline
 62
7
  6
CONTINUOUS
 90
2
 70
0
 43
0.2
 10
3115.0053626987
 20
25.0254093681
 10
3115.0053626987
 20
26.6704910458
  0
LWPOLYLINE
  5
235
100
AcDbEntity
  8
0
100
AcDbPolyline
 62
7
  6
CONTINUOUS
 90
2
 70
0
 43
0.2
 10
3117.2484417728
 20
25.9659794524
 10
3117.0273005037
 20
25.9659794524
  0
LWPOLYLINE
  5
236
100
AcDbEntity
  8
0
100
AcDbPolyline
 62
7
  6
CONTINUOUS
 90
2
 70
0
 43
0.2
 10
3117.0273005037
 20
25.9659794524
 10
3117.0273005037
 20
24.8139512078
  0
LWPOLYLINE
  5
237
100
AcDbEntity
  8
0
100
AcDbPolyline
 62
7
  6
CONTINUOUS
 90
2
 70
0
 43
0.2
 10
3117.0273005037
 20
24.8139512078
 10
3117.2484417728
 20
24.8139512078
  0
LWPOLYLINE
  5
238
100
AcDbEntity
  8
0
100
AcDbPolyline
 62
7
  6
CONTINUOUS
 90
2
 70
0
 43
0.2
 10
3117.2484417728
 20
24.8139512078
 10
3117.2484417728
 20
25.9659794524
  0
LWPOLYLINE
  5
239
100
AcDbEntity
  8
0
100
AcDbPolyline
 62
7
  6
CONTINUOUS
 90
2
 70
1
 43
0.2
 10
3116.9854184956
 20
26.4959333813
 42
1.0
 10
3117.2905854866
 20
26.4959333813
 42
1.0
  0
SPLINE
  5
23A
100
AcDbEntity
  8
0
100
AcDbSpline
 62
7
  6
CONTINUOUS
 70
2
 71
3
 72
17
 73
13
 74
0
 42
0.0000001
 43
0.0000001
 44
0.0000000001
 40
0.0
 40
0.0
 40
0.0
 40
0.0
 40
1.0
 40
1.0
 40
1.0
 40
2.0
 40
2.0
 40
2.0
 40
3.0
 40
3.0
 40
3.0
 40
4.0
 40
4.0
 40
4.0
 40
4.0
 10
3119.3787257145
 20
24.9714980054
 30
0.0
 10
3119.1447608688
 20
24.9714980054
 30
0.0
 10
3119.0144314581
 20
25.1735347625
 30
0.0
 10
3119.0144314581
 20
25.3897036244
 30
0.0
 10
3119.0144314581
 20
25.6043022525
 30
0.0
 10
3119.1502566873
 20
25.8031985418
 30
0.0
 10
3119.3787257145
 20
25.8031985418
 30
0.0
 10
3119.6181863787
 20
25.8031985418
 30
0.0
 10
3119.7537499022
 20
25.6142470669
 30
0.0
 10
3119.7537499022
 20
25.3897036244
 30
0.0
 10
3119.7537499022
 20
25.1635899481
 30
0.0
 10
3119.6205417295
 20
24.9714980054
 30
0.0
 10
3119.3787257145
 20
24.9714980054
 30
0.0
  0
SPLINE
  5
23B
100
AcDbEntity
  8
0
100
AcDbSpline
 62
7
  6
CONTINUOUS
 70
2
 71
3
 72
50
 73
46
 74
0
 42
0.0000001
 43
0.0000001
 44
0.0000000001
 40
0.0
 40
0.0
 40
0.0
 40
0.0
 40
1.0
 40
1.0
 40
1.0
 40
2.0
 40
2.0
 40
2.0
 40
3.0
 40
3.0
 40
3.0
 40
4.0
 40
4.0
 40
4.0
 40
5.0
 40
5.0
 40
5.0
 40
6.0
 40
6.0
 40
6.0
 40
7.0
 40
7.0
 40
7.0
 40
8.0
 40
8.0
 40
8.0
 40
9.0
 40
9.0
 40
9.0
 40
10.0
 40
10.0
 40
10.0
 40
11.0
 40
11.0
 40
11.0
 40
12.0
 40
12.0
 40
12.0
 40
13.0
 40
13.0
 40
13.0
 40
14.0
 40
14.0
 40
14.0
 40
15.0
 40
15.0
 40
15.0
 40
15.0
 10
3119.9628527117
 20
25.9665028637
 30
0.0
 10
3119.9628527117
 20
25.9665028637
 30
0.0
 10
3119.7411880313
 20
25.9665028637
 30
0.0
 10
3119.7411880313
 20
25.9665028637
 30
0.0
 10
3119.7411880313
 20
25.9665028637
 30
0.0
 10
3119.7411880313
 20
25.7691768081
 30
0.0
 10
3119.7411880313
 20
25.7691768081
 30
0.0
 10
3119.7411880313
 20
25.7691768081
 30
0.0
 10
3119.7364773297
 20
25.7691768081
 30
0.0
 10
3119.7364773297
 20
25.7691768081
 30
0.0
 10
3119.64514206
 20
25.9120680897
 30
0.0
 10
3119.5072231857
 20
26.0005245974
 30
0.0
 10
3119.3344974607
 20
26.0005245974
 30
0.0
 10
3119.0021312929
 20
26.0005245974
 30
0.0
 10
3118.7930284834
 20
25.712648389
 30
0.0
 10
3118.7930284834
 20
25.3970313825
 30
0.0
 10
3118.7930284834
 20
25.0672822711
 30
0.0
 10
3118.9900928332
 20
24.7741719499
 30
0.0
 10
3119.3449656864
 20
24.7741719499
 30
0.0
 10
3119.5072231857
 20
24.7741719499
 30
0.0
 10
3119.6472357052
 20
24.8626284575
 30
0.0
 10
3119.7364773297
 20
24.9934812795
 30
0.0
 10
3119.7364773297
 20
24.9934812795
 30
0.0
 10
3119.7411880313
 20
24.9934812795
 30
0.0
 10
3119.7411880313
 20
24.9934812795
 30
0.0
 10
3119.7411880313
 20
24.9934812795
 30
0.0
 10
3119.7411880313
 20
24.7741719499
 30
0.0
 10
3119.7411880313
 20
24.7741719499
 30
0.0
 10
3119.7411880313
 20
24.5375900478
 30
0.0
 10
3119.6846596122
 20
24.350732218
 30
0.0
 10
3119.41143892
 20
24.350732218
 30
0.0
 10
3119.2091404572
 20
24.350732218
 30
0.0
 10
3119.0665108813
 20
24.4690231691
 30
0.0
 10
3119.0665108813
 20
24.6752472165
 30
0.0
 10
3119.0665108813
 20
24.6752472165
 30
0.0
 10
3118.8448462009
 20
24.6752472165
 30
0.0
 10
3118.8448462009
 20
24.6752472165
 30
0.0
 10
3118.8498186081
 20
24.350732218
 30
0.0
 10
3119.0809046917
 20
24.1539295738
 30
0.0
 10
3119.4012323999
 20
24.1539295738
 30
0.0
 10
3119.8492724623
 20
24.1539295738
 30
0.0
 10
3119.9628527117
 20
24.4391887257
 30
0.0
 10
3119.9628527117
 20
24.8359344819
 30
0.0
 10
3119.9628527117
 20
24.8359344819
 30
0.0
 10
3119.9628527117
 20
25.9665028637
 30
0.0
 10
3119.9628527117
 20
25.9665028637
 30
0.0
  0
SPLINE
  5
23C
100
AcDbEntity
  8
0
100
AcDbSpline
 62
7
  6
CONTINUOUS
 70
2
 71
3
 72
44
 73
40
 74
0
 42
0.0000001
 43
0.0000001
 44
0.0000000001
 40
0.0
 40
0.0
 40
0.0
 40
0.0
 40
1.0
 40
1.0
 40
1.0
 40
2.0
 40
2.0
 40
2.0
 40
3.0
 40
3.0
 40
3.0
 40
4.0
 40
4.0
 40
4.0
 40
5.0
 40
5.0
 40
5.0
 40
6.0
 40
6.0
 40
6.0
 40
7.0
 40
7.0
 40
7.0
 40
8.0
 40
8.0
 40
8.0
 40
9.0
 40
9.0
 40
9.0
 40
10.0
 40
10.0
 40
10.0
 40
11.0
 40
11.0
 40
11.0
 40
12.0
 40
12.0
 40
12.0
 40
13.0
 40
13.0
 40
13.0
 40
13.0
 10
3121.5317780471
 20
26.9515629074
 30
0.0
 10
3121.5317780471
 20
26.9515629074
 30
0.0
 10
3121.5317780471
 20
24.8134277965
 30
0.0
 10
3121.5317780471
 20
24.8134277965
 30
0.0
 10
3121.5317780471
 20
24.8134277965
 30
0.0
 10
3121.7531810219
 20
24.8134277965
 30
0.0
 10
3121.7531810219
 20
24.8134277965
 30
0.0
 10
3121.7531810219
 20
24.8134277965
 30
0.0
 10
3121.7531810219
 20
25.3431200198
 30
0.0
 10
3121.7531810219
 20
25.3431200198
 30
0.0
 10
3121.7531810219
 20
25.5530079462
 30
0.0
 10
3121.7531810219
 20
25.8037219531
 30
0.0
 10
3122.0384401738
 20
25.8037219531
 30
0.0
 10
3122.2653389671
 20
25.8037219531
 30
0.0
 10
3122.2922946484
 20
25.670775486
 30
0.0
 10
3122.2922946484
 20
25.4744962531
 30
0.0
 10
3122.2922946484
 20
25.4744962531
 30
0.0
 10
3122.2922946484
 20
24.8134277965
 30
0.0
 10
3122.2922946484
 20
24.8134277965
 30
0.0
 10
3122.2922946484
 20
24.8134277965
 30
0.0
 10
3122.5142210345
 20
24.8134277965
 30
0.0
 10
3122.5142210345
 20
24.8134277965
 30
0.0
 10
3122.5142210345
 20
24.8134277965
 30
0.0
 10
3122.5142210345
 20
25.5006668175
 30
0.0
 10
3122.5142210345
 20
25.5006668175
 30
0.0
 10
3122.5142210345
 20
25.7812152678
 30
0.0
 10
3122.4302135228
 20
26.0010480087
 30
0.0
 10
3122.105175113
 20
26.0010480087
 30
0.0
 10
3121.9654242991
 20
26.0010480087
 30
0.0
 10
3121.8272437191
 20
25.9345747751
 30
0.0
 10
3121.7578917235
 20
25.8115731225
 30
0.0
 10
3121.7578917235
 20
25.8115731225
 30
0.0
 10
3121.7531810219
 20
25.8115731225
 30
0.0
 10
3121.7531810219
 20
25.8115731225
 30
0.0
 10
3121.7531810219
 20
25.8115731225
 30
0.0
 10
3121.7531810219
 20
26.9515629074
 30
0.0
 10
3121.7531810219
 20
26.9515629074
 30
0.0
 10
3121.7531810219
 20
26.9515629074
 30
0.0
 10
3121.5317780471
 20
26.9515629074
 30
0.0
 10
3121.5317780471
 20
26.9515629074
 30
0.0
  0
LWPOLYLINE
  5
23D
100
AcDbEntity
  8
0
100
AcDbPolyline
 62
7
  6
CONTINUOUS
 90
2
 70
0
 43
0.2
 10
3124.3540117113
 20
25.7592319937
 10
3124.5704422789
 20
25.7592319937
  0
LWPOLYLINE
  5
23E
100
AcDbEntity
  8
0
100
AcDbPolyline
 62
7
  6
CONTINUOUS
 90
2
 70
0
 43
0.2
 10
3124.5704422789
 20
25.7592319937
 10
3124.5704422789
 20
25.9659794524
  0
LWPOLYLINE
  5
23F
100
AcDbEntity
  8
0
100
AcDbPolyline
 62
7
  6
CONTINUOUS
 90
2
 70
0
 43
0.2
 10
3124.5704422789
 20
25.9659794524
 10
3124.3540117113
 20
25.9659794524
  0
LWPOLYLINE
  5
240
100
AcDbEntity
  8
0
100
AcDbPolyline
 62
7
  6
CONTINUOUS
 90
2
 70
0
 43
0.2
 10
3124.3540117113
 20
25.9659794524
 10
3124.3540117113
 20
26.4066917568
  0
LWPOLYLINE
  5
241
100
AcDbEntity
  8
0
100
AcDbPolyline
 62
7
  6
CONTINUOUS
 90
2
 70
0
 43
0.2
 10
3124.3540117113
 20
26.4066917568
 10
3124.1323470309
 20
26.4066917568
  0
LWPOLYLINE
  5
242
100
AcDbEntity
  8
0
100
AcDbPolyline
 62
7
  6
CONTINUOUS
 90
2
 70
0
 43
0.2
 10
3124.1323470309
 20
26.4066917568
 10
3124.1323470309
 20
25.9659794524
  0
LWPOLYLINE
  5
243
100
AcDbEntity
  8
0
100
AcDbPolyline
 62
7
  6
CONTINUOUS
 90
2
 70
0
 43
0.2
 10
3124.1323470309
 20
25.9659794524
 10
3124.0117007291
 20
25.9659794524
  0
LWPOLYLINE
  5
244
100
AcDbEntity
  8
0
100
AcDbPolyline
 62
7
  6
CONTINUOUS
 90
2
 70
0
 43
0.2
 10
3124.0117007291
 20
25.9659794524
 10
3124.0117007291
 20
25.7592319937
  0
LWPOLYLINE
  5
245
100
AcDbEntity
  8
0
100
AcDbPolyline
 62
7
  6
CONTINUOUS
 90
2
 70
0
 43
0.2
 10
3124.0117007291
 20
25.7592319937
 10
3124.1323470309
 20
25.7592319937
  0
LWPOLYLINE
  5
246
100
AcDbEntity
  8
0
100
AcDbPolyline
 62
7
  6
CONTINUOUS
 90
2
 70
0
 43
0.2
 10
3124.1323470309
 20
25.7592319937
 10
3124.1323470309
 20
24.8134277965
  0
LWPOLYLINE
  5
247
100
AcDbEntity
  8
0
100
AcDbPolyline
 62
7
  6
CONTINUOUS
 90
2
 70
0
 43
0.2
 10
3124.1323470309
 20
24.8134277965
 10
3124.3540117113
 20
24.8134277965
  0
LWPOLYLINE
  5
248
100
AcDbEntity
  8
0
100
AcDbPolyline
 62
7
  6
CONTINUOUS
 90
2
 70
0
 43
0.2
 10
3124.3540117113
 20
24.8134277965
 10
3124.3540117113
 20
25.7592319937
  0
SPLINE
  5
249
100
AcDbEntity
  8
0
100
AcDbSpline
 62
7
  6
CONTINUOUS
 70
2
 71
3
 72
20
 73
16
 74
0
 42
0.0000001
 43
0.0000001
 44
0.0000000001
 40
0.0
 40
0.0
 40
0.0
 40
0.0
 40
1.0
 40
1.0
 40
1.0
 40
2.0
 40
2.0
 40
2.0
 40
3.0
 40
3.0
 40
3.0
 40
4.0
 40
4.0
 40
4.0
 40
5.0
 40
5.0
 40
5.0
 40
5.0
 10
3112.1360220186
 20
35.1743542399
 30
0.0
 10
3112.1360220186
 20
35.1743542399
 30
0.0
 10
3114.452378673
 20
32.3447928176
 30
0.0
 10
3114.452378673
 20
32.3447928176
 30
0.0
 10
3113.8007316196
 20
31.692622353
 30
0.0
 10
3113.0238584156
 20
30.9567060822
 30
0.0
 10
3112.052668771
 20
30.9567060822
 30
0.0
 10
3111.0541308865
 20
30.9567060822
 30
0.0
 10
3110.110812893
 20
31.8862845295
 30
0.0
 10
3110.110812893
 20
32.885476678
 30
0.0
 10
3110.110812893
 20
33.8846688266
 30
0.0
 10
3111.2896659661
 20
34.5912740652
 30
0.0
 10
3112.0111884264
 20
35.0911318451
 30
0.0
 10
3112.0111884264
 20
35.0911318451
 30
0.0
 10
3112.1360220186
 20
35.1743542399
 30
0.0
 10
3112.1360220186
 20
35.1743542399
 30
0.0
  0
SPLINE
  5
24A
100
AcDbEntity
  8
0
100
AcDbSpline
 62
7
  6
CONTINUOUS
 70
2
 71
3
 72
23
 73
19
 74
0
 42
0.0000001
 43
0.0000001
 44
0.0000000001
 40
0.0
 40
0.0
 40
0.0
 40
0.0
 40
1.0
 40
1.0
 40
1.0
 40
2.0
 40
2.0
 40
2.0
 40
3.0
 40
3.0
 40
3.0
 40
4.0
 40
4.0
 40
4.0
 40
5.0
 40
5.0
 40
5.0
 40
6.0
 40
6.0
 40
6.0
 40
6.0
 10
3112.4134300011
 20
36.8121081596
 30
0.0
 10
3112.4134300011
 20
36.8121081596
 30
0.0
 10
3112.0669317286
 20
37.2554375204
 30
0.0
 10
3112.0669317286
 20
37.2554375204
 30
0.0
 10
3111.7611286836
 20
37.6435469904
 30
0.0
 10
3111.4422403565
 20
38.0320490188
 30
0.0
 10
3111.4422403565
 20
38.5589933329
 30
0.0
 10
3111.4422403565
 20
39.2251650495
 30
0.0
 10
3111.983578481
 20
39.6688869688
 30
0.0
 10
3112.6074847361
 20
39.6688869688
 30
0.0
 10
3113.3012663982
 20
39.6688869688
 30
0.0
 10
3113.8284724179
 20
39.2666453941
 30
0.0
 10
3113.8284724179
 20
38.5316450931
 30
0.0
 10
3113.8284724179
 20
37.7683805826
 30
0.0
 10
3113.1072116632
 20
37.3382673568
 30
0.0
 10
3112.5801364963
 20
36.9225479414
 30
0.0
 10
3112.5801364963
 20
36.9225479414
 30
0.0
 10
3112.4134300011
 20
36.8121081596
 30
0.0
 10
3112.4134300011
 20
36.8121081596
 30
0.0
  0
SPLINE
  5
24B
100
AcDbEntity
  8
0
100
AcDbSpline
 62
7
  6
CONTINUOUS
 70
2
 71
3
 72
50
 73
46
 74
0
 42
0.0000001
 43
0.0000001
 44
0.0000000001
 40
0.0
 40
0.0
 40
0.0
 40
0.0
 40
1.0
 40
1.0
 40
1.0
 40
2.0
 40
2.0
 40
2.0
 40
3.0
 40
3.0
 40
3.0
 40
4.0
 40
4.0
 40
4.0
 40
5.0
 40
5.0
 40
5.0
 40
6.0
 40
6.0
 40
6.0
 40
7.0
 40
7.0
 40
7.0
 40
8.0
 40
8.0
 40
8.0
 40
9.0
 40
9.0
 40
9.0
 40
10.0
 40
10.0
 40
10.0
 40
11.0
 40
11.0
 40
11.0
 40
12.0
 40
12.0
 40
12.0
 40
13.0
 40
13.0
 40
13.0
 40
14.0
 40
14.0
 40
14.0
 40
15.0
 40
15.0
 40
15.0
 40
15.0
 10
3116.3670171641
 20
30.0135189415
 30
0.0
 10
3116.3670171641
 20
30.0135189415
 30
0.0
 10
3117.9762451686
 20
30.0135189415
 30
0.0
 10
3117.9762451686
 20
30.0135189415
 30
0.0
 10
3117.9762451686
 20
30.0135189415
 30
0.0
 10
3116.103217875
 20
32.3306607129
 30
0.0
 10
3116.103217875
 20
32.3306607129
 30
0.0
 10
3116.103217875
 20
32.3306607129
 30
0.0
 10
3117.3795563005
 20
33.8281404075
 30
0.0
 10
3117.3795563005
 20
33.8281404075
 30
0.0
 10
3117.3795563005
 20
33.8281404075
 30
0.0
 10
3116.5473323527
 20
34.689151976
 30
0.0
 10
3116.5473323527
 20
34.689151976
 30
0.0
 10
3116.5473323527
 20
34.689151976
 30
0.0
 10
3115.3267372294
 20
33.2738478536
 30
0.0
 10
3115.3267372294
 20
33.2738478536
 30
0.0
 10
3115.3267372294
 20
33.2738478536
 30
0.0
 10
3113.1488228606
 20
35.909223688
 30
0.0
 10
3113.1488228606
 20
35.909223688
 30
0.0
 10
3114.0223963001
 20
36.547262048
 30
0.0
 10
3115.0490675412
 20
37.3382673568
 30
0.0
 10
3115.0490675412
 20
38.5171204299
 30
0.0
 10
3115.0490675412
 20
39.8908133549
 30
0.0
 10
3113.9111714014
 20
40.6952965043
 30
0.0
 10
3112.6358797985
 20
40.6952965043
 30
0.0
 10
3111.2624485791
 20
40.6952965043
 30
0.0
 10
3110.2215143804
 20
39.8490713047
 30
0.0
 10
3110.2215143804
 20
38.4064189425
 30
0.0
 10
3110.2215143804
 20
37.5188442511
 30
0.0
 10
3110.7768537568
 20
36.741971047
 30
0.0
 10
3111.3730192137
 20
36.1175413806
 30
0.0
 10
3111.3730192137
 20
36.1175413806
 30
0.0
 10
3110.7211104546
 20
35.6459478102
 30
0.0
 10
3110.7211104546
 20
35.6459478102
 30
0.0
 10
3109.7225725702
 20
34.9246870556
 30
0.0
 10
3108.8896943584
 20
34.2034263009
 30
0.0
 10
3108.8896943584
 20
32.8718679845
 30
0.0
 10
3108.8896943584
 20
31.0681926865
 30
0.0
 10
3110.346740531
 20
29.7915925554
 30
0.0
 10
3112.0942799684
 20
29.7915925554
 30
0.0
 10
3113.3291380493
 20
29.7915925554
 30
0.0
 10
3114.4385082739
 20
30.4997680279
 30
0.0
 10
3115.2293827299
 20
31.4282996526
 30
0.0
 10
3115.2293827299
 20
31.4282996526
 30
0.0
 10
3116.3670171641
 20
30.0135189415
 30
0.0
 10
3116.3670171641
 20
30.0135189415
 30
0.0
  0
LINE
  5
24C
100
AcDbEntity
  8
0
100
AcDbLine
 62
7
  6
CONTINUOUS
 10
3102.1698785391
 20
27.9873938461
 11
3124.5837892667
 21
27.9873938461
  0
LINE
  5
24D
100
AcDbEntity
  8
0
100
AcDbLine
 62
7
  6
CONTINUOUS
 10
3124.5837892667
 20
27.9873938461
 11
3124.5837892667
 21
50.4013045738
  0
LINE
  5
24E
100
AcDbEntity
  8
0
100
AcDbLine
 62
7
  6
CONTINUOUS
 10
3124.5837892667
 20
50.4013045738
 11
3102.1698785391
 21
50.4013045738
  0
LINE
  5
24F
100
AcDbEntity
  8
0
100
AcDbLine
 62
7
  6
CONTINUOUS
 10
3102.1698785391
 20
50.4013045738
 11
3102.1698785391
 21
27.9873938461
  0
ENDBLK
  5
250
100
AcDbEntity
  8
0
  6
BYBLOCK
 62
0
100
AcDbBlockEnd
  0
BLOCK
  5
251
100
AcDbEntity
  8
0
100
AcDbBlockBegin
  2
_CLOSED
 70
64
 10
0.0
 20
0.0
  3
_CLOSED
  1

  0
LINE
  5
252
100
AcDbEntity
  8
0
  6
BYBLOCK
 62
0
100
AcDbLine
 10
0.0
 20
0.0
 11
-1.0
 21
0.2
  0
LINE
  5
253
100
AcDbEntity
  8
0
  6
BYBLOCK
 62
0
100
AcDbLine
 10
-1.0
 20
0.2
 11
-1.0
 21
-0.2
  0
LINE
  5
254
100
AcDbEntity
  8
0
  6
BYBLOCK
 62
0
100
AcDbLine
 10
-1.0
 20
-0.2
 11
0.0
 21
0.0
  0
LINE
  5
255
100
AcDbEntity
  8
0
  6
BYBLOCK
 62
0
100
AcDbLine
 10
-1.0
 20
0.0
 11
0.0
 21
0.0
  0
ENDBLK
  5
256
100
AcDbEntity
  8
0
  6
BYBLOCK
 62
0
100
AcDbBlockEnd
  0
BLOCK
  5
257
100
AcDbEntity
  8
0
100
AcDbBlockBegin
 62
7
  6
CONTINUOUS
  2
*D0
 70
65
 10
0.0
 20
0.0
  3
*D0
  1

  0
MTEXT
  5
258
100
AcDbEntity
  8
0
100
AcDbMText
 62
7
  6
CONTINUOUS
  7
STANDARD
 71
2
 72
1
 10
175.0673063097
 20
868.97297289
 30
0.0
 11
1.0
 21
0.0
 31
0.0
  1
70,1
 40
10.0
 41
27.1747211896
  0
LINE
  5
259
100
AcDbEntity
  8
0
100
AcDbLine
 62
7
  6
CONTINUOUS
 10
140.0173063097
 20
884.4979145721
 11
140.0173063097
 21
855.72297289
  0
LINE
  5
25A
100
AcDbEntity
  8
0
100
AcDbLine
 62
7
  6
CONTINUOUS
 10
210.1173063097
 20
897.2776697444
 11
210.1173063097
 21
855.72297289
  0
LINE
  5
25B
100
AcDbEntity
  8
0
100
AcDbLine
 62
7
  6
CONTINUOUS
 10
140.0173063097
 20
856.47297289
 11
175.0673063097
 21
856.47297289
  0
LINE
  5
25C
100
AcDbEntity
  8
0
100
AcDbLine
 62
7
  6
CONTINUOUS
 10
210.1173063097
 20
856.47297289
 11
175.0673063097
 21
856.47297289
  0
INSERT
  5
25D
100
AcDbEntity
  8
0
100
AcDbBlockReference
 62
7
  6
CONTINUOUS
  2
_CLOSED
 10
140.0173063097
 20
856.47297289
 41
2.5
 42
2.5
 43
2.5
 50
180.0
  0
INSERT
  5
25E
100
AcDbEntity
  8
0
100
AcDbBlockReference
 62
7
  6
CONTINUOUS
  2
_CLOSED
 10
210.1173063097
 20
856.47297289
 41
2.5
 42
2.5
 43
2.5
  0
ENDBLK
  5
25F
100
AcDbEntity
  8
0
  6
BYBLOCK
 62
0
100
AcDbBlockEnd
  0
BLOCK
  5
260
100
AcDbEntity
  8
0
100
AcDbBlockBegin
 62
7
  6
CONTINUOUS
  2
*D1
 70
65
 10
0.0
 20
0.0
  3
*D1
  1

  0
MTEXT
  5
261
100
AcDbEntity
  8
0
100
AcDbMText
 62
7
  6
CONTINUOUS
  7
STANDARD
 71
2
 72
1
 10
175.0673063097
 20
842.6458297493
 30
0.0
 11
1.0
 21
0.0
 31
0.0
  1
109,11
 40
10.0
 41
42.7137546468
  0
LINE
  5
262
100
AcDbEntity
  8
0
100
AcDbLine
 62
7
  6
CONTINUOUS
 10
120.5110096677
 20
884.4979145721
 11
120.5110096677
 21
829.3958297493
  0
LINE
  5
263
100
AcDbEntity
  8
0
100
AcDbLine
 62
7
  6
CONTINUOUS
 10
229.6236029518
 20
884.4979145721
 11
229.6236029518
 21
829.3958297493
  0
LINE
  5
264
100
AcDbEntity
  8
0
100
AcDbLine
 62
7
  6
CONTINUOUS
 10
120.5110096677
 20
830.1458297493
 11
175.0673063097
 21
830.1458297493
  0
LINE
  5
265
100
AcDbEntity
  8
0
100
AcDbLine
 62
7
  6
CONTINUOUS
 10
229.6236029518
 20
830.1458297493
 11
175.0673063097
 21
830.1458297493
  0
INSERT
  5
266
100
AcDbEntity
  8
0
100
AcDbBlockReference
 62
7
  6
CONTINUOUS
  2
_CLOSED
 10
120.5110096677
 20
830.1458297493
 41
2.5
 42
2.5
 43
2.5
 50
180.0
  0
INSERT
  5
267
100
AcDbEntity
  8
0
100
AcDbBlockReference
 62
7
  6
CONTINUOUS
  2
_CLOSED
 10
229.6236029518
 20
830.1458297493
 41
2.5
 42
2.5
 43
2.5
  0
ENDBLK
  5
268
100
AcDbEntity
  8
0
  6
BYBLOCK
 62
0
100
AcDbBlockEnd
  0
BLOCK
  5
269
100
AcDbEntity
  8
0
100
AcDbBlockBegin
 62
7
  6
CONTINUOUS
  2
*D2
 70
65
 10
0.0
 20
0.0
  3
*D2
  1

  0
MTEXT
  5
26A
100
AcDbEntity
  8
0
100
AcDbMText
 62
7
  6
CONTINUOUS
  7
STANDARD
 71
2
 72
1
 10
72.8100354633
 20
972.2110679646
 30
0.0
 11
0.0
 21
1.0
 31
0.0
  1
76
 40
10.0
 41
15.5390334572
  0
LINE
  5
26B
100
AcDbEntity
  8
0
100
AcDbLine
 62
7
  6
CONTINUOUS
 10
110.6513441296
 20
934.2110679646
 11
84.5600354633
 21
934.2110679646
  0
LINE
  5
26C
100
AcDbEntity
  8
0
100
AcDbLine
 62
7
  6
CONTINUOUS
 10
104.249491489
 20
1010.2110679646
 11
84.5600354633
 21
1010.2110679646
  0
LINE
  5
26D
100
AcDbEntity
  8
0
100
AcDbLine
 62
7
  6
CONTINUOUS
 10
85.3100354633
 20
934.2110679646
 11
85.3100354633
 21
972.2110679646
  0
LINE
  5
26E
100
AcDbEntity
  8
0
100
AcDbLine
 62
7
  6
CONTINUOUS
 10
85.3100354633
 20
1010.2110679646
 11
85.3100354633
 21
972.2110679646
  0
INSERT
  5
26F
100
AcDbEntity
  8
0
100
AcDbBlockReference
 62
7
  6
CONTINUOUS
  2
_CLOSED
 10
85.3100354633
 20
934.2110679646
 41
2.5
 42
2.5
 43
2.5
 50
270.0
  0
INSERT
  5
270
100
AcDbEntity
  8
0
100
AcDbBlockReference
 62
7
  6
CONTINUOUS
  2
_CLOSED
 10
85.3100354633
 20
1010.2110679646
 41
2.5
 42
2.5
 43
2.5
 50
90.0
  0
ENDBLK
  5
271
100
AcDbEntity
  8
0
  6
BYBLOCK
 62
0
100
AcDbBlockEnd
  0
BLOCK
  5
272
100
AcDbEntity
  8
0
100
AcDbBlockBegin
 62
7
  6
CONTINUOUS
  2
*D3
 70
65
 10
0.0
 20
0.0
  3
*D3
  1

  0
MTEXT
  5
273
100
AcDbEntity
  8
0
100
AcDbMText
 62
7
  6
CONTINUOUS
  7
STANDARD
 71
2
 72
1
 10
1764.6701013713
 20
868.97297289
 30
0.0
 11
1.0
 21
0.0
 31
0.0
  1
2810
 40
10.0
 41
31.0780669145
  0
LINE
  5
274
100
AcDbEntity
  8
0
100
AcDbLine
 62
7
  6
CONTINUOUS
 10
359.6701013713
 20
884.4979145721
 11
359.6701013713
 21
855.72297289
  0
LINE
  5
275
100
AcDbEntity
  8
0
100
AcDbLine
 62
7
  6
CONTINUOUS
 10
3169.6701013713
 20
884.4979145721
 11
3169.6701013713
 21
855.72297289
  0
LINE
  5
276
100
AcDbEntity
  8
0
100
AcDbLine
 62
7
  6
CONTINUOUS
 10
359.6701013713
 20
856.47297289
 11
1764.6701013713
 21
856.47297289
  0
LINE
  5
277
100
AcDbEntity
  8
0
100
AcDbLine
 62
7
  6
CONTINUOUS
 10
3169.6701013713
 20
856.47297289
 11
1764.6701013713
 21
856.47297289
  0
INSERT
  5
278
100
AcDbEntity
  8
0
100
AcDbBlockReference
 62
7
  6
CONTINUOUS
  2
_CLOSED
 10
359.6701013713
 20
856.47297289
 41
2.5
 42
2.5
 43
2.5
 50
180.0
  0
INSERT
  5
279
100
AcDbEntity
  8
0
100
AcDbBlockReference
 62
7
  6
CONTINUOUS
  2
_CLOSED
 10
3169.6701013713
 20
856.47297289
 41
2.5
 42
2.5
 43
2.5
  0
ENDBLK
  5
27A
100
AcDbEntity
  8
0
  6
BYBLOCK
 62
0
100
AcDbBlockEnd
  0
ENDSEC
  0
SECTION
  2
ENTITIES
  0
DIMENSION
  5
27B
100
AcDbEntity
  8
0
100
AcDbDimension
 62
7
  6
CONTINUOUS
  2
*D0
 10
210.1173063097
 20
856.47297289
 11
174.1063659668
 21
856.47297289
 70
160
  3
DIMSTYLE_1
100
AcDbAlignedDimension
 13
140.0173063097
 23
885.2479145721
 14
210.1173063097
 24
898.0276697444
100
AcDbRotatedDimension
  0
DIMENSION
  5
27C
100
AcDbEntity
  8
0
100
AcDbDimension
 62
7
  6
CONTINUOUS
  2
*D1
 10
229.6236029518
 20
830.1458297493
 11
174.5174072266
 21
830.1458297493
 70
160
  3
DIMSTYLE_1
100
AcDbAlignedDimension
 13
120.5110096677
 23
885.2479145721
 14
229.6236029518
 24
885.2479145721
100
AcDbRotatedDimension
  0
DIMENSION
  5
27D
100
AcDbEntity
  8
0
100
AcDbDimension
 62
7
  6
CONTINUOUS
  2
*D2
 10
85.3100354633
 20
1010.2110679646
 11
85.3100354633
 21
972.2214236096
 70
160
  3
DIMSTYLE_1
100
AcDbAlignedDimension
 13
111.4013441296
 23
934.2110679646
 14
104.999491489
 24
1010.2110679646
 50
90.0
100
AcDbRotatedDimension
  0
DIMENSION
  5
27E
100
AcDbEntity
  8
0
100
AcDbDimension
 62
7
  6
CONTINUOUS
  2
*D3
 10
3169.6701013713
 20
856.47297289
 11
1764.5338867188
 21
856.47297289
 70
160
  3
DIMSTYLE_2
100
AcDbAlignedDimension
 13
359.6701013713
 23
885.2479145721
 14
3169.6701013713
 24
885.2479145721
100
AcDbRotatedDimension
  0
LINE
  5
27F
100
AcDbEntity
  8
0
100
AcDbLine
 62
2
  6
CONTINUOUS
 10
3099.5507214317
 20
50.7776170738
 11
3189.5507214317
 21
50.7776170738
  0
LINE
  5
280
100
AcDbEntity
  8
0
100
AcDbLine
 62
2
  6
CONTINUOUS
 10
3099.5507214317
 20
50.7776170738
 11
3099.5507214317
 21
10.7776170738
  0
LINE
  5
281
100
AcDbEntity
  8
0
100
AcDbLine
 62
2
  6
CONTINUOUS
 10
3129.5507214317
 20
44.7776170738
 11
3189.5507214317
 21
44.7776170738
  0
LINE
  5
282
100
AcDbEntity
  8
0
100
AcDbLine
 62
2
  6
CONTINUOUS
 10
3129.5507214317
 20
38.7776170738
 11
3189.5507214317
 21
38.7776170738
  0
LINE
  5
283
100
AcDbEntity
  8
0
100
AcDbLine
 62
2
  6
CONTINUOUS
 10
3129.5507214317
 20
28.7776170738
 11
3189.5507214317
 21
28.7776170738
  0
LINE
  5
284
100
AcDbEntity
  8
0
100
AcDbLine
 62
2
  6
CONTINUOUS
 10
3099.5507214317
 20
23.7776170738
 11
3189.5507214317
 21
23.7776170738
  0
LINE
  5
285
100
AcDbEntity
  8
0
100
AcDbLine
 62
2
  6
CONTINUOUS
 10
3099.5507214317
 20
10.7776170738
 11
3189.5507214317
 21
10.7776170738
  0
LINE
  5
286
100
AcDbEntity
  8
0
100
AcDbLine
 62
2
  6
CONTINUOUS
 10
3129.5507214317
 20
50.7776170738
 11
3129.5507214317
 21
23.7776170738
  0
LINE
  5
287
100
AcDbEntity
  8
0
100
AcDbLine
 62
2
  6
CONTINUOUS
 10
3169.5507214317
 20
50.7776170738
 11
3169.5507214317
 21
38.7776170738
  0
LINE
  5
288
100
AcDbEntity
  8
0
100
AcDbLine
 62
2
  6
CONTINUOUS
 10
3189.5507214317
 20
50.7776170738
 11
3189.5507214317
 21
10.7776170738
  0
INSERT
  5
289
100
AcDbEntity
  8
0
100
AcDbBlockReference
 62
2
  6
CONTINUOUS
  2
LOGO2_BL0
 10
3113.3767684765
 20
37.2776170738
  0
MTEXT
  5
28A
100
AcDbEntity
  8
9_SOLID
100
AcDbMText
 62
2
  6
CONTINUOUS
  7
TEXTSTYLE_2
 71
1
 72
1
 10
3131.0382214317
 20
49.2776170738
 30
0.0
 11
1.0
 21
0.0
 31
0.0
  1
6F4_C_045
 40
3.0
 41
32.25
  0
MTEXT
  5
28B
100
AcDbEntity
  8
0
100
AcDbMText
 62
2
  6
CONTINUOUS
  7
TEXTSTYLE_2
 71
1
 72
1
 10
3171.0382214317
 20
49.0276170738
 30
0.0
 11
1.0
 21
0.0
 31
0.0
  1
Rev:00
 40
3.5
 41
22.75
  0
MTEXT
  5
28C
100
AcDbEntity
  8
9_SOLID
100
AcDbMText
 62
2
  6
CONTINUOUS
  7
TEXTSTYLE_2
 71
1
 72
1
 10
3131.0382214317
 20
43.0276170738
 30
0.0
 11
1.0
 21
0.0
 31
0.0
  1
Scale:1:1
 40
3.5
 41
28.375
  0
MTEXT
  5
28D
100
AcDbEntity
  8
9_SOLID
100
AcDbMText
 62
2
  6
CONTINUOUS
  7
TEXTSTYLE_2
 71
1
 72
1
 10
3171.0382214317
 20
43.5276170738
 30
0.0
 11
1.0
 21
0.0
 31
0.0
  1
3200 by 2500
 40
3.5
 41
48.5
  0
MTEXT
  5
28E
100
AcDbEntity
  8
0
100
AcDbMText
 62
2
  6
CONTINUOUS
  7
TEXTSTYLE_2
 71
1
 72
1
 10
3131.0382214317
 20
35.5276170738
 30
0.0
 11
1.0
 21
0.0
 31
0.0
  1
CASS. BRENTA 2.9 A FILO
 40
3.5
 41
93.125
  0
MTEXT
  5
28F
100
AcDbEntity
  8
0
100
AcDbMText
 62
2
  6
CONTINUOUS
  7
TEXTSTYLE_2
 71
1
 72
1
 10
3131.0382214317
 20
27.5276170738
 30
0.0
 11
1.0
 21
0.0
 31
0.0
  1
DATE:08/05/18
 40
2.5
 41
36.875
  0
MTEXT
  5
290
100
AcDbEntity
  8
9_SOLID
100
AcDbMText
 62
2
  6
CONTINUOUS
  7
TEXTSTYLE_2
 71
1
 72
1
 10
3101.0382214317
 20
23.4651170738
 30
0.0
 11
1.0
 21
0.0
 31
0.0
  1
Any integral or partial reproductions are prohibited \Pwithout prior authorisation of L {\Ftxt.shx;\W0.190476;\H2.250000; }& L Luce & Light s.r.l., \Pin accordance with the law in force. \PAll rights reserved.
 40
2.25
 41
134.5982142857
  0
LINE
  5
291
100
AcDbEntity
  8
0
100
AcDbLine
 62
7
  6
CONTINUOUS
 10
0.0
 20
0.0
 11
0.0
 21
2500.0
  0
LINE
  5
292
100
AcDbEntity
  8
0
100
AcDbLine
 62
7
  6
CONTINUOUS
 10
0.0
 20
0.0
 11
3200.0
 21
0.0
  0
LINE
  5
293
100
AcDbEntity
  8
0
100
AcDbLine
 62
7
  6
CONTINUOUS
 10
0.0
 20
2500.0
 11
3200.0
 21
2500.0
  0
LINE
  5
294
100
AcDbEntity
  8
0
100
AcDbLine
 62
7
  6
CONTINUOUS
 10
3200.0
 20
0.0
 11
3200.0
 21
2500.0
  0
LINE
  5
295
100
AcDbEntity
  8
6_ALL_SURFS
100
AcDbLine
 62
7
  6
CONTINUOUS
 10
122.6173063097
 20
936.8610679645
 11
122.9173063097
 21
936.7110679645
  0
LINE
  5
296
100
AcDbEntity
  8
6_ALL_SURFS
100
AcDbLine
 62
7
  6
CONTINUOUS
 10
125.6173063097
 20
936.8610679645
 11
125.9173063097
 21
936.7110679645
  0
LINE
  5
297
100
AcDbEntity
  8
6_ALL_SURFS
100
AcDbLine
 62
7
  6
CONTINUOUS
 10
128.6173063097
 20
936.8610679645
 11
128.9173063097
 21
936.7110679645
  0
LINE
  5
298
100
AcDbEntity
  8
6_ALL_SURFS
100
AcDbLine
 62
7
  6
CONTINUOUS
 10
131.6173063097
 20
936.8610679645
 11
131.9173063097
 21
936.7110679645
  0
LINE
  5
299
100
AcDbEntity
  8
6_ALL_SURFS
100
AcDbLine
 62
7
  6
CONTINUOUS
 10
134.6173063097
 20
936.8610679645
 11
134.9173063097
 21
936.7110679645
  0
LINE
  5
29A
100
AcDbEntity
  8
6_ALL_SURFS
100
AcDbLine
 62
7
  6
CONTINUOUS
 10
137.6173063097
 20
936.8610679645
 11
137.9173063097
 21
936.7110679645
  0
LINE
  5
29B
100
AcDbEntity
  8
7_ALL_FEATURES
100
AcDbLine
 62
7
  6
CONTINUOUS
 10
227.5173063097
 20
935.7110679645
 11
229.6627779001
 21
935.9256151236
  0
LINE
  5
29C
100
AcDbEntity
  8
6_ALL_SURFS
100
AcDbLine
 62
7
  6
CONTINUOUS
 10
122.6173063097
 20
935.7110679645
 11
120.4718347194
 21
935.9256151236
  0
LINE
  5
29D
100
AcDbEntity
  8
7_ALL_FEATURES
100
AcDbLine
 62
7
  6
CONTINUOUS
 10
140.0173063097
 20
949.8610679646
 11
140.0173063097
 21
934.9610679646
  0
LINE
  5
29E
100
AcDbEntity
  8
6_ALL_SURFS
100
AcDbLine
 62
7
  6
CONTINUOUS
 10
140.7673063097
 20
934.2110679645
 11
140.6173063097
 21
934.2110679645
  0
LINE
  5
29F
100
AcDbEntity
  8
7_ALL_FEATURES
100
AcDbLine
 62
7
  6
CONTINUOUS
 10
140.7673063097
 20
934.2110679646
 11
209.5173063097
 21
934.2110679645
  0
LINE
  5
2A0
100
AcDbEntity
  8
6_ALL_SURFS
100
AcDbLine
 62
7
  6
CONTINUOUS
 10
140.0173063097
 20
935.7110679645
 11
137.9173063097
 21
935.7110679645
  0
LINE
  5
2A1
100
AcDbEntity
  8
6_ALL_SURFS
100
AcDbLine
 62
7
  6
CONTINUOUS
 10
137.3173063097
 20
935.7110679645
 11
134.9173063097
 21
935.7110679645
  0
LINE
  5
2A2
100
AcDbEntity
  8
6_ALL_SURFS
100
AcDbLine
 62
7
  6
CONTINUOUS
 10
134.3173063097
 20
935.7110679645
 11
131.9173063097
 21
935.7110679645
  0
LINE
  5
2A3
100
AcDbEntity
  8
6_ALL_SURFS
100
AcDbLine
 62
7
  6
CONTINUOUS
 10
131.3173063097
 20
935.7110679645
 11
128.9173063097
 21
935.7110679645
  0
LINE
  5
2A4
100
AcDbEntity
  8
6_ALL_SURFS
100
AcDbLine
 62
7
  6
CONTINUOUS
 10
128.3173063097
 20
935.7110679645
 11
125.9173063097
 21
935.7110679645
  0
LINE
  5
2A5
100
AcDbEntity
  8
6_ALL_SURFS
100
AcDbLine
 62
7
  6
CONTINUOUS
 10
125.3173063097
 20
935.7110679645
 11
122.6173063097
 21
935.7110679645
  0
LINE
  5
2A6
100
AcDbEntity
  8
7_ALL_FEATURES
100
AcDbLine
 62
7
  6
CONTINUOUS
 10
210.1173063097
 20
935.7110679645
 11
212.2173063097
 21
935.7110679645
  0
LINE
  5
2A7
100
AcDbEntity
  8
3_ALL_AXES
100
AcDbLine
 62
7
  6
CONTINUOUS
 10
212.8173063097
 20
935.7110679645
 11
215.2173063097
 21
935.7110679645
  0
LINE
  5
2A8
100
AcDbEntity
  8
3_ALL_AXES
100
AcDbLine
 62
7
  6
CONTINUOUS
 10
215.8173063097
 20
935.7110679645
 11
218.2173063097
 21
935.7110679645
  0
LINE
  5
2A9
100
AcDbEntity
  8
3_ALL_AXES
100
AcDbLine
 62
7
  6
CONTINUOUS
 10
218.8173063097
 20
935.7110679645
 11
221.2173063097
 21
935.7110679645
  0
LINE
  5
2AA
100
AcDbEntity
  8
3_ALL_AXES
100
AcDbLine
 62
7
  6
CONTINUOUS
 10
221.8173063097
 20
935.7110679645
 11
224.2173063097
 21
935.7110679645
  0
LINE
  5
2AB
100
AcDbEntity
  8
3_ALL_AXES
100
AcDbLine
 62
7
  6
CONTINUOUS
 10
224.8173063097
 20
935.7110679645
 11
227.5173063097
 21
935.7110679645
  0
LINE
  5
2AC
100
AcDbEntity
  8
7_ALL_FEATURES
100
AcDbLine
 62
7
  6
CONTINUOUS
 10
229.6236029518
 20
936.7110679645
 11
227.8173063097
 21
936.7110679645
  0
LINE
  5
2AD
100
AcDbEntity
  8
3_ALL_AXES
100
AcDbLine
 62
7
  6
CONTINUOUS
 10
227.2173063097
 20
936.7110679645
 11
224.8173063097
 21
936.7110679645
  0
LINE
  5
2AE
100
AcDbEntity
  8
3_ALL_AXES
100
AcDbLine
 62
7
  6
CONTINUOUS
 10
224.2173063097
 20
936.7110679645
 11
221.8173063097
 21
936.7110679645
  0
LINE
  5
2AF
100
AcDbEntity
  8
3_ALL_AXES
100
AcDbLine
 62
7
  6
CONTINUOUS
 10
221.2173063097
 20
936.7110679645
 11
218.8173063097
 21
936.7110679645
  0
LINE
  5
2B0
100
AcDbEntity
  8
3_ALL_AXES
100
AcDbLine
 62
7
  6
CONTINUOUS
 10
218.2173063097
 20
936.7110679645
 11
215.8173063097
 21
936.7110679645
  0
LINE
  5
2B1
100
AcDbEntity
  8
3_ALL_AXES
100
AcDbLine
 62
7
  6
CONTINUOUS
 10
215.2173063097
 20
936.7110679645
 11
212.8173063097
 21
936.7110679645
  0
LINE
  5
2B2
100
AcDbEntity
  8
3_ALL_AXES
100
AcDbLine
 62
7
  6
CONTINUOUS
 10
212.2173063097
 20
936.7110679645
 11
210.1173063097
 21
936.7110679645
  0
LINE
  5
2B3
100
AcDbEntity
  8
6_ALL_SURFS
100
AcDbLine
 62
7
  6
CONTINUOUS
 10
120.5110096677
 20
936.7110679645
 11
122.3173063097
 21
936.7110679645
  0
LINE
  5
2B4
100
AcDbEntity
  8
6_ALL_SURFS
100
AcDbLine
 62
7
  6
CONTINUOUS
 10
122.9173063097
 20
936.7110679645
 11
125.3173063097
 21
936.7110679645
  0
LINE
  5
2B5
100
AcDbEntity
  8
6_ALL_SURFS
100
AcDbLine
 62
7
  6
CONTINUOUS
 10
125.9173063097
 20
936.7110679645
 11
128.3173063097
 21
936.7110679645
  0
LINE
  5
2B6
100
AcDbEntity
  8
6_ALL_SURFS
100
AcDbLine
 62
7
  6
CONTINUOUS
 10
128.9173063097
 20
936.7110679645
 11
131.3173063097
 21
936.7110679645
  0
LINE
  5
2B7
100
AcDbEntity
  8
6_ALL_SURFS
100
AcDbLine
 62
7
  6
CONTINUOUS
 10
131.9173063097
 20
936.7110679645
 11
134.3173063097
 21
936.7110679645
  0
LINE
  5
2B8
100
AcDbEntity
  8
6_ALL_SURFS
100
AcDbLine
 62
7
  6
CONTINUOUS
 10
134.9173063097
 20
936.7110679645
 11
137.3173063097
 21
936.7110679645
  0
LINE
  5
2B9
100
AcDbEntity
  8
6_ALL_SURFS
100
AcDbLine
 62
7
  6
CONTINUOUS
 10
137.9173063097
 20
936.7110679645
 11
140.0173063097
 21
936.7110679645
  0
LINE
  5
2BA
100
AcDbEntity
  8
7_ALL_FEATURES
100
AcDbLine
 62
7
  6
CONTINUOUS
 10
141.7173063097
 20
945.8360679646
 11
141.7173063097
 21
946.5860679646
  0
LINE
  5
2BB
100
AcDbEntity
  8
7_ALL_FEATURES
100
AcDbLine
 62
7
  6
CONTINUOUS
 10
142.5923063097
 20
947.4610679646
 11
142.5923063097
 21
946.5860679646
  0
LINE
  5
2BC
100
AcDbEntity
  8
7_ALL_FEATURES
100
AcDbLine
 62
7
  6
CONTINUOUS
 10
142.5923063097
 20
945.8360679646
 11
142.5923063097
 21
944.9610679646
  0
LINE
  5
2BD
100
AcDbEntity
  8
7_ALL_FEATURES
100
AcDbLine
 62
7
  6
CONTINUOUS
 10
142.9173063097
 20
984.4309595853
 11
142.9173063097
 21
952.1110679646
  0
LINE
  5
2BE
100
AcDbEntity
  8
6_ALL_SURFS
100
AcDbLine
 62
7
  6
CONTINUOUS
 10
142.9173063097
 20
984.4309595853
 11
142.9173063097
 21
984.6334533492
  0
LINE
  5
2BF
100
AcDbEntity
  8
7_ALL_FEATURES
100
AcDbLine
 62
7
  6
CONTINUOUS
 10
143.3423063097
 20
944.9610679646
 11
143.3423063097
 21
945.8360679646
  0
LINE
  5
2C0
100
AcDbEntity
  8
7_ALL_FEATURES
100
AcDbLine
 62
7
  6
CONTINUOUS
 10
143.3423063097
 20
946.5860679646
 11
143.3423063097
 21
947.4610679646
  0
LINE
  5
2C1
100
AcDbEntity
  8
7_ALL_FEATURES
100
AcDbLine
 62
7
  6
CONTINUOUS
 10
144.2173063097
 20
946.5860679646
 11
144.2173063097
 21
945.8360679646
  0
LINE
  5
2C2
100
AcDbEntity
  8
7_ALL_FEATURES
100
AcDbLine
 62
7
  6
CONTINUOUS
 10
146.6127661017
 20
1003.9098127268
 11
147.700853409
 21
1009.6018869167
  0
LINE
  5
2C3
100
AcDbEntity
  8
6_ALL_SURFS
100
AcDbLine
 62
7
  6
CONTINUOUS
 10
143.0092993569
 20
985.588161551
 11
146.5124819323
 21
1003.5974804251
  0
LINE
  5
2C4
100
AcDbEntity
  8
7_ALL_FEATURES
100
AcDbLine
 62
7
  6
CONTINUOUS
 10
147.8677494804
 20
1009.606591673
 11
142.9458133939
 21
984.722007002
  0
LINE
  5
2C5
100
AcDbEntity
  8
6_ALL_SURFS
100
AcDbLine
 62
7
  6
CONTINUOUS
 10
147.8173063097
 20
1009.3515584242
 11
147.8173063097
 21
1009.9110679645
  0
LINE
  5
2C6
100
AcDbEntity
  8
7_ALL_FEATURES
100
AcDbLine
 62
7
  6
CONTINUOUS
 10
207.5423063097
 20
944.9610679646
 11
206.7923063097
 21
944.9610679646
  0
LINE
  5
2C7
100
AcDbEntity
  8
7_ALL_FEATURES
100
AcDbLine
 62
7
  6
CONTINUOUS
 10
143.3423063097
 20
944.9610679646
 11
142.5923063097
 21
944.9610679646
  0
LINE
  5
2C8
100
AcDbEntity
  8
7_ALL_FEATURES
100
AcDbLine
 62
7
  6
CONTINUOUS
 10
143.3423063097
 20
945.8360679646
 11
144.2173063097
 21
945.8360679646
  0
LINE
  5
2C9
100
AcDbEntity
  8
7_ALL_FEATURES
100
AcDbLine
 62
7
  6
CONTINUOUS
 10
141.7173063097
 20
945.8360679646
 11
142.5923063097
 21
945.8360679646
  0
LINE
  5
2CA
100
AcDbEntity
  8
7_ALL_FEATURES
100
AcDbLine
 62
7
  6
CONTINUOUS
 10
207.5423063097
 20
945.8360679646
 11
208.4173063097
 21
945.8360679646
  0
LINE
  5
2CB
100
AcDbEntity
  8
7_ALL_FEATURES
100
AcDbLine
 62
7
  6
CONTINUOUS
 10
205.9173063097
 20
945.8360679646
 11
206.7923063097
 21
945.8360679646
  0
LINE
  5
2CC
100
AcDbEntity
  8
7_ALL_FEATURES
100
AcDbLine
 62
7
  6
CONTINUOUS
 10
150.8673063097
 20
1006.5860679646
 11
150.8673063097
 21
1007.3360679646
  0
LINE
  5
2CD
100
AcDbEntity
  8
7_ALL_FEATURES
100
AcDbLine
 62
7
  6
CONTINUOUS
 10
151.7423063097
 20
1008.2110679646
 11
151.7423063097
 21
1007.3360679646
  0
LINE
  5
2CE
100
AcDbEntity
  8
7_ALL_FEATURES
100
AcDbLine
 62
7
  6
CONTINUOUS
 10
151.7423063097
 20
1006.5860679646
 11
151.7423063097
 21
1005.7110679646
  0
LINE
  5
2CF
100
AcDbEntity
  8
7_ALL_FEATURES
100
AcDbLine
 62
7
  6
CONTINUOUS
 10
152.4923063097
 20
1005.7110679646
 11
152.4923063097
 21
1006.5860679646
  0
LINE
  5
2D0
100
AcDbEntity
  8
7_ALL_FEATURES
100
AcDbLine
 62
7
  6
CONTINUOUS
 10
152.4923063097
 20
1007.3360679646
 11
152.4923063097
 21
1008.2110679646
  0
LINE
  5
2D1
100
AcDbEntity
  8
7_ALL_FEATURES
100
AcDbLine
 62
7
  6
CONTINUOUS
 10
153.3673063097
 20
1007.3360679646
 11
153.3673063097
 21
1006.5860679646
  0
LINE
  5
2D2
100
AcDbEntity
  8
7_ALL_FEATURES
100
AcDbLine
 62
7
  6
CONTINUOUS
 10
208.4173063097
 20
946.5860679646
 11
207.5423063097
 21
946.5860679646
  0
LINE
  5
2D3
100
AcDbEntity
  8
7_ALL_FEATURES
100
AcDbLine
 62
7
  6
CONTINUOUS
 10
206.7923063097
 20
946.5860679646
 11
205.9173063097
 21
946.5860679646
  0
LINE
  5
2D4
100
AcDbEntity
  8
7_ALL_FEATURES
100
AcDbLine
 62
7
  6
CONTINUOUS
 10
144.2173063097
 20
946.5860679646
 11
143.3423063097
 21
946.5860679646
  0
LINE
  5
2D5
100
AcDbEntity
  8
7_ALL_FEATURES
100
AcDbLine
 62
7
  6
CONTINUOUS
 10
142.5923063097
 20
946.5860679646
 11
141.7173063097
 21
946.5860679646
  0
LINE
  5
2D6
100
AcDbEntity
  8
7_ALL_FEATURES
100
AcDbLine
 62
7
  6
CONTINUOUS
 10
142.5923063097
 20
947.4610679646
 11
143.3423063097
 21
947.4610679646
  0
LINE
  5
2D7
100
AcDbEntity
  8
7_ALL_FEATURES
100
AcDbLine
 62
7
  6
CONTINUOUS
 10
206.7923063097
 20
947.4610679646
 11
207.5423063097
 21
947.4610679646
  0
LINE
  5
2D8
100
AcDbEntity
  8
7_ALL_FEATURES
100
AcDbLine
 62
7
  6
CONTINUOUS
 10
209.3673063097
 20
950.6110679646
 11
208.7173063097
 21
950.6110679646
  0
LINE
  5
2D9
100
AcDbEntity
  8
7_ALL_FEATURES
100
AcDbLine
 62
7
  6
CONTINUOUS
 10
141.4173063097
 20
950.6110679646
 11
140.7673063097
 21
950.6110679646
  0
LINE
  5
2DA
100
AcDbEntity
  8
3_ALL_AXES
100
AcDbLine
 62
7
  6
CONTINUOUS
 10
212.8173063097
 20
936.7110679645
 11
212.5173063097
 21
936.8610679645
  0
LINE
  5
2DB
100
AcDbEntity
  8
3_ALL_AXES
100
AcDbLine
 62
7
  6
CONTINUOUS
 10
215.8173063097
 20
936.7110679645
 11
215.5173063097
 21
936.8610679645
  0
LINE
  5
2DC
100
AcDbEntity
  8
3_ALL_AXES
100
AcDbLine
 62
7
  6
CONTINUOUS
 10
218.8173063097
 20
936.7110679645
 11
218.5173063097
 21
936.8610679645
  0
LINE
  5
2DD
100
AcDbEntity
  8
3_ALL_AXES
100
AcDbLine
 62
7
  6
CONTINUOUS
 10
221.8173063097
 20
936.7110679645
 11
221.5173063097
 21
936.8610679645
  0
LINE
  5
2DE
100
AcDbEntity
  8
3_ALL_AXES
100
AcDbLine
 62
7
  6
CONTINUOUS
 10
224.8173063097
 20
936.7110679645
 11
224.5173063097
 21
936.8610679645
  0
LINE
  5
2DF
100
AcDbEntity
  8
7_ALL_FEATURES
100
AcDbLine
 62
7
  6
CONTINUOUS
 10
171.0673063097
 20
1000.6457166598
 11
171.0673063097
 21
1001.4562514581
  0
LINE
  5
2E0
100
AcDbEntity
  8
3_ALL_AXES
100
AcDbLine
 62
7
  6
CONTINUOUS
 10
227.8173063097
 20
936.7110679645
 11
227.5173063097
 21
936.8610679645
  0
LINE
  5
2E1
100
AcDbEntity
  8
7_ALL_FEATURES
100
AcDbLine
 62
7
  6
CONTINUOUS
 10
179.0673063097
 20
1000.6457166598
 11
179.0673063097
 21
1001.4562514581
  0
LINE
  5
2E2
100
AcDbEntity
  8
6_ALL_SURFS
100
AcDbLine
 62
7
  6
CONTINUOUS
 10
122.3173063097
 20
936.7110679645
 11
122.6173063097
 21
936.8610679645
  0
LINE
  5
2E3
100
AcDbEntity
  8
6_ALL_SURFS
100
AcDbLine
 62
7
  6
CONTINUOUS
 10
125.3173063097
 20
936.7110679645
 11
125.6173063097
 21
936.8610679645
  0
LINE
  5
2E4
100
AcDbEntity
  8
6_ALL_SURFS
100
AcDbLine
 62
7
  6
CONTINUOUS
 10
128.3173063097
 20
936.7110679645
 11
128.6173063097
 21
936.8610679645
  0
LINE
  5
2E5
100
AcDbEntity
  8
6_ALL_SURFS
100
AcDbLine
 62
7
  6
CONTINUOUS
 10
131.3173063097
 20
936.7110679645
 11
131.6173063097
 21
936.8610679645
  0
LINE
  5
2E6
100
AcDbEntity
  8
6_ALL_SURFS
100
AcDbLine
 62
7
  6
CONTINUOUS
 10
134.3173063097
 20
936.7110679645
 11
134.6173063097
 21
936.8610679645
  0
LINE
  5
2E7
100
AcDbEntity
  8
6_ALL_SURFS
100
AcDbLine
 62
7
  6
CONTINUOUS
 10
137.3173063097
 20
936.7110679645
 11
137.6173063097
 21
936.8610679645
  0
LINE
  5
2E8
100
AcDbEntity
  8
7_ALL_FEATURES
100
AcDbLine
 62
7
  6
CONTINUOUS
 10
186.0495362746
 20
990.5860679646
 11
185.2982336871
 21
990.5860679646
  0
LINE
  5
2E9
100
AcDbEntity
  8
7_ALL_FEATURES
100
AcDbLine
 62
7
  6
CONTINUOUS
 10
164.8363789324
 20
990.5860679646
 11
164.0850763449
 21
990.5860679646
  0
LINE
  5
2EA
100
AcDbEntity
  8
7_ALL_FEATURES
100
AcDbLine
 62
7
  6
CONTINUOUS
 10
196.7673063097
 20
1006.5860679646
 11
196.7673063097
 21
1007.3360679646
  0
LINE
  5
2EB
100
AcDbEntity
  8
7_ALL_FEATURES
100
AcDbLine
 62
7
  6
CONTINUOUS
 10
197.6423063097
 20
1008.2110679646
 11
197.6423063097
 21
1007.3360679646
  0
LINE
  5
2EC
100
AcDbEntity
  8
7_ALL_FEATURES
100
AcDbLine
 62
7
  6
CONTINUOUS
 10
197.6423063097
 20
1006.5860679646
 11
197.6423063097
 21
1005.7110679646
  0
LINE
  5
2ED
100
AcDbEntity
  8
7_ALL_FEATURES
100
AcDbLine
 62
7
  6
CONTINUOUS
 10
164.0850763449
 20
991.8360679646
 11
164.8363789324
 21
991.8360679646
  0
LINE
  5
2EE
100
AcDbEntity
  8
7_ALL_FEATURES
100
AcDbLine
 62
7
  6
CONTINUOUS
 10
185.2982336871
 20
991.8360679646
 11
186.0495362746
 21
991.8360679646
  0
LINE
  5
2EF
100
AcDbEntity
  8
7_ALL_FEATURES
100
AcDbLine
 62
7
  6
CONTINUOUS
 10
198.3923063097
 20
1005.7110679646
 11
198.3923063097
 21
1006.5860679646
  0
LINE
  5
2F0
100
AcDbEntity
  8
7_ALL_FEATURES
100
AcDbLine
 62
7
  6
CONTINUOUS
 10
198.3923063097
 20
1007.3360679646
 11
198.3923063097
 21
1008.2110679646
  0
LINE
  5
2F1
100
AcDbEntity
  8
7_ALL_FEATURES
100
AcDbLine
 62
7
  6
CONTINUOUS
 10
199.2673063097
 20
1007.3360679646
 11
199.2673063097
 21
1006.5860679646
  0
LINE
  5
2F2
100
AcDbEntity
  8
7_ALL_FEATURES
100
AcDbLine
 62
7
  6
CONTINUOUS
 10
202.3173063097
 20
1009.8817136977
 11
202.3173063097
 21
1009.9110679645
  0
LINE
  5
2F3
100
AcDbEntity
  8
7_ALL_FEATURES
100
AcDbLine
 62
7
  6
CONTINUOUS
 10
205.9173063097
 20
945.8360679646
 11
205.9173063097
 21
946.5860679646
  0
LINE
  5
2F4
100
AcDbEntity
  8
7_ALL_FEATURES
100
AcDbLine
 62
7
  6
CONTINUOUS
 10
206.7923063097
 20
947.4610679646
 11
206.7923063097
 21
946.5860679646
  0
LINE
  5
2F5
100
AcDbEntity
  8
7_ALL_FEATURES
100
AcDbLine
 62
7
  6
CONTINUOUS
 10
206.7923063097
 20
945.8360679646
 11
206.7923063097
 21
944.9610679646
  0
LINE
  5
2F6
100
AcDbEntity
  8
7_ALL_FEATURES
100
AcDbLine
 62
7
  6
CONTINUOUS
 10
207.2173063097
 20
952.1110679646
 11
207.2173063097
 21
984.6334533492
  0
LINE
  5
2F7
100
AcDbEntity
  8
7_ALL_FEATURES
100
AcDbLine
 62
7
  6
CONTINUOUS
 10
207.5423063097
 20
944.9610679646
 11
207.5423063097
 21
945.8360679646
  0
LINE
  5
2F8
100
AcDbEntity
  8
7_ALL_FEATURES
100
AcDbLine
 62
7
  6
CONTINUOUS
 10
207.5423063097
 20
946.5860679646
 11
207.5423063097
 21
947.4610679646
  0
LINE
  5
2F9
100
AcDbEntity
  8
7_ALL_FEATURES
100
AcDbLine
 62
7
  6
CONTINUOUS
 10
208.4173063097
 20
946.5860679646
 11
208.4173063097
 21
945.8360679646
  0
LINE
  5
2FA
100
AcDbEntity
  8
7_ALL_FEATURES
100
AcDbLine
 62
7
  6
CONTINUOUS
 10
210.1173063097
 20
934.9610679646
 11
210.1173063097
 21
949.8610679646
  0
LINE
  5
2FB
100
AcDbEntity
  8
7_ALL_FEATURES
100
AcDbLine
 62
7
  6
CONTINUOUS
 10
198.3923063097
 20
1005.7110679646
 11
197.6423063097
 21
1005.7110679646
  0
LINE
  5
2FC
100
AcDbEntity
  8
7_ALL_FEATURES
100
AcDbLine
 62
7
  6
CONTINUOUS
 10
152.4923063097
 20
1005.7110679646
 11
151.7423063097
 21
1005.7110679646
  0
LINE
  5
2FD
100
AcDbEntity
  8
7_ALL_FEATURES
100
AcDbLine
 62
7
  6
CONTINUOUS
 10
152.4923063097
 20
1006.5860679646
 11
153.3673063097
 21
1006.5860679646
  0
LINE
  5
2FE
100
AcDbEntity
  8
7_ALL_FEATURES
100
AcDbLine
 62
7
  6
CONTINUOUS
 10
150.8673063097
 20
1006.5860679646
 11
151.7423063097
 21
1006.5860679646
  0
LINE
  5
2FF
100
AcDbEntity
  8
7_ALL_FEATURES
100
AcDbLine
 62
7
  6
CONTINUOUS
 10
198.3923063097
 20
1006.5860679646
 11
199.2673063097
 21
1006.5860679646
  0
LINE
  5
300
100
AcDbEntity
  8
7_ALL_FEATURES
100
AcDbLine
 62
7
  6
CONTINUOUS
 10
196.7673063097
 20
1006.5860679646
 11
197.6423063097
 21
1006.5860679646
  0
LINE
  5
301
100
AcDbEntity
  8
7_ALL_FEATURES
100
AcDbLine
 62
7
  6
CONTINUOUS
 10
199.2673063097
 20
1007.3360679646
 11
198.3923063097
 21
1007.3360679646
  0
LINE
  5
302
100
AcDbEntity
  8
7_ALL_FEATURES
100
AcDbLine
 62
7
  6
CONTINUOUS
 10
197.6423063097
 20
1007.3360679646
 11
196.7673063097
 21
1007.3360679646
  0
LINE
  5
303
100
AcDbEntity
  8
7_ALL_FEATURES
100
AcDbLine
 62
7
  6
CONTINUOUS
 10
153.3673063097
 20
1007.3360679646
 11
152.4923063097
 21
1007.3360679646
  0
LINE
  5
304
100
AcDbEntity
  8
7_ALL_FEATURES
100
AcDbLine
 62
7
  6
CONTINUOUS
 10
151.7423063097
 20
1007.3360679646
 11
150.8673063097
 21
1007.3360679646
  0
LINE
  5
305
100
AcDbEntity
  8
7_ALL_FEATURES
100
AcDbLine
 62
7
  6
CONTINUOUS
 10
151.7423063097
 20
1008.2110679646
 11
152.4923063097
 21
1008.2110679646
  0
LINE
  5
306
100
AcDbEntity
  8
7_ALL_FEATURES
100
AcDbLine
 62
7
  6
CONTINUOUS
 10
197.6423063097
 20
1008.2110679646
 11
198.3923063097
 21
1008.2110679646
  0
LINE
  5
307
100
AcDbEntity
  8
7_ALL_FEATURES
100
AcDbLine
 62
7
  6
CONTINUOUS
 10
207.1253132626
 20
985.588161551
 11
203.6221306872
 21
1003.5974804251
  0
LINE
  5
308
100
AcDbEntity
  8
7_ALL_FEATURES
100
AcDbLine
 62
7
  6
CONTINUOUS
 10
207.1906291158
 20
984.7174348774
 11
202.4337592105
 21
1009.6018869167
  0
LINE
  5
309
100
AcDbEntity
  8
7_ALL_FEATURES
100
AcDbLine
 62
7
  6
CONTINUOUS
 10
202.0173063097
 20
1010.2110679645
 11
177.7130576208
 21
1010.2110679646
  0
LINE
  5
30A
100
AcDbEntity
  8
7_ALL_FEATURES
100
AcDbLine
 62
7
  6
CONTINUOUS
 10
172.4215549987
 20
1010.2110679646
 11
148.6034959383
 21
1010.2110679646
  0
LINE
  5
30B
100
AcDbEntity
  8
6_ALL_SURFS
100
AcDbLine
 62
7
  6
CONTINUOUS
 10
148.1173063097
 20
1010.2110679645
 11
148.6034959383
 21
1010.2110679645
  0
LINE
  5
30C
100
AcDbEntity
  8
7_ALL_FEATURES
100
AcDbLine
 62
7
  6
CONTINUOUS
 10
172.4673063097
 20
1010.2110679645
 11
177.6673063097
 21
1010.2110679645
  0
LINE
  5
30D
100
AcDbEntity
  8
3_ALL_AXES
100
AcDbLine
 62
7
  6
CONTINUOUS
 10
212.5173063097
 20
936.8610679645
 11
212.2173063097
 21
936.7110679645
  0
LINE
  5
30E
100
AcDbEntity
  8
3_ALL_AXES
100
AcDbLine
 62
7
  6
CONTINUOUS
 10
215.5173063097
 20
936.8610679645
 11
215.2173063097
 21
936.7110679645
  0
LINE
  5
30F
100
AcDbEntity
  8
3_ALL_AXES
100
AcDbLine
 62
7
  6
CONTINUOUS
 10
218.5173063097
 20
936.8610679645
 11
218.2173063097
 21
936.7110679645
  0
LINE
  5
310
100
AcDbEntity
  8
3_ALL_AXES
100
AcDbLine
 62
7
  6
CONTINUOUS
 10
221.5173063097
 20
936.8610679645
 11
221.2173063097
 21
936.7110679645
  0
LINE
  5
311
100
AcDbEntity
  8
3_ALL_AXES
100
AcDbLine
 62
7
  6
CONTINUOUS
 10
224.5173063097
 20
936.8610679645
 11
224.2173063097
 21
936.7110679645
  0
LINE
  5
312
100
AcDbEntity
  8
3_ALL_AXES
100
AcDbLine
 62
7
  6
CONTINUOUS
 10
227.5173063097
 20
936.8610679645
 11
227.2173063097
 21
936.7110679645
  0
LINE
  5
313
100
AcDbEntity
  8
3_ALL_AXES
100
AcDbLine
 62
7
  6
CONTINUOUS
 10
358.4201013713
 20
943.4611160308
 11
358.4201013713
 21
948.9610198985
  0
LINE
  5
314
100
AcDbEntity
  8
3_ALL_AXES
100
AcDbLine
 62
7
  6
CONTINUOUS
 10
358.4201013713
 20
1004.2111160308
 11
358.4201013713
 21
1009.7110198985
  0
LINE
  5
315
100
AcDbEntity
  8
3_ALL_AXES
100
AcDbLine
 62
7
  6
CONTINUOUS
 10
358.5708217009
 20
943.4610679646
 11
358.5708217009
 21
948.9610679646
  0
LINE
  5
316
100
AcDbEntity
  8
3_ALL_AXES
100
AcDbLine
 62
7
  6
CONTINUOUS
 10
358.5708217009
 20
1004.2110679646
 11
358.5708217009
 21
1009.7110679646
  0
LINE
  5
317
100
AcDbEntity
  8
7_ALL_FEATURES
100
AcDbLine
 62
7
  6
CONTINUOUS
 10
359.6701013713
 20
934.2110679646
 11
359.6701013713
 21
1010.2110679646
  0
LINE
  5
318
100
AcDbEntity
  8
6_ALL_SURFS
100
AcDbLine
 62
7
  6
CONTINUOUS
 10
361.1701013713
 20
934.2691484203
 11
361.1701013713
 21
934.2110679645
  0
LINE
  5
319
100
AcDbEntity
  8
7_ALL_FEATURES
100
AcDbLine
 62
7
  6
CONTINUOUS
 10
361.1701013713
 20
934.2691484203
 11
361.1701013713
 21
935.7110679645
  0
LINE
  5
31A
100
AcDbEntity
  8
6_ALL_SURFS
100
AcDbLine
 62
7
  6
CONTINUOUS
 10
361.1701013713
 20
935.7110679645
 11
361.1701013713
 21
936.8610679645
  0
LINE
  5
31B
100
AcDbEntity
  8
6_ALL_SURFS
100
AcDbLine
 62
7
  6
CONTINUOUS
 10
361.1701013713
 20
944.8110679645
 11
361.1701013713
 21
947.6110679645
  0
LINE
  5
31C
100
AcDbEntity
  8
7_ALL_FEATURES
100
AcDbLine
 62
7
  6
CONTINUOUS
 10
361.1701013713
 20
936.8610679645
 11
361.1701013713
 21
984.5301744256
  0
LINE
  5
31D
100
AcDbEntity
  8
6_ALL_SURFS
100
AcDbLine
 62
7
  6
CONTINUOUS
 10
361.1701013713
 20
952.1110679646
 11
361.1701013713
 21
1003.9098127268
  0
LINE
  5
31E
100
AcDbEntity
  8
7_ALL_FEATURES
100
AcDbLine
 62
7
  6
CONTINUOUS
 10
361.1701013713
 20
1003.9098127268
 11
361.1701013713
 21
1009.8817136977
  0
LINE
  5
31F
100
AcDbEntity
  8
6_ALL_SURFS
100
AcDbLine
 62
7
  6
CONTINUOUS
 10
361.1701013713
 20
1009.6018869167
 11
361.1701013713
 21
1010.2110679645
  0
LINE
  5
320
100
AcDbEntity
  8
3_ALL_AXES
100
AcDbLine
 62
7
  6
CONTINUOUS
 10
359.6701013713
 20
1005.1334731306
 11
358.5708217009
 21
1004.2110679646
  0
LINE
  5
321
100
AcDbEntity
  8
3_ALL_AXES
100
AcDbLine
 62
7
  6
CONTINUOUS
 10
359.6701013713
 20
944.3834731306
 11
358.5708217009
 21
943.4610679646
  0
LINE
  5
322
100
AcDbEntity
  8
3_ALL_AXES
100
AcDbLine
 62
7
  6
CONTINUOUS
 10
359.6701013713
 20
948.0386627987
 11
358.5708217009
 21
948.9610679646
  0
LINE
  5
323
100
AcDbEntity
  8
3_ALL_AXES
100
AcDbLine
 62
7
  6
CONTINUOUS
 10
359.6701013713
 20
1008.7886627987
 11
358.5708217009
 21
1009.7110679646
  0
LINE
  5
324
100
AcDbEntity
  8
7_ALL_FEATURES
100
AcDbLine
 62
7
  6
CONTINUOUS
 10
3169.6701013713
 20
934.2110679646
 11
3168.1701013713
 21
934.2110679646
  0
LINE
  5
325
100
AcDbEntity
  8
6_ALL_SURFS
100
AcDbLine
 62
7
  6
CONTINUOUS
 10
3168.1701013713
 20
934.2110679645
 11
361.1701013713
 21
934.2110679645
  0
LINE
  5
326
100
AcDbEntity
  8
7_ALL_FEATURES
100
AcDbLine
 62
7
  6
CONTINUOUS
 10
359.6701013713
 20
934.2110679646
 11
361.1701013713
 21
934.2110679646
  0
LINE
  5
327
100
AcDbEntity
  8
6_ALL_SURFS
100
AcDbLine
 62
9
  6
CONTINUOUS
 10
3168.1701013713
 20
934.4110679645
 11
361.1701013713
 21
934.4110679645
  0
LINE
  5
328
100
AcDbEntity
  8
7_ALL_FEATURES
100
AcDbLine
 62
9
  6
CONTINUOUS
 10
3169.6701013713
 20
934.9610679646
 11
3168.1701013713
 21
934.9610679646
  0
LINE
  5
329
100
AcDbEntity
  8
7_ALL_FEATURES
100
AcDbLine
 62
9
  6
CONTINUOUS
 10
359.6701013713
 20
934.9610679646
 11
361.1701013713
 21
934.9610679646
  0
LINE
  5
32A
100
AcDbEntity
  8
6_ALL_SURFS
100
AcDbLine
 62
9
  6
CONTINUOUS
 10
361.1701013713
 20
935.5110679645
 11
3168.1701013713
 21
935.5110679645
  0
LINE
  5
32B
100
AcDbEntity
  8
6_ALL_SURFS
100
AcDbLine
 62
7
  6
CONTINUOUS
 10
361.1701013713
 20
935.7110679645
 11
511.3866935776
 21
935.7110679645
  0
LINE
  5
32C
100
AcDbEntity
  8
6_ALL_SURFS
100
AcDbLine
 62
7
  6
CONTINUOUS
 10
511.6635503868
 20
935.7110679645
 11
517.6766523558
 21
935.7110679645
  0
LINE
  5
32D
100
AcDbEntity
  8
6_ALL_SURFS
100
AcDbLine
 62
7
  6
CONTINUOUS
 10
517.953509165
 20
935.7110679645
 11
761.3866935776
 21
935.7110679645
  0
LINE
  5
32E
100
AcDbEntity
  8
6_ALL_SURFS
100
AcDbLine
 62
7
  6
CONTINUOUS
 10
761.6635503868
 20
935.7110679645
 11
767.6766523558
 21
935.7110679645
  0
LINE
  5
32F
100
AcDbEntity
  8
6_ALL_SURFS
100
AcDbLine
 62
7
  6
CONTINUOUS
 10
767.953509165
 20
935.7110679645
 11
1011.3866935776
 21
935.7110679645
  0
LINE
  5
330
100
AcDbEntity
  8
6_ALL_SURFS
100
AcDbLine
 62
7
  6
CONTINUOUS
 10
1011.6635503868
 20
935.7110679645
 11
1017.6766523558
 21
935.7110679645
  0
LINE
  5
331
100
AcDbEntity
  8
6_ALL_SURFS
100
AcDbLine
 62
7
  6
CONTINUOUS
 10
1017.953509165
 20
935.7110679645
 11
1261.3866935776
 21
935.7110679645
  0
LINE
  5
332
100
AcDbEntity
  8
6_ALL_SURFS
100
AcDbLine
 62
7
  6
CONTINUOUS
 10
1261.6635503868
 20
935.7110679645
 11
1267.6766523558
 21
935.7110679645
  0
LINE
  5
333
100
AcDbEntity
  8
6_ALL_SURFS
100
AcDbLine
 62
7
  6
CONTINUOUS
 10
1267.953509165
 20
935.7110679645
 11
1511.3866935776
 21
935.7110679645
  0
LINE
  5
334
100
AcDbEntity
  8
6_ALL_SURFS
100
AcDbLine
 62
7
  6
CONTINUOUS
 10
1511.6635503868
 20
935.7110679645
 11
1517.6766523558
 21
935.7110679645
  0
LINE
  5
335
100
AcDbEntity
  8
6_ALL_SURFS
100
AcDbLine
 62
7
  6
CONTINUOUS
 10
1517.953509165
 20
935.7110679645
 11
1761.3866935776
 21
935.7110679645
  0
LINE
  5
336
100
AcDbEntity
  8
6_ALL_SURFS
100
AcDbLine
 62
7
  6
CONTINUOUS
 10
1761.6635503868
 20
935.7110679645
 11
1767.6766523558
 21
935.7110679645
  0
LINE
  5
337
100
AcDbEntity
  8
6_ALL_SURFS
100
AcDbLine
 62
7
  6
CONTINUOUS
 10
1767.953509165
 20
935.7110679645
 11
2011.3866935776
 21
935.7110679645
  0
LINE
  5
338
100
AcDbEntity
  8
6_ALL_SURFS
100
AcDbLine
 62
7
  6
CONTINUOUS
 10
2011.6635503868
 20
935.7110679645
 11
2017.6766523558
 21
935.7110679645
  0
LINE
  5
339
100
AcDbEntity
  8
6_ALL_SURFS
100
AcDbLine
 62
7
  6
CONTINUOUS
 10
2017.953509165
 20
935.7110679645
 11
2261.3866935776
 21
935.7110679645
  0
LINE
  5
33A
100
AcDbEntity
  8
6_ALL_SURFS
100
AcDbLine
 62
7
  6
CONTINUOUS
 10
2261.6635503868
 20
935.7110679645
 11
2267.6766523558
 21
935.7110679645
  0
LINE
  5
33B
100
AcDbEntity
  8
6_ALL_SURFS
100
AcDbLine
 62
7
  6
CONTINUOUS
 10
2267.953509165
 20
935.7110679645
 11
2511.3866935776
 21
935.7110679645
  0
LINE
  5
33C
100
AcDbEntity
  8
6_ALL_SURFS
100
AcDbLine
 62
7
  6
CONTINUOUS
 10
2511.6635503868
 20
935.7110679645
 11
2517.6766523558
 21
935.7110679645
  0
LINE
  5
33D
100
AcDbEntity
  8
6_ALL_SURFS
100
AcDbLine
 62
7
  6
CONTINUOUS
 10
2517.953509165
 20
935.7110679645
 11
2761.3866935776
 21
935.7110679645
  0
LINE
  5
33E
100
AcDbEntity
  8
6_ALL_SURFS
100
AcDbLine
 62
7
  6
CONTINUOUS
 10
2761.6635503868
 20
935.7110679645
 11
2767.6766523558
 21
935.7110679645
  0
LINE
  5
33F
100
AcDbEntity
  8
6_ALL_SURFS
100
AcDbLine
 62
7
  6
CONTINUOUS
 10
2767.953509165
 20
935.7110679645
 11
3011.3866935776
 21
935.7110679645
  0
LINE
  5
340
100
AcDbEntity
  8
6_ALL_SURFS
100
AcDbLine
 62
7
  6
CONTINUOUS
 10
3011.6635503868
 20
935.7110679645
 11
3017.6766523558
 21
935.7110679645
  0
LINE
  5
341
100
AcDbEntity
  8
6_ALL_SURFS
100
AcDbLine
 62
7
  6
CONTINUOUS
 10
3017.953509165
 20
935.7110679645
 11
3168.1701013713
 21
935.7110679645
  0
LINE
  5
342
100
AcDbEntity
  8
6_ALL_SURFS
100
AcDbLine
 62
9
  6
CONTINUOUS
 10
361.1701013713
 20
935.9256151236
 11
3168.1701013713
 21
935.9256151236
  0
LINE
  5
343
100
AcDbEntity
  8
6_ALL_SURFS
100
AcDbLine
 62
7
  6
CONTINUOUS
 10
361.1701013713
 20
936.7110679645
 11
3168.1701013713
 21
936.7110679645
  0
LINE
  5
344
100
AcDbEntity
  8
6_ALL_SURFS
100
AcDbLine
 62
7
  6
CONTINUOUS
 10
361.1701013713
 20
936.8610679645
 11
3168.1701013713
 21
936.8610679645
  0
LINE
  5
345
100
AcDbEntity
  8
6_ALL_SURFS
100
AcDbLine
 62
9
  6
CONTINUOUS
 10
3168.1701013713
 20
938.2110679645
 11
361.1701013713
 21
938.2110679645
  0
LINE
  5
346
100
AcDbEntity
  8
6_ALL_SURFS
100
AcDbLine
 62
9
  6
CONTINUOUS
 10
3168.1701013713
 20
939.2340655046
 11
361.1701013713
 21
939.2340655046
  0
LINE
  5
347
100
AcDbEntity
  8
6_ALL_SURFS
100
AcDbLine
 62
9
  6
CONTINUOUS
 10
361.1701013713
 20
941.3964290877
 11
3168.1701013713
 21
941.3964290877
  0
LINE
  5
348
100
AcDbEntity
  8
6_ALL_SURFS
100
AcDbLine
 62
9
  6
CONTINUOUS
 10
361.1701013713
 20
941.6010285957
 11
3168.1701013713
 21
941.6010285957
  0
LINE
  5
349
100
AcDbEntity
  8
6_ALL_SURFS
100
AcDbLine
 62
9
  6
CONTINUOUS
 10
361.1701013713
 20
943.0110679645
 11
3168.1701013713
 21
943.0110679645
  0
LINE
  5
34A
100
AcDbEntity
  8
6_ALL_SURFS
100
AcDbLine
 62
7
  6
CONTINUOUS
 10
3168.1701013713
 20
943.3110679645
 11
361.1701013713
 21
943.3110679645
  0
LINE
  5
34B
100
AcDbEntity
  8
3_ALL_AXES
100
AcDbLine
 62
7
  6
CONTINUOUS
 10
358.5708217009
 20
943.4610679646
 11
358.4201013713
 21
943.4610679646
  0
LINE
  5
34C
100
AcDbEntity
  8
3_ALL_AXES
100
AcDbLine
 62
7
  6
CONTINUOUS
 10
3170.7693810417
 20
943.4610679646
 11
3170.9201013713
 21
943.4610679646
  0
LINE
  5
34D
100
AcDbEntity
  8
6_ALL_SURFS
100
AcDbLine
 62
9
  6
CONTINUOUS
 10
3168.1701013713
 20
944.8110679645
 11
361.1701013713
 21
944.8110679645
  0
LINE
  5
34E
100
AcDbEntity
  8
6_ALL_SURFS
100
AcDbLine
 62
9
  6
CONTINUOUS
 10
3168.1701013713
 20
947.6110679645
 11
361.1701013713
 21
947.6110679645
  0
LINE
  5
34F
100
AcDbEntity
  8
3_ALL_AXES
100
AcDbLine
 62
7
  6
CONTINUOUS
 10
358.5708217009
 20
948.9610679646
 11
358.4201013713
 21
948.9610679646
  0
LINE
  5
350
100
AcDbEntity
  8
3_ALL_AXES
100
AcDbLine
 62
7
  6
CONTINUOUS
 10
3170.7693810417
 20
948.9610679646
 11
3170.9201013713
 21
948.9610679646
  0
LINE
  5
351
100
AcDbEntity
  8
6_ALL_SURFS
100
AcDbLine
 62
7
  6
CONTINUOUS
 10
3168.1701013713
 20
949.1110679645
 11
361.1701013713
 21
949.1110679645
  0
LINE
  5
352
100
AcDbEntity
  8
6_ALL_SURFS
100
AcDbLine
 62
9
  6
CONTINUOUS
 10
361.1701013713
 20
949.4110679645
 11
3168.1701013713
 21
949.4110679645
  0
LINE
  5
353
100
AcDbEntity
  8
7_ALL_FEATURES
100
AcDbLine
 62
9
  6
CONTINUOUS
 10
3169.6701013713
 20
949.8610679646
 11
3168.1701013713
 21
949.8610679646
  0
LINE
  5
354
100
AcDbEntity
  8
7_ALL_FEATURES
100
AcDbLine
 62
9
  6
CONTINUOUS
 10
359.6701013713
 20
949.8610679646
 11
361.1701013713
 21
949.8610679646
  0
LINE
  5
355
100
AcDbEntity
  8
7_ALL_FEATURES
100
AcDbLine
 62
7
  6
CONTINUOUS
 10
3169.6701013713
 20
950.6110679646
 11
3168.1701013713
 21
950.6110679646
  0
LINE
  5
356
100
AcDbEntity
  8
7_ALL_FEATURES
100
AcDbLine
 62
7
  6
CONTINUOUS
 10
359.6701013713
 20
950.6110679646
 11
361.1701013713
 21
950.6110679646
  0
LINE
  5
357
100
AcDbEntity
  8
7_ALL_FEATURES
100
AcDbLine
 62
9
  6
CONTINUOUS
 10
361.1701013713
 20
952.1110679646
 11
359.6701013713
 21
952.1110679646
  0
LINE
  5
358
100
AcDbEntity
  8
7_ALL_FEATURES
100
AcDbLine
 62
9
  6
CONTINUOUS
 10
3168.1701013713
 20
952.1110679646
 11
3169.6701013713
 21
952.1110679646
  0
LINE
  5
359
100
AcDbEntity
  8
7_ALL_FEATURES
100
AcDbLine
 62
9
  6
CONTINUOUS
 10
3169.6701013713
 20
984.4309595853
 11
3168.1701013713
 21
984.4309595853
  0
LINE
  5
35A
100
AcDbEntity
  8
7_ALL_FEATURES
100
AcDbLine
 62
9
  6
CONTINUOUS
 10
359.6701013713
 20
984.4357969733
 11
361.1701013713
 21
984.4357969733
  0
LINE
  5
35B
100
AcDbEntity
  8
6_ALL_SURFS
100
AcDbLine
 62
9
  6
CONTINUOUS
 10
3168.1701013713
 20
984.6334533492
 11
361.1701013713
 21
984.6334533492
  0
LINE
  5
35C
100
AcDbEntity
  8
7_ALL_FEATURES
100
AcDbLine
 62
9
  6
CONTINUOUS
 10
359.6701013713
 20
984.7174348774
 11
361.1701013713
 21
984.7174348774
  0
LINE
  5
35D
100
AcDbEntity
  8
7_ALL_FEATURES
100
AcDbLine
 62
9
  6
CONTINUOUS
 10
3169.6701013713
 20
984.722007002
 11
3168.1701013713
 21
984.722007002
  0
LINE
  5
35E
100
AcDbEntity
  8
6_ALL_SURFS
100
AcDbLine
 62
9
  6
CONTINUOUS
 10
3168.1701013713
 20
985.588161551
 11
361.1701013713
 21
985.588161551
  0
LINE
  5
35F
100
AcDbEntity
  8
6_ALL_SURFS
100
AcDbLine
 62
9
  6
CONTINUOUS
 10
3168.1701013713
 20
1003.5974804251
 11
361.1701013713
 21
1003.5974804251
  0
LINE
  5
360
100
AcDbEntity
  8
3_ALL_AXES
100
AcDbLine
 62
7
  6
CONTINUOUS
 10
358.5708217009
 20
1004.2110679646
 11
358.4201013713
 21
1004.2110679646
  0
LINE
  5
361
100
AcDbEntity
  8
3_ALL_AXES
100
AcDbLine
 62
7
  6
CONTINUOUS
 10
3170.7693810417
 20
1004.2110679646
 11
3170.9201013713
 21
1004.2110679646
  0
LINE
  5
362
100
AcDbEntity
  8
6_ALL_SURFS
100
AcDbLine
 62
7
  6
CONTINUOUS
 10
3168.1701013713
 20
1004.8110679645
 11
361.1701013713
 21
1004.8110679645
  0
LINE
  5
363
100
AcDbEntity
  8
6_ALL_SURFS
100
AcDbLine
 62
9
  6
CONTINUOUS
 10
361.1701013713
 20
1005.5610679646
 11
3168.1701013713
 21
1005.5610679646
  0
LINE
  5
364
100
AcDbEntity
  8
6_ALL_SURFS
100
AcDbLine
 62
9
  6
CONTINUOUS
 10
361.1701013713
 20
1008.4513905452
 11
3168.1701013713
 21
1008.4513905452
  0
LINE
  5
365
100
AcDbEntity
  8
6_ALL_SURFS
100
AcDbLine
 62
7
  6
CONTINUOUS
 10
3168.1701013713
 20
1008.9110679645
 11
361.1701013713
 21
1008.9110679645
  0
LINE
  5
366
100
AcDbEntity
  8
6_ALL_SURFS
100
AcDbLine
 62
9
  6
CONTINUOUS
 10
3168.1701013713
 20
1009.2110679645
 11
361.1701013713
 21
1009.2110679645
  0
LINE
  5
367
100
AcDbEntity
  8
7_ALL_FEATURES
100
AcDbLine
 62
9
  6
CONTINUOUS
 10
359.6701013713
 20
1009.6018869167
 11
361.1701013713
 21
1009.6018869167
  0
LINE
  5
368
100
AcDbEntity
  8
7_ALL_FEATURES
100
AcDbLine
 62
9
  6
CONTINUOUS
 10
3169.6701013713
 20
1009.606591673
 11
3168.1701013713
 21
1009.606591673
  0
LINE
  5
369
100
AcDbEntity
  8
3_ALL_AXES
100
AcDbLine
 62
7
  6
CONTINUOUS
 10
358.5708217009
 20
1009.7110679646
 11
358.4201013713
 21
1009.7110679646
  0
LINE
  5
36A
100
AcDbEntity
  8
3_ALL_AXES
100
AcDbLine
 62
7
  6
CONTINUOUS
 10
3170.7693810417
 20
1009.7110679646
 11
3170.9201013713
 21
1009.7110679646
  0
LINE
  5
36B
100
AcDbEntity
  8
6_ALL_SURFS
100
AcDbLine
 62
9
  6
CONTINUOUS
 10
3168.1701013713
 20
1009.9110679645
 11
361.1701013713
 21
1009.9110679645
  0
LINE
  5
36C
100
AcDbEntity
  8
7_ALL_FEATURES
100
AcDbLine
 62
7
  6
CONTINUOUS
 10
3169.6701013713
 20
1010.2110679646
 11
3168.1701013713
 21
1010.2110679646
  0
LINE
  5
36D
100
AcDbEntity
  8
6_ALL_SURFS
100
AcDbLine
 62
7
  6
CONTINUOUS
 10
3168.1701013713
 20
1010.2110679645
 11
361.1701013713
 21
1010.2110679645
  0
LINE
  5
36E
100
AcDbEntity
  8
7_ALL_FEATURES
100
AcDbLine
 62
7
  6
CONTINUOUS
 10
359.6701013713
 20
1010.2110679646
 11
361.1701013713
 21
1010.2110679646
  0
LINE
  5
36F
100
AcDbEntity
  8
3_ALL_AXES
100
AcDbLine
 62
7
  6
CONTINUOUS
 10
3169.6701013713
 20
1008.7886627987
 11
3170.7693810417
 21
1009.7110679646
  0
LINE
  5
370
100
AcDbEntity
  8
3_ALL_AXES
100
AcDbLine
 62
7
  6
CONTINUOUS
 10
3169.6701013713
 20
948.0386627987
 11
3170.7693810417
 21
948.9610679646
  0
LINE
  5
371
100
AcDbEntity
  8
3_ALL_AXES
100
AcDbLine
 62
7
  6
CONTINUOUS
 10
3169.6701013713
 20
944.3834731306
 11
3170.7693810417
 21
943.4610679646
  0
LINE
  5
372
100
AcDbEntity
  8
3_ALL_AXES
100
AcDbLine
 62
7
  6
CONTINUOUS
 10
3169.6701013713
 20
1005.1334731306
 11
3170.7693810417
 21
1004.2110679646
  0
LINE
  5
373
100
AcDbEntity
  8
7_ALL_FEATURES
100
AcDbLine
 62
7
  6
CONTINUOUS
 10
3168.1701013713
 20
1009.3515584242
 11
3168.1701013713
 21
1004.2238903275
  0
LINE
  5
374
100
AcDbEntity
  8
7_ALL_FEATURES
100
AcDbLine
 62
7
  6
CONTINUOUS
 10
3168.1701013713
 20
934.2691484203
 11
3168.1701013713
 21
935.7110679645
  0
LINE
  5
375
100
AcDbEntity
  8
6_ALL_SURFS
100
AcDbLine
 62
7
  6
CONTINUOUS
 10
3168.1701013713
 20
934.2110679645
 11
3168.1701013713
 21
934.2691484203
  0
LINE
  5
376
100
AcDbEntity
  8
6_ALL_SURFS
100
AcDbLine
 62
7
  6
CONTINUOUS
 10
3168.1701013713
 20
935.7110679645
 11
3168.1701013713
 21
936.8610679645
  0
LINE
  5
377
100
AcDbEntity
  8
6_ALL_SURFS
100
AcDbLine
 62
7
  6
CONTINUOUS
 10
3168.1701013713
 20
944.8110679645
 11
3168.1701013713
 21
947.6110679645
  0
LINE
  5
378
100
AcDbEntity
  8
7_ALL_FEATURES
100
AcDbLine
 62
7
  6
CONTINUOUS
 10
3168.1701013713
 20
936.8610679645
 11
3168.1701013713
 21
984.4309595853
  0
LINE
  5
379
100
AcDbEntity
  8
6_ALL_SURFS
100
AcDbLine
 62
7
  6
CONTINUOUS
 10
3168.1701013713
 20
952.1110679646
 11
3168.1701013713
 21
1004.2238903275
  0
LINE
  5
37A
100
AcDbEntity
  8
6_ALL_SURFS
100
AcDbLine
 62
7
  6
CONTINUOUS
 10
3168.1701013713
 20
1009.2110679645
 11
3168.1701013713
 21
1010.2110679645
  0
LINE
  5
37B
100
AcDbEntity
  8
7_ALL_FEATURES
100
AcDbLine
 62
7
  6
CONTINUOUS
 10
3169.6701013713
 20
1010.2110679646
 11
3169.6701013713
 21
934.2110679646
  0
LINE
  5
37C
100
AcDbEntity
  8
3_ALL_AXES
100
AcDbLine
 62
7
  6
CONTINUOUS
 10
3170.7693810417
 20
943.4610679646
 11
3170.7693810417
 21
948.9610679646
  0
LINE
  5
37D
100
AcDbEntity
  8
3_ALL_AXES
100
AcDbLine
 62
7
  6
CONTINUOUS
 10
3170.7693810417
 20
1004.2110679646
 11
3170.7693810417
 21
1009.7110679646
  0
LINE
  5
37E
100
AcDbEntity
  8
3_ALL_AXES
100
AcDbLine
 62
7
  6
CONTINUOUS
 10
3170.9201013713
 20
943.4611160308
 11
3170.9201013713
 21
948.9610198985
  0
LINE
  5
37F
100
AcDbEntity
  8
3_ALL_AXES
100
AcDbLine
 62
7
  6
CONTINUOUS
 10
3170.9201013713
 20
1004.2111160308
 11
3170.9201013713
 21
1009.7110198985
  0
LINE
  5
380
100
AcDbEntity
  8
3_ALL_AXES
100
AcDbLine
 62
7
  6
CONTINUOUS
 10
358.4201013713
 20
1395.0151463261
 11
358.4201013713
 21
1389.5151463261
  0
LINE
  5
381
100
AcDbEntity
  8
3_ALL_AXES
100
AcDbLine
 62
7
  6
CONTINUOUS
 10
358.4201013713
 20
1385.8651463261
 11
358.4201013713
 21
1380.3651463261
  0
LINE
  5
382
100
AcDbEntity
  8
3_ALL_AXES
100
AcDbLine
 62
7
  6
CONTINUOUS
 10
358.4201013713
 20
1339.9651463261
 11
358.4201013713
 21
1334.4651463261
  0
LINE
  5
383
100
AcDbEntity
  8
3_ALL_AXES
100
AcDbLine
 62
7
  6
CONTINUOUS
 10
358.4201013713
 20
1330.8151463261
 11
358.4201013713
 21
1325.3151463261
  0
LINE
  5
384
100
AcDbEntity
  8
3_ALL_AXES
100
AcDbLine
 62
7
  6
CONTINUOUS
 10
358.5708217009
 20
1395.0151463261
 11
358.5708217009
 21
1389.5151463261
  0
LINE
  5
385
100
AcDbEntity
  8
3_ALL_AXES
100
AcDbLine
 62
7
  6
CONTINUOUS
 10
358.5708217009
 20
1385.8651463261
 11
358.5708217009
 21
1380.3651463261
  0
LINE
  5
386
100
AcDbEntity
  8
3_ALL_AXES
100
AcDbLine
 62
7
  6
CONTINUOUS
 10
358.5708217009
 20
1339.9651463261
 11
358.5708217009
 21
1334.4651463261
  0
LINE
  5
387
100
AcDbEntity
  8
3_ALL_AXES
100
AcDbLine
 62
7
  6
CONTINUOUS
 10
358.5708217009
 20
1330.8151463261
 11
358.5708217009
 21
1325.3151463261
  0
LINE
  5
388
100
AcDbEntity
  8
7_ALL_FEATURES
100
AcDbLine
 62
7
  6
CONTINUOUS
 10
359.6701013713
 20
1325.1151463261
 11
359.6701013713
 21
1395.2151463261
  0
LINE
  5
389
100
AcDbEntity
  8
7_ALL_FEATURES
100
AcDbLine
 62
7
  6
CONTINUOUS
 10
361.1701013713
 20
1395.2151463261
 11
361.1701013713
 21
1394.7525872313
  0
LINE
  5
38A
100
AcDbEntity
  8
3_ALL_AXES
100
AcDbLine
 62
7
  6
CONTINUOUS
 10
361.1701013713
 20
1323.0151463261
 11
361.1701013713
 21
1307.7151463261
  0
LINE
  5
38B
100
AcDbEntity
  8
7_ALL_FEATURES
100
AcDbLine
 62
7
  6
CONTINUOUS
 10
361.1701013713
 20
1305.2151870221
 11
361.1701013713
 21
1307.7151463261
  0
LINE
  5
38C
100
AcDbEntity
  8
7_ALL_FEATURES
100
AcDbLine
 62
7
  6
CONTINUOUS
 10
361.1701013713
 20
1323.0151463261
 11
361.1701013713
 21
1394.5435426736
  0
LINE
  5
38D
100
AcDbEntity
  8
6_ALL_SURFS
100
AcDbLine
 62
7
  6
CONTINUOUS
 10
361.1701013713
 20
1393.6151463261
 11
361.1701013713
 21
1394.8151463261
  0
LINE
  5
38E
100
AcDbEntity
  8
6_ALL_SURFS
100
AcDbLine
 62
7
  6
CONTINUOUS
 10
361.1701013713
 20
1395.2151463261
 11
361.1701013713
 21
1415.1151056301
  0
LINE
  5
38F
100
AcDbEntity
  8
7_ALL_FEATURES
100
AcDbLine
 62
7
  6
CONTINUOUS
 10
362.4201013713
 20
1326.8651463261
 11
362.4201013713
 21
1393.4651463261
  0
LINE
  5
390
100
AcDbEntity
  8
3_ALL_AXES
100
AcDbLine
 62
7
  6
CONTINUOUS
 10
358.5708217009
 20
1389.5151463261
 11
359.6701013713
 21
1390.4375514921
  0
LINE
  5
391
100
AcDbEntity
  8
3_ALL_AXES
100
AcDbLine
 62
7
  6
CONTINUOUS
 10
358.5708217009
 20
1330.8151463261
 11
359.6701013713
 21
1329.8927411602
  0
LINE
  5
392
100
AcDbEntity
  8
3_ALL_AXES
100
AcDbLine
 62
7
  6
CONTINUOUS
 10
358.5708217009
 20
1380.3651463261
 11
359.6701013713
 21
1381.2875514921
  0
LINE
  5
393
100
AcDbEntity
  8
3_ALL_AXES
100
AcDbLine
 62
7
  6
CONTINUOUS
 10
358.5708217009
 20
1334.4651463261
 11
359.6701013713
 21
1335.3875514921
  0
LINE
  5
394
100
AcDbEntity
  8
3_ALL_AXES
100
AcDbLine
 62
7
  6
CONTINUOUS
 10
358.5708217009
 20
1325.3151463261
 11
359.6701013713
 21
1326.2375514921
  0
LINE
  5
395
100
AcDbEntity
  8
3_ALL_AXES
100
AcDbLine
 62
7
  6
CONTINUOUS
 10
358.5708217009
 20
1339.9651463261
 11
359.6701013713
 21
1339.0427411602
  0
LINE
  5
396
100
AcDbEntity
  8
3_ALL_AXES
100
AcDbLine
 62
7
  6
CONTINUOUS
 10
358.5708217009
 20
1385.8651463261
 11
359.6701013713
 21
1384.9427411602
  0
LINE
  5
397
100
AcDbEntity
  8
3_ALL_AXES
100
AcDbLine
 62
7
  6
CONTINUOUS
 10
358.5708217009
 20
1395.0151463261
 11
359.6701013713
 21
1394.0927411602
  0
LINE
  5
398
100
AcDbEntity
  8
7_ALL_FEATURES
100
AcDbLine
 62
7
  6
CONTINUOUS
 10
361.1701013713
 20
1305.2151463261
 11
3168.1701013713
 21
1305.2151463261
  0
LINE
  5
399
100
AcDbEntity
  8
7_ALL_FEATURES
100
AcDbLine
 62
9
  6
CONTINUOUS
 10
361.1701013713
 20
1305.5696747358
 11
3168.1701013713
 21
1305.5696747358
  0
LINE
  5
39A
100
AcDbEntity
  8
7_ALL_FEATURES
100
AcDbLine
 62
7
  6
CONTINUOUS
 10
361.1701013713
 20
1307.7151463261
 11
511.3866935776
 21
1307.7151463261
  0
LINE
  5
39B
100
AcDbEntity
  8
7_ALL_FEATURES
100
AcDbLine
 62
7
  6
CONTINUOUS
 10
517.953509165
 20
1307.7151463261
 11
761.3866935776
 21
1307.7151463261
  0
LINE
  5
39C
100
AcDbEntity
  8
7_ALL_FEATURES
100
AcDbLine
 62
7
  6
CONTINUOUS
 10
767.953509165
 20
1307.7151463261
 11
1011.3866935776
 21
1307.7151463261
  0
LINE
  5
39D
100
AcDbEntity
  8
7_ALL_FEATURES
100
AcDbLine
 62
7
  6
CONTINUOUS
 10
1017.953509165
 20
1307.7151463261
 11
1261.3866935776
 21
1307.7151463261
  0
LINE
  5
39E
100
AcDbEntity
  8
7_ALL_FEATURES
100
AcDbLine
 62
7
  6
CONTINUOUS
 10
1267.953509165
 20
1307.7151463261
 11
1511.3866935776
 21
1307.7151463261
  0
LINE
  5
39F
100
AcDbEntity
  8
7_ALL_FEATURES
100
AcDbLine
 62
7
  6
CONTINUOUS
 10
1517.953509165
 20
1307.7151463261
 11
1761.3866935776
 21
1307.7151463261
  0
LINE
  5
3A0
100
AcDbEntity
  8
7_ALL_FEATURES
100
AcDbLine
 62
7
  6
CONTINUOUS
 10
1767.953509165
 20
1307.7151463261
 11
2011.3866935776
 21
1307.7151463261
  0
LINE
  5
3A1
100
AcDbEntity
  8
7_ALL_FEATURES
100
AcDbLine
 62
7
  6
CONTINUOUS
 10
2017.953509165
 20
1307.7151463261
 11
2261.3866935776
 21
1307.7151463261
  0
LINE
  5
3A2
100
AcDbEntity
  8
7_ALL_FEATURES
100
AcDbLine
 62
7
  6
CONTINUOUS
 10
2267.953509165
 20
1307.7151463261
 11
2511.3866935776
 21
1307.7151463261
  0
LINE
  5
3A3
100
AcDbEntity
  8
7_ALL_FEATURES
100
AcDbLine
 62
7
  6
CONTINUOUS
 10
2517.953509165
 20
1307.7151463261
 11
2761.3866935776
 21
1307.7151463261
  0
LINE
  5
3A4
100
AcDbEntity
  8
7_ALL_FEATURES
100
AcDbLine
 62
7
  6
CONTINUOUS
 10
2767.953509165
 20
1307.7151463261
 11
3011.3866935776
 21
1307.7151463261
  0
LINE
  5
3A5
100
AcDbEntity
  8
7_ALL_FEATURES
100
AcDbLine
 62
7
  6
CONTINUOUS
 10
3017.953509165
 20
1307.7151463261
 11
3168.1701013713
 21
1307.7151463261
  0
LINE
  5
3A6
100
AcDbEntity
  8
7_ALL_FEATURES
100
AcDbLine
 62
7
  6
CONTINUOUS
 10
361.1701013713
 20
1310.4151463261
 11
509.9382130865
 21
1310.4151463261
  0
LINE
  5
3A7
100
AcDbEntity
  8
7_ALL_FEATURES
100
AcDbLine
 62
7
  6
CONTINUOUS
 10
519.4019896561
 20
1310.4151463261
 11
759.9382130865
 21
1310.4151463261
  0
LINE
  5
3A8
100
AcDbEntity
  8
7_ALL_FEATURES
100
AcDbLine
 62
7
  6
CONTINUOUS
 10
769.4019896561
 20
1310.4151463261
 11
1009.9382130865
 21
1310.4151463261
  0
LINE
  5
3A9
100
AcDbEntity
  8
7_ALL_FEATURES
100
AcDbLine
 62
7
  6
CONTINUOUS
 10
1019.4019896561
 20
1310.4151463261
 11
1259.9382130865
 21
1310.4151463261
  0
LINE
  5
3AA
100
AcDbEntity
  8
7_ALL_FEATURES
100
AcDbLine
 62
7
  6
CONTINUOUS
 10
1269.4019896561
 20
1310.4151463261
 11
1509.9382130865
 21
1310.4151463261
  0
LINE
  5
3AB
100
AcDbEntity
  8
7_ALL_FEATURES
100
AcDbLine
 62
7
  6
CONTINUOUS
 10
1519.4019896561
 20
1310.4151463261
 11
1759.9382130865
 21
1310.4151463261
  0
LINE
  5
3AC
100
AcDbEntity
  8
7_ALL_FEATURES
100
AcDbLine
 62
7
  6
CONTINUOUS
 10
1769.4019896561
 20
1310.4151463261
 11
2009.9382130865
 21
1310.4151463261
  0
LINE
  5
3AD
100
AcDbEntity
  8
7_ALL_FEATURES
100
AcDbLine
 62
7
  6
CONTINUOUS
 10
2019.4019896561
 20
1310.4151463261
 11
2259.9382130865
 21
1310.4151463261
  0
LINE
  5
3AE
100
AcDbEntity
  8
7_ALL_FEATURES
100
AcDbLine
 62
7
  6
CONTINUOUS
 10
2269.4019896561
 20
1310.4151463261
 11
2509.9382130865
 21
1310.4151463261
  0
LINE
  5
3AF
100
AcDbEntity
  8
7_ALL_FEATURES
100
AcDbLine
 62
7
  6
CONTINUOUS
 10
2519.4019896561
 20
1310.4151463261
 11
2759.9382130865
 21
1310.4151463261
  0
LINE
  5
3B0
100
AcDbEntity
  8
7_ALL_FEATURES
100
AcDbLine
 62
7
  6
CONTINUOUS
 10
2769.4019896561
 20
1310.4151463261
 11
3009.9382130865
 21
1310.4151463261
  0
LINE
  5
3B1
100
AcDbEntity
  8
7_ALL_FEATURES
100
AcDbLine
 62
7
  6
CONTINUOUS
 10
3019.4019896561
 20
1310.4151463261
 11
3168.1701013713
 21
1310.4151463261
  0
LINE
  5
3B2
100
AcDbEntity
  8
7_ALL_FEATURES
100
AcDbLine
 62
7
  6
CONTINUOUS
 10
361.1701013713
 20
1311.0151463261
 11
509.8752325785
 21
1311.0151463261
  0
LINE
  5
3B3
100
AcDbEntity
  8
7_ALL_FEATURES
100
AcDbLine
 62
7
  6
CONTINUOUS
 10
519.4649701641
 20
1311.0151463261
 11
759.8752325785
 21
1311.0151463261
  0
LINE
  5
3B4
100
AcDbEntity
  8
7_ALL_FEATURES
100
AcDbLine
 62
7
  6
CONTINUOUS
 10
769.4649701641
 20
1311.0151463261
 11
1009.8752325785
 21
1311.0151463261
  0
LINE
  5
3B5
100
AcDbEntity
  8
7_ALL_FEATURES
100
AcDbLine
 62
7
  6
CONTINUOUS
 10
1019.4649701641
 20
1311.0151463261
 11
1259.8752325785
 21
1311.0151463261
  0
LINE
  5
3B6
100
AcDbEntity
  8
7_ALL_FEATURES
100
AcDbLine
 62
7
  6
CONTINUOUS
 10
1269.4649701641
 20
1311.0151463261
 11
1509.8752325785
 21
1311.0151463261
  0
LINE
  5
3B7
100
AcDbEntity
  8
7_ALL_FEATURES
100
AcDbLine
 62
7
  6
CONTINUOUS
 10
1519.4649701641
 20
1311.0151463261
 11
1759.8752325785
 21
1311.0151463261
  0
LINE
  5
3B8
100
AcDbEntity
  8
7_ALL_FEATURES
100
AcDbLine
 62
7
  6
CONTINUOUS
 10
1769.4649701641
 20
1311.0151463261
 11
2009.8752325785
 21
1311.0151463261
  0
LINE
  5
3B9
100
AcDbEntity
  8
7_ALL_FEATURES
100
AcDbLine
 62
7
  6
CONTINUOUS
 10
2019.4649701641
 20
1311.0151463261
 11
2259.8752325785
 21
1311.0151463261
  0
LINE
  5
3BA
100
AcDbEntity
  8
7_ALL_FEATURES
100
AcDbLine
 62
7
  6
CONTINUOUS
 10
2269.4649701641
 20
1311.0151463261
 11
2509.8752325785
 21
1311.0151463261
  0
LINE
  5
3BB
100
AcDbEntity
  8
7_ALL_FEATURES
100
AcDbLine
 62
7
  6
CONTINUOUS
 10
2519.4649701641
 20
1311.0151463261
 11
2759.8752325785
 21
1311.0151463261
  0
LINE
  5
3BC
100
AcDbEntity
  8
7_ALL_FEATURES
100
AcDbLine
 62
7
  6
CONTINUOUS
 10
2769.4649701641
 20
1311.0151463261
 11
3009.8752325785
 21
1311.0151463261
  0
LINE
  5
3BD
100
AcDbEntity
  8
7_ALL_FEATURES
100
AcDbLine
 62
7
  6
CONTINUOUS
 10
3019.4649701641
 20
1311.0151463261
 11
3168.1701013713
 21
1311.0151463261
  0
LINE
  5
3BE
100
AcDbEntity
  8
7_ALL_FEATURES
100
AcDbLine
 62
7
  6
CONTINUOUS
 10
361.1701013713
 20
1313.4151463261
 11
510.4050378618
 21
1313.4151463261
  0
LINE
  5
3BF
100
AcDbEntity
  8
7_ALL_FEATURES
100
AcDbLine
 62
7
  6
CONTINUOUS
 10
518.9351648808
 20
1313.4151463261
 11
760.4050378618
 21
1313.4151463261
  0
LINE
  5
3C0
100
AcDbEntity
  8
7_ALL_FEATURES
100
AcDbLine
 62
7
  6
CONTINUOUS
 10
768.9351648808
 20
1313.4151463261
 11
1010.4050378618
 21
1313.4151463261
  0
LINE
  5
3C1
100
AcDbEntity
  8
7_ALL_FEATURES
100
AcDbLine
 62
7
  6
CONTINUOUS
 10
1018.9351648808
 20
1313.4151463261
 11
1260.4050378618
 21
1313.4151463261
  0
LINE
  5
3C2
100
AcDbEntity
  8
7_ALL_FEATURES
100
AcDbLine
 62
7
  6
CONTINUOUS
 10
1268.9351648808
 20
1313.4151463261
 11
1510.4050378618
 21
1313.4151463261
  0
LINE
  5
3C3
100
AcDbEntity
  8
7_ALL_FEATURES
100
AcDbLine
 62
7
  6
CONTINUOUS
 10
1518.9351648808
 20
1313.4151463261
 11
1760.4050378618
 21
1313.4151463261
  0
LINE
  5
3C4
100
AcDbEntity
  8
7_ALL_FEATURES
100
AcDbLine
 62
7
  6
CONTINUOUS
 10
1768.9351648808
 20
1313.4151463261
 11
2010.4050378618
 21
1313.4151463261
  0
LINE
  5
3C5
100
AcDbEntity
  8
7_ALL_FEATURES
100
AcDbLine
 62
7
  6
CONTINUOUS
 10
2018.9351648808
 20
1313.4151463261
 11
2260.4050378618
 21
1313.4151463261
  0
LINE
  5
3C6
100
AcDbEntity
  8
7_ALL_FEATURES
100
AcDbLine
 62
7
  6
CONTINUOUS
 10
2268.9351648808
 20
1313.4151463261
 11
2510.4050378618
 21
1313.4151463261
  0
LINE
  5
3C7
100
AcDbEntity
  8
7_ALL_FEATURES
100
AcDbLine
 62
7
  6
CONTINUOUS
 10
2518.9351648808
 20
1313.4151463261
 11
2760.4050378618
 21
1313.4151463261
  0
LINE
  5
3C8
100
AcDbEntity
  8
7_ALL_FEATURES
100
AcDbLine
 62
7
  6
CONTINUOUS
 10
2768.9351648808
 20
1313.4151463261
 11
3010.4050378618
 21
1313.4151463261
  0
LINE
  5
3C9
100
AcDbEntity
  8
7_ALL_FEATURES
100
AcDbLine
 62
7
  6
CONTINUOUS
 10
3018.9351648808
 20
1313.4151463261
 11
3168.1701013713
 21
1313.4151463261
  0
LINE
  5
3CA
100
AcDbEntity
  8
7_ALL_FEATURES
100
AcDbLine
 62
7
  6
CONTINUOUS
 10
361.1701013713
 20
1314.0151463261
 11
510.7725679539
 21
1314.0151463261
  0
LINE
  5
3CB
100
AcDbEntity
  8
7_ALL_FEATURES
100
AcDbLine
 62
7
  6
CONTINUOUS
 10
518.5676347887
 20
1314.0151463261
 11
760.7725679539
 21
1314.0151463261
  0
LINE
  5
3CC
100
AcDbEntity
  8
7_ALL_FEATURES
100
AcDbLine
 62
7
  6
CONTINUOUS
 10
768.5676347887
 20
1314.0151463261
 11
1010.7725679539
 21
1314.0151463261
  0
LINE
  5
3CD
100
AcDbEntity
  8
7_ALL_FEATURES
100
AcDbLine
 62
7
  6
CONTINUOUS
 10
1018.5676347887
 20
1314.0151463261
 11
1260.7725679539
 21
1314.0151463261
  0
LINE
  5
3CE
100
AcDbEntity
  8
7_ALL_FEATURES
100
AcDbLine
 62
7
  6
CONTINUOUS
 10
1268.5676347887
 20
1314.0151463261
 11
1510.7725679539
 21
1314.0151463261
  0
LINE
  5
3CF
100
AcDbEntity
  8
7_ALL_FEATURES
100
AcDbLine
 62
7
  6
CONTINUOUS
 10
1518.5676347887
 20
1314.0151463261
 11
1760.7725679539
 21
1314.0151463261
  0
LINE
  5
3D0
100
AcDbEntity
  8
7_ALL_FEATURES
100
AcDbLine
 62
7
  6
CONTINUOUS
 10
1768.5676347887
 20
1314.0151463261
 11
2010.7725679539
 21
1314.0151463261
  0
LINE
  5
3D1
100
AcDbEntity
  8
7_ALL_FEATURES
100
AcDbLine
 62
7
  6
CONTINUOUS
 10
2018.5676347887
 20
1314.0151463261
 11
2260.7725679539
 21
1314.0151463261
  0
LINE
  5
3D2
100
AcDbEntity
  8
7_ALL_FEATURES
100
AcDbLine
 62
7
  6
CONTINUOUS
 10
2268.5676347887
 20
1314.0151463261
 11
2510.7725679539
 21
1314.0151463261
  0
LINE
  5
3D3
100
AcDbEntity
  8
7_ALL_FEATURES
100
AcDbLine
 62
7
  6
CONTINUOUS
 10
2518.5676347887
 20
1314.0151463261
 11
2760.7725679539
 21
1314.0151463261
  0
LINE
  5
3D4
100
AcDbEntity
  8
7_ALL_FEATURES
100
AcDbLine
 62
7
  6
CONTINUOUS
 10
2768.5676347887
 20
1314.0151463261
 11
3010.7725679539
 21
1314.0151463261
  0
LINE
  5
3D5
100
AcDbEntity
  8
7_ALL_FEATURES
100
AcDbLine
 62
7
  6
CONTINUOUS
 10
3018.5676347887
 20
1314.0151463261
 11
3168.1701013713
 21
1314.0151463261
  0
LINE
  5
3D6
100
AcDbEntity
  8
3_ALL_AXES
100
AcDbLine
 62
7
  6
CONTINUOUS
 10
361.1701013713
 20
1316.4151463261
 11
3168.1701013713
 21
1316.4151463261
  0
LINE
  5
3D7
100
AcDbEntity
  8
3_ALL_AXES
100
AcDbLine
 62
7
  6
CONTINUOUS
 10
361.1701013713
 20
1317.0151463261
 11
3168.1701013713
 21
1317.0151463261
  0
LINE
  5
3D8
100
AcDbEntity
  8
3_ALL_AXES
100
AcDbLine
 62
7
  6
CONTINUOUS
 10
361.1701013713
 20
1319.4151463261
 11
3168.1701013713
 21
1319.4151463261
  0
LINE
  5
3D9
100
AcDbEntity
  8
3_ALL_AXES
100
AcDbLine
 62
7
  6
CONTINUOUS
 10
361.1701013713
 20
1320.0151463261
 11
3168.1701013713
 21
1320.0151463261
  0
LINE
  5
3DA
100
AcDbEntity
  8
3_ALL_AXES
100
AcDbLine
 62
7
  6
CONTINUOUS
 10
361.1701013713
 20
1322.4151463261
 11
3168.1701013713
 21
1322.4151463261
  0
LINE
  5
3DB
100
AcDbEntity
  8
3_ALL_AXES
100
AcDbLine
 62
7
  6
CONTINUOUS
 10
361.1701013713
 20
1323.0151463261
 11
3168.1701013713
 21
1323.0151463261
  0
LINE
  5
3DC
100
AcDbEntity
  8
7_ALL_FEATURES
100
AcDbLine
 62
7
  6
CONTINUOUS
 10
3169.6701013713
 20
1325.1151463261
 11
3168.1701013713
 21
1325.1151463261
  0
LINE
  5
3DD
100
AcDbEntity
  8
7_ALL_FEATURES
100
AcDbLine
 62
7
  6
CONTINUOUS
 10
359.6701013713
 20
1325.1151463261
 11
361.1701013713
 21
1325.1151463261
  0
LINE
  5
3DE
100
AcDbEntity
  8
3_ALL_AXES
100
AcDbLine
 62
7
  6
CONTINUOUS
 10
3170.9201013713
 20
1325.3151463261
 11
3170.7693810417
 21
1325.3151463261
  0
LINE
  5
3DF
100
AcDbEntity
  8
3_ALL_AXES
100
AcDbLine
 62
7
  6
CONTINUOUS
 10
358.4201013713
 20
1325.3151463261
 11
358.5708217009
 21
1325.3151463261
  0
LINE
  5
3E0
100
AcDbEntity
  8
7_ALL_FEATURES
100
AcDbLine
 62
9
  6
CONTINUOUS
 10
361.1701013713
 20
1325.3151463261
 11
3168.1701013713
 21
1325.3151463261
  0
LINE
  5
3E1
100
AcDbEntity
  8
7_ALL_FEATURES
100
AcDbLine
 62
7
  6
CONTINUOUS
 10
3168.1701013713
 20
1325.5151463261
 11
361.1701013713
 21
1325.5151463261
  0
LINE
  5
3E2
100
AcDbEntity
  8
7_ALL_FEATURES
100
AcDbLine
 62
9
  6
CONTINUOUS
 10
3168.1701013713
 20
1325.7151463261
 11
361.1701013713
 21
1325.7151463261
  0
LINE
  5
3E3
100
AcDbEntity
  8
7_ALL_FEATURES
100
AcDbLine
 62
9
  6
CONTINUOUS
 10
3169.6701013713
 20
1325.8651463261
 11
3168.1701013713
 21
1325.8651463261
  0
LINE
  5
3E4
100
AcDbEntity
  8
7_ALL_FEATURES
100
AcDbLine
 62
9
  6
CONTINUOUS
 10
359.6701013713
 20
1325.8651463261
 11
361.1701013713
 21
1325.8651463261
  0
LINE
  5
3E5
100
AcDbEntity
  8
7_ALL_FEATURES
100
AcDbLine
 62
9
  6
CONTINUOUS
 10
3168.1701013713
 20
1326.5151463261
 11
361.1701013713
 21
1326.5151463261
  0
LINE
  5
3E6
100
AcDbEntity
  8
7_ALL_FEATURES
100
AcDbLine
 62
7
  6
CONTINUOUS
 10
3168.1701013713
 20
1326.7151463261
 11
361.1701013713
 21
1326.7151463261
  0
LINE
  5
3E7
100
AcDbEntity
  8
7_ALL_FEATURES
100
AcDbLine
 62
7
  6
CONTINUOUS
 10
3166.9201013713
 20
1326.8651463261
 11
362.4201013713
 21
1326.8651463261
  0
LINE
  5
3E8
100
AcDbEntity
  8
7_ALL_FEATURES
100
AcDbLine
 62
9
  6
CONTINUOUS
 10
361.1701013713
 20
1326.9151463261
 11
362.4201013713
 21
1326.9151463261
  0
LINE
  5
3E9
100
AcDbEntity
  8
7_ALL_FEATURES
100
AcDbLine
 62
9
  6
CONTINUOUS
 10
3166.9201013713
 20
1326.9151463261
 11
3168.1701013713
 21
1326.9151463261
  0
LINE
  5
3EA
100
AcDbEntity
  8
7_ALL_FEATURES
100
AcDbLine
 62
9
  6
CONTINUOUS
 10
3166.9201013713
 20
1327.0651463261
 11
362.4201013713
 21
1327.0651463261
  0
LINE
  5
3EB
100
AcDbEntity
  8
7_ALL_FEATURES
100
AcDbLine
 62
9
  6
CONTINUOUS
 10
3168.1701013713
 20
1327.7651463261
 11
3166.9201013713
 21
1327.7651463261
  0
LINE
  5
3EC
100
AcDbEntity
  8
7_ALL_FEATURES
100
AcDbLine
 62
9
  6
CONTINUOUS
 10
362.4201013713
 20
1327.7651463261
 11
361.1701013713
 21
1327.7651463261
  0
LINE
  5
3ED
100
AcDbEntity
  8
7_ALL_FEATURES
100
AcDbLine
 62
7
  6
CONTINUOUS
 10
3168.1701013713
 20
1327.9651463261
 11
3166.9201013713
 21
1327.9651463261
  0
LINE
  5
3EE
100
AcDbEntity
  8
7_ALL_FEATURES
100
AcDbLine
 62
7
  6
CONTINUOUS
 10
362.4201013713
 20
1327.9651463261
 11
361.1701013713
 21
1327.9651463261
  0
LINE
  5
3EF
100
AcDbEntity
  8
7_ALL_FEATURES
100
AcDbLine
 62
9
  6
CONTINUOUS
 10
361.1701013713
 20
1328.0249565573
 11
362.4201013713
 21
1328.0249565573
  0
LINE
  5
3F0
100
AcDbEntity
  8
7_ALL_FEATURES
100
AcDbLine
 62
9
  6
CONTINUOUS
 10
3166.9201013713
 20
1328.0249565573
 11
3168.1701013713
 21
1328.0249565573
  0
LINE
  5
3F1
100
AcDbEntity
  8
7_ALL_FEATURES
100
AcDbLine
 62
9
  6
CONTINUOUS
 10
361.1701013713
 20
1328.2443626678
 11
362.4201013713
 21
1328.2443626678
  0
LINE
  5
3F2
100
AcDbEntity
  8
7_ALL_FEATURES
100
AcDbLine
 62
9
  6
CONTINUOUS
 10
3166.9201013713
 20
1328.2443626678
 11
3168.1701013713
 21
1328.2443626678
  0
LINE
  5
3F3
100
AcDbEntity
  8
7_ALL_FEATURES
100
AcDbLine
 62
9
  6
CONTINUOUS
 10
3168.1701013713
 20
1329.3151463261
 11
3166.9201013713
 21
1329.3151463261
  0
LINE
  5
3F4
100
AcDbEntity
  8
7_ALL_FEATURES
100
AcDbLine
 62
9
  6
CONTINUOUS
 10
362.4201013713
 20
1329.3151463261
 11
361.1701013713
 21
1329.3151463261
  0
LINE
  5
3F5
100
AcDbEntity
  8
7_ALL_FEATURES
100
AcDbLine
 62
7
  6
CONTINUOUS
 10
3168.1701013713
 20
1329.6151463261
 11
3166.9201013713
 21
1329.6151463261
  0
LINE
  5
3F6
100
AcDbEntity
  8
7_ALL_FEATURES
100
AcDbLine
 62
7
  6
CONTINUOUS
 10
362.4201013713
 20
1329.6151463261
 11
361.1701013713
 21
1329.6151463261
  0
LINE
  5
3F7
100
AcDbEntity
  8
7_ALL_FEATURES
100
AcDbLine
 62
9
  6
CONTINUOUS
 10
3168.1701013713
 20
1330.2625402831
 11
3166.9201013713
 21
1330.2625402831
  0
LINE
  5
3F8
100
AcDbEntity
  8
7_ALL_FEATURES
100
AcDbLine
 62
9
  6
CONTINUOUS
 10
362.4201013713
 20
1330.2625402831
 11
361.1701013713
 21
1330.2625402831
  0
LINE
  5
3F9
100
AcDbEntity
  8
7_ALL_FEATURES
100
AcDbLine
 62
7
  6
CONTINUOUS
 10
3168.1701013713
 20
1330.2806324969
 11
3166.9201013713
 21
1330.2806324969
  0
LINE
  5
3FA
100
AcDbEntity
  8
7_ALL_FEATURES
100
AcDbLine
 62
7
  6
CONTINUOUS
 10
362.4201013713
 20
1330.2806324969
 11
361.1701013713
 21
1330.2806324969
  0
LINE
  5
3FB
100
AcDbEntity
  8
3_ALL_AXES
100
AcDbLine
 62
7
  6
CONTINUOUS
 10
3170.9201013713
 20
1330.8151463261
 11
3170.7693810417
 21
1330.8151463261
  0
LINE
  5
3FC
100
AcDbEntity
  8
3_ALL_AXES
100
AcDbLine
 62
7
  6
CONTINUOUS
 10
358.4201013713
 20
1330.8151463261
 11
358.5708217009
 21
1330.8151463261
  0
LINE
  5
3FD
100
AcDbEntity
  8
7_ALL_FEATURES
100
AcDbLine
 62
9
  6
CONTINUOUS
 10
361.1701013713
 20
1333.0865009273
 11
362.4201013713
 21
1333.0865009273
  0
LINE
  5
3FE
100
AcDbEntity
  8
7_ALL_FEATURES
100
AcDbLine
 62
9
  6
CONTINUOUS
 10
3166.9201013713
 20
1333.0865009273
 11
3168.1701013713
 21
1333.0865009273
  0
LINE
  5
3FF
100
AcDbEntity
  8
7_ALL_FEATURES
100
AcDbLine
 62
9
  6
CONTINUOUS
 10
361.1701013713
 20
1333.577314519
 11
362.4201013713
 21
1333.577314519
  0
LINE
  5
400
100
AcDbEntity
  8
7_ALL_FEATURES
100
AcDbLine
 62
9
  6
CONTINUOUS
 10
3166.9201013713
 20
1333.577314519
 11
3168.1701013713
 21
1333.577314519
  0
LINE
  5
401
100
AcDbEntity
  8
3_ALL_AXES
100
AcDbLine
 62
7
  6
CONTINUOUS
 10
3170.9201013713
 20
1334.4651463261
 11
3170.7693810417
 21
1334.4651463261
  0
LINE
  5
402
100
AcDbEntity
  8
3_ALL_AXES
100
AcDbLine
 62
7
  6
CONTINUOUS
 10
358.4201013713
 20
1334.4651463261
 11
358.5708217009
 21
1334.4651463261
  0
LINE
  5
403
100
AcDbEntity
  8
3_ALL_AXES
100
AcDbLine
 62
7
  6
CONTINUOUS
 10
3170.9201013713
 20
1339.9651463261
 11
3170.7693810417
 21
1339.9651463261
  0
LINE
  5
404
100
AcDbEntity
  8
3_ALL_AXES
100
AcDbLine
 62
7
  6
CONTINUOUS
 10
358.4201013713
 20
1339.9651463261
 11
358.5708217009
 21
1339.9651463261
  0
LINE
  5
405
100
AcDbEntity
  8
7_ALL_FEATURES
100
AcDbLine
 62
9
  6
CONTINUOUS
 10
3168.1701013713
 20
1358.1651463261
 11
3166.9201013713
 21
1358.1651463261
  0
LINE
  5
406
100
AcDbEntity
  8
7_ALL_FEATURES
100
AcDbLine
 62
9
  6
CONTINUOUS
 10
362.4201013713
 20
1358.1651463261
 11
361.1701013713
 21
1358.1651463261
  0
LINE
  5
407
100
AcDbEntity
  8
7_ALL_FEATURES
100
AcDbLine
 62
7
  6
CONTINUOUS
 10
3168.1701013713
 20
1358.4651463261
 11
3166.9201013713
 21
1358.4651463261
  0
LINE
  5
408
100
AcDbEntity
  8
7_ALL_FEATURES
100
AcDbLine
 62
7
  6
CONTINUOUS
 10
362.4201013713
 20
1358.4651463261
 11
361.1701013713
 21
1358.4651463261
  0
LINE
  5
409
100
AcDbEntity
  8
7_ALL_FEATURES
100
AcDbLine
 62
9
  6
CONTINUOUS
 10
361.1701013713
 20
1358.7651463261
 11
362.4201013713
 21
1358.7651463261
  0
LINE
  5
40A
100
AcDbEntity
  8
7_ALL_FEATURES
100
AcDbLine
 62
9
  6
CONTINUOUS
 10
3166.9201013713
 20
1358.7651463261
 11
3168.1701013713
 21
1358.7651463261
  0
LINE
  5
40B
100
AcDbEntity
  8
6_ALL_SURFS
100
AcDbLine
 62
9
  6
CONTINUOUS
 10
361.1701013713
 20
1361.5651463261
 11
362.4201013713
 21
1361.5651463261
  0
LINE
  5
40C
100
AcDbEntity
  8
6_ALL_SURFS
100
AcDbLine
 62
9
  6
CONTINUOUS
 10
3166.9201013713
 20
1361.5651463261
 11
3168.1701013713
 21
1361.5651463261
  0
LINE
  5
40D
100
AcDbEntity
  8
6_ALL_SURFS
100
AcDbLine
 62
7
  6
CONTINUOUS
 10
3168.1701013713
 20
1361.8651463261
 11
3166.9201013713
 21
1361.8651463261
  0
LINE
  5
40E
100
AcDbEntity
  8
6_ALL_SURFS
100
AcDbLine
 62
7
  6
CONTINUOUS
 10
362.4201013713
 20
1361.8651463261
 11
361.1701013713
 21
1361.8651463261
  0
LINE
  5
40F
100
AcDbEntity
  8
6_ALL_SURFS
100
AcDbLine
 62
9
  6
CONTINUOUS
 10
3168.1701013713
 20
1362.1651463261
 11
3166.9201013713
 21
1362.1651463261
  0
LINE
  5
410
100
AcDbEntity
  8
6_ALL_SURFS
100
AcDbLine
 62
9
  6
CONTINUOUS
 10
362.4201013713
 20
1362.1651463261
 11
361.1701013713
 21
1362.1651463261
  0
LINE
  5
411
100
AcDbEntity
  8
3_ALL_AXES
100
AcDbLine
 62
7
  6
CONTINUOUS
 10
3170.9201013713
 20
1380.3651463261
 11
3170.7693810417
 21
1380.3651463261
  0
LINE
  5
412
100
AcDbEntity
  8
3_ALL_AXES
100
AcDbLine
 62
7
  6
CONTINUOUS
 10
358.4201013713
 20
1380.3651463261
 11
358.5708217009
 21
1380.3651463261
  0
LINE
  5
413
100
AcDbEntity
  8
3_ALL_AXES
100
AcDbLine
 62
7
  6
CONTINUOUS
 10
3170.9201013713
 20
1385.8651463261
 11
3170.7693810417
 21
1385.8651463261
  0
LINE
  5
414
100
AcDbEntity
  8
3_ALL_AXES
100
AcDbLine
 62
7
  6
CONTINUOUS
 10
358.4201013713
 20
1385.8651463261
 11
358.5708217009
 21
1385.8651463261
  0
LINE
  5
415
100
AcDbEntity
  8
6_ALL_SURFS
100
AcDbLine
 62
9
  6
CONTINUOUS
 10
361.1701013713
 20
1386.7529781332
 11
362.4201013713
 21
1386.7529781332
  0
LINE
  5
416
100
AcDbEntity
  8
6_ALL_SURFS
100
AcDbLine
 62
9
  6
CONTINUOUS
 10
3166.9201013713
 20
1386.7529781332
 11
3168.1701013713
 21
1386.7529781332
  0
LINE
  5
417
100
AcDbEntity
  8
6_ALL_SURFS
100
AcDbLine
 62
9
  6
CONTINUOUS
 10
361.1701013713
 20
1387.243791725
 11
362.4201013713
 21
1387.243791725
  0
LINE
  5
418
100
AcDbEntity
  8
6_ALL_SURFS
100
AcDbLine
 62
9
  6
CONTINUOUS
 10
3166.9201013713
 20
1387.243791725
 11
3168.1701013713
 21
1387.243791725
  0
LINE
  5
419
100
AcDbEntity
  8
3_ALL_AXES
100
AcDbLine
 62
7
  6
CONTINUOUS
 10
3170.9201013713
 20
1389.5151463261
 11
3170.7693810417
 21
1389.5151463261
  0
LINE
  5
41A
100
AcDbEntity
  8
3_ALL_AXES
100
AcDbLine
 62
7
  6
CONTINUOUS
 10
358.4201013713
 20
1389.5151463261
 11
358.5708217009
 21
1389.5151463261
  0
LINE
  5
41B
100
AcDbEntity
  8
6_ALL_SURFS
100
AcDbLine
 62
7
  6
CONTINUOUS
 10
361.1701013713
 20
1390.0496601554
 11
362.4201013713
 21
1390.0496601554
  0
LINE
  5
41C
100
AcDbEntity
  8
6_ALL_SURFS
100
AcDbLine
 62
7
  6
CONTINUOUS
 10
3166.9201013713
 20
1390.0496601554
 11
3168.1701013713
 21
1390.0496601554
  0
LINE
  5
41D
100
AcDbEntity
  8
6_ALL_SURFS
100
AcDbLine
 62
9
  6
CONTINUOUS
 10
3168.1701013713
 20
1390.0677523691
 11
3166.9201013713
 21
1390.0677523691
  0
LINE
  5
41E
100
AcDbEntity
  8
6_ALL_SURFS
100
AcDbLine
 62
9
  6
CONTINUOUS
 10
362.4201013713
 20
1390.0677523691
 11
361.1701013713
 21
1390.0677523691
  0
LINE
  5
41F
100
AcDbEntity
  8
6_ALL_SURFS
100
AcDbLine
 62
7
  6
CONTINUOUS
 10
3168.1701013713
 20
1390.7151463261
 11
3166.9201013713
 21
1390.7151463261
  0
LINE
  5
420
100
AcDbEntity
  8
6_ALL_SURFS
100
AcDbLine
 62
7
  6
CONTINUOUS
 10
362.4201013713
 20
1390.7151463261
 11
361.1701013713
 21
1390.7151463261
  0
LINE
  5
421
100
AcDbEntity
  8
6_ALL_SURFS
100
AcDbLine
 62
9
  6
CONTINUOUS
 10
3168.1701013713
 20
1391.0151463261
 11
3166.9201013713
 21
1391.0151463261
  0
LINE
  5
422
100
AcDbEntity
  8
6_ALL_SURFS
100
AcDbLine
 62
9
  6
CONTINUOUS
 10
362.4201013713
 20
1391.0151463261
 11
361.1701013713
 21
1391.0151463261
  0
LINE
  5
423
100
AcDbEntity
  8
6_ALL_SURFS
100
AcDbLine
 62
9
  6
CONTINUOUS
 10
361.1701013713
 20
1392.0859299844
 11
362.4201013713
 21
1392.0859299844
  0
LINE
  5
424
100
AcDbEntity
  8
6_ALL_SURFS
100
AcDbLine
 62
9
  6
CONTINUOUS
 10
3166.9201013713
 20
1392.0859299844
 11
3168.1701013713
 21
1392.0859299844
  0
LINE
  5
425
100
AcDbEntity
  8
6_ALL_SURFS
100
AcDbLine
 62
9
  6
CONTINUOUS
 10
361.1701013713
 20
1392.3053360949
 11
362.4201013713
 21
1392.3053360949
  0
LINE
  5
426
100
AcDbEntity
  8
6_ALL_SURFS
100
AcDbLine
 62
9
  6
CONTINUOUS
 10
3166.9201013713
 20
1392.3053360949
 11
3168.1701013713
 21
1392.3053360949
  0
LINE
  5
427
100
AcDbEntity
  8
6_ALL_SURFS
100
AcDbLine
 62
7
  6
CONTINUOUS
 10
3168.1701013713
 20
1392.3651463261
 11
3166.9201013713
 21
1392.3651463261
  0
LINE
  5
428
100
AcDbEntity
  8
6_ALL_SURFS
100
AcDbLine
 62
7
  6
CONTINUOUS
 10
362.4201013713
 20
1392.3651463261
 11
361.1701013713
 21
1392.3651463261
  0
LINE
  5
429
100
AcDbEntity
  8
6_ALL_SURFS
100
AcDbLine
 62
9
  6
CONTINUOUS
 10
3168.1701013713
 20
1392.5651463261
 11
3166.9201013713
 21
1392.5651463261
  0
LINE
  5
42A
100
AcDbEntity
  8
6_ALL_SURFS
100
AcDbLine
 62
9
  6
CONTINUOUS
 10
362.4201013713
 20
1392.5651463261
 11
361.1701013713
 21
1392.5651463261
  0
LINE
  5
42B
100
AcDbEntity
  8
7_ALL_FEATURES
100
AcDbLine
 62
9
  6
CONTINUOUS
 10
3166.9201013713
 20
1393.2651463261
 11
362.4201013713
 21
1393.2651463261
  0
LINE
  5
42C
100
AcDbEntity
  8
6_ALL_SURFS
100
AcDbLine
 62
9
  6
CONTINUOUS
 10
361.1701013713
 20
1393.4151463261
 11
362.4201013713
 21
1393.4151463261
  0
LINE
  5
42D
100
AcDbEntity
  8
6_ALL_SURFS
100
AcDbLine
 62
9
  6
CONTINUOUS
 10
3166.9201013713
 20
1393.4151463261
 11
3168.1701013713
 21
1393.4151463261
  0
LINE
  5
42E
100
AcDbEntity
  8
7_ALL_FEATURES
100
AcDbLine
 62
7
  6
CONTINUOUS
 10
3166.9201013713
 20
1393.4651463261
 11
362.4201013713
 21
1393.4651463261
  0
LINE
  5
42F
100
AcDbEntity
  8
6_ALL_SURFS
100
AcDbLine
 62
7
  6
CONTINUOUS
 10
3168.1701013713
 20
1393.6151463261
 11
361.1701013713
 21
1393.6151463261
  0
LINE
  5
430
100
AcDbEntity
  8
6_ALL_SURFS
100
AcDbLine
 62
9
  6
CONTINUOUS
 10
3168.1701013713
 20
1393.8151463261
 11
361.1701013713
 21
1393.8151463261
  0
LINE
  5
431
100
AcDbEntity
  8
7_ALL_FEATURES
100
AcDbLine
 62
9
  6
CONTINUOUS
 10
3169.6701013713
 20
1394.4651463261
 11
3168.1701013713
 21
1394.4651463261
  0
LINE
  5
432
100
AcDbEntity
  8
7_ALL_FEATURES
100
AcDbLine
 62
9
  6
CONTINUOUS
 10
359.6701013713
 20
1394.4651463261
 11
361.1701013713
 21
1394.4651463261
  0
LINE
  5
433
100
AcDbEntity
  8
6_ALL_SURFS
100
AcDbLine
 62
9
  6
CONTINUOUS
 10
3168.1701013713
 20
1394.6151463261
 11
361.1701013713
 21
1394.6151463261
  0
LINE
  5
434
100
AcDbEntity
  8
6_ALL_SURFS
100
AcDbLine
 62
7
  6
CONTINUOUS
 10
3168.1701013713
 20
1394.8151463261
 11
361.1701013713
 21
1394.8151463261
  0
LINE
  5
435
100
AcDbEntity
  8
3_ALL_AXES
100
AcDbLine
 62
7
  6
CONTINUOUS
 10
3170.9201013713
 20
1395.0151463261
 11
3170.7693810417
 21
1395.0151463261
  0
LINE
  5
436
100
AcDbEntity
  8
3_ALL_AXES
100
AcDbLine
 62
7
  6
CONTINUOUS
 10
358.4201013713
 20
1395.0151463261
 11
358.5708217009
 21
1395.0151463261
  0
LINE
  5
437
100
AcDbEntity
  8
6_ALL_SURFS
100
AcDbLine
 62
9
  6
CONTINUOUS
 10
361.1701013713
 20
1395.0151463261
 11
3168.1701013713
 21
1395.0151463261
  0
LINE
  5
438
100
AcDbEntity
  8
7_ALL_FEATURES
100
AcDbLine
 62
7
  6
CONTINUOUS
 10
3169.6701013713
 20
1395.2151463261
 11
3168.1701013713
 21
1395.2151463261
  0
LINE
  5
439
100
AcDbEntity
  8
7_ALL_FEATURES
100
AcDbLine
 62
7
  6
CONTINUOUS
 10
359.6701013713
 20
1395.2151463261
 11
361.1701013713
 21
1395.2151463261
  0
LINE
  5
43A
100
AcDbEntity
  8
6_ALL_SURFS
100
AcDbLine
 62
7
  6
CONTINUOUS
 10
361.1701013713
 20
1397.3151463261
 11
3168.1701013713
 21
1397.3151463261
  0
LINE
  5
43B
100
AcDbEntity
  8
6_ALL_SURFS
100
AcDbLine
 62
7
  6
CONTINUOUS
 10
361.1701013713
 20
1397.9151463261
 11
3168.1701013713
 21
1397.9151463261
  0
LINE
  5
43C
100
AcDbEntity
  8
6_ALL_SURFS
100
AcDbLine
 62
7
  6
CONTINUOUS
 10
361.1701013713
 20
1400.3151463261
 11
3168.1701013713
 21
1400.3151463261
  0
LINE
  5
43D
100
AcDbEntity
  8
6_ALL_SURFS
100
AcDbLine
 62
7
  6
CONTINUOUS
 10
361.1701013713
 20
1400.9151463261
 11
3168.1701013713
 21
1400.9151463261
  0
LINE
  5
43E
100
AcDbEntity
  8
6_ALL_SURFS
100
AcDbLine
 62
7
  6
CONTINUOUS
 10
361.1701013713
 20
1403.3151463261
 11
3168.1701013713
 21
1403.3151463261
  0
LINE
  5
43F
100
AcDbEntity
  8
6_ALL_SURFS
100
AcDbLine
 62
7
  6
CONTINUOUS
 10
361.1701013713
 20
1403.9151463261
 11
3168.1701013713
 21
1403.9151463261
  0
LINE
  5
440
100
AcDbEntity
  8
6_ALL_SURFS
100
AcDbLine
 62
7
  6
CONTINUOUS
 10
361.1701013713
 20
1406.3151463261
 11
510.7725679539
 21
1406.3151463261
  0
LINE
  5
441
100
AcDbEntity
  8
6_ALL_SURFS
100
AcDbLine
 62
7
  6
CONTINUOUS
 10
518.5676347887
 20
1406.3151463261
 11
760.7725679539
 21
1406.3151463261
  0
LINE
  5
442
100
AcDbEntity
  8
6_ALL_SURFS
100
AcDbLine
 62
7
  6
CONTINUOUS
 10
768.5676347887
 20
1406.3151463261
 11
1010.7725679539
 21
1406.3151463261
  0
LINE
  5
443
100
AcDbEntity
  8
6_ALL_SURFS
100
AcDbLine
 62
7
  6
CONTINUOUS
 10
1018.5676347887
 20
1406.3151463261
 11
1260.7725679539
 21
1406.3151463261
  0
LINE
  5
444
100
AcDbEntity
  8
6_ALL_SURFS
100
AcDbLine
 62
7
  6
CONTINUOUS
 10
1268.5676347887
 20
1406.3151463261
 11
1510.7725679539
 21
1406.3151463261
  0
LINE
  5
445
100
AcDbEntity
  8
6_ALL_SURFS
100
AcDbLine
 62
7
  6
CONTINUOUS
 10
1518.5676347887
 20
1406.3151463261
 11
1760.7725679539
 21
1406.3151463261
  0
LINE
  5
446
100
AcDbEntity
  8
6_ALL_SURFS
100
AcDbLine
 62
7
  6
CONTINUOUS
 10
1768.5676347887
 20
1406.3151463261
 11
2010.7725679539
 21
1406.3151463261
  0
LINE
  5
447
100
AcDbEntity
  8
6_ALL_SURFS
100
AcDbLine
 62
7
  6
CONTINUOUS
 10
2018.5676347887
 20
1406.3151463261
 11
2260.7725679539
 21
1406.3151463261
  0
LINE
  5
448
100
AcDbEntity
  8
6_ALL_SURFS
100
AcDbLine
 62
7
  6
CONTINUOUS
 10
2268.5676347887
 20
1406.3151463261
 11
2510.7725679539
 21
1406.3151463261
  0
LINE
  5
449
100
AcDbEntity
  8
6_ALL_SURFS
100
AcDbLine
 62
7
  6
CONTINUOUS
 10
2518.5676347887
 20
1406.3151463261
 11
2760.7725679539
 21
1406.3151463261
  0
LINE
  5
44A
100
AcDbEntity
  8
6_ALL_SURFS
100
AcDbLine
 62
7
  6
CONTINUOUS
 10
2768.5676347887
 20
1406.3151463261
 11
3010.7725679539
 21
1406.3151463261
  0
LINE
  5
44B
100
AcDbEntity
  8
6_ALL_SURFS
100
AcDbLine
 62
7
  6
CONTINUOUS
 10
3018.5676347887
 20
1406.3151463261
 11
3168.1701013713
 21
1406.3151463261
  0
LINE
  5
44C
100
AcDbEntity
  8
6_ALL_SURFS
100
AcDbLine
 62
7
  6
CONTINUOUS
 10
361.1701013713
 20
1406.9151463261
 11
510.4050378618
 21
1406.9151463261
  0
LINE
  5
44D
100
AcDbEntity
  8
6_ALL_SURFS
100
AcDbLine
 62
7
  6
CONTINUOUS
 10
518.9351648808
 20
1406.9151463261
 11
760.4050378618
 21
1406.9151463261
  0
LINE
  5
44E
100
AcDbEntity
  8
6_ALL_SURFS
100
AcDbLine
 62
7
  6
CONTINUOUS
 10
768.9351648808
 20
1406.9151463261
 11
1010.4050378618
 21
1406.9151463261
  0
LINE
  5
44F
100
AcDbEntity
  8
6_ALL_SURFS
100
AcDbLine
 62
7
  6
CONTINUOUS
 10
1018.9351648808
 20
1406.9151463261
 11
1260.4050378618
 21
1406.9151463261
  0
LINE
  5
450
100
AcDbEntity
  8
6_ALL_SURFS
100
AcDbLine
 62
7
  6
CONTINUOUS
 10
1268.9351648808
 20
1406.9151463261
 11
1510.4050378618
 21
1406.9151463261
  0
LINE
  5
451
100
AcDbEntity
  8
6_ALL_SURFS
100
AcDbLine
 62
7
  6
CONTINUOUS
 10
1518.9351648808
 20
1406.9151463261
 11
1760.4050378618
 21
1406.9151463261
  0
LINE
  5
452
100
AcDbEntity
  8
6_ALL_SURFS
100
AcDbLine
 62
7
  6
CONTINUOUS
 10
1768.9351648808
 20
1406.9151463261
 11
2010.4050378618
 21
1406.9151463261
  0
LINE
  5
453
100
AcDbEntity
  8
6_ALL_SURFS
100
AcDbLine
 62
7
  6
CONTINUOUS
 10
2018.9351648808
 20
1406.9151463261
 11
2260.4050378618
 21
1406.9151463261
  0
LINE
  5
454
100
AcDbEntity
  8
6_ALL_SURFS
100
AcDbLine
 62
7
  6
CONTINUOUS
 10
2268.9351648808
 20
1406.9151463261
 11
2510.4050378618
 21
1406.9151463261
  0
LINE
  5
455
100
AcDbEntity
  8
6_ALL_SURFS
100
AcDbLine
 62
7
  6
CONTINUOUS
 10
2518.9351648808
 20
1406.9151463261
 11
2760.4050378618
 21
1406.9151463261
  0
LINE
  5
456
100
AcDbEntity
  8
6_ALL_SURFS
100
AcDbLine
 62
7
  6
CONTINUOUS
 10
2768.9351648808
 20
1406.9151463261
 11
3010.4050378618
 21
1406.9151463261
  0
LINE
  5
457
100
AcDbEntity
  8
6_ALL_SURFS
100
AcDbLine
 62
7
  6
CONTINUOUS
 10
3018.9351648808
 20
1406.9151463261
 11
3168.1701013713
 21
1406.9151463261
  0
LINE
  5
458
100
AcDbEntity
  8
6_ALL_SURFS
100
AcDbLine
 62
7
  6
CONTINUOUS
 10
361.1701013713
 20
1409.3151463261
 11
509.8752325785
 21
1409.3151463261
  0
LINE
  5
459
100
AcDbEntity
  8
6_ALL_SURFS
100
AcDbLine
 62
7
  6
CONTINUOUS
 10
519.4649701641
 20
1409.3151463261
 11
759.8752325785
 21
1409.3151463261
  0
LINE
  5
45A
100
AcDbEntity
  8
6_ALL_SURFS
100
AcDbLine
 62
7
  6
CONTINUOUS
 10
769.4649701641
 20
1409.3151463261
 11
1009.8752325785
 21
1409.3151463261
  0
LINE
  5
45B
100
AcDbEntity
  8
6_ALL_SURFS
100
AcDbLine
 62
7
  6
CONTINUOUS
 10
1019.4649701641
 20
1409.3151463261
 11
1259.8752325785
 21
1409.3151463261
  0
LINE
  5
45C
100
AcDbEntity
  8
6_ALL_SURFS
100
AcDbLine
 62
7
  6
CONTINUOUS
 10
1269.4649701641
 20
1409.3151463261
 11
1509.8752325785
 21
1409.3151463261
  0
LINE
  5
45D
100
AcDbEntity
  8
6_ALL_SURFS
100
AcDbLine
 62
7
  6
CONTINUOUS
 10
1519.4649701641
 20
1409.3151463261
 11
1759.8752325785
 21
1409.3151463261
  0
LINE
  5
45E
100
AcDbEntity
  8
6_ALL_SURFS
100
AcDbLine
 62
7
  6
CONTINUOUS
 10
1769.4649701641
 20
1409.3151463261
 11
2009.8752325785
 21
1409.3151463261
  0
LINE
  5
45F
100
AcDbEntity
  8
6_ALL_SURFS
100
AcDbLine
 62
7
  6
CONTINUOUS
 10
2019.4649701641
 20
1409.3151463261
 11
2259.8752325785
 21
1409.3151463261
  0
LINE
  5
460
100
AcDbEntity
  8
6_ALL_SURFS
100
AcDbLine
 62
7
  6
CONTINUOUS
 10
2269.4649701641
 20
1409.3151463261
 11
2509.8752325785
 21
1409.3151463261
  0
LINE
  5
461
100
AcDbEntity
  8
6_ALL_SURFS
100
AcDbLine
 62
7
  6
CONTINUOUS
 10
2519.4649701641
 20
1409.3151463261
 11
2759.8752325785
 21
1409.3151463261
  0
LINE
  5
462
100
AcDbEntity
  8
6_ALL_SURFS
100
AcDbLine
 62
7
  6
CONTINUOUS
 10
2769.4649701641
 20
1409.3151463261
 11
3009.8752325785
 21
1409.3151463261
  0
LINE
  5
463
100
AcDbEntity
  8
6_ALL_SURFS
100
AcDbLine
 62
7
  6
CONTINUOUS
 10
3019.4649701641
 20
1409.3151463261
 11
3168.1701013713
 21
1409.3151463261
  0
LINE
  5
464
100
AcDbEntity
  8
6_ALL_SURFS
100
AcDbLine
 62
7
  6
CONTINUOUS
 10
361.1701013713
 20
1409.9151463261
 11
509.9382130865
 21
1409.9151463261
  0
LINE
  5
465
100
AcDbEntity
  8
6_ALL_SURFS
100
AcDbLine
 62
7
  6
CONTINUOUS
 10
519.4019896561
 20
1409.9151463261
 11
759.9382130865
 21
1409.9151463261
  0
LINE
  5
466
100
AcDbEntity
  8
6_ALL_SURFS
100
AcDbLine
 62
7
  6
CONTINUOUS
 10
769.4019896561
 20
1409.9151463261
 11
1009.9382130865
 21
1409.9151463261
  0
LINE
  5
467
100
AcDbEntity
  8
6_ALL_SURFS
100
AcDbLine
 62
7
  6
CONTINUOUS
 10
1019.4019896561
 20
1409.9151463261
 11
1259.9382130865
 21
1409.9151463261
  0
LINE
  5
468
100
AcDbEntity
  8
6_ALL_SURFS
100
AcDbLine
 62
7
  6
CONTINUOUS
 10
1269.4019896561
 20
1409.9151463261
 11
1509.9382130865
 21
1409.9151463261
  0
LINE
  5
469
100
AcDbEntity
  8
6_ALL_SURFS
100
AcDbLine
 62
7
  6
CONTINUOUS
 10
1519.4019896561
 20
1409.9151463261
 11
1759.9382130865
 21
1409.9151463261
  0
LINE
  5
46A
100
AcDbEntity
  8
6_ALL_SURFS
100
AcDbLine
 62
7
  6
CONTINUOUS
 10
1769.4019896561
 20
1409.9151463261
 11
2009.9382130865
 21
1409.9151463261
  0
LINE
  5
46B
100
AcDbEntity
  8
6_ALL_SURFS
100
AcDbLine
 62
7
  6
CONTINUOUS
 10
2019.4019896561
 20
1409.9151463261
 11
2259.9382130865
 21
1409.9151463261
  0
LINE
  5
46C
100
AcDbEntity
  8
6_ALL_SURFS
100
AcDbLine
 62
7
  6
CONTINUOUS
 10
2269.4019896561
 20
1409.9151463261
 11
2509.9382130865
 21
1409.9151463261
  0
LINE
  5
46D
100
AcDbEntity
  8
6_ALL_SURFS
100
AcDbLine
 62
7
  6
CONTINUOUS
 10
2519.4019896561
 20
1409.9151463261
 11
2759.9382130865
 21
1409.9151463261
  0
LINE
  5
46E
100
AcDbEntity
  8
6_ALL_SURFS
100
AcDbLine
 62
7
  6
CONTINUOUS
 10
2769.4019896561
 20
1409.9151463261
 11
3009.9382130865
 21
1409.9151463261
  0
LINE
  5
46F
100
AcDbEntity
  8
6_ALL_SURFS
100
AcDbLine
 62
7
  6
CONTINUOUS
 10
3019.4019896561
 20
1409.9151463261
 11
3168.1701013713
 21
1409.9151463261
  0
LINE
  5
470
100
AcDbEntity
  8
6_ALL_SURFS
100
AcDbLine
 62
7
  6
CONTINUOUS
 10
361.1701013713
 20
1412.6151463261
 11
511.3866935776
 21
1412.6151463261
  0
LINE
  5
471
100
AcDbEntity
  8
6_ALL_SURFS
100
AcDbLine
 62
7
  6
CONTINUOUS
 10
517.953509165
 20
1412.6151463261
 11
761.3866935776
 21
1412.6151463261
  0
LINE
  5
472
100
AcDbEntity
  8
6_ALL_SURFS
100
AcDbLine
 62
7
  6
CONTINUOUS
 10
767.953509165
 20
1412.6151463261
 11
1011.3866935776
 21
1412.6151463261
  0
LINE
  5
473
100
AcDbEntity
  8
6_ALL_SURFS
100
AcDbLine
 62
7
  6
CONTINUOUS
 10
1017.953509165
 20
1412.6151463261
 11
1261.3866935776
 21
1412.6151463261
  0
LINE
  5
474
100
AcDbEntity
  8
6_ALL_SURFS
100
AcDbLine
 62
7
  6
CONTINUOUS
 10
1267.953509165
 20
1412.6151463261
 11
1511.3866935776
 21
1412.6151463261
  0
LINE
  5
475
100
AcDbEntity
  8
6_ALL_SURFS
100
AcDbLine
 62
7
  6
CONTINUOUS
 10
1517.953509165
 20
1412.6151463261
 11
1761.3866935776
 21
1412.6151463261
  0
LINE
  5
476
100
AcDbEntity
  8
6_ALL_SURFS
100
AcDbLine
 62
7
  6
CONTINUOUS
 10
1767.953509165
 20
1412.6151463261
 11
2011.3866935776
 21
1412.6151463261
  0
LINE
  5
477
100
AcDbEntity
  8
6_ALL_SURFS
100
AcDbLine
 62
7
  6
CONTINUOUS
 10
2017.953509165
 20
1412.6151463261
 11
2261.3866935776
 21
1412.6151463261
  0
LINE
  5
478
100
AcDbEntity
  8
6_ALL_SURFS
100
AcDbLine
 62
7
  6
CONTINUOUS
 10
2267.953509165
 20
1412.6151463261
 11
2511.3866935776
 21
1412.6151463261
  0
LINE
  5
479
100
AcDbEntity
  8
6_ALL_SURFS
100
AcDbLine
 62
7
  6
CONTINUOUS
 10
2517.953509165
 20
1412.6151463261
 11
2761.3866935776
 21
1412.6151463261
  0
LINE
  5
47A
100
AcDbEntity
  8
6_ALL_SURFS
100
AcDbLine
 62
7
  6
CONTINUOUS
 10
2767.953509165
 20
1412.6151463261
 11
3011.3866935776
 21
1412.6151463261
  0
LINE
  5
47B
100
AcDbEntity
  8
6_ALL_SURFS
100
AcDbLine
 62
7
  6
CONTINUOUS
 10
3017.953509165
 20
1412.6151463261
 11
3168.1701013713
 21
1412.6151463261
  0
LINE
  5
47C
100
AcDbEntity
  8
6_ALL_SURFS
100
AcDbLine
 62
9
  6
CONTINUOUS
 10
361.1701013713
 20
1414.7606179165
 11
3168.1701013713
 21
1414.7606179165
  0
LINE
  5
47D
100
AcDbEntity
  8
6_ALL_SURFS
100
AcDbLine
 62
7
  6
CONTINUOUS
 10
3168.1701013713
 20
1415.1151463261
 11
361.1701013713
 21
1415.1151463261
  0
LINE
  5
47E
100
AcDbEntity
  8
3_ALL_AXES
100
AcDbLine
 62
7
  6
CONTINUOUS
 10
3170.7693810417
 20
1395.0151463261
 11
3169.6701013713
 21
1394.0927411602
  0
LINE
  5
47F
100
AcDbEntity
  8
3_ALL_AXES
100
AcDbLine
 62
7
  6
CONTINUOUS
 10
3170.7693810417
 20
1385.8651463261
 11
3169.6701013713
 21
1384.9427411602
  0
LINE
  5
480
100
AcDbEntity
  8
3_ALL_AXES
100
AcDbLine
 62
7
  6
CONTINUOUS
 10
3170.7693810417
 20
1339.9651463261
 11
3169.6701013713
 21
1339.0427411602
  0
LINE
  5
481
100
AcDbEntity
  8
3_ALL_AXES
100
AcDbLine
 62
7
  6
CONTINUOUS
 10
3170.7693810417
 20
1330.8151463261
 11
3169.6701013713
 21
1329.8927411602
  0
LINE
  5
482
100
AcDbEntity
  8
3_ALL_AXES
100
AcDbLine
 62
7
  6
CONTINUOUS
 10
3170.7693810417
 20
1325.3151463261
 11
3169.6701013713
 21
1326.2375514921
  0
LINE
  5
483
100
AcDbEntity
  8
3_ALL_AXES
100
AcDbLine
 62
7
  6
CONTINUOUS
 10
3170.7693810417
 20
1334.4651463261
 11
3169.6701013713
 21
1335.3875514921
  0
LINE
  5
484
100
AcDbEntity
  8
3_ALL_AXES
100
AcDbLine
 62
7
  6
CONTINUOUS
 10
3170.7693810417
 20
1380.3651463261
 11
3169.6701013713
 21
1381.2875514921
  0
LINE
  5
485
100
AcDbEntity
  8
3_ALL_AXES
100
AcDbLine
 62
7
  6
CONTINUOUS
 10
3170.7693810417
 20
1389.5151463261
 11
3169.6701013713
 21
1390.4375514921
  0
LINE
  5
486
100
AcDbEntity
  8
7_ALL_FEATURES
100
AcDbLine
 62
7
  6
CONTINUOUS
 10
3166.9201013713
 20
1393.4651463261
 11
3166.9201013713
 21
1326.8651463261
  0
LINE
  5
487
100
AcDbEntity
  8
3_ALL_AXES
100
AcDbLine
 62
7
  6
CONTINUOUS
 10
3168.1701013713
 20
1323.0151463261
 11
3168.1701013713
 21
1307.7151463261
  0
LINE
  5
488
100
AcDbEntity
  8
7_ALL_FEATURES
100
AcDbLine
 62
7
  6
CONTINUOUS
 10
3168.1701013713
 20
1307.7151463261
 11
3168.1701013713
 21
1305.2151870221
  0
LINE
  5
489
100
AcDbEntity
  8
7_ALL_FEATURES
100
AcDbLine
 62
7
  6
CONTINUOUS
 10
3168.1701013713
 20
1323.0151463261
 11
3168.1701013713
 21
1394.5435426736
  0
LINE
  5
48A
100
AcDbEntity
  8
7_ALL_FEATURES
100
AcDbLine
 62
7
  6
CONTINUOUS
 10
3168.1701013713
 20
1394.7525872313
 11
3168.1701013713
 21
1395.2151463261
  0
LINE
  5
48B
100
AcDbEntity
  8
6_ALL_SURFS
100
AcDbLine
 62
7
  6
CONTINUOUS
 10
3168.1701013713
 20
1393.8151463261
 11
3168.1701013713
 21
1394.8151463261
  0
LINE
  5
48C
100
AcDbEntity
  8
6_ALL_SURFS
100
AcDbLine
 62
7
  6
CONTINUOUS
 10
3168.1701013713
 20
1395.2151463261
 11
3168.1701013713
 21
1415.1151056301
  0
LINE
  5
48D
100
AcDbEntity
  8
7_ALL_FEATURES
100
AcDbLine
 62
7
  6
CONTINUOUS
 10
3169.6701013713
 20
1395.2151463261
 11
3169.6701013713
 21
1325.1151463261
  0
LINE
  5
48E
100
AcDbEntity
  8
3_ALL_AXES
100
AcDbLine
 62
7
  6
CONTINUOUS
 10
3170.7693810417
 20
1325.3151463261
 11
3170.7693810417
 21
1330.8151463261
  0
LINE
  5
48F
100
AcDbEntity
  8
3_ALL_AXES
100
AcDbLine
 62
7
  6
CONTINUOUS
 10
3170.7693810417
 20
1334.4651463261
 11
3170.7693810417
 21
1339.9651463261
  0
LINE
  5
490
100
AcDbEntity
  8
3_ALL_AXES
100
AcDbLine
 62
7
  6
CONTINUOUS
 10
3170.7693810417
 20
1380.3651463261
 11
3170.7693810417
 21
1385.8651463261
  0
LINE
  5
491
100
AcDbEntity
  8
3_ALL_AXES
100
AcDbLine
 62
7
  6
CONTINUOUS
 10
3170.7693810417
 20
1389.5151463261
 11
3170.7693810417
 21
1395.0151463261
  0
LINE
  5
492
100
AcDbEntity
  8
3_ALL_AXES
100
AcDbLine
 62
7
  6
CONTINUOUS
 10
3170.9201013713
 20
1325.3151463261
 11
3170.9201013713
 21
1330.8151463261
  0
LINE
  5
493
100
AcDbEntity
  8
3_ALL_AXES
100
AcDbLine
 62
7
  6
CONTINUOUS
 10
3170.9201013713
 20
1334.4651463261
 11
3170.9201013713
 21
1339.9651463261
  0
LINE
  5
494
100
AcDbEntity
  8
3_ALL_AXES
100
AcDbLine
 62
7
  6
CONTINUOUS
 10
3170.9201013713
 20
1380.3651463261
 11
3170.9201013713
 21
1385.8651463261
  0
LINE
  5
495
100
AcDbEntity
  8
3_ALL_AXES
100
AcDbLine
 62
7
  6
CONTINUOUS
 10
3170.9201013713
 20
1389.5151463261
 11
3170.9201013713
 21
1395.0151463261
  0
CIRCLE
  5
496
100
AcDbEntity
  8
3_ALL_AXES
100
AcDbCircle
 62
7
  6
CONTINUOUS
 10
142.9673063097
 20
946.2110679646
 40
2.75
  0
ARC
  5
497
100
AcDbEntity
  8
7_ALL_FEATURES
100
AcDbCircle
 62
7
  6
CONTINUOUS
 10
141.4173063097
 20
952.1110679646
 40
1.5
100
AcDbArc
 50
270.0
 51
360.0
  0
ARC
  5
498
100
AcDbEntity
  8
7_ALL_FEATURES
100
AcDbCircle
 62
7
  6
CONTINUOUS
 10
140.7673063097
 20
949.8610679646
 40
0.75
100
AcDbArc
 50
90.0
 51
180.0
  0
ARC
  5
499
100
AcDbEntity
  8
7_ALL_FEATURES
100
AcDbCircle
 62
7
  6
CONTINUOUS
 10
140.7673063097
 20
934.9610679646
 40
0.75
100
AcDbArc
 50
180.0
 51
270.0
  0
ARC
  5
49A
100
AcDbEntity
  8
6_ALL_SURFS
100
AcDbCircle
 62
7
  6
CONTINUOUS
 10
137.6173063097
 20
935.3110679645
 40
0.5
100
AcDbArc
 50
53.1301023542
 51
126.8698976458
  0
ARC
  5
49B
100
AcDbEntity
  8
6_ALL_SURFS
100
AcDbCircle
 62
7
  6
CONTINUOUS
 10
134.6173063097
 20
935.3110679645
 40
0.5
100
AcDbArc
 50
53.1301023542
 51
126.8698976458
  0
ARC
  5
49C
100
AcDbEntity
  8
6_ALL_SURFS
100
AcDbCircle
 62
7
  6
CONTINUOUS
 10
131.6173063097
 20
935.3110679645
 40
0.5
100
AcDbArc
 50
53.1301023542
 51
126.8698976458
  0
ARC
  5
49D
100
AcDbEntity
  8
6_ALL_SURFS
100
AcDbCircle
 62
7
  6
CONTINUOUS
 10
128.6173063097
 20
935.3110679645
 40
0.5
100
AcDbArc
 50
53.1301023542
 51
126.8698976458
  0
ARC
  5
49E
100
AcDbEntity
  8
6_ALL_SURFS
100
AcDbCircle
 62
7
  6
CONTINUOUS
 10
125.6173063097
 20
935.3110679645
 40
0.5
100
AcDbArc
 50
53.1301023542
 51
126.8698976458
  0
ARC
  5
49F
100
AcDbEntity
  8
6_ALL_SURFS
100
AcDbCircle
 62
7
  6
CONTINUOUS
 10
120.5110096677
 20
936.3173646066
 40
0.3937033579
100
AcDbArc
 50
90.0
 51
264.2894068625
  0
ARC
  5
4A0
100
AcDbEntity
  8
6_ALL_SURFS
100
AcDbCircle
 62
7
  6
CONTINUOUS
 10
140.6173063097
 20
934.4110679645
 40
0.2
100
AcDbArc
 50
225.9184733844
 51
270.0
  0
ARC
  5
4A1
100
AcDbEntity
  8
6_ALL_SURFS
100
AcDbCircle
 62
7
  6
CONTINUOUS
 10
147.9173063097
 20
984.6334533492
 40
5.0
100
AcDbArc
 50
168.992257654
 51
180.0
  0
CIRCLE
  5
4A2
100
AcDbEntity
  8
3_ALL_AXES
100
AcDbCircle
 62
7
  6
CONTINUOUS
 10
152.1173063097
 20
1006.9610679646
 40
2.75
  0
ARC
  5
4A3
100
AcDbEntity
  8
7_ALL_FEATURES
100
AcDbCircle
 62
7
  6
CONTINUOUS
 10
144.4173063097
 20
984.4309595853
 40
1.5
100
AcDbArc
 50
168.8118414334
 51
180.0
  0
ARC
  5
4A4
100
AcDbEntity
  8
6_ALL_SURFS
100
AcDbCircle
 62
7
  6
CONTINUOUS
 10
147.9848840182
 20
1003.3110679645
 40
1.5
100
AcDbArc
 50
142.3170806799
 51
168.992257654
  0
ARC
  5
4A5
100
AcDbEntity
  8
7_ALL_FEATURES
100
AcDbCircle
 62
7
  6
CONTINUOUS
 10
172.4215549987
 20
1009.2110679646
 40
1.0
100
AcDbArc
 50
48.5903778907
 51
90.0
  0
ARC
  5
4A6
100
AcDbEntity
  8
7_ALL_FEATURES
100
AcDbCircle
 62
7
  6
CONTINUOUS
 10
148.4375148121
 20
1009.4610679646
 40
0.75
100
AcDbArc
 50
145.8535934133
 51
169.1779923731
  0
ARC
  5
4A7
100
AcDbEntity
  8
7_ALL_FEATURES
100
AcDbCircle
 62
7
  6
CONTINUOUS
 10
148.6034959383
 20
1009.4610679646
 40
0.75
100
AcDbArc
 50
90.0
 51
168.8118414334
  0
ARC
  5
4A8
100
AcDbEntity
  8
6_ALL_SURFS
100
AcDbCircle
 62
7
  6
CONTINUOUS
 10
148.1173063097
 20
1009.9110679645
 40
0.3
100
AcDbArc
 50
90.0
 51
180.0
  0
CIRCLE
  5
4A9
100
AcDbEntity
  8
3_ALL_AXES
100
AcDbCircle
 62
7
  6
CONTINUOUS
 10
207.1673063097
 20
946.2110679646
 40
2.75
  0
ARC
  5
4AA
100
AcDbEntity
  8
7_ALL_FEATURES
100
AcDbCircle
 62
7
  6
CONTINUOUS
 10
208.7173063097
 20
952.1110679646
 40
1.5
100
AcDbArc
 50
180.0
 51
270.0
  0
ARC
  5
4AB
100
AcDbEntity
  8
7_ALL_FEATURES
100
AcDbCircle
 62
7
  6
CONTINUOUS
 10
209.3673063097
 20
934.9610679646
 40
0.75
100
AcDbArc
 50
270.0
 51
360.0
  0
ARC
  5
4AC
100
AcDbEntity
  8
7_ALL_FEATURES
100
AcDbCircle
 62
7
  6
CONTINUOUS
 10
209.3673063097
 20
949.8610679646
 40
0.75
100
AcDbArc
 50
0.0
 51
90.0
  0
ARC
  5
4AD
100
AcDbEntity
  8
3_ALL_AXES
100
AcDbCircle
 62
7
  6
CONTINUOUS
 10
224.5173063097
 20
935.3110679645
 40
0.5
100
AcDbArc
 50
53.1301023542
 51
126.8698976458
  0
ARC
  5
4AE
100
AcDbEntity
  8
3_ALL_AXES
100
AcDbCircle
 62
7
  6
CONTINUOUS
 10
221.5173063097
 20
935.3110679645
 40
0.5
100
AcDbArc
 50
53.1301023542
 51
126.8698976458
  0
ARC
  5
4AF
100
AcDbEntity
  8
3_ALL_AXES
100
AcDbCircle
 62
7
  6
CONTINUOUS
 10
218.5173063097
 20
935.3110679645
 40
0.5
100
AcDbArc
 50
53.1301023542
 51
126.8698976458
  0
ARC
  5
4B0
100
AcDbEntity
  8
3_ALL_AXES
100
AcDbCircle
 62
7
  6
CONTINUOUS
 10
215.5173063097
 20
935.3110679645
 40
0.5
100
AcDbArc
 50
53.1301023542
 51
126.8698976458
  0
ARC
  5
4B1
100
AcDbEntity
  8
3_ALL_AXES
100
AcDbCircle
 62
7
  6
CONTINUOUS
 10
212.5173063097
 20
935.3110679645
 40
0.5
100
AcDbArc
 50
53.1301023542
 51
126.8698976458
  0
ARC
  5
4B2
100
AcDbEntity
  8
7_ALL_FEATURES
100
AcDbCircle
 62
7
  6
CONTINUOUS
 10
229.6236029518
 20
936.3173646066
 40
0.3937033579
100
AcDbArc
 50
275.7105931375
 51
90.0
  0
ARC
  5
4B3
100
AcDbEntity
  8
7_ALL_FEATURES
100
AcDbCircle
 62
7
  6
CONTINUOUS
 10
209.5173063097
 20
934.4110679645
 40
0.2
100
AcDbArc
 50
270.0
 51
314.0815266156
  0
ARC
  5
4B4
100
AcDbEntity
  8
7_ALL_FEATURES
100
AcDbCircle
 62
7
  6
CONTINUOUS
 10
175.0673063097
 20
991.2110679646
 40
11.0
100
AcDbArc
 50
3.257196161
 51
176.742803839
  0
ARC
  5
4B5
100
AcDbEntity
  8
7_ALL_FEATURES
100
AcDbCircle
 62
7
  6
CONTINUOUS
 10
175.0673063097
 20
991.2110679646
 40
11.0
100
AcDbArc
 50
183.257196161
 51
356.742803839
  0
ARC
  5
4B6
100
AcDbEntity
  8
7_ALL_FEATURES
100
AcDbCircle
 62
7
  6
CONTINUOUS
 10
175.0673063097
 20
991.2110679646
 40
10.25
100
AcDbArc
 50
3.4958136324
 51
176.5041863676
  0
ARC
  5
4B7
100
AcDbEntity
  8
7_ALL_FEATURES
100
AcDbCircle
 62
7
  6
CONTINUOUS
 10
175.0673063097
 20
991.2110679646
 40
10.25
100
AcDbArc
 50
183.4958136324
 51
356.5041863676
  0
ARC
  5
4B8
100
AcDbEntity
  8
7_ALL_FEATURES
100
AcDbCircle
 62
7
  6
CONTINUOUS
 10
202.2173063097
 20
984.6334533492
 40
5.0
100
AcDbArc
 50
0.0
 51
11.007742346
  0
ARC
  5
4B9
100
AcDbEntity
  8
7_ALL_FEATURES
100
AcDbCircle
 62
7
  6
CONTINUOUS
 10
175.0673063097
 20
1012.2110679646
 40
3.0
100
AcDbArc
 50
228.5903778907
 51
311.4096221093
  0
CIRCLE
  5
4BA
100
AcDbEntity
  8
3_ALL_AXES
100
AcDbCircle
 62
7
  6
CONTINUOUS
 10
198.0173063097
 20
1006.9610679646
 40
2.75
  0
ARC
  5
4BB
100
AcDbEntity
  8
7_ALL_FEATURES
100
AcDbCircle
 62
7
  6
CONTINUOUS
 10
205.7173063097
 20
984.4357969733
 40
1.5
100
AcDbArc
 50
0.0
 51
10.8220076269
  0
ARC
  5
4BC
100
AcDbEntity
  8
7_ALL_FEATURES
100
AcDbCircle
 62
7
  6
CONTINUOUS
 10
202.1497286013
 20
1003.3110679645
 40
1.5
100
AcDbArc
 50
11.007742346
 51
23.5747903415
  0
ARC
  5
4BD
100
AcDbEntity
  8
7_ALL_FEATURES
100
AcDbCircle
 62
7
  6
CONTINUOUS
 10
177.7130576208
 20
1009.2110679646
 40
1.0
100
AcDbArc
 50
90.0
 51
131.4096221093
  0
ARC
  5
4BE
100
AcDbEntity
  8
7_ALL_FEATURES
100
AcDbCircle
 62
7
  6
CONTINUOUS
 10
201.6970978074
 20
1009.4610679646
 40
0.75
100
AcDbArc
 50
10.8220076269
 51
90.0
  0
ARC
  5
4BF
100
AcDbEntity
  8
7_ALL_FEATURES
100
AcDbCircle
 62
7
  6
CONTINUOUS
 10
202.0173063097
 20
1009.9110679645
 40
0.3
100
AcDbArc
 50
0.0
 51
90.0
  0
ARC
  5
4C0
100
AcDbEntity
  8
7_ALL_FEATURES
100
AcDbCircle
 62
7
  6
CONTINUOUS
 10
514.6701013713
 20
1311.2151463261
 40
4.7990381057
100
AcDbArc
 50
35.6935828234
 51
144.3064171766
  0
ARC
  5
4C1
100
AcDbEntity
  8
7_ALL_FEATURES
100
AcDbCircle
 62
7
  6
CONTINUOUS
 10
1514.6701013713
 20
1311.2151463261
 40
4.7990381057
100
AcDbArc
 50
35.6935828234
 51
144.3064171766
  0
ARC
  5
4C2
100
AcDbEntity
  8
7_ALL_FEATURES
100
AcDbCircle
 62
7
  6
CONTINUOUS
 10
1264.6701013713
 20
1311.2151463261
 40
4.7990381057
100
AcDbArc
 50
35.6935828234
 51
144.3064171766
  0
ARC
  5
4C3
100
AcDbEntity
  8
7_ALL_FEATURES
100
AcDbCircle
 62
7
  6
CONTINUOUS
 10
1014.6701013713
 20
1311.2151463261
 40
4.7990381057
100
AcDbArc
 50
35.6935828234
 51
144.3064171766
  0
ARC
  5
4C4
100
AcDbEntity
  8
7_ALL_FEATURES
100
AcDbCircle
 62
7
  6
CONTINUOUS
 10
764.6701013713
 20
1311.2151463261
 40
4.7990381057
100
AcDbArc
 50
35.6935828234
 51
144.3064171766
  0
ARC
  5
4C5
100
AcDbEntity
  8
7_ALL_FEATURES
100
AcDbCircle
 62
7
  6
CONTINUOUS
 10
1514.6701013713
 20
1311.2151463261
 40
4.7990381057
100
AcDbArc
 50
357.6115056179
 51
27.2855350899
  0
ARC
  5
4C6
100
AcDbEntity
  8
7_ALL_FEATURES
100
AcDbCircle
 62
7
  6
CONTINUOUS
 10
1264.6701013713
 20
1311.2151463261
 40
4.7990381057
100
AcDbArc
 50
357.6115056179
 51
27.2855350899
  0
ARC
  5
4C7
100
AcDbEntity
  8
7_ALL_FEATURES
100
AcDbCircle
 62
7
  6
CONTINUOUS
 10
1514.6701013713
 20
1311.2151463261
 40
4.7990381057
100
AcDbArc
 50
152.7144649101
 51
182.3884943821
  0
ARC
  5
4C8
100
AcDbEntity
  8
7_ALL_FEATURES
100
AcDbCircle
 62
7
  6
CONTINUOUS
 10
1014.6701013713
 20
1311.2151463261
 40
4.7990381057
100
AcDbArc
 50
357.6115056179
 51
27.2855350899
  0
ARC
  5
4C9
100
AcDbEntity
  8
7_ALL_FEATURES
100
AcDbCircle
 62
7
  6
CONTINUOUS
 10
1264.6701013713
 20
1311.2151463261
 40
4.7990381057
100
AcDbArc
 50
152.7144649101
 51
182.3884943821
  0
ARC
  5
4CA
100
AcDbEntity
  8
7_ALL_FEATURES
100
AcDbCircle
 62
7
  6
CONTINUOUS
 10
764.6701013713
 20
1311.2151463261
 40
4.7990381057
100
AcDbArc
 50
357.6115056179
 51
27.2855350899
  0
ARC
  5
4CB
100
AcDbEntity
  8
7_ALL_FEATURES
100
AcDbCircle
 62
7
  6
CONTINUOUS
 10
1014.6701013713
 20
1311.2151463261
 40
4.7990381057
100
AcDbArc
 50
152.7144649101
 51
182.3884943821
  0
ARC
  5
4CC
100
AcDbEntity
  8
7_ALL_FEATURES
100
AcDbCircle
 62
7
  6
CONTINUOUS
 10
514.6701013713
 20
1311.2151463261
 40
4.7990381057
100
AcDbArc
 50
357.6115056179
 51
27.2855350899
  0
ARC
  5
4CD
100
AcDbEntity
  8
7_ALL_FEATURES
100
AcDbCircle
 62
7
  6
CONTINUOUS
 10
764.6701013713
 20
1311.2151463261
 40
4.7990381057
100
AcDbArc
 50
152.7144649101
 51
182.3884943821
  0
ARC
  5
4CE
100
AcDbEntity
  8
7_ALL_FEATURES
100
AcDbCircle
 62
7
  6
CONTINUOUS
 10
514.6701013713
 20
1311.2151463261
 40
4.7990381057
100
AcDbArc
 50
152.7144649101
 51
182.3884943821
  0
ARC
  5
4CF
100
AcDbEntity
  8
7_ALL_FEATURES
100
AcDbCircle
 62
7
  6
CONTINUOUS
 10
1514.6701013713
 20
1311.2151463261
 40
4.7990381057
100
AcDbArc
 50
313.171184019
 51
350.4039906056
  0
ARC
  5
4D0
100
AcDbEntity
  8
7_ALL_FEATURES
100
AcDbCircle
 62
7
  6
CONTINUOUS
 10
1264.6701013713
 20
1311.2151463261
 40
4.7990381057
100
AcDbArc
 50
313.171184019
 51
350.4039906056
  0
ARC
  5
4D1
100
AcDbEntity
  8
7_ALL_FEATURES
100
AcDbCircle
 62
7
  6
CONTINUOUS
 10
1514.6701013713
 20
1311.2151463261
 40
4.7990381057
100
AcDbArc
 50
189.5960093944
 51
226.828815981
  0
ARC
  5
4D2
100
AcDbEntity
  8
7_ALL_FEATURES
100
AcDbCircle
 62
7
  6
CONTINUOUS
 10
1014.6701013713
 20
1311.2151463261
 40
4.7990381057
100
AcDbArc
 50
313.171184019
 51
350.4039906056
  0
ARC
  5
4D3
100
AcDbEntity
  8
7_ALL_FEATURES
100
AcDbCircle
 62
7
  6
CONTINUOUS
 10
1264.6701013713
 20
1311.2151463261
 40
4.7990381057
100
AcDbArc
 50
189.5960093944
 51
226.828815981
  0
ARC
  5
4D4
100
AcDbEntity
  8
7_ALL_FEATURES
100
AcDbCircle
 62
7
  6
CONTINUOUS
 10
764.6701013713
 20
1311.2151463261
 40
4.7990381057
100
AcDbArc
 50
313.171184019
 51
350.4039906056
  0
ARC
  5
4D5
100
AcDbEntity
  8
7_ALL_FEATURES
100
AcDbCircle
 62
7
  6
CONTINUOUS
 10
1014.6701013713
 20
1311.2151463261
 40
4.7990381057
100
AcDbArc
 50
189.5960093944
 51
226.828815981
  0
ARC
  5
4D6
100
AcDbEntity
  8
7_ALL_FEATURES
100
AcDbCircle
 62
7
  6
CONTINUOUS
 10
514.6701013713
 20
1311.2151463261
 40
4.7990381057
100
AcDbArc
 50
313.171184019
 51
350.4039906056
  0
ARC
  5
4D7
100
AcDbEntity
  8
7_ALL_FEATURES
100
AcDbCircle
 62
7
  6
CONTINUOUS
 10
764.6701013713
 20
1311.2151463261
 40
4.7990381057
100
AcDbArc
 50
189.5960093944
 51
226.828815981
  0
ARC
  5
4D8
100
AcDbEntity
  8
7_ALL_FEATURES
100
AcDbCircle
 62
7
  6
CONTINUOUS
 10
514.6701013713
 20
1311.2151463261
 40
4.7990381057
100
AcDbArc
 50
189.5960093944
 51
226.828815981
  0
CIRCLE
  5
4D9
100
AcDbEntity
  8
6_ALL_SURFS
100
AcDbCircle
 62
7
  6
CONTINUOUS
 10
514.6701013713
 20
1311.2151463261
 40
3.5
  0
CIRCLE
  5
4DA
100
AcDbEntity
  8
6_ALL_SURFS
100
AcDbCircle
 62
7
  6
CONTINUOUS
 10
764.6701013713
 20
1311.2151463261
 40
3.5
  0
CIRCLE
  5
4DB
100
AcDbEntity
  8
6_ALL_SURFS
100
AcDbCircle
 62
7
  6
CONTINUOUS
 10
1014.6701013713
 20
1311.2151463261
 40
3.5
  0
CIRCLE
  5
4DC
100
AcDbEntity
  8
6_ALL_SURFS
100
AcDbCircle
 62
7
  6
CONTINUOUS
 10
1264.6701013713
 20
1311.2151463261
 40
3.5
  0
CIRCLE
  5
4DD
100
AcDbEntity
  8
6_ALL_SURFS
100
AcDbCircle
 62
7
  6
CONTINUOUS
 10
1514.6701013713
 20
1311.2151463261
 40
3.5
  0
ARC
  5
4DE
100
AcDbEntity
  8
6_ALL_SURFS
100
AcDbCircle
 62
7
  6
CONTINUOUS
 10
514.6701013713
 20
1409.1151463261
 40
4.7990381057
100
AcDbArc
 50
177.6115056179
 51
207.2855350899
  0
ARC
  5
4DF
100
AcDbEntity
  8
6_ALL_SURFS
100
AcDbCircle
 62
7
  6
CONTINUOUS
 10
764.6701013713
 20
1409.1151463261
 40
4.7990381057
100
AcDbArc
 50
177.6115056179
 51
207.2855350899
  0
ARC
  5
4E0
100
AcDbEntity
  8
6_ALL_SURFS
100
AcDbCircle
 62
7
  6
CONTINUOUS
 10
514.6701013713
 20
1409.1151463261
 40
4.7990381057
100
AcDbArc
 50
332.7144649101
 51
2.3884943821
  0
ARC
  5
4E1
100
AcDbEntity
  8
6_ALL_SURFS
100
AcDbCircle
 62
7
  6
CONTINUOUS
 10
1014.6701013713
 20
1409.1151463261
 40
4.7990381057
100
AcDbArc
 50
177.6115056179
 51
207.2855350899
  0
ARC
  5
4E2
100
AcDbEntity
  8
6_ALL_SURFS
100
AcDbCircle
 62
7
  6
CONTINUOUS
 10
764.6701013713
 20
1409.1151463261
 40
4.7990381057
100
AcDbArc
 50
332.7144649101
 51
2.3884943821
  0
ARC
  5
4E3
100
AcDbEntity
  8
6_ALL_SURFS
100
AcDbCircle
 62
7
  6
CONTINUOUS
 10
1264.6701013713
 20
1409.1151463261
 40
4.7990381057
100
AcDbArc
 50
177.6115056179
 51
207.2855350899
  0
ARC
  5
4E4
100
AcDbEntity
  8
6_ALL_SURFS
100
AcDbCircle
 62
7
  6
CONTINUOUS
 10
1014.6701013713
 20
1409.1151463261
 40
4.7990381057
100
AcDbArc
 50
332.7144649101
 51
2.3884943821
  0
ARC
  5
4E5
100
AcDbEntity
  8
6_ALL_SURFS
100
AcDbCircle
 62
7
  6
CONTINUOUS
 10
1514.6701013713
 20
1409.1151463261
 40
4.7990381057
100
AcDbArc
 50
177.6115056179
 51
207.2855350899
  0
ARC
  5
4E6
100
AcDbEntity
  8
6_ALL_SURFS
100
AcDbCircle
 62
7
  6
CONTINUOUS
 10
1264.6701013713
 20
1409.1151463261
 40
4.7990381057
100
AcDbArc
 50
332.7144649101
 51
2.3884943821
  0
ARC
  5
4E7
100
AcDbEntity
  8
6_ALL_SURFS
100
AcDbCircle
 62
7
  6
CONTINUOUS
 10
1514.6701013713
 20
1409.1151463261
 40
4.7990381057
100
AcDbArc
 50
332.7144649101
 51
2.3884943821
  0
ARC
  5
4E8
100
AcDbEntity
  8
6_ALL_SURFS
100
AcDbCircle
 62
7
  6
CONTINUOUS
 10
1514.6701013713
 20
1409.1151463261
 40
4.7990381057
100
AcDbArc
 50
215.6935828234
 51
324.3064171766
  0
ARC
  5
4E9
100
AcDbEntity
  8
6_ALL_SURFS
100
AcDbCircle
 62
7
  6
CONTINUOUS
 10
1264.6701013713
 20
1409.1151463261
 40
4.7990381057
100
AcDbArc
 50
215.6935828234
 51
324.3064171766
  0
ARC
  5
4EA
100
AcDbEntity
  8
6_ALL_SURFS
100
AcDbCircle
 62
7
  6
CONTINUOUS
 10
1014.6701013713
 20
1409.1151463261
 40
4.7990381057
100
AcDbArc
 50
215.6935828234
 51
324.3064171766
  0
ARC
  5
4EB
100
AcDbEntity
  8
6_ALL_SURFS
100
AcDbCircle
 62
7
  6
CONTINUOUS
 10
764.6701013713
 20
1409.1151463261
 40
4.7990381057
100
AcDbArc
 50
215.6935828234
 51
324.3064171766
  0
ARC
  5
4EC
100
AcDbEntity
  8
6_ALL_SURFS
100
AcDbCircle
 62
7
  6
CONTINUOUS
 10
514.6701013713
 20
1409.1151463261
 40
4.7990381057
100
AcDbArc
 50
215.6935828234
 51
324.3064171766
  0
ARC
  5
4ED
100
AcDbEntity
  8
6_ALL_SURFS
100
AcDbCircle
 62
7
  6
CONTINUOUS
 10
514.6701013713
 20
1409.1151463261
 40
4.7990381057
100
AcDbArc
 50
133.171184019
 51
170.4039906056
  0
ARC
  5
4EE
100
AcDbEntity
  8
6_ALL_SURFS
100
AcDbCircle
 62
7
  6
CONTINUOUS
 10
764.6701013713
 20
1409.1151463261
 40
4.7990381057
100
AcDbArc
 50
133.171184019
 51
170.4039906056
  0
ARC
  5
4EF
100
AcDbEntity
  8
6_ALL_SURFS
100
AcDbCircle
 62
7
  6
CONTINUOUS
 10
514.6701013713
 20
1409.1151463261
 40
4.7990381057
100
AcDbArc
 50
9.5960093944
 51
46.828815981
  0
ARC
  5
4F0
100
AcDbEntity
  8
6_ALL_SURFS
100
AcDbCircle
 62
7
  6
CONTINUOUS
 10
1014.6701013713
 20
1409.1151463261
 40
4.7990381057
100
AcDbArc
 50
133.171184019
 51
170.4039906056
  0
ARC
  5
4F1
100
AcDbEntity
  8
6_ALL_SURFS
100
AcDbCircle
 62
7
  6
CONTINUOUS
 10
764.6701013713
 20
1409.1151463261
 40
4.7990381057
100
AcDbArc
 50
9.5960093944
 51
46.828815981
  0
ARC
  5
4F2
100
AcDbEntity
  8
6_ALL_SURFS
100
AcDbCircle
 62
7
  6
CONTINUOUS
 10
1264.6701013713
 20
1409.1151463261
 40
4.7990381057
100
AcDbArc
 50
133.171184019
 51
170.4039906056
  0
ARC
  5
4F3
100
AcDbEntity
  8
6_ALL_SURFS
100
AcDbCircle
 62
7
  6
CONTINUOUS
 10
1014.6701013713
 20
1409.1151463261
 40
4.7990381057
100
AcDbArc
 50
9.5960093944
 51
46.828815981
  0
ARC
  5
4F4
100
AcDbEntity
  8
6_ALL_SURFS
100
AcDbCircle
 62
7
  6
CONTINUOUS
 10
1514.6701013713
 20
1409.1151463261
 40
4.7990381057
100
AcDbArc
 50
133.171184019
 51
170.4039906056
  0
ARC
  5
4F5
100
AcDbEntity
  8
6_ALL_SURFS
100
AcDbCircle
 62
7
  6
CONTINUOUS
 10
1264.6701013713
 20
1409.1151463261
 40
4.7990381057
100
AcDbArc
 50
9.5960093944
 51
46.828815981
  0
ARC
  5
4F6
100
AcDbEntity
  8
6_ALL_SURFS
100
AcDbCircle
 62
7
  6
CONTINUOUS
 10
1514.6701013713
 20
1409.1151463261
 40
4.7990381057
100
AcDbArc
 50
9.5960093944
 51
46.828815981
  0
CIRCLE
  5
4F7
100
AcDbEntity
  8
6_ALL_SURFS
100
AcDbCircle
 62
7
  6
CONTINUOUS
 10
514.6701013713
 20
1409.1151463261
 40
3.5
  0
CIRCLE
  5
4F8
100
AcDbEntity
  8
6_ALL_SURFS
100
AcDbCircle
 62
7
  6
CONTINUOUS
 10
764.6701013713
 20
1409.1151463261
 40
3.5
  0
CIRCLE
  5
4F9
100
AcDbEntity
  8
6_ALL_SURFS
100
AcDbCircle
 62
7
  6
CONTINUOUS
 10
1014.6701013713
 20
1409.1151463261
 40
3.5
  0
CIRCLE
  5
4FA
100
AcDbEntity
  8
6_ALL_SURFS
100
AcDbCircle
 62
7
  6
CONTINUOUS
 10
1264.6701013713
 20
1409.1151463261
 40
3.5
  0
CIRCLE
  5
4FB
100
AcDbEntity
  8
6_ALL_SURFS
100
AcDbCircle
 62
7
  6
CONTINUOUS
 10
1514.6701013713
 20
1409.1151463261
 40
3.5
  0
ARC
  5
4FC
100
AcDbEntity
  8
7_ALL_FEATURES
100
AcDbCircle
 62
7
  6
CONTINUOUS
 10
3014.6701013713
 20
1311.2151463261
 40
4.7990381057
100
AcDbArc
 50
35.6935828234
 51
144.3064171766
  0
ARC
  5
4FD
100
AcDbEntity
  8
7_ALL_FEATURES
100
AcDbCircle
 62
7
  6
CONTINUOUS
 10
2764.6701013713
 20
1311.2151463261
 40
4.7990381057
100
AcDbArc
 50
35.6935828234
 51
144.3064171766
  0
ARC
  5
4FE
100
AcDbEntity
  8
7_ALL_FEATURES
100
AcDbCircle
 62
7
  6
CONTINUOUS
 10
2514.6701013713
 20
1311.2151463261
 40
4.7990381057
100
AcDbArc
 50
35.6935828234
 51
144.3064171766
  0
ARC
  5
4FF
100
AcDbEntity
  8
7_ALL_FEATURES
100
AcDbCircle
 62
7
  6
CONTINUOUS
 10
2264.6701013713
 20
1311.2151463261
 40
4.7990381057
100
AcDbArc
 50
35.6935828234
 51
144.3064171766
  0
ARC
  5
500
100
AcDbEntity
  8
7_ALL_FEATURES
100
AcDbCircle
 62
7
  6
CONTINUOUS
 10
2014.6701013713
 20
1311.2151463261
 40
4.7990381057
100
AcDbArc
 50
35.6935828234
 51
144.3064171766
  0
ARC
  5
501
100
AcDbEntity
  8
7_ALL_FEATURES
100
AcDbCircle
 62
7
  6
CONTINUOUS
 10
1764.6701013713
 20
1311.2151463261
 40
4.7990381057
100
AcDbArc
 50
35.6935828234
 51
144.3064171766
  0
ARC
  5
502
100
AcDbEntity
  8
7_ALL_FEATURES
100
AcDbCircle
 62
7
  6
CONTINUOUS
 10
3014.6701013713
 20
1311.2151463261
 40
4.7990381057
100
AcDbArc
 50
357.6115056179
 51
27.2855350899
  0
ARC
  5
503
100
AcDbEntity
  8
7_ALL_FEATURES
100
AcDbCircle
 62
7
  6
CONTINUOUS
 10
2764.6701013713
 20
1311.2151463261
 40
4.7990381057
100
AcDbArc
 50
357.6115056179
 51
27.2855350899
  0
ARC
  5
504
100
AcDbEntity
  8
7_ALL_FEATURES
100
AcDbCircle
 62
7
  6
CONTINUOUS
 10
3014.6701013713
 20
1311.2151463261
 40
4.7990381057
100
AcDbArc
 50
152.7144649101
 51
182.3884943821
  0
ARC
  5
505
100
AcDbEntity
  8
7_ALL_FEATURES
100
AcDbCircle
 62
7
  6
CONTINUOUS
 10
2514.6701013713
 20
1311.2151463261
 40
4.7990381057
100
AcDbArc
 50
357.6115056179
 51
27.2855350899
  0
ARC
  5
506
100
AcDbEntity
  8
7_ALL_FEATURES
100
AcDbCircle
 62
7
  6
CONTINUOUS
 10
2764.6701013713
 20
1311.2151463261
 40
4.7990381057
100
AcDbArc
 50
152.7144649101
 51
182.3884943821
  0
ARC
  5
507
100
AcDbEntity
  8
7_ALL_FEATURES
100
AcDbCircle
 62
7
  6
CONTINUOUS
 10
2264.6701013713
 20
1311.2151463261
 40
4.7990381057
100
AcDbArc
 50
357.6115056179
 51
27.2855350899
  0
ARC
  5
508
100
AcDbEntity
  8
7_ALL_FEATURES
100
AcDbCircle
 62
7
  6
CONTINUOUS
 10
2514.6701013713
 20
1311.2151463261
 40
4.7990381057
100
AcDbArc
 50
152.7144649101
 51
182.3884943821
  0
ARC
  5
509
100
AcDbEntity
  8
7_ALL_FEATURES
100
AcDbCircle
 62
7
  6
CONTINUOUS
 10
2014.6701013713
 20
1311.2151463261
 40
4.7990381057
100
AcDbArc
 50
357.6115056179
 51
27.2855350899
  0
ARC
  5
50A
100
AcDbEntity
  8
7_ALL_FEATURES
100
AcDbCircle
 62
7
  6
CONTINUOUS
 10
2264.6701013713
 20
1311.2151463261
 40
4.7990381057
100
AcDbArc
 50
152.7144649101
 51
182.3884943821
  0
ARC
  5
50B
100
AcDbEntity
  8
7_ALL_FEATURES
100
AcDbCircle
 62
7
  6
CONTINUOUS
 10
1764.6701013713
 20
1311.2151463261
 40
4.7990381057
100
AcDbArc
 50
357.6115056179
 51
27.2855350899
  0
ARC
  5
50C
100
AcDbEntity
  8
7_ALL_FEATURES
100
AcDbCircle
 62
7
  6
CONTINUOUS
 10
2014.6701013713
 20
1311.2151463261
 40
4.7990381057
100
AcDbArc
 50
152.7144649101
 51
182.3884943821
  0
ARC
  5
50D
100
AcDbEntity
  8
7_ALL_FEATURES
100
AcDbCircle
 62
7
  6
CONTINUOUS
 10
1764.6701013713
 20
1311.2151463261
 40
4.7990381057
100
AcDbArc
 50
152.7144649101
 51
182.3884943821
  0
ARC
  5
50E
100
AcDbEntity
  8
7_ALL_FEATURES
100
AcDbCircle
 62
7
  6
CONTINUOUS
 10
3014.6701013713
 20
1311.2151463261
 40
4.7990381057
100
AcDbArc
 50
313.171184019
 51
350.4039906056
  0
ARC
  5
50F
100
AcDbEntity
  8
7_ALL_FEATURES
100
AcDbCircle
 62
7
  6
CONTINUOUS
 10
2764.6701013713
 20
1311.2151463261
 40
4.7990381057
100
AcDbArc
 50
313.171184019
 51
350.4039906056
  0
ARC
  5
510
100
AcDbEntity
  8
7_ALL_FEATURES
100
AcDbCircle
 62
7
  6
CONTINUOUS
 10
3014.6701013713
 20
1311.2151463261
 40
4.7990381057
100
AcDbArc
 50
189.5960093944
 51
226.828815981
  0
ARC
  5
511
100
AcDbEntity
  8
7_ALL_FEATURES
100
AcDbCircle
 62
7
  6
CONTINUOUS
 10
2514.6701013713
 20
1311.2151463261
 40
4.7990381057
100
AcDbArc
 50
313.171184019
 51
350.4039906056
  0
ARC
  5
512
100
AcDbEntity
  8
7_ALL_FEATURES
100
AcDbCircle
 62
7
  6
CONTINUOUS
 10
2764.6701013713
 20
1311.2151463261
 40
4.7990381057
100
AcDbArc
 50
189.5960093944
 51
226.828815981
  0
ARC
  5
513
100
AcDbEntity
  8
7_ALL_FEATURES
100
AcDbCircle
 62
7
  6
CONTINUOUS
 10
2264.6701013713
 20
1311.2151463261
 40
4.7990381057
100
AcDbArc
 50
313.171184019
 51
350.4039906056
  0
ARC
  5
514
100
AcDbEntity
  8
7_ALL_FEATURES
100
AcDbCircle
 62
7
  6
CONTINUOUS
 10
2514.6701013713
 20
1311.2151463261
 40
4.7990381057
100
AcDbArc
 50
189.5960093944
 51
226.828815981
  0
ARC
  5
515
100
AcDbEntity
  8
7_ALL_FEATURES
100
AcDbCircle
 62
7
  6
CONTINUOUS
 10
2014.6701013713
 20
1311.2151463261
 40
4.7990381057
100
AcDbArc
 50
313.171184019
 51
350.4039906056
  0
ARC
  5
516
100
AcDbEntity
  8
7_ALL_FEATURES
100
AcDbCircle
 62
7
  6
CONTINUOUS
 10
2264.6701013713
 20
1311.2151463261
 40
4.7990381057
100
AcDbArc
 50
189.5960093944
 51
226.828815981
  0
ARC
  5
517
100
AcDbEntity
  8
7_ALL_FEATURES
100
AcDbCircle
 62
7
  6
CONTINUOUS
 10
1764.6701013713
 20
1311.2151463261
 40
4.7990381057
100
AcDbArc
 50
313.171184019
 51
350.4039906056
  0
ARC
  5
518
100
AcDbEntity
  8
7_ALL_FEATURES
100
AcDbCircle
 62
7
  6
CONTINUOUS
 10
2014.6701013713
 20
1311.2151463261
 40
4.7990381057
100
AcDbArc
 50
189.5960093944
 51
226.828815981
  0
ARC
  5
519
100
AcDbEntity
  8
7_ALL_FEATURES
100
AcDbCircle
 62
7
  6
CONTINUOUS
 10
1764.6701013713
 20
1311.2151463261
 40
4.7990381057
100
AcDbArc
 50
189.5960093944
 51
226.828815981
  0
CIRCLE
  5
51A
100
AcDbEntity
  8
6_ALL_SURFS
100
AcDbCircle
 62
7
  6
CONTINUOUS
 10
1764.6701013713
 20
1311.2151463261
 40
3.5
  0
CIRCLE
  5
51B
100
AcDbEntity
  8
6_ALL_SURFS
100
AcDbCircle
 62
7
  6
CONTINUOUS
 10
2014.6701013713
 20
1311.2151463261
 40
3.5
  0
CIRCLE
  5
51C
100
AcDbEntity
  8
6_ALL_SURFS
100
AcDbCircle
 62
7
  6
CONTINUOUS
 10
2264.6701013713
 20
1311.2151463261
 40
3.5
  0
CIRCLE
  5
51D
100
AcDbEntity
  8
6_ALL_SURFS
100
AcDbCircle
 62
7
  6
CONTINUOUS
 10
2514.6701013713
 20
1311.2151463261
 40
3.5
  0
CIRCLE
  5
51E
100
AcDbEntity
  8
6_ALL_SURFS
100
AcDbCircle
 62
7
  6
CONTINUOUS
 10
2764.6701013713
 20
1311.2151463261
 40
3.5
  0
CIRCLE
  5
51F
100
AcDbEntity
  8
6_ALL_SURFS
100
AcDbCircle
 62
7
  6
CONTINUOUS
 10
3014.6701013713
 20
1311.2151463261
 40
3.5
  0
ARC
  5
520
100
AcDbEntity
  8
6_ALL_SURFS
100
AcDbCircle
 62
7
  6
CONTINUOUS
 10
1764.6701013713
 20
1409.1151463261
 40
4.7990381057
100
AcDbArc
 50
177.6115056179
 51
207.2855350899
  0
ARC
  5
521
100
AcDbEntity
  8
6_ALL_SURFS
100
AcDbCircle
 62
7
  6
CONTINUOUS
 10
2014.6701013713
 20
1409.1151463261
 40
4.7990381057
100
AcDbArc
 50
177.6115056179
 51
207.2855350899
  0
ARC
  5
522
100
AcDbEntity
  8
6_ALL_SURFS
100
AcDbCircle
 62
7
  6
CONTINUOUS
 10
1764.6701013713
 20
1409.1151463261
 40
4.7990381057
100
AcDbArc
 50
332.7144649101
 51
2.3884943821
  0
ARC
  5
523
100
AcDbEntity
  8
6_ALL_SURFS
100
AcDbCircle
 62
7
  6
CONTINUOUS
 10
2264.6701013713
 20
1409.1151463261
 40
4.7990381057
100
AcDbArc
 50
177.6115056179
 51
207.2855350899
  0
ARC
  5
524
100
AcDbEntity
  8
6_ALL_SURFS
100
AcDbCircle
 62
7
  6
CONTINUOUS
 10
2014.6701013713
 20
1409.1151463261
 40
4.7990381057
100
AcDbArc
 50
332.7144649101
 51
2.3884943821
  0
ARC
  5
525
100
AcDbEntity
  8
6_ALL_SURFS
100
AcDbCircle
 62
7
  6
CONTINUOUS
 10
2514.6701013713
 20
1409.1151463261
 40
4.7990381057
100
AcDbArc
 50
177.6115056179
 51
207.2855350899
  0
ARC
  5
526
100
AcDbEntity
  8
6_ALL_SURFS
100
AcDbCircle
 62
7
  6
CONTINUOUS
 10
2264.6701013713
 20
1409.1151463261
 40
4.7990381057
100
AcDbArc
 50
332.7144649101
 51
2.3884943821
  0
ARC
  5
527
100
AcDbEntity
  8
6_ALL_SURFS
100
AcDbCircle
 62
7
  6
CONTINUOUS
 10
2764.6701013713
 20
1409.1151463261
 40
4.7990381057
100
AcDbArc
 50
177.6115056179
 51
207.2855350899
  0
ARC
  5
528
100
AcDbEntity
  8
6_ALL_SURFS
100
AcDbCircle
 62
7
  6
CONTINUOUS
 10
2514.6701013713
 20
1409.1151463261
 40
4.7990381057
100
AcDbArc
 50
332.7144649101
 51
2.3884943821
  0
ARC
  5
529
100
AcDbEntity
  8
6_ALL_SURFS
100
AcDbCircle
 62
7
  6
CONTINUOUS
 10
3014.6701013713
 20
1409.1151463261
 40
4.7990381057
100
AcDbArc
 50
177.6115056179
 51
207.2855350899
  0
ARC
  5
52A
100
AcDbEntity
  8
6_ALL_SURFS
100
AcDbCircle
 62
7
  6
CONTINUOUS
 10
2764.6701013713
 20
1409.1151463261
 40
4.7990381057
100
AcDbArc
 50
332.7144649101
 51
2.3884943821
  0
ARC
  5
52B
100
AcDbEntity
  8
6_ALL_SURFS
100
AcDbCircle
 62
7
  6
CONTINUOUS
 10
3014.6701013713
 20
1409.1151463261
 40
4.7990381057
100
AcDbArc
 50
332.7144649101
 51
2.3884943821
  0
ARC
  5
52C
100
AcDbEntity
  8
6_ALL_SURFS
100
AcDbCircle
 62
7
  6
CONTINUOUS
 10
3014.6701013713
 20
1409.1151463261
 40
4.7990381057
100
AcDbArc
 50
215.6935828234
 51
324.3064171766
  0
ARC
  5
52D
100
AcDbEntity
  8
6_ALL_SURFS
100
AcDbCircle
 62
7
  6
CONTINUOUS
 10
2764.6701013713
 20
1409.1151463261
 40
4.7990381057
100
AcDbArc
 50
215.6935828234
 51
324.3064171766
  0
ARC
  5
52E
100
AcDbEntity
  8
6_ALL_SURFS
100
AcDbCircle
 62
7
  6
CONTINUOUS
 10
2514.6701013713
 20
1409.1151463261
 40
4.7990381057
100
AcDbArc
 50
215.6935828234
 51
324.3064171766
  0
ARC
  5
52F
100
AcDbEntity
  8
6_ALL_SURFS
100
AcDbCircle
 62
7
  6
CONTINUOUS
 10
2264.6701013713
 20
1409.1151463261
 40
4.7990381057
100
AcDbArc
 50
215.6935828234
 51
324.3064171766
  0
ARC
  5
530
100
AcDbEntity
  8
6_ALL_SURFS
100
AcDbCircle
 62
7
  6
CONTINUOUS
 10
2014.6701013713
 20
1409.1151463261
 40
4.7990381057
100
AcDbArc
 50
215.6935828234
 51
324.3064171766
  0
ARC
  5
531
100
AcDbEntity
  8
6_ALL_SURFS
100
AcDbCircle
 62
7
  6
CONTINUOUS
 10
1764.6701013713
 20
1409.1151463261
 40
4.7990381057
100
AcDbArc
 50
215.6935828234
 51
324.3064171766
  0
ARC
  5
532
100
AcDbEntity
  8
6_ALL_SURFS
100
AcDbCircle
 62
7
  6
CONTINUOUS
 10
1764.6701013713
 20
1409.1151463261
 40
4.7990381057
100
AcDbArc
 50
133.171184019
 51
170.4039906056
  0
ARC
  5
533
100
AcDbEntity
  8
6_ALL_SURFS
100
AcDbCircle
 62
7
  6
CONTINUOUS
 10
2014.6701013713
 20
1409.1151463261
 40
4.7990381057
100
AcDbArc
 50
133.171184019
 51
170.4039906056
  0
ARC
  5
534
100
AcDbEntity
  8
6_ALL_SURFS
100
AcDbCircle
 62
7
  6
CONTINUOUS
 10
1764.6701013713
 20
1409.1151463261
 40
4.7990381057
100
AcDbArc
 50
9.5960093944
 51
46.828815981
  0
ARC
  5
535
100
AcDbEntity
  8
6_ALL_SURFS
100
AcDbCircle
 62
7
  6
CONTINUOUS
 10
2264.6701013713
 20
1409.1151463261
 40
4.7990381057
100
AcDbArc
 50
133.171184019
 51
170.4039906056
  0
ARC
  5
536
100
AcDbEntity
  8
6_ALL_SURFS
100
AcDbCircle
 62
7
  6
CONTINUOUS
 10
2014.6701013713
 20
1409.1151463261
 40
4.7990381057
100
AcDbArc
 50
9.5960093944
 51
46.828815981
  0
ARC
  5
537
100
AcDbEntity
  8
6_ALL_SURFS
100
AcDbCircle
 62
7
  6
CONTINUOUS
 10
2514.6701013713
 20
1409.1151463261
 40
4.7990381057
100
AcDbArc
 50
133.171184019
 51
170.4039906056
  0
ARC
  5
538
100
AcDbEntity
  8
6_ALL_SURFS
100
AcDbCircle
 62
7
  6
CONTINUOUS
 10
2264.6701013713
 20
1409.1151463261
 40
4.7990381057
100
AcDbArc
 50
9.5960093944
 51
46.828815981
  0
ARC
  5
539
100
AcDbEntity
  8
6_ALL_SURFS
100
AcDbCircle
 62
7
  6
CONTINUOUS
 10
2764.6701013713
 20
1409.1151463261
 40
4.7990381057
100
AcDbArc
 50
133.171184019
 51
170.4039906056
  0
ARC
  5
53A
100
AcDbEntity
  8
6_ALL_SURFS
100
AcDbCircle
 62
7
  6
CONTINUOUS
 10
2514.6701013713
 20
1409.1151463261
 40
4.7990381057
100
AcDbArc
 50
9.5960093944
 51
46.828815981
  0
ARC
  5
53B
100
AcDbEntity
  8
6_ALL_SURFS
100
AcDbCircle
 62
7
  6
CONTINUOUS
 10
3014.6701013713
 20
1409.1151463261
 40
4.7990381057
100
AcDbArc
 50
133.171184019
 51
170.4039906056
  0
ARC
  5
53C
100
AcDbEntity
  8
6_ALL_SURFS
100
AcDbCircle
 62
7
  6
CONTINUOUS
 10
2764.6701013713
 20
1409.1151463261
 40
4.7990381057
100
AcDbArc
 50
9.5960093944
 51
46.828815981
  0
ARC
  5
53D
100
AcDbEntity
  8
6_ALL_SURFS
100
AcDbCircle
 62
7
  6
CONTINUOUS
 10
3014.6701013713
 20
1409.1151463261
 40
4.7990381057
100
AcDbArc
 50
9.5960093944
 51
46.828815981
  0
CIRCLE
  5
53E
100
AcDbEntity
  8
6_ALL_SURFS
100
AcDbCircle
 62
7
  6
CONTINUOUS
 10
1764.6701013713
 20
1409.1151463261
 40
3.5
  0
CIRCLE
  5
53F
100
AcDbEntity
  8
6_ALL_SURFS
100
AcDbCircle
 62
7
  6
CONTINUOUS
 10
2014.6701013713
 20
1409.1151463261
 40
3.5
  0
CIRCLE
  5
540
100
AcDbEntity
  8
6_ALL_SURFS
100
AcDbCircle
 62
7
  6
CONTINUOUS
 10
2264.6701013713
 20
1409.1151463261
 40
3.5
  0
CIRCLE
  5
541
100
AcDbEntity
  8
6_ALL_SURFS
100
AcDbCircle
 62
7
  6
CONTINUOUS
 10
2514.6701013713
 20
1409.1151463261
 40
3.5
  0
CIRCLE
  5
542
100
AcDbEntity
  8
6_ALL_SURFS
100
AcDbCircle
 62
7
  6
CONTINUOUS
 10
2764.6701013713
 20
1409.1151463261
 40
3.5
  0
CIRCLE
  5
543
100
AcDbEntity
  8
6_ALL_SURFS
100
AcDbCircle
 62
7
  6
CONTINUOUS
 10
3014.6701013713
 20
1409.1151463261
 40
3.5
  0
SPLINE
  5
544
100
AcDbEntity
  8
6_ALL_SURFS
100
AcDbSpline
 62
7
  6
CONTINUOUS
 70
0
 71
3
 72
9
 73
5
 74
0
 42
0.0000001
 43
0.0000001
 44
0.0000000001
 40
0.0
 40
0.0
 40
0.0
 40
0.0
 40
0.5055960863
 40
1.0
 40
1.0
 40
1.0
 40
1.0
 10
1769.4649701641
 20
1409.3151463261
 30
0.0
 10
1769.3722446046
 20
1409.3842476123
 30
0.0
 10
1769.1970866937
 20
1409.5871752713
 30
0.0
 10
1769.3167084262
 20
1409.8408858645
 30
0.0
 10
1769.4019896561
 20
1409.9151463261
 30
0.0
  0
SPLINE
  5
545
100
AcDbEntity
  8
6_ALL_SURFS
100
AcDbSpline
 62
7
  6
CONTINUOUS
 70
0
 71
3
 72
9
 73
5
 74
0
 42
0.0000001
 43
0.0000001
 44
0.0000000001
 40
0.0
 40
0.0
 40
0.0
 40
0.0
 40
0.4937401151
 40
1.0
 40
1.0
 40
1.0
 40
1.0
 10
2259.9382130865
 20
1409.9151463261
 30
0.0
 10
2260.023355731
 20
1409.8410065407
 30
0.0
 10
2260.1427671378
 20
1409.5875399155
 30
0.0
 10
2259.9680536209
 20
1409.3843187684
 30
0.0
 10
2259.8752325785
 20
1409.3151463261
 30
0.0
  0
SPLINE
  5
546
100
AcDbEntity
  8
6_ALL_SURFS
100
AcDbSpline
 62
7
  6
CONTINUOUS
 70
0
 71
3
 72
9
 73
5
 74
0
 42
0.0000001
 43
0.0000001
 44
0.0000000001
 40
0.0
 40
0.0
 40
0.0
 40
0.0
 40
0.5055960863
 40
1.0
 40
1.0
 40
1.0
 40
1.0
 10
2019.4649701641
 20
1409.3151463261
 30
0.0
 10
2019.3722446046
 20
1409.3842476123
 30
0.0
 10
2019.1970866937
 20
1409.5871752713
 30
0.0
 10
2019.3167084262
 20
1409.8408858645
 30
0.0
 10
2019.4019896561
 20
1409.9151463261
 30
0.0
  0
SPLINE
  5
547
100
AcDbEntity
  8
6_ALL_SURFS
100
AcDbSpline
 62
7
  6
CONTINUOUS
 70
0
 71
3
 72
9
 73
5
 74
0
 42
0.0000001
 43
0.0000001
 44
0.0000000001
 40
0.0
 40
0.0
 40
0.0
 40
0.0
 40
0.4937401151
 40
1.0
 40
1.0
 40
1.0
 40
1.0
 10
2509.9382130865
 20
1409.9151463261
 30
0.0
 10
2510.023355731
 20
1409.8410065407
 30
0.0
 10
2510.1427671378
 20
1409.5875399155
 30
0.0
 10
2509.9680536209
 20
1409.3843187684
 30
0.0
 10
2509.8752325785
 20
1409.3151463261
 30
0.0
  0
SPLINE
  5
548
100
AcDbEntity
  8
6_ALL_SURFS
100
AcDbSpline
 62
7
  6
CONTINUOUS
 70
0
 71
3
 72
9
 73
5
 74
0
 42
0.0000001
 43
0.0000001
 44
0.0000000001
 40
0.0
 40
0.0
 40
0.0
 40
0.0
 40
0.5055960863
 40
1.0
 40
1.0
 40
1.0
 40
1.0
 10
2269.4649701641
 20
1409.3151463261
 30
0.0
 10
2269.3722446046
 20
1409.3842476123
 30
0.0
 10
2269.1970866937
 20
1409.5871752713
 30
0.0
 10
2269.3167084262
 20
1409.8408858645
 30
0.0
 10
2269.4019896561
 20
1409.9151463261
 30
0.0
  0
SPLINE
  5
549
100
AcDbEntity
  8
6_ALL_SURFS
100
AcDbSpline
 62
7
  6
CONTINUOUS
 70
0
 71
3
 72
9
 73
5
 74
0
 42
0.0000001
 43
0.0000001
 44
0.0000000001
 40
0.0
 40
0.0
 40
0.0
 40
0.0
 40
0.4937401151
 40
1.0
 40
1.0
 40
1.0
 40
1.0
 10
2759.9382130865
 20
1409.9151463261
 30
0.0
 10
2760.023355731
 20
1409.8410065407
 30
0.0
 10
2760.1427671378
 20
1409.5875399155
 30
0.0
 10
2759.9680536209
 20
1409.3843187684
 30
0.0
 10
2759.8752325785
 20
1409.3151463261
 30
0.0
  0
SPLINE
  5
54A
100
AcDbEntity
  8
6_ALL_SURFS
100
AcDbSpline
 62
7
  6
CONTINUOUS
 70
0
 71
3
 72
9
 73
5
 74
0
 42
0.0000001
 43
0.0000001
 44
0.0000000001
 40
0.0
 40
0.0
 40
0.0
 40
0.0
 40
0.5055960863
 40
1.0
 40
1.0
 40
1.0
 40
1.0
 10
2519.4649701641
 20
1409.3151463261
 30
0.0
 10
2519.3722446046
 20
1409.3842476123
 30
0.0
 10
2519.1970866937
 20
1409.5871752713
 30
0.0
 10
2519.3167084262
 20
1409.8408858645
 30
0.0
 10
2519.4019896561
 20
1409.9151463261
 30
0.0
  0
SPLINE
  5
54B
100
AcDbEntity
  8
6_ALL_SURFS
100
AcDbSpline
 62
7
  6
CONTINUOUS
 70
0
 71
3
 72
9
 73
5
 74
0
 42
0.0000001
 43
0.0000001
 44
0.0000000001
 40
0.0
 40
0.0
 40
0.0
 40
0.0
 40
0.4937401151
 40
1.0
 40
1.0
 40
1.0
 40
1.0
 10
3009.9382130865
 20
1409.9151463261
 30
0.0
 10
3010.023355731
 20
1409.8410065407
 30
0.0
 10
3010.1427671378
 20
1409.5875399155
 30
0.0
 10
3009.9680536209
 20
1409.3843187684
 30
0.0
 10
3009.8752325785
 20
1409.3151463261
 30
0.0
  0
SPLINE
  5
54C
100
AcDbEntity
  8
6_ALL_SURFS
100
AcDbSpline
 62
7
  6
CONTINUOUS
 70
0
 71
3
 72
9
 73
5
 74
0
 42
0.0000001
 43
0.0000001
 44
0.0000000001
 40
0.0
 40
0.0
 40
0.0
 40
0.0
 40
0.5055960863
 40
1.0
 40
1.0
 40
1.0
 40
1.0
 10
2769.4649701641
 20
1409.3151463261
 30
0.0
 10
2769.3722446046
 20
1409.3842476123
 30
0.0
 10
2769.1970866937
 20
1409.5871752713
 30
0.0
 10
2769.3167084262
 20
1409.8408858645
 30
0.0
 10
2769.4019896561
 20
1409.9151463261
 30
0.0
  0
SPLINE
  5
54D
100
AcDbEntity
  8
6_ALL_SURFS
100
AcDbSpline
 62
7
  6
CONTINUOUS
 70
0
 71
3
 72
9
 73
5
 74
0
 42
0.0000001
 43
0.0000001
 44
0.0000000001
 40
0.0
 40
0.0
 40
0.0
 40
0.0
 40
0.5055960863
 40
1.0
 40
1.0
 40
1.0
 40
1.0
 10
3019.4649701641
 20
1409.3151463261
 30
0.0
 10
3019.3722446046
 20
1409.3842476123
 30
0.0
 10
3019.1970866937
 20
1409.5871752713
 30
0.0
 10
3019.3167084262
 20
1409.8408858645
 30
0.0
 10
3019.4019896561
 20
1409.9151463261
 30
0.0
  0
SPLINE
  5
54E
100
AcDbEntity
  8
6_ALL_SURFS
100
AcDbSpline
 62
7
  6
CONTINUOUS
 70
0
 71
3
 72
10
 73
6
 74
0
 42
0.0000001
 43
0.0000001
 44
0.0000000001
 40
0.0
 40
0.0
 40
0.0
 40
0.0
 40
0.5048165551
 40
0.7633484119
 40
1.0
 40
1.0
 40
1.0
 40
1.0
 10
510.4050378618
 20
1406.9151463261
 30
0.0
 10
510.5248049319
 20
1406.8545812227
 30
0.0
 10
510.6964652838
 20
1406.7430868615
 30
0.0
 10
510.856947167
 20
1406.5095422804
 30
0.0
 10
510.8141613034
 20
1406.362352259
 30
0.0
 10
510.7725679539
 20
1406.3151463261
 30
0.0
  0
SPLINE
  5
54F
100
AcDbEntity
  8
6_ALL_SURFS
100
AcDbSpline
 62
7
  6
CONTINUOUS
 70
0
 71
3
 72
10
 73
6
 74
0
 42
0.0000001
 43
0.0000001
 44
0.0000000001
 40
0.0
 40
0.0
 40
0.0
 40
0.0
 40
0.5048165551
 40
0.7633484119
 40
1.0
 40
1.0
 40
1.0
 40
1.0
 10
760.4050378618
 20
1406.9151463261
 30
0.0
 10
760.5248049319
 20
1406.8545812227
 30
0.0
 10
760.6964652838
 20
1406.7430868615
 30
0.0
 10
760.856947167
 20
1406.5095422804
 30
0.0
 10
760.8141613034
 20
1406.362352259
 30
0.0
 10
760.7725679539
 20
1406.3151463261
 30
0.0
  0
SPLINE
  5
550
100
AcDbEntity
  8
6_ALL_SURFS
100
AcDbSpline
 62
7
  6
CONTINUOUS
 70
0
 71
3
 72
11
 73
7
 74
0
 42
0.0000001
 43
0.0000001
 44
0.0000000001
 40
0.0
 40
0.0
 40
0.0
 40
0.0
 40
0.2332111058
 40
0.4922043119
 40
0.7492259914
 40
1.0
 40
1.0
 40
1.0
 40
1.0
 10
518.5676347887
 20
1406.3151463261
 30
0.0
 10
518.5265771882
 20
1406.3617442164
 30
0.0
 10
518.4840022863
 20
1406.5076093714
 30
0.0
 10
518.6030179564
 20
1406.6849481446
 30
0.0
 10
518.7579688383
 20
1406.8160901794
 30
0.0
 10
518.8755690026
 20
1406.8850092399
 30
0.0
 10
518.9351648808
 20
1406.9151463261
 30
0.0
  0
SPLINE
  5
551
100
AcDbEntity
  8
6_ALL_SURFS
100
AcDbSpline
 62
7
  6
CONTINUOUS
 70
0
 71
3
 72
10
 73
6
 74
0
 42
0.0000001
 43
0.0000001
 44
0.0000000001
 40
0.0
 40
0.0
 40
0.0
 40
0.0
 40
0.5048165551
 40
0.7633484119
 40
1.0
 40
1.0
 40
1.0
 40
1.0
 10
1010.4050378618
 20
1406.9151463261
 30
0.0
 10
1010.5248049319
 20
1406.8545812227
 30
0.0
 10
1010.6964652838
 20
1406.7430868615
 30
0.0
 10
1010.856947167
 20
1406.5095422804
 30
0.0
 10
1010.8141613034
 20
1406.362352259
 30
0.0
 10
1010.7725679539
 20
1406.3151463261
 30
0.0
  0
SPLINE
  5
552
100
AcDbEntity
  8
6_ALL_SURFS
100
AcDbSpline
 62
7
  6
CONTINUOUS
 70
0
 71
3
 72
11
 73
7
 74
0
 42
0.0000001
 43
0.0000001
 44
0.0000000001
 40
0.0
 40
0.0
 40
0.0
 40
0.0
 40
0.2332111058
 40
0.4922043119
 40
0.7492259914
 40
1.0
 40
1.0
 40
1.0
 40
1.0
 10
768.5676347887
 20
1406.3151463261
 30
0.0
 10
768.5265771882
 20
1406.3617442164
 30
0.0
 10
768.4840022863
 20
1406.5076093714
 30
0.0
 10
768.6030179564
 20
1406.6849481446
 30
0.0
 10
768.7579688383
 20
1406.8160901794
 30
0.0
 10
768.8755690026
 20
1406.8850092399
 30
0.0
 10
768.9351648808
 20
1406.9151463261
 30
0.0
  0
SPLINE
  5
553
100
AcDbEntity
  8
6_ALL_SURFS
100
AcDbSpline
 62
7
  6
CONTINUOUS
 70
0
 71
3
 72
10
 73
6
 74
0
 42
0.0000001
 43
0.0000001
 44
0.0000000001
 40
0.0
 40
0.0
 40
0.0
 40
0.0
 40
0.5048165551
 40
0.7633484119
 40
1.0
 40
1.0
 40
1.0
 40
1.0
 10
1260.4050378618
 20
1406.9151463261
 30
0.0
 10
1260.5248049319
 20
1406.8545812227
 30
0.0
 10
1260.6964652838
 20
1406.7430868615
 30
0.0
 10
1260.856947167
 20
1406.5095422804
 30
0.0
 10
1260.8141613034
 20
1406.362352259
 30
0.0
 10
1260.7725679539
 20
1406.3151463261
 30
0.0
  0
SPLINE
  5
554
100
AcDbEntity
  8
6_ALL_SURFS
100
AcDbSpline
 62
7
  6
CONTINUOUS
 70
0
 71
3
 72
11
 73
7
 74
0
 42
0.0000001
 43
0.0000001
 44
0.0000000001
 40
0.0
 40
0.0
 40
0.0
 40
0.0
 40
0.2332111058
 40
0.4922043119
 40
0.7492259914
 40
1.0
 40
1.0
 40
1.0
 40
1.0
 10
1018.5676347887
 20
1406.3151463261
 30
0.0
 10
1018.5265771882
 20
1406.3617442164
 30
0.0
 10
1018.4840022863
 20
1406.5076093714
 30
0.0
 10
1018.6030179564
 20
1406.6849481446
 30
0.0
 10
1018.7579688383
 20
1406.8160901794
 30
0.0
 10
1018.8755690026
 20
1406.8850092399
 30
0.0
 10
1018.9351648808
 20
1406.9151463261
 30
0.0
  0
SPLINE
  5
555
100
AcDbEntity
  8
6_ALL_SURFS
100
AcDbSpline
 62
7
  6
CONTINUOUS
 70
0
 71
3
 72
10
 73
6
 74
0
 42
0.0000001
 43
0.0000001
 44
0.0000000001
 40
0.0
 40
0.0
 40
0.0
 40
0.0
 40
0.5048165551
 40
0.7633484119
 40
1.0
 40
1.0
 40
1.0
 40
1.0
 10
1510.4050378618
 20
1406.9151463261
 30
0.0
 10
1510.5248049319
 20
1406.8545812227
 30
0.0
 10
1510.6964652838
 20
1406.7430868615
 30
0.0
 10
1510.856947167
 20
1406.5095422804
 30
0.0
 10
1510.8141613034
 20
1406.362352259
 30
0.0
 10
1510.7725679539
 20
1406.3151463261
 30
0.0
  0
SPLINE
  5
556
100
AcDbEntity
  8
6_ALL_SURFS
100
AcDbSpline
 62
7
  6
CONTINUOUS
 70
0
 71
3
 72
11
 73
7
 74
0
 42
0.0000001
 43
0.0000001
 44
0.0000000001
 40
0.0
 40
0.0
 40
0.0
 40
0.0
 40
0.2332111058
 40
0.4922043119
 40
0.7492259914
 40
1.0
 40
1.0
 40
1.0
 40
1.0
 10
1268.5676347887
 20
1406.3151463261
 30
0.0
 10
1268.5265771882
 20
1406.3617442164
 30
0.0
 10
1268.4840022863
 20
1406.5076093714
 30
0.0
 10
1268.6030179564
 20
1406.6849481446
 30
0.0
 10
1268.7579688383
 20
1406.8160901794
 30
0.0
 10
1268.8755690026
 20
1406.8850092399
 30
0.0
 10
1268.9351648808
 20
1406.9151463261
 30
0.0
  0
SPLINE
  5
557
100
AcDbEntity
  8
7_ALL_FEATURES
100
AcDbSpline
 62
7
  6
CONTINUOUS
 70
0
 71
3
 72
11
 73
7
 74
0
 42
0.0000001
 43
0.0000001
 44
0.0000000001
 40
0.0
 40
0.0
 40
0.0
 40
0.0
 40
0.2332111058
 40
0.4922043119
 40
0.7492259914
 40
1.0
 40
1.0
 40
1.0
 40
1.0
 10
3018.5676347887
 20
1314.0151463261
 30
0.0
 10
3018.5265771882
 20
1313.9685484358
 30
0.0
 10
3018.4840022863
 20
1313.8226832809
 30
0.0
 10
3018.6030179564
 20
1313.6453445077
 30
0.0
 10
3018.7579688383
 20
1313.5142024729
 30
0.0
 10
3018.8755690026
 20
1313.4452834124
 30
0.0
 10
3018.9351648808
 20
1313.4151463261
 30
0.0
  0
SPLINE
  5
558
100
AcDbEntity
  8
7_ALL_FEATURES
100
AcDbSpline
 62
7
  6
CONTINUOUS
 70
0
 71
3
 72
11
 73
7
 74
0
 42
0.0000001
 43
0.0000001
 44
0.0000000001
 40
0.0
 40
0.0
 40
0.0
 40
0.0
 40
0.2332111058
 40
0.4922043119
 40
0.7492259914
 40
1.0
 40
1.0
 40
1.0
 40
1.0
 10
2768.5676347887
 20
1314.0151463261
 30
0.0
 10
2768.5265771882
 20
1313.9685484358
 30
0.0
 10
2768.4840022863
 20
1313.8226832809
 30
0.0
 10
2768.6030179564
 20
1313.6453445077
 30
0.0
 10
2768.7579688383
 20
1313.5142024729
 30
0.0
 10
2768.8755690026
 20
1313.4452834124
 30
0.0
 10
2768.9351648808
 20
1313.4151463261
 30
0.0
  0
SPLINE
  5
559
100
AcDbEntity
  8
7_ALL_FEATURES
100
AcDbSpline
 62
7
  6
CONTINUOUS
 70
0
 71
3
 72
10
 73
6
 74
0
 42
0.0000001
 43
0.0000001
 44
0.0000000001
 40
0.0
 40
0.0
 40
0.0
 40
0.0
 40
0.5048165551
 40
0.7633484119
 40
1.0
 40
1.0
 40
1.0
 40
1.0
 10
3010.4050378618
 20
1313.4151463261
 30
0.0
 10
3010.5248049319
 20
1313.4757114296
 30
0.0
 10
3010.6964652838
 20
1313.5872057908
 30
0.0
 10
3010.856947167
 20
1313.8207503719
 30
0.0
 10
3010.8141613034
 20
1313.9679403932
 30
0.0
 10
3010.7725679539
 20
1314.0151463261
 30
0.0
  0
SPLINE
  5
55A
100
AcDbEntity
  8
7_ALL_FEATURES
100
AcDbSpline
 62
7
  6
CONTINUOUS
 70
0
 71
3
 72
11
 73
7
 74
0
 42
0.0000001
 43
0.0000001
 44
0.0000000001
 40
0.0
 40
0.0
 40
0.0
 40
0.0
 40
0.2332111058
 40
0.4922043119
 40
0.7492259914
 40
1.0
 40
1.0
 40
1.0
 40
1.0
 10
2518.5676347887
 20
1314.0151463261
 30
0.0
 10
2518.5265771882
 20
1313.9685484358
 30
0.0
 10
2518.4840022863
 20
1313.8226832809
 30
0.0
 10
2518.6030179564
 20
1313.6453445077
 30
0.0
 10
2518.7579688383
 20
1313.5142024729
 30
0.0
 10
2518.8755690026
 20
1313.4452834124
 30
0.0
 10
2518.9351648808
 20
1313.4151463261
 30
0.0
  0
SPLINE
  5
55B
100
AcDbEntity
  8
7_ALL_FEATURES
100
AcDbSpline
 62
7
  6
CONTINUOUS
 70
0
 71
3
 72
10
 73
6
 74
0
 42
0.0000001
 43
0.0000001
 44
0.0000000001
 40
0.0
 40
0.0
 40
0.0
 40
0.0
 40
0.5048165551
 40
0.7633484119
 40
1.0
 40
1.0
 40
1.0
 40
1.0
 10
2760.4050378618
 20
1313.4151463261
 30
0.0
 10
2760.5248049319
 20
1313.4757114296
 30
0.0
 10
2760.6964652838
 20
1313.5872057908
 30
0.0
 10
2760.856947167
 20
1313.8207503719
 30
0.0
 10
2760.8141613034
 20
1313.9679403932
 30
0.0
 10
2760.7725679539
 20
1314.0151463261
 30
0.0
  0
SPLINE
  5
55C
100
AcDbEntity
  8
7_ALL_FEATURES
100
AcDbSpline
 62
7
  6
CONTINUOUS
 70
0
 71
3
 72
11
 73
7
 74
0
 42
0.0000001
 43
0.0000001
 44
0.0000000001
 40
0.0
 40
0.0
 40
0.0
 40
0.0
 40
0.2332111058
 40
0.4922043119
 40
0.7492259914
 40
1.0
 40
1.0
 40
1.0
 40
1.0
 10
2268.5676347887
 20
1314.0151463261
 30
0.0
 10
2268.5265771882
 20
1313.9685484358
 30
0.0
 10
2268.4840022863
 20
1313.8226832809
 30
0.0
 10
2268.6030179564
 20
1313.6453445077
 30
0.0
 10
2268.7579688383
 20
1313.5142024729
 30
0.0
 10
2268.8755690026
 20
1313.4452834124
 30
0.0
 10
2268.9351648808
 20
1313.4151463261
 30
0.0
  0
SPLINE
  5
55D
100
AcDbEntity
  8
7_ALL_FEATURES
100
AcDbSpline
 62
7
  6
CONTINUOUS
 70
0
 71
3
 72
10
 73
6
 74
0
 42
0.0000001
 43
0.0000001
 44
0.0000000001
 40
0.0
 40
0.0
 40
0.0
 40
0.0
 40
0.5048165551
 40
0.7633484119
 40
1.0
 40
1.0
 40
1.0
 40
1.0
 10
2510.4050378618
 20
1313.4151463261
 30
0.0
 10
2510.5248049319
 20
1313.4757114296
 30
0.0
 10
2510.6964652838
 20
1313.5872057908
 30
0.0
 10
2510.856947167
 20
1313.8207503719
 30
0.0
 10
2510.8141613034
 20
1313.9679403932
 30
0.0
 10
2510.7725679539
 20
1314.0151463261
 30
0.0
  0
SPLINE
  5
55E
100
AcDbEntity
  8
7_ALL_FEATURES
100
AcDbSpline
 62
7
  6
CONTINUOUS
 70
0
 71
3
 72
11
 73
7
 74
0
 42
0.0000001
 43
0.0000001
 44
0.0000000001
 40
0.0
 40
0.0
 40
0.0
 40
0.0
 40
0.2332111058
 40
0.4922043119
 40
0.7492259914
 40
1.0
 40
1.0
 40
1.0
 40
1.0
 10
2018.5676347887
 20
1314.0151463261
 30
0.0
 10
2018.5265771882
 20
1313.9685484358
 30
0.0
 10
2018.4840022863
 20
1313.8226832809
 30
0.0
 10
2018.6030179564
 20
1313.6453445077
 30
0.0
 10
2018.7579688383
 20
1313.5142024729
 30
0.0
 10
2018.8755690026
 20
1313.4452834124
 30
0.0
 10
2018.9351648808
 20
1313.4151463261
 30
0.0
  0
SPLINE
  5
55F
100
AcDbEntity
  8
7_ALL_FEATURES
100
AcDbSpline
 62
7
  6
CONTINUOUS
 70
0
 71
3
 72
10
 73
6
 74
0
 42
0.0000001
 43
0.0000001
 44
0.0000000001
 40
0.0
 40
0.0
 40
0.0
 40
0.0
 40
0.5048165551
 40
0.7633484119
 40
1.0
 40
1.0
 40
1.0
 40
1.0
 10
2260.4050378618
 20
1313.4151463261
 30
0.0
 10
2260.5248049319
 20
1313.4757114296
 30
0.0
 10
2260.6964652838
 20
1313.5872057908
 30
0.0
 10
2260.856947167
 20
1313.8207503719
 30
0.0
 10
2260.8141613034
 20
1313.9679403932
 30
0.0
 10
2260.7725679539
 20
1314.0151463261
 30
0.0
  0
SPLINE
  5
560
100
AcDbEntity
  8
7_ALL_FEATURES
100
AcDbSpline
 62
7
  6
CONTINUOUS
 70
0
 71
3
 72
11
 73
7
 74
0
 42
0.0000001
 43
0.0000001
 44
0.0000000001
 40
0.0
 40
0.0
 40
0.0
 40
0.0
 40
0.2332111058
 40
0.4922043119
 40
0.7492259914
 40
1.0
 40
1.0
 40
1.0
 40
1.0
 10
1768.5676347887
 20
1314.0151463261
 30
0.0
 10
1768.5265771882
 20
1313.9685484358
 30
0.0
 10
1768.4840022863
 20
1313.8226832809
 30
0.0
 10
1768.6030179564
 20
1313.6453445077
 30
0.0
 10
1768.7579688383
 20
1313.5142024729
 30
0.0
 10
1768.8755690026
 20
1313.4452834124
 30
0.0
 10
1768.9351648808
 20
1313.4151463261
 30
0.0
  0
SPLINE
  5
561
100
AcDbEntity
  8
7_ALL_FEATURES
100
AcDbSpline
 62
7
  6
CONTINUOUS
 70
0
 71
3
 72
10
 73
6
 74
0
 42
0.0000001
 43
0.0000001
 44
0.0000000001
 40
0.0
 40
0.0
 40
0.0
 40
0.0
 40
0.5048165551
 40
0.7633484119
 40
1.0
 40
1.0
 40
1.0
 40
1.0
 10
2010.4050378618
 20
1313.4151463261
 30
0.0
 10
2010.5248049319
 20
1313.4757114296
 30
0.0
 10
2010.6964652838
 20
1313.5872057908
 30
0.0
 10
2010.856947167
 20
1313.8207503719
 30
0.0
 10
2010.8141613034
 20
1313.9679403932
 30
0.0
 10
2010.7725679539
 20
1314.0151463261
 30
0.0
  0
SPLINE
  5
562
100
AcDbEntity
  8
7_ALL_FEATURES
100
AcDbSpline
 62
7
  6
CONTINUOUS
 70
0
 71
3
 72
11
 73
7
 74
0
 42
0.0000001
 43
0.0000001
 44
0.0000000001
 40
0.0
 40
0.0
 40
0.0
 40
0.0
 40
0.2332111058
 40
0.4922043119
 40
0.7492259914
 40
1.0
 40
1.0
 40
1.0
 40
1.0
 10
1518.5676347887
 20
1314.0151463261
 30
0.0
 10
1518.5265771882
 20
1313.9685484358
 30
0.0
 10
1518.4840022863
 20
1313.8226832809
 30
0.0
 10
1518.6030179564
 20
1313.6453445077
 30
0.0
 10
1518.7579688383
 20
1313.5142024729
 30
0.0
 10
1518.8755690026
 20
1313.4452834124
 30
0.0
 10
1518.9351648808
 20
1313.4151463261
 30
0.0
  0
SPLINE
  5
563
100
AcDbEntity
  8
7_ALL_FEATURES
100
AcDbSpline
 62
7
  6
CONTINUOUS
 70
0
 71
3
 72
10
 73
6
 74
0
 42
0.0000001
 43
0.0000001
 44
0.0000000001
 40
0.0
 40
0.0
 40
0.0
 40
0.0
 40
0.5048165551
 40
0.7633484119
 40
1.0
 40
1.0
 40
1.0
 40
1.0
 10
1760.4050378618
 20
1313.4151463261
 30
0.0
 10
1760.5248049319
 20
1313.4757114296
 30
0.0
 10
1760.6964652838
 20
1313.5872057908
 30
0.0
 10
1760.856947167
 20
1313.8207503719
 30
0.0
 10
1760.8141613034
 20
1313.9679403932
 30
0.0
 10
1760.7725679539
 20
1314.0151463261
 30
0.0
  0
SPLINE
  5
564
100
AcDbEntity
  8
7_ALL_FEATURES
100
AcDbSpline
 62
7
  6
CONTINUOUS
 70
0
 71
3
 72
11
 73
7
 74
0
 42
0.0000001
 43
0.0000001
 44
0.0000000001
 40
0.0
 40
0.0
 40
0.0
 40
0.0
 40
0.2332111058
 40
0.4922043119
 40
0.7492259914
 40
1.0
 40
1.0
 40
1.0
 40
1.0
 10
1268.5676347887
 20
1314.0151463261
 30
0.0
 10
1268.5265771882
 20
1313.9685484358
 30
0.0
 10
1268.4840022863
 20
1313.8226832809
 30
0.0
 10
1268.6030179564
 20
1313.6453445077
 30
0.0
 10
1268.7579688383
 20
1313.5142024729
 30
0.0
 10
1268.8755690026
 20
1313.4452834124
 30
0.0
 10
1268.9351648808
 20
1313.4151463261
 30
0.0
  0
SPLINE
  5
565
100
AcDbEntity
  8
7_ALL_FEATURES
100
AcDbSpline
 62
7
  6
CONTINUOUS
 70
0
 71
3
 72
10
 73
6
 74
0
 42
0.0000001
 43
0.0000001
 44
0.0000000001
 40
0.0
 40
0.0
 40
0.0
 40
0.0
 40
0.5048165551
 40
0.7633484119
 40
1.0
 40
1.0
 40
1.0
 40
1.0
 10
1510.4050378618
 20
1313.4151463261
 30
0.0
 10
1510.5248049319
 20
1313.4757114296
 30
0.0
 10
1510.6964652838
 20
1313.5872057908
 30
0.0
 10
1510.856947167
 20
1313.8207503719
 30
0.0
 10
1510.8141613034
 20
1313.9679403932
 30
0.0
 10
1510.7725679539
 20
1314.0151463261
 30
0.0
  0
SPLINE
  5
566
100
AcDbEntity
  8
7_ALL_FEATURES
100
AcDbSpline
 62
7
  6
CONTINUOUS
 70
0
 71
3
 72
11
 73
7
 74
0
 42
0.0000001
 43
0.0000001
 44
0.0000000001
 40
0.0
 40
0.0
 40
0.0
 40
0.0
 40
0.2332111058
 40
0.4922043119
 40
0.7492259914
 40
1.0
 40
1.0
 40
1.0
 40
1.0
 10
1018.5676347887
 20
1314.0151463261
 30
0.0
 10
1018.5265771882
 20
1313.9685484358
 30
0.0
 10
1018.4840022863
 20
1313.8226832809
 30
0.0
 10
1018.6030179564
 20
1313.6453445077
 30
0.0
 10
1018.7579688383
 20
1313.5142024729
 30
0.0
 10
1018.8755690026
 20
1313.4452834124
 30
0.0
 10
1018.9351648808
 20
1313.4151463261
 30
0.0
  0
SPLINE
  5
567
100
AcDbEntity
  8
7_ALL_FEATURES
100
AcDbSpline
 62
7
  6
CONTINUOUS
 70
0
 71
3
 72
10
 73
6
 74
0
 42
0.0000001
 43
0.0000001
 44
0.0000000001
 40
0.0
 40
0.0
 40
0.0
 40
0.0
 40
0.5048165551
 40
0.7633484119
 40
1.0
 40
1.0
 40
1.0
 40
1.0
 10
1260.4050378618
 20
1313.4151463261
 30
0.0
 10
1260.5248049319
 20
1313.4757114296
 30
0.0
 10
1260.6964652838
 20
1313.5872057908
 30
0.0
 10
1260.856947167
 20
1313.8207503719
 30
0.0
 10
1260.8141613034
 20
1313.9679403932
 30
0.0
 10
1260.7725679539
 20
1314.0151463261
 30
0.0
  0
SPLINE
  5
568
100
AcDbEntity
  8
7_ALL_FEATURES
100
AcDbSpline
 62
7
  6
CONTINUOUS
 70
0
 71
3
 72
11
 73
7
 74
0
 42
0.0000001
 43
0.0000001
 44
0.0000000001
 40
0.0
 40
0.0
 40
0.0
 40
0.0
 40
0.2332111058
 40
0.4922043119
 40
0.7492259914
 40
1.0
 40
1.0
 40
1.0
 40
1.0
 10
768.5676347887
 20
1314.0151463261
 30
0.0
 10
768.5265771882
 20
1313.9685484358
 30
0.0
 10
768.4840022863
 20
1313.8226832809
 30
0.0
 10
768.6030179564
 20
1313.6453445077
 30
0.0
 10
768.7579688383
 20
1313.5142024729
 30
0.0
 10
768.8755690026
 20
1313.4452834124
 30
0.0
 10
768.9351648808
 20
1313.4151463261
 30
0.0
  0
SPLINE
  5
569
100
AcDbEntity
  8
7_ALL_FEATURES
100
AcDbSpline
 62
7
  6
CONTINUOUS
 70
0
 71
3
 72
10
 73
6
 74
0
 42
0.0000001
 43
0.0000001
 44
0.0000000001
 40
0.0
 40
0.0
 40
0.0
 40
0.0
 40
0.5048165551
 40
0.7633484119
 40
1.0
 40
1.0
 40
1.0
 40
1.0
 10
1010.4050378618
 20
1313.4151463261
 30
0.0
 10
1010.5248049319
 20
1313.4757114296
 30
0.0
 10
1010.6964652838
 20
1313.5872057908
 30
0.0
 10
1010.856947167
 20
1313.8207503719
 30
0.0
 10
1010.8141613034
 20
1313.9679403932
 30
0.0
 10
1010.7725679539
 20
1314.0151463261
 30
0.0
  0
SPLINE
  5
56A
100
AcDbEntity
  8
7_ALL_FEATURES
100
AcDbSpline
 62
7
  6
CONTINUOUS
 70
0
 71
3
 72
11
 73
7
 74
0
 42
0.0000001
 43
0.0000001
 44
0.0000000001
 40
0.0
 40
0.0
 40
0.0
 40
0.0
 40
0.2332111058
 40
0.4922043119
 40
0.7492259914
 40
1.0
 40
1.0
 40
1.0
 40
1.0
 10
518.5676347887
 20
1314.0151463261
 30
0.0
 10
518.5265771882
 20
1313.9685484358
 30
0.0
 10
518.4840022863
 20
1313.8226832809
 30
0.0
 10
518.6030179564
 20
1313.6453445077
 30
0.0
 10
518.7579688383
 20
1313.5142024729
 30
0.0
 10
518.8755690026
 20
1313.4452834124
 30
0.0
 10
518.9351648808
 20
1313.4151463261
 30
0.0
  0
SPLINE
  5
56B
100
AcDbEntity
  8
7_ALL_FEATURES
100
AcDbSpline
 62
7
  6
CONTINUOUS
 70
0
 71
3
 72
10
 73
6
 74
0
 42
0.0000001
 43
0.0000001
 44
0.0000000001
 40
0.0
 40
0.0
 40
0.0
 40
0.0
 40
0.5048165551
 40
0.7633484119
 40
1.0
 40
1.0
 40
1.0
 40
1.0
 10
760.4050378618
 20
1313.4151463261
 30
0.0
 10
760.5248049319
 20
1313.4757114296
 30
0.0
 10
760.6964652838
 20
1313.5872057908
 30
0.0
 10
760.856947167
 20
1313.8207503719
 30
0.0
 10
760.8141613034
 20
1313.9679403932
 30
0.0
 10
760.7725679539
 20
1314.0151463261
 30
0.0
  0
SPLINE
  5
56C
100
AcDbEntity
  8
7_ALL_FEATURES
100
AcDbSpline
 62
7
  6
CONTINUOUS
 70
0
 71
3
 72
10
 73
6
 74
0
 42
0.0000001
 43
0.0000001
 44
0.0000000001
 40
0.0
 40
0.0
 40
0.0
 40
0.0
 40
0.5048165551
 40
0.7633484119
 40
1.0
 40
1.0
 40
1.0
 40
1.0
 10
510.4050378618
 20
1313.4151463261
 30
0.0
 10
510.5248049319
 20
1313.4757114296
 30
0.0
 10
510.6964652838
 20
1313.5872057908
 30
0.0
 10
510.856947167
 20
1313.8207503719
 30
0.0
 10
510.8141613034
 20
1313.9679403932
 30
0.0
 10
510.7725679539
 20
1314.0151463261
 30
0.0
  0
SPLINE
  5
56D
100
AcDbEntity
  8
7_ALL_FEATURES
100
AcDbSpline
 62
7
  6
CONTINUOUS
 70
0
 71
3
 72
9
 73
5
 74
0
 42
0.0000001
 43
0.0000001
 44
0.0000000001
 40
0.0
 40
0.0
 40
0.0
 40
0.0
 40
0.5055960863
 40
1.0
 40
1.0
 40
1.0
 40
1.0
 10
3019.4649701641
 20
1311.0151463261
 30
0.0
 10
3019.3722446046
 20
1310.94604504
 30
0.0
 10
3019.1970866937
 20
1310.743117381
 30
0.0
 10
3019.3167084262
 20
1310.4894067877
 30
0.0
 10
3019.4019896561
 20
1310.4151463261
 30
0.0
  0
SPLINE
  5
56E
100
AcDbEntity
  8
7_ALL_FEATURES
100
AcDbSpline
 62
7
  6
CONTINUOUS
 70
0
 71
3
 72
9
 73
5
 74
0
 42
0.0000001
 43
0.0000001
 44
0.0000000001
 40
0.0
 40
0.0
 40
0.0
 40
0.0
 40
0.5055960863
 40
1.0
 40
1.0
 40
1.0
 40
1.0
 10
2769.4649701641
 20
1311.0151463261
 30
0.0
 10
2769.3722446046
 20
1310.94604504
 30
0.0
 10
2769.1970866937
 20
1310.743117381
 30
0.0
 10
2769.3167084262
 20
1310.4894067877
 30
0.0
 10
2769.4019896561
 20
1310.4151463261
 30
0.0
  0
SPLINE
  5
56F
100
AcDbEntity
  8
7_ALL_FEATURES
100
AcDbSpline
 62
7
  6
CONTINUOUS
 70
0
 71
3
 72
9
 73
5
 74
0
 42
0.0000001
 43
0.0000001
 44
0.0000000001
 40
0.0
 40
0.0
 40
0.0
 40
0.0
 40
0.4937401151
 40
1.0
 40
1.0
 40
1.0
 40
1.0
 10
3009.9382130865
 20
1310.4151463261
 30
0.0
 10
3010.023355731
 20
1310.4892861115
 30
0.0
 10
3010.1427671378
 20
1310.7427527368
 30
0.0
 10
3009.9680536209
 20
1310.9459738839
 30
0.0
 10
3009.8752325785
 20
1311.0151463261
 30
0.0
  0
SPLINE
  5
570
100
AcDbEntity
  8
7_ALL_FEATURES
100
AcDbSpline
 62
7
  6
CONTINUOUS
 70
0
 71
3
 72
9
 73
5
 74
0
 42
0.0000001
 43
0.0000001
 44
0.0000000001
 40
0.0
 40
0.0
 40
0.0
 40
0.0
 40
0.5055960863
 40
1.0
 40
1.0
 40
1.0
 40
1.0
 10
2519.4649701641
 20
1311.0151463261
 30
0.0
 10
2519.3722446046
 20
1310.94604504
 30
0.0
 10
2519.1970866937
 20
1310.743117381
 30
0.0
 10
2519.3167084262
 20
1310.4894067877
 30
0.0
 10
2519.4019896561
 20
1310.4151463261
 30
0.0
  0
SPLINE
  5
571
100
AcDbEntity
  8
7_ALL_FEATURES
100
AcDbSpline
 62
7
  6
CONTINUOUS
 70
0
 71
3
 72
9
 73
5
 74
0
 42
0.0000001
 43
0.0000001
 44
0.0000000001
 40
0.0
 40
0.0
 40
0.0
 40
0.0
 40
0.4937401151
 40
1.0
 40
1.0
 40
1.0
 40
1.0
 10
2759.9382130865
 20
1310.4151463261
 30
0.0
 10
2760.023355731
 20
1310.4892861115
 30
0.0
 10
2760.1427671378
 20
1310.7427527368
 30
0.0
 10
2759.9680536209
 20
1310.9459738839
 30
0.0
 10
2759.8752325785
 20
1311.0151463261
 30
0.0
  0
SPLINE
  5
572
100
AcDbEntity
  8
7_ALL_FEATURES
100
AcDbSpline
 62
7
  6
CONTINUOUS
 70
0
 71
3
 72
9
 73
5
 74
0
 42
0.0000001
 43
0.0000001
 44
0.0000000001
 40
0.0
 40
0.0
 40
0.0
 40
0.0
 40
0.5055960863
 40
1.0
 40
1.0
 40
1.0
 40
1.0
 10
2269.4649701641
 20
1311.0151463261
 30
0.0
 10
2269.3722446046
 20
1310.94604504
 30
0.0
 10
2269.1970866937
 20
1310.743117381
 30
0.0
 10
2269.3167084262
 20
1310.4894067877
 30
0.0
 10
2269.4019896561
 20
1310.4151463261
 30
0.0
  0
SPLINE
  5
573
100
AcDbEntity
  8
7_ALL_FEATURES
100
AcDbSpline
 62
7
  6
CONTINUOUS
 70
0
 71
3
 72
9
 73
5
 74
0
 42
0.0000001
 43
0.0000001
 44
0.0000000001
 40
0.0
 40
0.0
 40
0.0
 40
0.0
 40
0.4937401151
 40
1.0
 40
1.0
 40
1.0
 40
1.0
 10
2509.9382130865
 20
1310.4151463261
 30
0.0
 10
2510.023355731
 20
1310.4892861115
 30
0.0
 10
2510.1427671378
 20
1310.7427527368
 30
0.0
 10
2509.9680536209
 20
1310.9459738839
 30
0.0
 10
2509.8752325785
 20
1311.0151463261
 30
0.0
  0
SPLINE
  5
574
100
AcDbEntity
  8
7_ALL_FEATURES
100
AcDbSpline
 62
7
  6
CONTINUOUS
 70
0
 71
3
 72
9
 73
5
 74
0
 42
0.0000001
 43
0.0000001
 44
0.0000000001
 40
0.0
 40
0.0
 40
0.0
 40
0.0
 40
0.5055960863
 40
1.0
 40
1.0
 40
1.0
 40
1.0
 10
2019.4649701641
 20
1311.0151463261
 30
0.0
 10
2019.3722446046
 20
1310.94604504
 30
0.0
 10
2019.1970866937
 20
1310.743117381
 30
0.0
 10
2019.3167084262
 20
1310.4894067877
 30
0.0
 10
2019.4019896561
 20
1310.4151463261
 30
0.0
  0
SPLINE
  5
575
100
AcDbEntity
  8
7_ALL_FEATURES
100
AcDbSpline
 62
7
  6
CONTINUOUS
 70
0
 71
3
 72
9
 73
5
 74
0
 42
0.0000001
 43
0.0000001
 44
0.0000000001
 40
0.0
 40
0.0
 40
0.0
 40
0.0
 40
0.4937401151
 40
1.0
 40
1.0
 40
1.0
 40
1.0
 10
2259.9382130865
 20
1310.4151463261
 30
0.0
 10
2260.023355731
 20
1310.4892861115
 30
0.0
 10
2260.1427671378
 20
1310.7427527368
 30
0.0
 10
2259.9680536209
 20
1310.9459738839
 30
0.0
 10
2259.8752325785
 20
1311.0151463261
 30
0.0
  0
SPLINE
  5
576
100
AcDbEntity
  8
7_ALL_FEATURES
100
AcDbSpline
 62
7
  6
CONTINUOUS
 70
0
 71
3
 72
9
 73
5
 74
0
 42
0.0000001
 43
0.0000001
 44
0.0000000001
 40
0.0
 40
0.0
 40
0.0
 40
0.0
 40
0.5055960863
 40
1.0
 40
1.0
 40
1.0
 40
1.0
 10
1769.4649701641
 20
1311.0151463261
 30
0.0
 10
1769.3722446046
 20
1310.94604504
 30
0.0
 10
1769.1970866937
 20
1310.743117381
 30
0.0
 10
1769.3167084262
 20
1310.4894067877
 30
0.0
 10
1769.4019896561
 20
1310.4151463261
 30
0.0
  0
SPLINE
  5
577
100
AcDbEntity
  8
7_ALL_FEATURES
100
AcDbSpline
 62
7
  6
CONTINUOUS
 70
0
 71
3
 72
9
 73
5
 74
0
 42
0.0000001
 43
0.0000001
 44
0.0000000001
 40
0.0
 40
0.0
 40
0.0
 40
0.0
 40
0.4937401151
 40
1.0
 40
1.0
 40
1.0
 40
1.0
 10
2009.9382130865
 20
1310.4151463261
 30
0.0
 10
2010.023355731
 20
1310.4892861115
 30
0.0
 10
2010.1427671378
 20
1310.7427527368
 30
0.0
 10
2009.9680536209
 20
1310.9459738839
 30
0.0
 10
2009.8752325785
 20
1311.0151463261
 30
0.0
  0
SPLINE
  5
578
100
AcDbEntity
  8
7_ALL_FEATURES
100
AcDbSpline
 62
7
  6
CONTINUOUS
 70
0
 71
3
 72
9
 73
5
 74
0
 42
0.0000001
 43
0.0000001
 44
0.0000000001
 40
0.0
 40
0.0
 40
0.0
 40
0.0
 40
0.5055960863
 40
1.0
 40
1.0
 40
1.0
 40
1.0
 10
1519.4649701641
 20
1311.0151463261
 30
0.0
 10
1519.3722446046
 20
1310.94604504
 30
0.0
 10
1519.1970866937
 20
1310.743117381
 30
0.0
 10
1519.3167084262
 20
1310.4894067877
 30
0.0
 10
1519.4019896561
 20
1310.4151463261
 30
0.0
  0
SPLINE
  5
579
100
AcDbEntity
  8
7_ALL_FEATURES
100
AcDbSpline
 62
7
  6
CONTINUOUS
 70
0
 71
3
 72
9
 73
5
 74
0
 42
0.0000001
 43
0.0000001
 44
0.0000000001
 40
0.0
 40
0.0
 40
0.0
 40
0.0
 40
0.4937401151
 40
1.0
 40
1.0
 40
1.0
 40
1.0
 10
1759.9382130865
 20
1310.4151463261
 30
0.0
 10
1760.023355731
 20
1310.4892861115
 30
0.0
 10
1760.1427671378
 20
1310.7427527368
 30
0.0
 10
1759.9680536209
 20
1310.9459738839
 30
0.0
 10
1759.8752325785
 20
1311.0151463261
 30
0.0
  0
SPLINE
  5
57A
100
AcDbEntity
  8
7_ALL_FEATURES
100
AcDbSpline
 62
7
  6
CONTINUOUS
 70
0
 71
3
 72
9
 73
5
 74
0
 42
0.0000001
 43
0.0000001
 44
0.0000000001
 40
0.0
 40
0.0
 40
0.0
 40
0.0
 40
0.5055960863
 40
1.0
 40
1.0
 40
1.0
 40
1.0
 10
1269.4649701641
 20
1311.0151463261
 30
0.0
 10
1269.3722446046
 20
1310.94604504
 30
0.0
 10
1269.1970866937
 20
1310.743117381
 30
0.0
 10
1269.3167084262
 20
1310.4894067877
 30
0.0
 10
1269.4019896561
 20
1310.4151463261
 30
0.0
  0
SPLINE
  5
57B
100
AcDbEntity
  8
7_ALL_FEATURES
100
AcDbSpline
 62
7
  6
CONTINUOUS
 70
0
 71
3
 72
9
 73
5
 74
0
 42
0.0000001
 43
0.0000001
 44
0.0000000001
 40
0.0
 40
0.0
 40
0.0
 40
0.0
 40
0.4937401151
 40
1.0
 40
1.0
 40
1.0
 40
1.0
 10
1509.9382130865
 20
1310.4151463261
 30
0.0
 10
1510.023355731
 20
1310.4892861115
 30
0.0
 10
1510.1427671378
 20
1310.7427527368
 30
0.0
 10
1509.9680536209
 20
1310.9459738839
 30
0.0
 10
1509.8752325785
 20
1311.0151463261
 30
0.0
  0
SPLINE
  5
57C
100
AcDbEntity
  8
7_ALL_FEATURES
100
AcDbSpline
 62
7
  6
CONTINUOUS
 70
0
 71
3
 72
9
 73
5
 74
0
 42
0.0000001
 43
0.0000001
 44
0.0000000001
 40
0.0
 40
0.0
 40
0.0
 40
0.0
 40
0.5055960863
 40
1.0
 40
1.0
 40
1.0
 40
1.0
 10
1019.4649701641
 20
1311.0151463261
 30
0.0
 10
1019.3722446046
 20
1310.94604504
 30
0.0
 10
1019.1970866937
 20
1310.743117381
 30
0.0
 10
1019.3167084262
 20
1310.4894067877
 30
0.0
 10
1019.4019896561
 20
1310.4151463261
 30
0.0
  0
SPLINE
  5
57D
100
AcDbEntity
  8
7_ALL_FEATURES
100
AcDbSpline
 62
7
  6
CONTINUOUS
 70
0
 71
3
 72
9
 73
5
 74
0
 42
0.0000001
 43
0.0000001
 44
0.0000000001
 40
0.0
 40
0.0
 40
0.0
 40
0.0
 40
0.4937401151
 40
1.0
 40
1.0
 40
1.0
 40
1.0
 10
1259.9382130865
 20
1310.4151463261
 30
0.0
 10
1260.023355731
 20
1310.4892861115
 30
0.0
 10
1260.1427671378
 20
1310.7427527368
 30
0.0
 10
1259.9680536209
 20
1310.9459738839
 30
0.0
 10
1259.8752325785
 20
1311.0151463261
 30
0.0
  0
SPLINE
  5
57E
100
AcDbEntity
  8
7_ALL_FEATURES
100
AcDbSpline
 62
7
  6
CONTINUOUS
 70
0
 71
3
 72
9
 73
5
 74
0
 42
0.0000001
 43
0.0000001
 44
0.0000000001
 40
0.0
 40
0.0
 40
0.0
 40
0.0
 40
0.5055960863
 40
1.0
 40
1.0
 40
1.0
 40
1.0
 10
769.4649701641
 20
1311.0151463261
 30
0.0
 10
769.3722446046
 20
1310.94604504
 30
0.0
 10
769.1970866937
 20
1310.743117381
 30
0.0
 10
769.3167084262
 20
1310.4894067877
 30
0.0
 10
769.4019896561
 20
1310.4151463261
 30
0.0
  0
SPLINE
  5
57F
100
AcDbEntity
  8
7_ALL_FEATURES
100
AcDbSpline
 62
7
  6
CONTINUOUS
 70
0
 71
3
 72
9
 73
5
 74
0
 42
0.0000001
 43
0.0000001
 44
0.0000000001
 40
0.0
 40
0.0
 40
0.0
 40
0.0
 40
0.4937401151
 40
1.0
 40
1.0
 40
1.0
 40
1.0
 10
1009.9382130865
 20
1310.4151463261
 30
0.0
 10
1010.023355731
 20
1310.4892861115
 30
0.0
 10
1010.1427671378
 20
1310.7427527368
 30
0.0
 10
1009.9680536209
 20
1310.9459738839
 30
0.0
 10
1009.8752325785
 20
1311.0151463261
 30
0.0
  0
SPLINE
  5
580
100
AcDbEntity
  8
7_ALL_FEATURES
100
AcDbSpline
 62
7
  6
CONTINUOUS
 70
0
 71
3
 72
9
 73
5
 74
0
 42
0.0000001
 43
0.0000001
 44
0.0000000001
 40
0.0
 40
0.0
 40
0.0
 40
0.0
 40
0.5055960863
 40
1.0
 40
1.0
 40
1.0
 40
1.0
 10
519.4649701641
 20
1311.0151463261
 30
0.0
 10
519.3722446046
 20
1310.94604504
 30
0.0
 10
519.1970866937
 20
1310.743117381
 30
0.0
 10
519.3167084262
 20
1310.4894067877
 30
0.0
 10
519.4019896561
 20
1310.4151463261
 30
0.0
  0
SPLINE
  5
581
100
AcDbEntity
  8
7_ALL_FEATURES
100
AcDbSpline
 62
7
  6
CONTINUOUS
 70
0
 71
3
 72
9
 73
5
 74
0
 42
0.0000001
 43
0.0000001
 44
0.0000000001
 40
0.0
 40
0.0
 40
0.0
 40
0.0
 40
0.4937401151
 40
1.0
 40
1.0
 40
1.0
 40
1.0
 10
759.9382130865
 20
1310.4151463261
 30
0.0
 10
760.023355731
 20
1310.4892861115
 30
0.0
 10
760.1427671378
 20
1310.7427527368
 30
0.0
 10
759.9680536209
 20
1310.9459738839
 30
0.0
 10
759.8752325785
 20
1311.0151463261
 30
0.0
  0
SPLINE
  5
582
100
AcDbEntity
  8
7_ALL_FEATURES
100
AcDbSpline
 62
7
  6
CONTINUOUS
 70
0
 71
3
 72
9
 73
5
 74
0
 42
0.0000001
 43
0.0000001
 44
0.0000000001
 40
0.0
 40
0.0
 40
0.0
 40
0.0
 40
0.4937401151
 40
1.0
 40
1.0
 40
1.0
 40
1.0
 10
509.9382130865
 20
1310.4151463261
 30
0.0
 10
510.023355731
 20
1310.4892861115
 30
0.0
 10
510.1427671378
 20
1310.7427527368
 30
0.0
 10
509.9680536209
 20
1310.9459738839
 30
0.0
 10
509.8752325785
 20
1311.0151463261
 30
0.0
  0
SPLINE
  5
583
100
AcDbEntity
  8
6_ALL_SURFS
100
AcDbSpline
 62
7
  6
CONTINUOUS
 70
0
 71
3
 72
10
 73
6
 74
0
 42
0.0000001
 43
0.0000001
 44
0.0000000001
 40
0.0
 40
0.0
 40
0.0
 40
0.0
 40
0.5048165551
 40
0.7633484119
 40
1.0
 40
1.0
 40
1.0
 40
1.0
 10
1760.4050378618
 20
1406.9151463261
 30
0.0
 10
1760.5248049319
 20
1406.8545812227
 30
0.0
 10
1760.6964652838
 20
1406.7430868615
 30
0.0
 10
1760.856947167
 20
1406.5095422804
 30
0.0
 10
1760.8141613034
 20
1406.362352259
 30
0.0
 10
1760.7725679539
 20
1406.3151463261
 30
0.0
  0
SPLINE
  5
584
100
AcDbEntity
  8
6_ALL_SURFS
100
AcDbSpline
 62
7
  6
CONTINUOUS
 70
0
 71
3
 72
11
 73
7
 74
0
 42
0.0000001
 43
0.0000001
 44
0.0000000001
 40
0.0
 40
0.0
 40
0.0
 40
0.0
 40
0.2332111058
 40
0.4922043119
 40
0.7492259914
 40
1.0
 40
1.0
 40
1.0
 40
1.0
 10
1518.5676347887
 20
1406.3151463261
 30
0.0
 10
1518.5265771882
 20
1406.3617442164
 30
0.0
 10
1518.4840022863
 20
1406.5076093714
 30
0.0
 10
1518.6030179564
 20
1406.6849481446
 30
0.0
 10
1518.7579688383
 20
1406.8160901794
 30
0.0
 10
1518.8755690026
 20
1406.8850092399
 30
0.0
 10
1518.9351648808
 20
1406.9151463261
 30
0.0
  0
SPLINE
  5
585
100
AcDbEntity
  8
6_ALL_SURFS
100
AcDbSpline
 62
7
  6
CONTINUOUS
 70
0
 71
3
 72
10
 73
6
 74
0
 42
0.0000001
 43
0.0000001
 44
0.0000000001
 40
0.0
 40
0.0
 40
0.0
 40
0.0
 40
0.5048165551
 40
0.7633484119
 40
1.0
 40
1.0
 40
1.0
 40
1.0
 10
2010.4050378618
 20
1406.9151463261
 30
0.0
 10
2010.5248049319
 20
1406.8545812227
 30
0.0
 10
2010.6964652838
 20
1406.7430868615
 30
0.0
 10
2010.856947167
 20
1406.5095422804
 30
0.0
 10
2010.8141613034
 20
1406.362352259
 30
0.0
 10
2010.7725679539
 20
1406.3151463261
 30
0.0
  0
SPLINE
  5
586
100
AcDbEntity
  8
6_ALL_SURFS
100
AcDbSpline
 62
7
  6
CONTINUOUS
 70
0
 71
3
 72
11
 73
7
 74
0
 42
0.0000001
 43
0.0000001
 44
0.0000000001
 40
0.0
 40
0.0
 40
0.0
 40
0.0
 40
0.2332111058
 40
0.4922043119
 40
0.7492259914
 40
1.0
 40
1.0
 40
1.0
 40
1.0
 10
1768.5676347887
 20
1406.3151463261
 30
0.0
 10
1768.5265771882
 20
1406.3617442164
 30
0.0
 10
1768.4840022863
 20
1406.5076093714
 30
0.0
 10
1768.6030179564
 20
1406.6849481446
 30
0.0
 10
1768.7579688383
 20
1406.8160901794
 30
0.0
 10
1768.8755690026
 20
1406.8850092399
 30
0.0
 10
1768.9351648808
 20
1406.9151463261
 30
0.0
  0
SPLINE
  5
587
100
AcDbEntity
  8
6_ALL_SURFS
100
AcDbSpline
 62
7
  6
CONTINUOUS
 70
0
 71
3
 72
10
 73
6
 74
0
 42
0.0000001
 43
0.0000001
 44
0.0000000001
 40
0.0
 40
0.0
 40
0.0
 40
0.0
 40
0.5048165551
 40
0.7633484119
 40
1.0
 40
1.0
 40
1.0
 40
1.0
 10
2260.4050378618
 20
1406.9151463261
 30
0.0
 10
2260.5248049319
 20
1406.8545812227
 30
0.0
 10
2260.6964652838
 20
1406.7430868615
 30
0.0
 10
2260.856947167
 20
1406.5095422804
 30
0.0
 10
2260.8141613034
 20
1406.362352259
 30
0.0
 10
2260.7725679539
 20
1406.3151463261
 30
0.0
  0
SPLINE
  5
588
100
AcDbEntity
  8
6_ALL_SURFS
100
AcDbSpline
 62
7
  6
CONTINUOUS
 70
0
 71
3
 72
11
 73
7
 74
0
 42
0.0000001
 43
0.0000001
 44
0.0000000001
 40
0.0
 40
0.0
 40
0.0
 40
0.0
 40
0.2332111058
 40
0.4922043119
 40
0.7492259914
 40
1.0
 40
1.0
 40
1.0
 40
1.0
 10
2018.5676347887
 20
1406.3151463261
 30
0.0
 10
2018.5265771882
 20
1406.3617442164
 30
0.0
 10
2018.4840022863
 20
1406.5076093714
 30
0.0
 10
2018.6030179564
 20
1406.6849481446
 30
0.0
 10
2018.7579688383
 20
1406.8160901794
 30
0.0
 10
2018.8755690026
 20
1406.8850092399
 30
0.0
 10
2018.9351648808
 20
1406.9151463261
 30
0.0
  0
SPLINE
  5
589
100
AcDbEntity
  8
6_ALL_SURFS
100
AcDbSpline
 62
7
  6
CONTINUOUS
 70
0
 71
3
 72
10
 73
6
 74
0
 42
0.0000001
 43
0.0000001
 44
0.0000000001
 40
0.0
 40
0.0
 40
0.0
 40
0.0
 40
0.5048165551
 40
0.7633484119
 40
1.0
 40
1.0
 40
1.0
 40
1.0
 10
2510.4050378618
 20
1406.9151463261
 30
0.0
 10
2510.5248049319
 20
1406.8545812227
 30
0.0
 10
2510.6964652838
 20
1406.7430868615
 30
0.0
 10
2510.856947167
 20
1406.5095422804
 30
0.0
 10
2510.8141613034
 20
1406.362352259
 30
0.0
 10
2510.7725679539
 20
1406.3151463261
 30
0.0
  0
SPLINE
  5
58A
100
AcDbEntity
  8
6_ALL_SURFS
100
AcDbSpline
 62
7
  6
CONTINUOUS
 70
0
 71
3
 72
11
 73
7
 74
0
 42
0.0000001
 43
0.0000001
 44
0.0000000001
 40
0.0
 40
0.0
 40
0.0
 40
0.0
 40
0.2332111058
 40
0.4922043119
 40
0.7492259914
 40
1.0
 40
1.0
 40
1.0
 40
1.0
 10
2268.5676347887
 20
1406.3151463261
 30
0.0
 10
2268.5265771882
 20
1406.3617442164
 30
0.0
 10
2268.4840022863
 20
1406.5076093714
 30
0.0
 10
2268.6030179564
 20
1406.6849481446
 30
0.0
 10
2268.7579688383
 20
1406.8160901794
 30
0.0
 10
2268.8755690026
 20
1406.8850092399
 30
0.0
 10
2268.9351648808
 20
1406.9151463261
 30
0.0
  0
SPLINE
  5
58B
100
AcDbEntity
  8
6_ALL_SURFS
100
AcDbSpline
 62
7
  6
CONTINUOUS
 70
0
 71
3
 72
10
 73
6
 74
0
 42
0.0000001
 43
0.0000001
 44
0.0000000001
 40
0.0
 40
0.0
 40
0.0
 40
0.0
 40
0.5048165551
 40
0.7633484119
 40
1.0
 40
1.0
 40
1.0
 40
1.0
 10
2760.4050378618
 20
1406.9151463261
 30
0.0
 10
2760.5248049319
 20
1406.8545812227
 30
0.0
 10
2760.6964652838
 20
1406.7430868615
 30
0.0
 10
2760.856947167
 20
1406.5095422804
 30
0.0
 10
2760.8141613034
 20
1406.362352259
 30
0.0
 10
2760.7725679539
 20
1406.3151463261
 30
0.0
  0
SPLINE
  5
58C
100
AcDbEntity
  8
6_ALL_SURFS
100
AcDbSpline
 62
7
  6
CONTINUOUS
 70
0
 71
3
 72
11
 73
7
 74
0
 42
0.0000001
 43
0.0000001
 44
0.0000000001
 40
0.0
 40
0.0
 40
0.0
 40
0.0
 40
0.2332111058
 40
0.4922043119
 40
0.7492259914
 40
1.0
 40
1.0
 40
1.0
 40
1.0
 10
2518.5676347887
 20
1406.3151463261
 30
0.0
 10
2518.5265771882
 20
1406.3617442164
 30
0.0
 10
2518.4840022863
 20
1406.5076093714
 30
0.0
 10
2518.6030179564
 20
1406.6849481446
 30
0.0
 10
2518.7579688383
 20
1406.8160901794
 30
0.0
 10
2518.8755690026
 20
1406.8850092399
 30
0.0
 10
2518.9351648808
 20
1406.9151463261
 30
0.0
  0
SPLINE
  5
58D
100
AcDbEntity
  8
6_ALL_SURFS
100
AcDbSpline
 62
7
  6
CONTINUOUS
 70
0
 71
3
 72
10
 73
6
 74
0
 42
0.0000001
 43
0.0000001
 44
0.0000000001
 40
0.0
 40
0.0
 40
0.0
 40
0.0
 40
0.5048165551
 40
0.7633484119
 40
1.0
 40
1.0
 40
1.0
 40
1.0
 10
3010.4050378618
 20
1406.9151463261
 30
0.0
 10
3010.5248049319
 20
1406.8545812227
 30
0.0
 10
3010.6964652838
 20
1406.7430868615
 30
0.0
 10
3010.856947167
 20
1406.5095422804
 30
0.0
 10
3010.8141613034
 20
1406.362352259
 30
0.0
 10
3010.7725679539
 20
1406.3151463261
 30
0.0
  0
SPLINE
  5
58E
100
AcDbEntity
  8
6_ALL_SURFS
100
AcDbSpline
 62
7
  6
CONTINUOUS
 70
0
 71
3
 72
11
 73
7
 74
0
 42
0.0000001
 43
0.0000001
 44
0.0000000001
 40
0.0
 40
0.0
 40
0.0
 40
0.0
 40
0.2332111058
 40
0.4922043119
 40
0.7492259914
 40
1.0
 40
1.0
 40
1.0
 40
1.0
 10
2768.5676347887
 20
1406.3151463261
 30
0.0
 10
2768.5265771882
 20
1406.3617442164
 30
0.0
 10
2768.4840022863
 20
1406.5076093714
 30
0.0
 10
2768.6030179564
 20
1406.6849481446
 30
0.0
 10
2768.7579688383
 20
1406.8160901794
 30
0.0
 10
2768.8755690026
 20
1406.8850092399
 30
0.0
 10
2768.9351648808
 20
1406.9151463261
 30
0.0
  0
SPLINE
  5
58F
100
AcDbEntity
  8
6_ALL_SURFS
100
AcDbSpline
 62
7
  6
CONTINUOUS
 70
0
 71
3
 72
11
 73
7
 74
0
 42
0.0000001
 43
0.0000001
 44
0.0000000001
 40
0.0
 40
0.0
 40
0.0
 40
0.0
 40
0.2332111058
 40
0.4922043119
 40
0.7492259914
 40
1.0
 40
1.0
 40
1.0
 40
1.0
 10
3018.5676347887
 20
1406.3151463261
 30
0.0
 10
3018.5265771882
 20
1406.3617442164
 30
0.0
 10
3018.4840022863
 20
1406.5076093714
 30
0.0
 10
3018.6030179564
 20
1406.6849481446
 30
0.0
 10
3018.7579688383
 20
1406.8160901794
 30
0.0
 10
3018.8755690026
 20
1406.8850092399
 30
0.0
 10
3018.9351648808
 20
1406.9151463261
 30
0.0
  0
SPLINE
  5
590
100
AcDbEntity
  8
6_ALL_SURFS
100
AcDbSpline
 62
7
  6
CONTINUOUS
 70
0
 71
3
 72
9
 73
5
 74
0
 42
0.0000001
 43
0.0000001
 44
0.0000000001
 40
0.0
 40
0.0
 40
0.0
 40
0.0
 40
0.4937401151
 40
1.0
 40
1.0
 40
1.0
 40
1.0
 10
509.9382130865
 20
1409.9151463261
 30
0.0
 10
510.023355731
 20
1409.8410065407
 30
0.0
 10
510.1427671378
 20
1409.5875399155
 30
0.0
 10
509.9680536209
 20
1409.3843187684
 30
0.0
 10
509.8752325785
 20
1409.3151463261
 30
0.0
  0
SPLINE
  5
591
100
AcDbEntity
  8
6_ALL_SURFS
100
AcDbSpline
 62
7
  6
CONTINUOUS
 70
0
 71
3
 72
9
 73
5
 74
0
 42
0.0000001
 43
0.0000001
 44
0.0000000001
 40
0.0
 40
0.0
 40
0.0
 40
0.0
 40
0.4937401151
 40
1.0
 40
1.0
 40
1.0
 40
1.0
 10
759.9382130865
 20
1409.9151463261
 30
0.0
 10
760.023355731
 20
1409.8410065407
 30
0.0
 10
760.1427671378
 20
1409.5875399155
 30
0.0
 10
759.9680536209
 20
1409.3843187684
 30
0.0
 10
759.8752325785
 20
1409.3151463261
 30
0.0
  0
SPLINE
  5
592
100
AcDbEntity
  8
6_ALL_SURFS
100
AcDbSpline
 62
7
  6
CONTINUOUS
 70
0
 71
3
 72
9
 73
5
 74
0
 42
0.0000001
 43
0.0000001
 44
0.0000000001
 40
0.0
 40
0.0
 40
0.0
 40
0.0
 40
0.5055960863
 40
1.0
 40
1.0
 40
1.0
 40
1.0
 10
519.4649701641
 20
1409.3151463261
 30
0.0
 10
519.3722446046
 20
1409.3842476123
 30
0.0
 10
519.1970866937
 20
1409.5871752713
 30
0.0
 10
519.3167084262
 20
1409.8408858645
 30
0.0
 10
519.4019896561
 20
1409.9151463261
 30
0.0
  0
SPLINE
  5
593
100
AcDbEntity
  8
6_ALL_SURFS
100
AcDbSpline
 62
7
  6
CONTINUOUS
 70
0
 71
3
 72
9
 73
5
 74
0
 42
0.0000001
 43
0.0000001
 44
0.0000000001
 40
0.0
 40
0.0
 40
0.0
 40
0.0
 40
0.4937401151
 40
1.0
 40
1.0
 40
1.0
 40
1.0
 10
1009.9382130865
 20
1409.9151463261
 30
0.0
 10
1010.023355731
 20
1409.8410065407
 30
0.0
 10
1010.1427671378
 20
1409.5875399155
 30
0.0
 10
1009.9680536209
 20
1409.3843187684
 30
0.0
 10
1009.8752325785
 20
1409.3151463261
 30
0.0
  0
SPLINE
  5
594
100
AcDbEntity
  8
6_ALL_SURFS
100
AcDbSpline
 62
7
  6
CONTINUOUS
 70
0
 71
3
 72
9
 73
5
 74
0
 42
0.0000001
 43
0.0000001
 44
0.0000000001
 40
0.0
 40
0.0
 40
0.0
 40
0.0
 40
0.5055960863
 40
1.0
 40
1.0
 40
1.0
 40
1.0
 10
769.4649701641
 20
1409.3151463261
 30
0.0
 10
769.3722446046
 20
1409.3842476123
 30
0.0
 10
769.1970866937
 20
1409.5871752713
 30
0.0
 10
769.3167084262
 20
1409.8408858645
 30
0.0
 10
769.4019896561
 20
1409.9151463261
 30
0.0
  0
SPLINE
  5
595
100
AcDbEntity
  8
6_ALL_SURFS
100
AcDbSpline
 62
7
  6
CONTINUOUS
 70
0
 71
3
 72
9
 73
5
 74
0
 42
0.0000001
 43
0.0000001
 44
0.0000000001
 40
0.0
 40
0.0
 40
0.0
 40
0.0
 40
0.4937401151
 40
1.0
 40
1.0
 40
1.0
 40
1.0
 10
1259.9382130865
 20
1409.9151463261
 30
0.0
 10
1260.023355731
 20
1409.8410065407
 30
0.0
 10
1260.1427671378
 20
1409.5875399155
 30
0.0
 10
1259.9680536209
 20
1409.3843187684
 30
0.0
 10
1259.8752325785
 20
1409.3151463261
 30
0.0
  0
SPLINE
  5
596
100
AcDbEntity
  8
6_ALL_SURFS
100
AcDbSpline
 62
7
  6
CONTINUOUS
 70
0
 71
3
 72
9
 73
5
 74
0
 42
0.0000001
 43
0.0000001
 44
0.0000000001
 40
0.0
 40
0.0
 40
0.0
 40
0.0
 40
0.5055960863
 40
1.0
 40
1.0
 40
1.0
 40
1.0
 10
1019.4649701641
 20
1409.3151463261
 30
0.0
 10
1019.3722446046
 20
1409.3842476123
 30
0.0
 10
1019.1970866937
 20
1409.5871752713
 30
0.0
 10
1019.3167084262
 20
1409.8408858645
 30
0.0
 10
1019.4019896561
 20
1409.9151463261
 30
0.0
  0
SPLINE
  5
597
100
AcDbEntity
  8
6_ALL_SURFS
100
AcDbSpline
 62
7
  6
CONTINUOUS
 70
0
 71
3
 72
9
 73
5
 74
0
 42
0.0000001
 43
0.0000001
 44
0.0000000001
 40
0.0
 40
0.0
 40
0.0
 40
0.0
 40
0.4937401151
 40
1.0
 40
1.0
 40
1.0
 40
1.0
 10
1509.9382130865
 20
1409.9151463261
 30
0.0
 10
1510.023355731
 20
1409.8410065407
 30
0.0
 10
1510.1427671378
 20
1409.5875399155
 30
0.0
 10
1509.9680536209
 20
1409.3843187684
 30
0.0
 10
1509.8752325785
 20
1409.3151463261
 30
0.0
  0
SPLINE
  5
598
100
AcDbEntity
  8
6_ALL_SURFS
100
AcDbSpline
 62
7
  6
CONTINUOUS
 70
0
 71
3
 72
9
 73
5
 74
0
 42
0.0000001
 43
0.0000001
 44
0.0000000001
 40
0.0
 40
0.0
 40
0.0
 40
0.0
 40
0.5055960863
 40
1.0
 40
1.0
 40
1.0
 40
1.0
 10
1269.4649701641
 20
1409.3151463261
 30
0.0
 10
1269.3722446046
 20
1409.3842476123
 30
0.0
 10
1269.1970866937
 20
1409.5871752713
 30
0.0
 10
1269.3167084262
 20
1409.8408858645
 30
0.0
 10
1269.4019896561
 20
1409.9151463261
 30
0.0
  0
SPLINE
  5
599
100
AcDbEntity
  8
6_ALL_SURFS
100
AcDbSpline
 62
7
  6
CONTINUOUS
 70
0
 71
3
 72
9
 73
5
 74
0
 42
0.0000001
 43
0.0000001
 44
0.0000000001
 40
0.0
 40
0.0
 40
0.0
 40
0.0
 40
0.4937401151
 40
1.0
 40
1.0
 40
1.0
 40
1.0
 10
1759.9382130865
 20
1409.9151463261
 30
0.0
 10
1760.023355731
 20
1409.8410065407
 30
0.0
 10
1760.1427671378
 20
1409.5875399155
 30
0.0
 10
1759.9680536209
 20
1409.3843187684
 30
0.0
 10
1759.8752325785
 20
1409.3151463261
 30
0.0
  0
SPLINE
  5
59A
100
AcDbEntity
  8
6_ALL_SURFS
100
AcDbSpline
 62
7
  6
CONTINUOUS
 70
0
 71
3
 72
9
 73
5
 74
0
 42
0.0000001
 43
0.0000001
 44
0.0000000001
 40
0.0
 40
0.0
 40
0.0
 40
0.0
 40
0.5055960863
 40
1.0
 40
1.0
 40
1.0
 40
1.0
 10
1519.4649701641
 20
1409.3151463261
 30
0.0
 10
1519.3722446046
 20
1409.3842476123
 30
0.0
 10
1519.1970866937
 20
1409.5871752713
 30
0.0
 10
1519.3167084262
 20
1409.8408858645
 30
0.0
 10
1519.4019896561
 20
1409.9151463261
 30
0.0
  0
SPLINE
  5
59B
100
AcDbEntity
  8
6_ALL_SURFS
100
AcDbSpline
 62
7
  6
CONTINUOUS
 70
0
 71
3
 72
9
 73
5
 74
0
 42
0.0000001
 43
0.0000001
 44
0.0000000001
 40
0.0
 40
0.0
 40
0.0
 40
0.0
 40
0.4937401151
 40
1.0
 40
1.0
 40
1.0
 40
1.0
 10
2009.9382130865
 20
1409.9151463261
 30
0.0
 10
2010.023355731
 20
1409.8410065407
 30
0.0
 10
2010.1427671378
 20
1409.5875399155
 30
0.0
 10
2009.9680536209
 20
1409.3843187684
 30
0.0
 10
2009.8752325785
 20
1409.3151463261
 30
0.0
  0
ELLIPSE
  5
59C
100
AcDbEntity
  8
6_ALL_SURFS
100
AcDbEllipse
 62
7
  6
CONTINUOUS
 10
514.6701013713
 20
935.2645506674
 30
0.0
 11
5.4882058378
 21
0.0
 31
0.0
 40
0.1015346165
 41
0.9294607698
 42
2.2121318838
  0
ELLIPSE
  5
59D
100
AcDbEntity
  8
6_ALL_SURFS
100
AcDbEllipse
 62
7
  6
CONTINUOUS
 10
764.6701013713
 20
935.2645506674
 30
0.0
 11
5.4882058378
 21
-0.0
 31
0.0
 40
0.1015346165
 41
0.9294607698
 42
2.2121318838
  0
ELLIPSE
  5
59E
100
AcDbEntity
  8
6_ALL_SURFS
100
AcDbEllipse
 62
7
  6
CONTINUOUS
 10
1014.6701013713
 20
935.2645506674
 30
0.0
 11
5.4882058378
 21
0.0
 31
0.0
 40
0.1015346165
 41
0.9294607698
 42
2.2121318838
  0
ELLIPSE
  5
59F
100
AcDbEntity
  8
6_ALL_SURFS
100
AcDbEllipse
 62
7
  6
CONTINUOUS
 10
1264.6701013713
 20
935.2645506674
 30
0.0
 11
5.4882058378
 21
0.0
 31
0.0
 40
0.1015346165
 41
0.9294607698
 42
2.2121318838
  0
ELLIPSE
  5
5A0
100
AcDbEntity
  8
6_ALL_SURFS
100
AcDbEllipse
 62
7
  6
CONTINUOUS
 10
1514.6701013713
 20
935.2645506674
 30
0.0
 11
5.4882058378
 21
0.0
 31
0.0
 40
0.1015346165
 41
0.9294607698
 42
2.2121318838
  0
ELLIPSE
  5
5A1
100
AcDbEntity
  8
6_ALL_SURFS
100
AcDbEllipse
 62
7
  6
CONTINUOUS
 10
1764.6701013713
 20
935.2645506674
 30
0.0
 11
5.4882058378
 21
0.0
 31
0.0
 40
0.1015346165
 41
0.9294607698
 42
2.2121318838
  0
ELLIPSE
  5
5A2
100
AcDbEntity
  8
6_ALL_SURFS
100
AcDbEllipse
 62
7
  6
CONTINUOUS
 10
2014.6701013713
 20
935.2645506674
 30
0.0
 11
5.4882058378
 21
0.0
 31
0.0
 40
0.1015346165
 41
0.9294607698
 42
2.2121318838
  0
ELLIPSE
  5
5A3
100
AcDbEntity
  8
6_ALL_SURFS
100
AcDbEllipse
 62
7
  6
CONTINUOUS
 10
2264.6701013713
 20
935.2645506674
 30
0.0
 11
5.4882058378
 21
0.0
 31
0.0
 40
0.1015346165
 41
0.9294607698
 42
2.2121318838
  0
ELLIPSE
  5
5A4
100
AcDbEntity
  8
6_ALL_SURFS
100
AcDbEllipse
 62
7
  6
CONTINUOUS
 10
2514.6701013713
 20
935.2645506674
 30
0.0
 11
5.4882058378
 21
0.0
 31
0.0
 40
0.1015346165
 41
0.9294607698
 42
2.2121318838
  0
ELLIPSE
  5
5A5
100
AcDbEntity
  8
6_ALL_SURFS
100
AcDbEllipse
 62
7
  6
CONTINUOUS
 10
2764.6701013713
 20
935.2645506674
 30
0.0
 11
5.4882058378
 21
0.0
 31
0.0
 40
0.1015346165
 41
0.9294607698
 42
2.2121318838
  0
ELLIPSE
  5
5A6
100
AcDbEntity
  8
6_ALL_SURFS
100
AcDbEllipse
 62
7
  6
CONTINUOUS
 10
3014.6701013713
 20
935.2645506674
 30
0.0
 11
5.4882058378
 21
0.0
 31
0.0
 40
0.1015346165
 41
0.9294607698
 42
2.2121318838
  0
ELLIPSE
  5
5A7
100
AcDbEntity
  8
6_ALL_SURFS
100
AcDbEllipse
 62
7
  6
CONTINUOUS
 10
1764.6701013713
 20
1408.1499733543
 30
0.0
 11
-0.0
 21
5.5724287509
 31
0.0
 40
0.9848857802
 41
-0.641335557
 42
0.641335557
  0
ELLIPSE
  5
5A8
100
AcDbEntity
  8
6_ALL_SURFS
100
AcDbEllipse
 62
7
  6
CONTINUOUS
 10
2014.6701013713
 20
1408.1499733543
 30
0.0
 11
-0.0
 21
5.5724287509
 31
0.0
 40
0.9848857802
 41
-0.641335557
 42
0.641335557
  0
ELLIPSE
  5
5A9
100
AcDbEntity
  8
6_ALL_SURFS
100
AcDbEllipse
 62
7
  6
CONTINUOUS
 10
2264.6701013713
 20
1408.1499733543
 30
0.0
 11
-0.0
 21
5.5724287509
 31
0.0
 40
0.9848857802
 41
-0.641335557
 42
0.641335557
  0
ELLIPSE
  5
5AA
100
AcDbEntity
  8
6_ALL_SURFS
100
AcDbEllipse
 62
7
  6
CONTINUOUS
 10
514.6701013713
 20
1408.1499733543
 30
0.0
 11
-0.0
 21
5.5724287509
 31
0.0
 40
0.9848857802
 41
-0.641335557
 42
0.641335557
  0
ELLIPSE
  5
5AB
100
AcDbEntity
  8
6_ALL_SURFS
100
AcDbEllipse
 62
7
  6
CONTINUOUS
 10
2514.6701013713
 20
1408.1499733543
 30
0.0
 11
-0.0
 21
5.5724287509
 31
0.0
 40
0.9848857802
 41
-0.641335557
 42
0.641335557
  0
ELLIPSE
  5
5AC
100
AcDbEntity
  8
6_ALL_SURFS
100
AcDbEllipse
 62
7
  6
CONTINUOUS
 10
2764.6701013713
 20
1408.1499733543
 30
0.0
 11
0.0
 21
5.5724287509
 31
0.0
 40
0.9848857802
 41
-0.641335557
 42
0.641335557
  0
ELLIPSE
  5
5AD
100
AcDbEntity
  8
6_ALL_SURFS
100
AcDbEllipse
 62
7
  6
CONTINUOUS
 10
3014.6701013713
 20
1408.1499733543
 30
0.0
 11
0.0
 21
5.5724287509
 31
0.0
 40
0.9848857802
 41
-0.641335557
 42
0.641335557
  0
ELLIPSE
  5
5AE
100
AcDbEntity
  8
6_ALL_SURFS
100
AcDbEllipse
 62
7
  6
CONTINUOUS
 10
764.6701013713
 20
1408.1499733543
 30
0.0
 11
-0.0
 21
5.5724287509
 31
0.0
 40
0.9848857802
 41
-0.641335557
 42
0.641335557
  0
ELLIPSE
  5
5AF
100
AcDbEntity
  8
7_ALL_FEATURES
100
AcDbEllipse
 62
7
  6
CONTINUOUS
 10
514.6701013713
 20
1312.1803192979
 30
0.0
 11
0.0
 21
5.5724287509
 31
0.0
 40
0.9848857802
 41
2.5002570966
 42
3.7829282106
  0
ELLIPSE
  5
5B0
100
AcDbEntity
  8
7_ALL_FEATURES
100
AcDbEllipse
 62
7
  6
CONTINUOUS
 10
764.6701013713
 20
1312.1803192979
 30
0.0
 11
0.0
 21
5.5724287509
 31
0.0
 40
0.9848857802
 41
2.5002570966
 42
3.7829282106
  0
ELLIPSE
  5
5B1
100
AcDbEntity
  8
7_ALL_FEATURES
100
AcDbEllipse
 62
7
  6
CONTINUOUS
 10
1014.6701013713
 20
1312.1803192979
 30
0.0
 11
-0.0
 21
5.5724287509
 31
0.0
 40
0.9848857802
 41
2.5002570966
 42
3.7829282106
  0
ELLIPSE
  5
5B2
100
AcDbEntity
  8
7_ALL_FEATURES
100
AcDbEllipse
 62
7
  6
CONTINUOUS
 10
1264.6701013713
 20
1312.1803192979
 30
0.0
 11
-0.0
 21
5.5724287509
 31
0.0
 40
0.9848857802
 41
2.5002570966
 42
3.7829282106
  0
ELLIPSE
  5
5B3
100
AcDbEntity
  8
7_ALL_FEATURES
100
AcDbEllipse
 62
7
  6
CONTINUOUS
 10
1514.6701013713
 20
1312.1803192979
 30
0.0
 11
0.0
 21
5.5724287509
 31
0.0
 40
0.9848857802
 41
2.5002570966
 42
3.7829282106
  0
ELLIPSE
  5
5B4
100
AcDbEntity
  8
7_ALL_FEATURES
100
AcDbEllipse
 62
7
  6
CONTINUOUS
 10
1764.6701013713
 20
1312.1803192979
 30
0.0
 11
0.0
 21
5.5724287509
 31
0.0
 40
0.9848857802
 41
2.5002570966
 42
3.7829282106
  0
ELLIPSE
  5
5B5
100
AcDbEntity
  8
7_ALL_FEATURES
100
AcDbEllipse
 62
7
  6
CONTINUOUS
 10
2014.6701013713
 20
1312.1803192979
 30
0.0
 11
0.0
 21
5.5724287509
 31
0.0
 40
0.9848857802
 41
2.5002570966
 42
3.7829282106
  0
ELLIPSE
  5
5B6
100
AcDbEntity
  8
7_ALL_FEATURES
100
AcDbEllipse
 62
7
  6
CONTINUOUS
 10
2264.6701013713
 20
1312.1803192979
 30
0.0
 11
0.0
 21
5.5724287509
 31
0.0
 40
0.9848857802
 41
2.5002570966
 42
3.7829282106
  0
ELLIPSE
  5
5B7
100
AcDbEntity
  8
7_ALL_FEATURES
100
AcDbEllipse
 62
7
  6
CONTINUOUS
 10
2514.6701013713
 20
1312.1803192979
 30
0.0
 11
-0.0
 21
5.5724287509
 31
0.0
 40
0.9848857802
 41
2.5002570966
 42
3.7829282106
  0
ELLIPSE
  5
5B8
100
AcDbEntity
  8
7_ALL_FEATURES
100
AcDbEllipse
 62
7
  6
CONTINUOUS
 10
2764.6701013713
 20
1312.1803192979
 30
0.0
 11
0.0
 21
5.5724287509
 31
0.0
 40
0.9848857802
 41
2.5002570966
 42
3.7829282106
  0
ELLIPSE
  5
5B9
100
AcDbEntity
  8
7_ALL_FEATURES
100
AcDbEllipse
 62
7
  6
CONTINUOUS
 10
3014.6701013713
 20
1312.1803192979
 30
0.0
 11
0.0
 21
5.5724287509
 31
0.0
 40
0.9848857802
 41
2.5002570966
 42
3.7829282106
  0
ELLIPSE
  5
5BA
100
AcDbEntity
  8
6_ALL_SURFS
100
AcDbEllipse
 62
7
  6
CONTINUOUS
 10
1014.6701013713
 20
1408.1499733543
 30
0.0
 11
0.0
 21
5.5724287509
 31
0.0
 40
0.9848857802
 41
-0.641335557
 42
0.641335557
  0
ELLIPSE
  5
5BB
100
AcDbEntity
  8
6_ALL_SURFS
100
AcDbEllipse
 62
7
  6
CONTINUOUS
 10
1264.6701013713
 20
1408.1499733543
 30
0.0
 11
0.0
 21
5.5724287509
 31
0.0
 40
0.9848857802
 41
-0.641335557
 42
0.641335557
  0
ELLIPSE
  5
5BC
100
AcDbEntity
  8
6_ALL_SURFS
100
AcDbEllipse
 62
7
  6
CONTINUOUS
 10
1514.6701013713
 20
1408.1499733543
 30
0.0
 11
0.0
 21
5.5724287509
 31
0.0
 40
0.9848857802
 41
-0.641335557
 42
0.641335557
  0
ENDSEC
  0
SECTION
  2
OBJECTS
  0
DICTIONARY
  5
5BD
100
AcDbDictionary
  3
ACAD_GROUP
350
5BE
  3
ACAD_MLINESTYLE
350
5BF
  0
DICTIONARY
  5
5BE
102
{ACAD_REACTORS
330
5BD
102
}
100
AcDbDictionary
  0
DICTIONARY
  5
5BF
102
{ACAD_REACTORS
330
5BD
102
}
100
AcDbDictionary
  3
STANDARD
350
5C0
  0
MLINESTYLE
  5
5C0
102
{ACAD_REACTORS
330
5BF
102
}
100
AcDbMlineStyle
  2
STANDARD
 70
0
  3

 62
256
 51
90.0
 52
90.0
 71
2
 49
0.5
 62
256
  6
BYLAYER
 49
-0.5
 62
256
  6
BYLAYER
  0
ENDSEC
  0
EOF
