999
DXF file: 6f4_c_460.dxf
999
Pro/ENGINEER 2016360 by Parametric Technology Corporation
  0
SECTION
  2
HEADER
  9
$ACADVER
  1
AC1014
  9
$DWGCODEPAGE
  3
ANSI_1252
  9
$EXTMAX
 10
1189.0
 20
841.0
 30
0.0
  9
$EXTMIN
 10
0.0
 20
0.0
 30
0.0
  9
$LIMMIN
 10
0.0
 20
0.0
  9
$LIMMAX
 10
1189.0
 20
841.0
  9
$VIEWCTR
 10
594.5
 20
420.5
  9
$VIEWSIZE
 40
841.0
  9
$CLAYER
  8
0
  9
$LTSCALE
 40
65.395
  9
$CELTYPE
  6
BYLAYER
  9
$DIMSCALE
 40
1.0
  9
$DIMASZ
 40
2.5
  9
$DIMEXO
 40
0.75
  9
$DIMDLI
 40
45.182
  9
$DIMEXE
 40
0.75
  9
$DIMCEN
 40
10.701
  9
$DIMLFAC
 40
1.0
  9
$DIMBLK
  1
_CLOSED
  9
$DIMALT
 70
0
  9
$DIMALTF
 40
25.4
  9
$DIMTXT
 40
3.0
  9
$DIMTOL
 70
1
  9
$DIMLIM
 70
0
  9
$DIMTFAC
 40
1.0
  9
$DIMTP
 40
0.01
  9
$DIMTM
 40
0.01
  9
$DIMGAP
 40
0.625
  9
$AUNITS
 70
0
  9
$PDMODE
 70
3
  9
$PDSIZE
 40
0.3125
  9
$HANDSEED
  5
678
  9
$TILEMODE
 70
1
  9
$MEASUREMENT
 70
1
  0
ENDSEC
  0
SECTION
  2
CLASSES
  0
ENDSEC
  0
SECTION
  2
TABLES
  0
TABLE
  2
VPORT
  5
8
100
AcDbSymbolTable
 70
2
  0
VPORT
  5
1F4
100
AcDbSymbolTableRecord
100
AcDbViewportTableRecord
  2
*ACTIVE
 70
0
 10
0.0
 20
0.0
 11
1.0
 21
1.0
 12
594.5
 22
420.5
 13
0.0
 23
0.0
 14
1.0
 24
1.0
 15
0.0
 25
0.0
 16
0.0
 26
0.0
 36
1.0
 17
0.0
 27
0.0
 37
0.0
 40
841.0
 41
1.4137931034
 42
50.0
 43
0.0
 44
0.0
 50
0.0
 51
0.0
 71
0
 72
100
 73
1
 74
1
 75
0
 76
0
 77
0
 78
0
  0
ENDTAB
  0
TABLE
  2
LTYPE
  5
5
100
AcDbSymbolTable
 70
6
  0
LTYPE
  5
14
100
AcDbSymbolTableRecord
100
AcDbLinetypeTableRecord
  2
BYBLOCK
 70
0
  3

 72
65
 73
0
 40
0.0
  0
LTYPE
  5
15
100
AcDbSymbolTableRecord
100
AcDbLinetypeTableRecord
  2
BYLAYER
 70
0
  3

 72
65
 73
0
 40
0.0
  0
LTYPE
  5
16
100
AcDbSymbolTableRecord
100
AcDbLinetypeTableRecord
  2
CONTINUOUS
 70
64
  3
Solid line
 72
65
 73
0
 40
0.0
  0
LTYPE
  5
1F5
100
AcDbSymbolTableRecord
100
AcDbLinetypeTableRecord
  2
CENTER
 70
64
  3
____ _ ____ _ ____ _ ____ _ ____ _ ____ _ ____
 72
65
 73
4
 40
0.6
 49
0.375
 74
0
 49
-0.075
 74
0
 49
0.075
 74
0
 49
-0.075
 74
0
  0
LTYPE
  5
1F6
100
AcDbSymbolTableRecord
100
AcDbLinetypeTableRecord
  2
HIDDEN
 70
64
  3
- - - - - - - - - - - - - - - - - - - -
 72
65
 73
2
 40
0.2
 49
0.1
 74
0
 49
-0.1
 74
0
  0
LTYPE
  5
1F7
100
AcDbSymbolTableRecord
100
AcDbLinetypeTableRecord
  2
PHANTOM
 70
64
  3
_____ _ _ _____ _ _ _____ _ _ _____
 72
65
 73
6
 40
0.8
 49
0.45
 74
0
 49
-0.05
 74
0
 49
0.1
 74
0
 49
-0.05
 74
0
 49
0.1
 74
0
 49
-0.05
 74
0
  0
LTYPE
  5
1F8
100
AcDbSymbolTableRecord
100
AcDbLinetypeTableRecord
  2
DOT
 70
64
  3
. . . . . . . . . . . . . . . . . . . .
 72
65
 73
2
 40
0.2
 49
0.1
 74
0
 49
-0.1
 74
0
  0
LTYPE
  5
1F9
100
AcDbSymbolTableRecord
100
AcDbLinetypeTableRecord
  2
DASHED
 70
64
  3
- - - - - - - - - - - - - - - - - - - -
 72
65
 73
2
 40
0.2
 49
0.1
 74
0
 49
-0.1
 74
0
  0
ENDTAB
  0
TABLE
  2
LAYER
  5
2
100
AcDbSymbolTable
 70
36
  0
LAYER
  5
10
100
AcDbSymbolTableRecord
100
AcDbLayerTableRecord
  2
0
 70
0
 62
7
  6
CONTINUOUS
  0
LAYER
  5
1FA
100
AcDbSymbolTableRecord
100
AcDbLayerTableRecord
  2
DEFAULT_1
 70
0
 62
7
  6
CENTER
  0
LAYER
  5
1FB
100
AcDbSymbolTableRecord
100
AcDbLayerTableRecord
  2
DEFAULT_2
 70
0
 62
8
  6
HIDDEN
  0
LAYER
  5
1FC
100
AcDbSymbolTableRecord
100
AcDbLayerTableRecord
  2
DEFAULT_3
 70
0
 62
7
  6
PHANTOM
  0
LAYER
  5
1FD
100
AcDbSymbolTableRecord
100
AcDbLayerTableRecord
  2
1_ALL_PLANES
 70
0
 62
7
  6
CONTINUOUS
  0
LAYER
  5
1FE
100
AcDbSymbolTableRecord
100
AcDbLayerTableRecord
  2
2_ALL_CSYS
 70
0
 62
7
  6
CONTINUOUS
  0
LAYER
  5
1FF
100
AcDbSymbolTableRecord
100
AcDbLayerTableRecord
  2
3_ALL_AXES
 70
0
 62
7
  6
CONTINUOUS
  0
LAYER
  5
200
100
AcDbSymbolTableRecord
100
AcDbLayerTableRecord
  2
4_ALL_POINTS
 70
0
 62
7
  6
CONTINUOUS
  0
LAYER
  5
201
100
AcDbSymbolTableRecord
100
AcDbLayerTableRecord
  2
5_ALL_CURVES
 70
0
 62
7
  6
CONTINUOUS
  0
LAYER
  5
202
100
AcDbSymbolTableRecord
100
AcDbLayerTableRecord
  2
5__COSTRUZIONE
 70
0
 62
7
  6
CONTINUOUS
  0
LAYER
  5
203
100
AcDbSymbolTableRecord
100
AcDbLayerTableRecord
  2
6_ALL_SURFS
 70
0
 62
7
  6
CONTINUOUS
  0
LAYER
  5
204
100
AcDbSymbolTableRecord
100
AcDbLayerTableRecord
  2
7_ALL_FEATURES
 70
0
 62
7
  6
CONTINUOUS
  0
LAYER
  5
205
100
AcDbSymbolTableRecord
100
AcDbLayerTableRecord
  2
9_SOLID
 70
0
 62
7
  6
CONTINUOUS
  0
LAYER
  5
206
100
AcDbSymbolTableRecord
100
AcDbLayerTableRecord
  2
PR9037
 70
0
 62
7
  6
CONTINUOUS
  0
LAYER
  5
207
100
AcDbSymbolTableRecord
100
AcDbLayerTableRecord
  2
WHITE
 70
0
 62
7
  6
CONTINUOUS
  0
LAYER
  5
208
100
AcDbSymbolTableRecord
100
AcDbLayerTableRecord
  2
XXX_SOLIDO
 70
0
 62
7
  6
CONTINUOUS
  0
ENDTAB
  0
TABLE
  2
STYLE
  5
3
100
AcDbSymbolTable
 70
1
  0
STYLE
  5
11
100
AcDbSymbolTableRecord
100
AcDbTextStyleTableRecord
  2
STANDARD
 70
0
 40
0.0
 41
1.0
 50
0.0
 71
0
 42
0.2
  3
arial.ttf
  4

  0
STYLE
  5
209
100
AcDbSymbolTableRecord
100
AcDbTextStyleTableRecord
  2
TEXTSTYLE_1
 70
0
 40
0.0
 41
0.8
 50
0.0
 71
0
 42
0.2
  3
gdt
  4

  0
STYLE
  5
20A
100
AcDbSymbolTableRecord
100
AcDbTextStyleTableRecord
  2
TEXTSTYLE_2
 70
0
 40
0.0
 41
0.85
 50
0.0
 71
0
 42
0.2
  3
txt
  4

  0
ENDTAB
  0
TABLE
  2
VIEW
  5
6
100
AcDbSymbolTable
 70
0
  0
ENDTAB
  0
TABLE
  2
UCS
  5
7
100
AcDbSymbolTable
 70
0
  0
ENDTAB
  0
TABLE
  2
APPID
  5
9
100
AcDbSymbolTable
 70
1
  0
APPID
  5
20B
100
AcDbSymbolTableRecord
100
AcDbRegAppTableRecord
  2
ACAD
 70
0
  0
ENDTAB
  0
TABLE
  2
BLOCK_RECORD
  5
1
100
AcDbSymbolTable
 70
0
  0
BLOCK_RECORD
  5
1F
100
AcDbSymbolTableRecord
100
AcDbBlockTableRecord
  2
*MODEL_SPACE
  0
BLOCK_RECORD
  5
1B
100
AcDbSymbolTableRecord
100
AcDbBlockTableRecord
  2
*PAPER_SPACE
  0
BLOCK_RECORD
  5
20C
100
AcDbSymbolTableRecord
100
AcDbBlockTableRecord
  2
_CLOSED
  0
BLOCK_RECORD
  5
20D
100
AcDbSymbolTableRecord
100
AcDbBlockTableRecord
  2
*D0
  0
BLOCK_RECORD
  5
20E
100
AcDbSymbolTableRecord
100
AcDbBlockTableRecord
  2
*D1
  0
BLOCK_RECORD
  5
20F
100
AcDbSymbolTableRecord
100
AcDbBlockTableRecord
  2
*D2
  0
BLOCK_RECORD
  5
210
100
AcDbSymbolTableRecord
100
AcDbBlockTableRecord
  2
LOGO2_BL0
  0
ENDTAB
  0
TABLE
  2
DIMSTYLE
  5
A
100
AcDbSymbolTable
 70
1
  0
DIMSTYLE
105
211
100
AcDbSymbolTableRecord
100
AcDbDimStyleTableRecord
  2
STANDARD
 70
0
  3

  4

  5
_CLOSED
  6
_CLOSED
  7
_CLOSED
 40
1.0
 41
2.5
 42
0.75
 43
0.38
 44
0.75
 45
0.0
 46
0.0
 47
0.01
 48
0.01
140
3.0
141
0.09
142
0.0
143
25.4
144
1.0
145
0.0
146
1.0
147
0.625
 71
1.0
 72
0.0
 73
0
 74
0
 75
0
 76
0
 77
1
 78
8
 79
2
170
0
171
1
172
0
173
0
174
0
175
0
176
0
177
0
178
0
270
2
179
2
271
2
272
2
273
2
274
2
275
0
280
0
281
0
282
0
283
1
284
8
285
0
286
0
287
3
288
0
340
11
  0
DIMSTYLE
105
212
100
AcDbSymbolTableRecord
100
AcDbDimStyleTableRecord
  2
DIMSTYLE_1
 70
0
  3

  4

  5
_CLOSED
  6
_CLOSED
  7
_CLOSED
 40
1.0
 41
2.5
 42
0.75
 43
0.38
 44
0.75
 45
0.0
 46
0.0
 47
0.8
 48
0.8
140
10.0
141
0.09
142
0.0
143
25.4
144
1.0
145
0.0
146
1.0
147
2.5
 71
0.0
 72
0.0
 73
0
 74
0
 75
0
 76
0
 77
1
 78
8
 79
2
170
0
171
1
172
0
173
0
174
0
175
0
176
0
177
0
178
0
270
2
179
2
271
2
272
2
273
2
274
2
275
0
280
0
281
0
282
0
283
1
284
8
285
0
286
0
287
3
288
0
340
11
  0
DIMSTYLE
105
213
100
AcDbSymbolTableRecord
100
AcDbDimStyleTableRecord
  2
DIMSTYLE_2
 70
0
  3

  4

  5
_CLOSED
  6
_CLOSED
  7
_CLOSED
 40
1.0
 41
2.5
 42
0.75
 43
0.38
 44
0.75
 45
0.0
 46
0.0
 47
0.3
 48
0.3
140
10.0
141
0.09
142
0.0
143
25.4
144
1.0
145
0.0
146
1.0
147
2.5
 71
0.0
 72
0.0
 73
0
 74
0
 75
0
 76
0
 77
1
 78
8
 79
2
170
0
171
1
172
0
173
0
174
0
175
0
176
0
177
0
178
0
270
2
179
2
271
2
272
2
273
2
274
2
275
0
280
0
281
0
282
0
283
1
284
8
285
0
286
0
287
3
288
0
340
11
  0
ENDTAB
  0
ENDSEC
  0
SECTION
  2
BLOCKS
  0
BLOCK
  5
20
100
AcDbEntity
  8
0
100
AcDbBlockBegin
  2
*MODEL_SPACE
 70
0
 10
0.0
 20
0.0
 30
0.0
  3
*MODEL_SPACE
  1

  0
ENDBLK
  5
21
100
AcDbEntity
  8
0
100
AcDbBlockEnd
  0
BLOCK
  5
1C
100
AcDbEntity
  8
0
100
AcDbBlockBegin
  2
*PAPER_SPACE
 70
0
 10
0.0
 20
0.0
 30
0.0
  3
*PAPER_SPACE
  1

  0
ENDBLK
  5
1D
100
AcDbEntity
  8
0
100
AcDbBlockEnd
  0
BLOCK
  5
214
100
AcDbEntity
  8
0
100
AcDbBlockBegin
 62
2
  6
CONTINUOUS
  2
LOGO2_BL0
 70
64
 10
1050.791268819
 20
35.7807459677
  3
LOGO2_BL0
  1

  0
LINE
  5
215
100
AcDbEntity
  8
0
100
AcDbLine
 62
7
  6
CONTINUOUS
 10
1042.5341940472
 20
38.9762373066
 11
1041.2298531178
 21
38.9762373066
  0
LINE
  5
216
100
AcDbEntity
  8
0
100
AcDbLine
 62
7
  6
CONTINUOUS
 10
1041.2298531178
 20
38.9762373066
 11
1041.2298531178
 21
28.5171712467
  0
LINE
  5
217
100
AcDbEntity
  8
0
100
AcDbLine
 62
7
  6
CONTINUOUS
 10
1041.2298531178
 20
28.5171712467
 11
1045.7109080061
 21
28.5171712467
  0
LINE
  5
218
100
AcDbEntity
  8
0
100
AcDbLine
 62
7
  6
CONTINUOUS
 10
1045.7109080061
 20
28.5171712467
 11
1045.7109080061
 21
29.7100255718
  0
LINE
  5
219
100
AcDbEntity
  8
0
100
AcDbLine
 62
7
  6
CONTINUOUS
 10
1045.7109080061
 20
29.7100255718
 11
1042.5341940472
 21
29.7100255718
  0
LINE
  5
21A
100
AcDbEntity
  8
0
100
AcDbLine
 62
7
  6
CONTINUOUS
 10
1042.5341940472
 20
29.7100255718
 11
1042.5341940472
 21
38.9762373066
  0
LINE
  5
21B
100
AcDbEntity
  8
0
100
AcDbLine
 62
7
  6
CONTINUOUS
 10
1057.4705202635
 20
38.9762373066
 11
1056.1667027454
 21
38.9762373066
  0
LINE
  5
21C
100
AcDbEntity
  8
0
100
AcDbLine
 62
7
  6
CONTINUOUS
 10
1056.1667027454
 20
38.9762373066
 11
1056.1667027454
 21
28.5171712467
  0
LINE
  5
21D
100
AcDbEntity
  8
0
100
AcDbLine
 62
7
  6
CONTINUOUS
 10
1056.1667027454
 20
28.5171712467
 11
1060.6478884865
 21
28.5171712467
  0
LINE
  5
21E
100
AcDbEntity
  8
0
100
AcDbLine
 62
7
  6
CONTINUOUS
 10
1060.6478884865
 20
28.5171712467
 11
1060.6478884865
 21
29.7100255718
  0
LINE
  5
21F
100
AcDbEntity
  8
0
100
AcDbLine
 62
7
  6
CONTINUOUS
 10
1060.6478884865
 20
29.7100255718
 11
1057.4705202635
 21
29.7100255718
  0
LINE
  5
220
100
AcDbEntity
  8
0
100
AcDbLine
 62
7
  6
CONTINUOUS
 10
1057.4705202635
 20
29.7100255718
 11
1057.4705202635
 21
38.9762373066
  0
LWPOLYLINE
  5
221
100
AcDbEntity
  8
0
100
AcDbPolyline
 62
7
  6
CONTINUOUS
 90
2
 70
0
 43
0.2
 10
1039.5842480287
 20
25.1736199398
 10
1039.5842480287
 20
23.3165566905
  0
LWPOLYLINE
  5
222
100
AcDbEntity
  8
0
100
AcDbPolyline
 62
7
  6
CONTINUOUS
 90
2
 70
0
 43
0.2
 10
1039.5842480287
 20
23.3165566905
 10
1040.3799640391
 20
23.3165566905
  0
LWPOLYLINE
  5
223
100
AcDbEntity
  8
0
100
AcDbPolyline
 62
7
  6
CONTINUOUS
 90
2
 70
0
 43
0.2
 10
1040.3799640391
 20
23.3165566905
 10
1040.3799640391
 20
23.528538262
  0
LWPOLYLINE
  5
224
100
AcDbEntity
  8
0
100
AcDbPolyline
 62
7
  6
CONTINUOUS
 90
2
 70
0
 43
0.2
 10
1040.3799640391
 20
23.528538262
 10
1039.8158575236
 20
23.528538262
  0
LWPOLYLINE
  5
225
100
AcDbEntity
  8
0
100
AcDbPolyline
 62
7
  6
CONTINUOUS
 90
2
 70
0
 43
0.2
 10
1039.8158575236
 20
23.528538262
 10
1039.8158575236
 20
25.1736199398
  0
LWPOLYLINE
  5
226
100
AcDbEntity
  8
0
100
AcDbPolyline
 62
7
  6
CONTINUOUS
 90
2
 70
0
 43
0.2
 10
1039.8158575236
 20
25.1736199398
 10
1039.5842480287
 20
25.1736199398
  0
SPLINE
  5
227
100
AcDbEntity
  8
0
100
AcDbSpline
 62
7
  6
CONTINUOUS
 70
2
 71
3
 72
35
 73
31
 74
0
 42
0.0000001
 43
0.0000001
 44
0.0000000001
 40
0.0
 40
0.0
 40
0.0
 40
0.0
 40
1.0
 40
1.0
 40
1.0
 40
2.0
 40
2.0
 40
2.0
 40
3.0
 40
3.0
 40
3.0
 40
4.0
 40
4.0
 40
4.0
 40
5.0
 40
5.0
 40
5.0
 40
6.0
 40
6.0
 40
6.0
 40
7.0
 40
7.0
 40
7.0
 40
8.0
 40
8.0
 40
8.0
 40
9.0
 40
9.0
 40
9.0
 40
10.0
 40
10.0
 40
10.0
 40
10.0
 10
1041.7782572947
 20
24.4691083463
 30
0.0
 10
1041.7782572947
 20
24.4691083463
 30
0.0
 10
1041.7782572947
 20
23.8069930672
 30
0.0
 10
1041.7782572947
 20
23.8069930672
 30
0.0
 10
1041.7782572947
 20
23.4918994719
 30
0.0
 10
1041.9261209835
 20
23.2773008439
 30
0.0
 10
1042.2662074678
 20
23.2773008439
 30
0.0
 10
1042.6057705408
 20
23.2773008439
 30
0.0
 10
1042.7538959353
 20
23.4918994719
 30
0.0
 10
1042.7538959353
 20
23.8069930672
 30
0.0
 10
1042.7538959353
 20
23.8069930672
 30
0.0
 10
1042.7538959353
 20
24.4691083463
 30
0.0
 10
1042.7538959353
 20
24.4691083463
 30
0.0
 10
1042.7538959353
 20
24.4691083463
 30
0.0
 10
1042.5318386964
 20
24.4691083463
 30
0.0
 10
1042.5318386964
 20
24.4691083463
 30
0.0
 10
1042.5318386964
 20
24.4691083463
 30
0.0
 10
1042.5318386964
 20
23.832116809
 30
0.0
 10
1042.5318386964
 20
23.832116809
 30
0.0
 10
1042.5318386964
 20
23.6463058018
 30
0.0
 10
1042.4851242389
 20
23.4835248913
 30
0.0
 10
1042.2662074678
 20
23.4835248913
 30
0.0
 10
1042.0467672853
 20
23.4835248913
 30
0.0
 10
1042.0000528279
 20
23.6463058018
 30
0.0
 10
1042.0000528279
 20
23.832116809
 30
0.0
 10
1042.0000528279
 20
23.832116809
 30
0.0
 10
1042.0000528279
 20
24.4691083463
 30
0.0
 10
1042.0000528279
 20
24.4691083463
 30
0.0
 10
1042.0000528279
 20
24.4691083463
 30
0.0
 10
1041.7782572947
 20
24.4691083463
 30
0.0
 10
1041.7782572947
 20
24.4691083463
 30
0.0
  0
SPLINE
  5
228
100
AcDbEntity
  8
0
100
AcDbSpline
 62
7
  6
CONTINUOUS
 70
2
 71
3
 72
35
 73
31
 74
0
 42
0.0000001
 43
0.0000001
 44
0.0000000001
 40
0.0
 40
0.0
 40
0.0
 40
0.0
 40
1.0
 40
1.0
 40
1.0
 40
2.0
 40
2.0
 40
2.0
 40
3.0
 40
3.0
 40
3.0
 40
4.0
 40
4.0
 40
4.0
 40
5.0
 40
5.0
 40
5.0
 40
6.0
 40
6.0
 40
6.0
 40
7.0
 40
7.0
 40
7.0
 40
8.0
 40
8.0
 40
8.0
 40
9.0
 40
9.0
 40
9.0
 40
10.0
 40
10.0
 40
10.0
 40
10.0
 10
1045.1770284925
 20
24.4277588546
 30
0.0
 10
1045.0885719848
 20
24.4790531608
 30
0.0
 10
1044.9751225882
 20
24.5041769026
 30
0.0
 10
1044.8714871532
 20
24.5041769026
 30
0.0
 10
1044.5166143
 20
24.5041769026
 30
0.0
 10
1044.2411691097
 20
24.2403776135
 30
0.0
 10
1044.2411691097
 20
23.8828877039
 30
0.0
 10
1044.2411691097
 20
23.5379596652
 30
0.0
 10
1044.5196239149
 20
23.2778242552
 30
0.0
 10
1044.8591869879
 20
23.2778242552
 30
0.0
 10
1044.9751225882
 20
23.2778242552
 30
0.0
 10
1045.0758792611
 20
23.2998075292
 30
0.0
 10
1045.1770284925
 20
23.3537188919
 30
0.0
 10
1045.1770284925
 20
23.3537188919
 30
0.0
 10
1045.1770284925
 20
23.6363609873
 30
0.0
 10
1045.1770284925
 20
23.6363609873
 30
0.0
 10
1045.0931518336
 20
23.5431937781
 30
0.0
 10
1044.9896472514
 20
23.4840483026
 30
0.0
 10
1044.8615423387
 20
23.4840483026
 30
0.0
 10
1044.6278391987
 20
23.4840483026
 30
0.0
 10
1044.4625720845
 20
23.6562506163
 30
0.0
 10
1044.4625720845
 20
23.8928325184
 30
0.0
 10
1044.4625720845
 20
24.10481409
 30
0.0
 10
1044.6303254023
 20
24.2969060326
 30
0.0
 10
1044.8471485283
 20
24.2969060326
 30
0.0
 10
1044.9799641426
 20
24.2969060326
 30
0.0
 10
1045.0885719848
 20
24.24299467
 30
0.0
 10
1045.1770284925
 20
24.1419762914
 30
0.0
 10
1045.1770284925
 20
24.1419762914
 30
0.0
 10
1045.1770284925
 20
24.4277588546
 30
0.0
 10
1045.1770284925
 20
24.4277588546
 30
0.0
  0
SPLINE
  5
229
100
AcDbEntity
  8
0
100
AcDbSpline
 62
7
  6
CONTINUOUS
 70
2
 71
3
 72
32
 73
28
 74
0
 42
0.0000001
 43
0.0000001
 44
0.0000000001
 40
0.0
 40
0.0
 40
0.0
 40
0.0
 40
1.0
 40
1.0
 40
1.0
 40
2.0
 40
2.0
 40
2.0
 40
3.0
 40
3.0
 40
3.0
 40
4.0
 40
4.0
 40
4.0
 40
5.0
 40
5.0
 40
5.0
 40
6.0
 40
6.0
 40
6.0
 40
7.0
 40
7.0
 40
7.0
 40
8.0
 40
8.0
 40
8.0
 40
9.0
 40
9.0
 40
9.0
 40
9.0
 10
1047.7088997447
 20
23.8561937283
 30
0.0
 10
1047.7088997447
 20
23.8561937283
 30
0.0
 10
1047.7088997447
 20
23.890215462
 30
0.0
 10
1047.7088997447
 20
23.890215462
 30
0.0
 10
1047.7088997447
 20
24.2325264442
 30
0.0
 10
1047.5360431669
 20
24.5041769026
 30
0.0
 10
1047.1693935597
 20
24.5041769026
 30
0.0
 10
1046.7977715453
 20
24.5041769026
 30
0.0
 10
1046.6080349535
 20
24.2377605571
 30
0.0
 10
1046.6080349535
 20
23.8828877039
 30
0.0
 10
1046.6080349535
 20
23.5431937781
 30
0.0
 10
1046.8221101702
 20
23.2773008439
 30
0.0
 10
1047.1742351141
 20
23.2773008439
 30
0.0
 10
1047.3982551454
 20
23.2773008439
 30
0.0
 10
1047.6004227553
 20
23.3929747385
 30
0.0
 10
1047.7088997447
 20
23.5923944392
 30
0.0
 10
1047.7088997447
 20
23.5923944392
 30
0.0
 10
1047.521256798
 20
23.6991703419
 30
0.0
 10
1047.521256798
 20
23.6991703419
 30
0.0
 10
1047.4377726976
 20
23.5604663506
 30
0.0
 10
1047.3465682807
 20
23.4746268994
 30
0.0
 10
1047.1769830234
 20
23.4746268994
 30
0.0
 10
1046.9650014518
 20
23.4746268994
 30
0.0
 10
1046.8320549847
 20
23.659391084
 30
0.0
 10
1046.8296996339
 20
23.8561937283
 30
0.0
 10
1046.8296996339
 20
23.8561937283
 30
0.0
 10
1047.7088997447
 20
23.8561937283
 30
0.0
 10
1047.7088997447
 20
23.8561937283
 30
0.0
  0
SPLINE
  5
22A
100
AcDbEntity
  8
0
100
AcDbSpline
 62
7
  6
CONTINUOUS
 70
2
 71
3
 72
14
 73
10
 74
0
 42
0.0000001
 43
0.0000001
 44
0.0000000001
 40
0.0
 40
0.0
 40
0.0
 40
0.0
 40
1.0
 40
1.0
 40
1.0
 40
2.0
 40
2.0
 40
2.0
 40
3.0
 40
3.0
 40
3.0
 40
3.0
 10
1046.8417380935
 20
24.0236853404
 30
0.0
 10
1046.869348039
 20
24.188559896
 30
0.0
 10
1046.997191246
 20
24.3115615487
 30
0.0
 10
1047.1693935597
 20
24.3115615487
 30
0.0
 10
1047.3465682807
 20
24.3115615487
 30
0.0
 10
1047.4600176773
 20
24.1958876541
 30
0.0
 10
1047.4872350643
 20
24.0236853404
 30
0.0
 10
1047.4872350643
 20
24.0236853404
 30
0.0
 10
1046.8417380935
 20
24.0236853404
 30
0.0
 10
1046.8417380935
 20
24.0236853404
 30
0.0
  0
SPLINE
  5
22B
100
AcDbEntity
  8
0
100
AcDbSpline
 62
7
  6
CONTINUOUS
 70
2
 71
3
 72
20
 73
16
 74
0
 42
0.0000001
 43
0.0000001
 44
0.0000000001
 40
0.0
 40
0.0
 40
0.0
 40
0.0
 40
1.0
 40
1.0
 40
1.0
 40
2.0
 40
2.0
 40
2.0
 40
3.0
 40
3.0
 40
3.0
 40
4.0
 40
4.0
 40
4.0
 40
5.0
 40
5.0
 40
5.0
 40
5.0
 10
1049.7329311949
 20
24.2330498555
 30
0.0
 10
1049.7329311949
 20
24.2330498555
 30
0.0
 10
1050.1440707615
 20
23.7305750192
 30
0.0
 10
1050.1440707615
 20
23.7305750192
 30
0.0
 10
1050.0280043084
 20
23.6149011245
 30
0.0
 10
1049.8902162869
 20
23.4845717139
 30
0.0
 10
1049.7182756788
 20
23.4845717139
 30
0.0
 10
1049.5408392522
 20
23.4845717139
 30
0.0
 10
1049.3733476401
 20
23.6489228583
 30
0.0
 10
1049.3733476401
 20
23.8258358736
 30
0.0
 10
1049.3733476401
 20
24.0037957114
 30
0.0
 10
1049.5831047137
 20
24.1299378318
 30
0.0
 10
1049.7106862152
 20
24.2178709282
 30
0.0
 10
1049.7106862152
 20
24.2178709282
 30
0.0
 10
1049.7329311949
 20
24.2330498555
 30
0.0
 10
1049.7329311949
 20
24.2330498555
 30
0.0
  0
SPLINE
  5
22C
100
AcDbEntity
  8
0
100
AcDbSpline
 62
7
  6
CONTINUOUS
 70
2
 71
3
 72
23
 73
19
 74
0
 42
0.0000001
 43
0.0000001
 44
0.0000000001
 40
0.0
 40
0.0
 40
0.0
 40
0.0
 40
1.0
 40
1.0
 40
1.0
 40
2.0
 40
2.0
 40
2.0
 40
3.0
 40
3.0
 40
3.0
 40
4.0
 40
4.0
 40
4.0
 40
5.0
 40
5.0
 40
5.0
 40
6.0
 40
6.0
 40
6.0
 40
6.0
 10
1049.7822627088
 20
24.5240665316
 30
0.0
 10
1049.7822627088
 20
24.5240665316
 30
0.0
 10
1049.7206310296
 20
24.6025782248
 30
0.0
 10
1049.7206310296
 20
24.6025782248
 30
0.0
 10
1049.666719667
 20
24.6711451035
 30
0.0
 10
1049.6099295422
 20
24.7402353935
 30
0.0
 10
1049.6099295422
 20
24.833926014
 30
0.0
 10
1049.6099295422
 20
24.9527403763
 30
0.0
 10
1049.7058446608
 20
25.0302052469
 30
0.0
 10
1049.8168078538
 20
25.0302052469
 30
0.0
 10
1049.9400712121
 20
25.0302052469
 30
0.0
 10
1050.0333692741
 20
24.9590213118
 30
0.0
 10
1050.0333692741
 20
24.8286919011
 30
0.0
 10
1050.0333692741
 20
24.6936517888
 30
0.0
 10
1049.9052643614
 20
24.6172337408
 30
0.0
 10
1049.8117045937
 20
24.5434327492
 30
0.0
 10
1049.8117045937
 20
24.5434327492
 30
0.0
 10
1049.7822627088
 20
24.5240665316
 30
0.0
 10
1049.7822627088
 20
24.5240665316
 30
0.0
  0
SPLINE
  5
22D
100
AcDbEntity
  8
0
100
AcDbSpline
 62
7
  6
CONTINUOUS
 70
2
 71
3
 72
50
 73
46
 74
0
 42
0.0000001
 43
0.0000001
 44
0.0000000001
 40
0.0
 40
0.0
 40
0.0
 40
0.0
 40
1.0
 40
1.0
 40
1.0
 40
2.0
 40
2.0
 40
2.0
 40
3.0
 40
3.0
 40
3.0
 40
4.0
 40
4.0
 40
4.0
 40
5.0
 40
5.0
 40
5.0
 40
6.0
 40
6.0
 40
6.0
 40
7.0
 40
7.0
 40
7.0
 40
8.0
 40
8.0
 40
8.0
 40
9.0
 40
9.0
 40
9.0
 40
10.0
 40
10.0
 40
10.0
 40
11.0
 40
11.0
 40
11.0
 40
12.0
 40
12.0
 40
12.0
 40
13.0
 40
13.0
 40
13.0
 40
14.0
 40
14.0
 40
14.0
 40
15.0
 40
15.0
 40
15.0
 40
15.0
 10
1050.4844189515
 20
23.3170801017
 30
0.0
 10
1050.4844189515
 20
23.3170801017
 30
0.0
 10
1050.7698089562
 20
23.3170801017
 30
0.0
 10
1050.7698089562
 20
23.3170801017
 30
0.0
 10
1050.7698089562
 20
23.3170801017
 30
0.0
 10
1050.4374427884
 20
23.7279579627
 30
0.0
 10
1050.4374427884
 20
23.7279579627
 30
0.0
 10
1050.4374427884
 20
23.7279579627
 30
0.0
 10
1050.6639490232
 20
23.993850897
 30
0.0
 10
1050.6639490232
 20
23.993850897
 30
0.0
 10
1050.6639490232
 20
23.993850897
 30
0.0
 10
1050.5156927759
 20
24.146686993
 30
0.0
 10
1050.5156927759
 20
24.146686993
 30
0.0
 10
1050.5156927759
 20
24.146686993
 30
0.0
 10
1050.2997856197
 20
23.8954495748
 30
0.0
 10
1050.2997856197
 20
23.8954495748
 30
0.0
 10
1050.2997856197
 20
23.8954495748
 30
0.0
 10
1049.9127229723
 20
24.3633792662
 30
0.0
 10
1049.9127229723
 20
24.3633792662
 30
0.0
 10
1050.0681761248
 20
24.477482927
 30
0.0
 10
1050.2504541058
 20
24.6172337408
 30
0.0
 10
1050.2504541058
 20
24.826598256
 30
0.0
 10
1050.2504541058
 20
25.0705079161
 30
0.0
 10
1050.0484173487
 20
25.213922609
 30
0.0
 10
1049.8219111138
 20
25.213922609
 30
0.0
 10
1049.577739748
 20
25.213922609
 30
0.0
 10
1049.3933681219
 20
25.0631801581
 30
0.0
 10
1049.3933681219
 20
24.806708627
 30
0.0
 10
1049.3933681219
 20
24.6491618294
 30
0.0
 10
1049.4920311497
 20
24.5115046607
 30
0.0
 10
1049.5973676713
 20
24.4005414676
 30
0.0
 10
1049.5973676713
 20
24.4005414676
 30
0.0
 10
1049.4818246295
 20
24.3167956616
 30
0.0
 10
1049.4818246295
 20
24.3167956616
 30
0.0
 10
1049.3041264973
 20
24.188559896
 30
0.0
 10
1049.1567862198
 20
24.0608475418
 30
0.0
 10
1049.1567862198
 20
23.8237422284
 30
0.0
 10
1049.1567862198
 20
23.5034145202
 30
0.0
 10
1049.415351396
 20
23.2773008439
 30
0.0
 10
1049.7257342897
 20
23.2773008439
 30
0.0
 10
1049.9446510608
 20
23.2773008439
 30
0.0
 10
1050.1418462635
 20
23.4023961417
 30
0.0
 10
1050.2821204887
 20
23.5683175199
 30
0.0
 10
1050.2821204887
 20
23.5683175199
 30
0.0
 10
1050.4844189515
 20
23.3170801017
 30
0.0
 10
1050.4844189515
 20
23.3170801017
 30
0.0
  0
LWPOLYLINE
  5
22E
100
AcDbEntity
  8
0
100
AcDbPolyline
 62
7
  6
CONTINUOUS
 90
2
 70
0
 43
0.2
 10
1052.4198630412
 20
25.1736199398
 10
1052.1885152519
 20
25.1736199398
  0
LWPOLYLINE
  5
22F
100
AcDbEntity
  8
0
100
AcDbPolyline
 62
7
  6
CONTINUOUS
 90
2
 70
0
 43
0.2
 10
1052.1885152519
 20
25.1736199398
 10
1052.1885152519
 20
23.3165566905
  0
LWPOLYLINE
  5
230
100
AcDbEntity
  8
0
100
AcDbPolyline
 62
7
  6
CONTINUOUS
 90
2
 70
0
 43
0.2
 10
1052.1885152519
 20
23.3165566905
 10
1052.9838387039
 20
23.3165566905
  0
LWPOLYLINE
  5
231
100
AcDbEntity
  8
0
100
AcDbPolyline
 62
7
  6
CONTINUOUS
 90
2
 70
0
 43
0.2
 10
1052.9838387039
 20
23.3165566905
 10
1052.9838387039
 20
23.528538262
  0
LWPOLYLINE
  5
232
100
AcDbEntity
  8
0
100
AcDbPolyline
 62
7
  6
CONTINUOUS
 90
2
 70
0
 43
0.2
 10
1052.9838387039
 20
23.528538262
 10
1052.4198630412
 20
23.528538262
  0
LWPOLYLINE
  5
233
100
AcDbEntity
  8
0
100
AcDbPolyline
 62
7
  6
CONTINUOUS
 90
2
 70
0
 43
0.2
 10
1052.4198630412
 20
23.528538262
 10
1052.4198630412
 20
25.1736199398
  0
LWPOLYLINE
  5
234
100
AcDbEntity
  8
0
100
AcDbPolyline
 62
7
  6
CONTINUOUS
 90
2
 70
0
 43
0.2
 10
1054.6629421153
 20
24.4691083463
 10
1054.4418008462
 20
24.4691083463
  0
LWPOLYLINE
  5
235
100
AcDbEntity
  8
0
100
AcDbPolyline
 62
7
  6
CONTINUOUS
 90
2
 70
0
 43
0.2
 10
1054.4418008462
 20
24.4691083463
 10
1054.4418008462
 20
23.3170801017
  0
LWPOLYLINE
  5
236
100
AcDbEntity
  8
0
100
AcDbPolyline
 62
7
  6
CONTINUOUS
 90
2
 70
0
 43
0.2
 10
1054.4418008462
 20
23.3170801017
 10
1054.6629421153
 20
23.3170801017
  0
LWPOLYLINE
  5
237
100
AcDbEntity
  8
0
100
AcDbPolyline
 62
7
  6
CONTINUOUS
 90
2
 70
0
 43
0.2
 10
1054.6629421153
 20
23.3170801017
 10
1054.6629421153
 20
24.4691083463
  0
LWPOLYLINE
  5
238
100
AcDbEntity
  8
0
100
AcDbPolyline
 62
7
  6
CONTINUOUS
 90
2
 70
1
 43
0.2
 10
1054.3999188381
 20
24.9990622753
 42
1.0
 10
1054.7050858291
 20
24.9990622753
 42
1.0
  0
SPLINE
  5
239
100
AcDbEntity
  8
0
100
AcDbSpline
 62
7
  6
CONTINUOUS
 70
2
 71
3
 72
17
 73
13
 74
0
 42
0.0000001
 43
0.0000001
 44
0.0000000001
 40
0.0
 40
0.0
 40
0.0
 40
0.0
 40
1.0
 40
1.0
 40
1.0
 40
2.0
 40
2.0
 40
2.0
 40
3.0
 40
3.0
 40
3.0
 40
4.0
 40
4.0
 40
4.0
 40
4.0
 10
1056.793226057
 20
23.4746268994
 30
0.0
 10
1056.5592612113
 20
23.4746268994
 30
0.0
 10
1056.4289318006
 20
23.6766636565
 30
0.0
 10
1056.4289318006
 20
23.8928325184
 30
0.0
 10
1056.4289318006
 20
24.1074311464
 30
0.0
 10
1056.5647570298
 20
24.3063274358
 30
0.0
 10
1056.793226057
 20
24.3063274358
 30
0.0
 10
1057.0326867212
 20
24.3063274358
 30
0.0
 10
1057.1682502447
 20
24.1173759609
 30
0.0
 10
1057.1682502447
 20
23.8928325184
 30
0.0
 10
1057.1682502447
 20
23.666718842
 30
0.0
 10
1057.035042072
 20
23.4746268994
 30
0.0
 10
1056.793226057
 20
23.4746268994
 30
0.0
  0
SPLINE
  5
23A
100
AcDbEntity
  8
0
100
AcDbSpline
 62
7
  6
CONTINUOUS
 70
2
 71
3
 72
50
 73
46
 74
0
 42
0.0000001
 43
0.0000001
 44
0.0000000001
 40
0.0
 40
0.0
 40
0.0
 40
0.0
 40
1.0
 40
1.0
 40
1.0
 40
2.0
 40
2.0
 40
2.0
 40
3.0
 40
3.0
 40
3.0
 40
4.0
 40
4.0
 40
4.0
 40
5.0
 40
5.0
 40
5.0
 40
6.0
 40
6.0
 40
6.0
 40
7.0
 40
7.0
 40
7.0
 40
8.0
 40
8.0
 40
8.0
 40
9.0
 40
9.0
 40
9.0
 40
10.0
 40
10.0
 40
10.0
 40
11.0
 40
11.0
 40
11.0
 40
12.0
 40
12.0
 40
12.0
 40
13.0
 40
13.0
 40
13.0
 40
14.0
 40
14.0
 40
14.0
 40
15.0
 40
15.0
 40
15.0
 40
15.0
 10
1057.3773530542
 20
24.4696317576
 30
0.0
 10
1057.3773530542
 20
24.4696317576
 30
0.0
 10
1057.1556883738
 20
24.4696317576
 30
0.0
 10
1057.1556883738
 20
24.4696317576
 30
0.0
 10
1057.1556883738
 20
24.4696317576
 30
0.0
 10
1057.1556883738
 20
24.2723057021
 30
0.0
 10
1057.1556883738
 20
24.2723057021
 30
0.0
 10
1057.1556883738
 20
24.2723057021
 30
0.0
 10
1057.1509776722
 20
24.2723057021
 30
0.0
 10
1057.1509776722
 20
24.2723057021
 30
0.0
 10
1057.0596424025
 20
24.4151969837
 30
0.0
 10
1056.9217235281
 20
24.5036534913
 30
0.0
 10
1056.7489978032
 20
24.5036534913
 30
0.0
 10
1056.4166316354
 20
24.5036534913
 30
0.0
 10
1056.2075288259
 20
24.215777283
 30
0.0
 10
1056.2075288259
 20
23.9001602764
 30
0.0
 10
1056.2075288259
 20
23.5704111651
 30
0.0
 10
1056.4045931757
 20
23.2773008439
 30
0.0
 10
1056.7594660289
 20
23.2773008439
 30
0.0
 10
1056.9217235281
 20
23.2773008439
 30
0.0
 10
1057.0617360477
 20
23.3657573515
 30
0.0
 10
1057.1509776722
 20
23.4966101735
 30
0.0
 10
1057.1509776722
 20
23.4966101735
 30
0.0
 10
1057.1556883738
 20
23.4966101735
 30
0.0
 10
1057.1556883738
 20
23.4966101735
 30
0.0
 10
1057.1556883738
 20
23.4966101735
 30
0.0
 10
1057.1556883738
 20
23.2773008439
 30
0.0
 10
1057.1556883738
 20
23.2773008439
 30
0.0
 10
1057.1556883738
 20
23.0407189418
 30
0.0
 10
1057.0991599547
 20
22.853861112
 30
0.0
 10
1056.8259392625
 20
22.853861112
 30
0.0
 10
1056.6236407997
 20
22.853861112
 30
0.0
 10
1056.4810112238
 20
22.972152063
 30
0.0
 10
1056.4810112238
 20
23.1783761105
 30
0.0
 10
1056.4810112238
 20
23.1783761105
 30
0.0
 10
1056.2593465434
 20
23.1783761105
 30
0.0
 10
1056.2593465434
 20
23.1783761105
 30
0.0
 10
1056.2643189506
 20
22.853861112
 30
0.0
 10
1056.4954050342
 20
22.6570584677
 30
0.0
 10
1056.8157327424
 20
22.6570584677
 30
0.0
 10
1057.2637728048
 20
22.6570584677
 30
0.0
 10
1057.3773530542
 20
22.9423176196
 30
0.0
 10
1057.3773530542
 20
23.3390633758
 30
0.0
 10
1057.3773530542
 20
23.3390633758
 30
0.0
 10
1057.3773530542
 20
24.4696317576
 30
0.0
 10
1057.3773530542
 20
24.4696317576
 30
0.0
  0
SPLINE
  5
23B
100
AcDbEntity
  8
0
100
AcDbSpline
 62
7
  6
CONTINUOUS
 70
2
 71
3
 72
44
 73
40
 74
0
 42
0.0000001
 43
0.0000001
 44
0.0000000001
 40
0.0
 40
0.0
 40
0.0
 40
0.0
 40
1.0
 40
1.0
 40
1.0
 40
2.0
 40
2.0
 40
2.0
 40
3.0
 40
3.0
 40
3.0
 40
4.0
 40
4.0
 40
4.0
 40
5.0
 40
5.0
 40
5.0
 40
6.0
 40
6.0
 40
6.0
 40
7.0
 40
7.0
 40
7.0
 40
8.0
 40
8.0
 40
8.0
 40
9.0
 40
9.0
 40
9.0
 40
10.0
 40
10.0
 40
10.0
 40
11.0
 40
11.0
 40
11.0
 40
12.0
 40
12.0
 40
12.0
 40
13.0
 40
13.0
 40
13.0
 40
13.0
 10
1058.9462783896
 20
25.4546918014
 30
0.0
 10
1058.9462783896
 20
25.4546918014
 30
0.0
 10
1058.9462783896
 20
23.3165566905
 30
0.0
 10
1058.9462783896
 20
23.3165566905
 30
0.0
 10
1058.9462783896
 20
23.3165566905
 30
0.0
 10
1059.1676813644
 20
23.3165566905
 30
0.0
 10
1059.1676813644
 20
23.3165566905
 30
0.0
 10
1059.1676813644
 20
23.3165566905
 30
0.0
 10
1059.1676813644
 20
23.8462489138
 30
0.0
 10
1059.1676813644
 20
23.8462489138
 30
0.0
 10
1059.1676813644
 20
24.0561368402
 30
0.0
 10
1059.1676813644
 20
24.3068508471
 30
0.0
 10
1059.4529405163
 20
24.3068508471
 30
0.0
 10
1059.6798393096
 20
24.3068508471
 30
0.0
 10
1059.7067949909
 20
24.17390438
 30
0.0
 10
1059.7067949909
 20
23.977625147
 30
0.0
 10
1059.7067949909
 20
23.977625147
 30
0.0
 10
1059.7067949909
 20
23.3165566905
 30
0.0
 10
1059.7067949909
 20
23.3165566905
 30
0.0
 10
1059.7067949909
 20
23.3165566905
 30
0.0
 10
1059.928721377
 20
23.3165566905
 30
0.0
 10
1059.928721377
 20
23.3165566905
 30
0.0
 10
1059.928721377
 20
23.3165566905
 30
0.0
 10
1059.928721377
 20
24.0037957114
 30
0.0
 10
1059.928721377
 20
24.0037957114
 30
0.0
 10
1059.928721377
 20
24.2843441617
 30
0.0
 10
1059.8447138653
 20
24.5041769026
 30
0.0
 10
1059.5196754555
 20
24.5041769026
 30
0.0
 10
1059.3799246416
 20
24.5041769026
 30
0.0
 10
1059.2417440616
 20
24.4377036691
 30
0.0
 10
1059.172392066
 20
24.3147020164
 30
0.0
 10
1059.172392066
 20
24.3147020164
 30
0.0
 10
1059.1676813644
 20
24.3147020164
 30
0.0
 10
1059.1676813644
 20
24.3147020164
 30
0.0
 10
1059.1676813644
 20
24.3147020164
 30
0.0
 10
1059.1676813644
 20
25.4546918014
 30
0.0
 10
1059.1676813644
 20
25.4546918014
 30
0.0
 10
1059.1676813644
 20
25.4546918014
 30
0.0
 10
1058.9462783896
 20
25.4546918014
 30
0.0
 10
1058.9462783896
 20
25.4546918014
 30
0.0
  0
LWPOLYLINE
  5
23C
100
AcDbEntity
  8
0
100
AcDbPolyline
 62
7
  6
CONTINUOUS
 90
2
 70
0
 43
0.2
 10
1061.7685120538
 20
24.2623608876
 10
1061.9849426214
 20
24.2623608876
  0
LWPOLYLINE
  5
23D
100
AcDbEntity
  8
0
100
AcDbPolyline
 62
7
  6
CONTINUOUS
 90
2
 70
0
 43
0.2
 10
1061.9849426214
 20
24.2623608876
 10
1061.9849426214
 20
24.4691083463
  0
LWPOLYLINE
  5
23E
100
AcDbEntity
  8
0
100
AcDbPolyline
 62
7
  6
CONTINUOUS
 90
2
 70
0
 43
0.2
 10
1061.9849426214
 20
24.4691083463
 10
1061.7685120538
 20
24.4691083463
  0
LWPOLYLINE
  5
23F
100
AcDbEntity
  8
0
100
AcDbPolyline
 62
7
  6
CONTINUOUS
 90
2
 70
0
 43
0.2
 10
1061.7685120538
 20
24.4691083463
 10
1061.7685120538
 20
24.9098206507
  0
LWPOLYLINE
  5
240
100
AcDbEntity
  8
0
100
AcDbPolyline
 62
7
  6
CONTINUOUS
 90
2
 70
0
 43
0.2
 10
1061.7685120538
 20
24.9098206507
 10
1061.5468473734
 20
24.9098206507
  0
LWPOLYLINE
  5
241
100
AcDbEntity
  8
0
100
AcDbPolyline
 62
7
  6
CONTINUOUS
 90
2
 70
0
 43
0.2
 10
1061.5468473734
 20
24.9098206507
 10
1061.5468473734
 20
24.4691083463
  0
LWPOLYLINE
  5
242
100
AcDbEntity
  8
0
100
AcDbPolyline
 62
7
  6
CONTINUOUS
 90
2
 70
0
 43
0.2
 10
1061.5468473734
 20
24.4691083463
 10
1061.4262010716
 20
24.4691083463
  0
LWPOLYLINE
  5
243
100
AcDbEntity
  8
0
100
AcDbPolyline
 62
7
  6
CONTINUOUS
 90
2
 70
0
 43
0.2
 10
1061.4262010716
 20
24.4691083463
 10
1061.4262010716
 20
24.2623608876
  0
LWPOLYLINE
  5
244
100
AcDbEntity
  8
0
100
AcDbPolyline
 62
7
  6
CONTINUOUS
 90
2
 70
0
 43
0.2
 10
1061.4262010716
 20
24.2623608876
 10
1061.5468473734
 20
24.2623608876
  0
LWPOLYLINE
  5
245
100
AcDbEntity
  8
0
100
AcDbPolyline
 62
7
  6
CONTINUOUS
 90
2
 70
0
 43
0.2
 10
1061.5468473734
 20
24.2623608876
 10
1061.5468473734
 20
23.3165566905
  0
LWPOLYLINE
  5
246
100
AcDbEntity
  8
0
100
AcDbPolyline
 62
7
  6
CONTINUOUS
 90
2
 70
0
 43
0.2
 10
1061.5468473734
 20
23.3165566905
 10
1061.7685120538
 20
23.3165566905
  0
LWPOLYLINE
  5
247
100
AcDbEntity
  8
0
100
AcDbPolyline
 62
7
  6
CONTINUOUS
 90
2
 70
0
 43
0.2
 10
1061.7685120538
 20
23.3165566905
 10
1061.7685120538
 20
24.2623608876
  0
SPLINE
  5
248
100
AcDbEntity
  8
0
100
AcDbSpline
 62
7
  6
CONTINUOUS
 70
2
 71
3
 72
20
 73
16
 74
0
 42
0.0000001
 43
0.0000001
 44
0.0000000001
 40
0.0
 40
0.0
 40
0.0
 40
0.0
 40
1.0
 40
1.0
 40
1.0
 40
2.0
 40
2.0
 40
2.0
 40
3.0
 40
3.0
 40
3.0
 40
4.0
 40
4.0
 40
4.0
 40
5.0
 40
5.0
 40
5.0
 40
5.0
 10
1049.5505223611
 20
33.6774831338
 30
0.0
 10
1049.5505223611
 20
33.6774831338
 30
0.0
 10
1051.8668790155
 20
30.8479217116
 30
0.0
 10
1051.8668790155
 20
30.8479217116
 30
0.0
 10
1051.2152319621
 20
30.1957512469
 30
0.0
 10
1050.4383587581
 20
29.4598349762
 30
0.0
 10
1049.4671691135
 20
29.4598349762
 30
0.0
 10
1048.468631229
 20
29.4598349762
 30
0.0
 10
1047.5253132355
 20
30.3894134234
 30
0.0
 10
1047.5253132355
 20
31.388605572
 30
0.0
 10
1047.5253132355
 20
32.3877977205
 30
0.0
 10
1048.7041663086
 20
33.0944029592
 30
0.0
 10
1049.4256887689
 20
33.5942607391
 30
0.0
 10
1049.4256887689
 20
33.5942607391
 30
0.0
 10
1049.5505223611
 20
33.6774831338
 30
0.0
 10
1049.5505223611
 20
33.6774831338
 30
0.0
  0
SPLINE
  5
249
100
AcDbEntity
  8
0
100
AcDbSpline
 62
7
  6
CONTINUOUS
 70
2
 71
3
 72
23
 73
19
 74
0
 42
0.0000001
 43
0.0000001
 44
0.0000000001
 40
0.0
 40
0.0
 40
0.0
 40
0.0
 40
1.0
 40
1.0
 40
1.0
 40
2.0
 40
2.0
 40
2.0
 40
3.0
 40
3.0
 40
3.0
 40
4.0
 40
4.0
 40
4.0
 40
5.0
 40
5.0
 40
5.0
 40
6.0
 40
6.0
 40
6.0
 40
6.0
 10
1049.8279303436
 20
35.3152370536
 30
0.0
 10
1049.8279303436
 20
35.3152370536
 30
0.0
 10
1049.4814320711
 20
35.7585664144
 30
0.0
 10
1049.4814320711
 20
35.7585664144
 30
0.0
 10
1049.1756290261
 20
36.1466758844
 30
0.0
 10
1048.856740699
 20
36.5351779128
 30
0.0
 10
1048.856740699
 20
37.0621222269
 30
0.0
 10
1048.856740699
 20
37.7282939435
 30
0.0
 10
1049.3980788235
 20
38.1720158628
 30
0.0
 10
1050.0219850786
 20
38.1720158628
 30
0.0
 10
1050.7157667407
 20
38.1720158628
 30
0.0
 10
1051.2429727604
 20
37.7697742881
 30
0.0
 10
1051.2429727604
 20
37.0347739871
 30
0.0
 10
1051.2429727604
 20
36.2715094765
 30
0.0
 10
1050.5217120057
 20
35.8413962507
 30
0.0
 10
1049.9946368388
 20
35.4256768353
 30
0.0
 10
1049.9946368388
 20
35.4256768353
 30
0.0
 10
1049.8279303436
 20
35.3152370536
 30
0.0
 10
1049.8279303436
 20
35.3152370536
 30
0.0
  0
SPLINE
  5
24A
100
AcDbEntity
  8
0
100
AcDbSpline
 62
7
  6
CONTINUOUS
 70
2
 71
3
 72
50
 73
46
 74
0
 42
0.0000001
 43
0.0000001
 44
0.0000000001
 40
0.0
 40
0.0
 40
0.0
 40
0.0
 40
1.0
 40
1.0
 40
1.0
 40
2.0
 40
2.0
 40
2.0
 40
3.0
 40
3.0
 40
3.0
 40
4.0
 40
4.0
 40
4.0
 40
5.0
 40
5.0
 40
5.0
 40
6.0
 40
6.0
 40
6.0
 40
7.0
 40
7.0
 40
7.0
 40
8.0
 40
8.0
 40
8.0
 40
9.0
 40
9.0
 40
9.0
 40
10.0
 40
10.0
 40
10.0
 40
11.0
 40
11.0
 40
11.0
 40
12.0
 40
12.0
 40
12.0
 40
13.0
 40
13.0
 40
13.0
 40
14.0
 40
14.0
 40
14.0
 40
15.0
 40
15.0
 40
15.0
 40
15.0
 10
1053.7815175066
 20
28.5166478354
 30
0.0
 10
1053.7815175066
 20
28.5166478354
 30
0.0
 10
1055.3907455111
 20
28.5166478354
 30
0.0
 10
1055.3907455111
 20
28.5166478354
 30
0.0
 10
1055.3907455111
 20
28.5166478354
 30
0.0
 10
1053.5177182175
 20
30.8337896068
 30
0.0
 10
1053.5177182175
 20
30.8337896068
 30
0.0
 10
1053.5177182175
 20
30.8337896068
 30
0.0
 10
1054.794056643
 20
32.3312693014
 30
0.0
 10
1054.794056643
 20
32.3312693014
 30
0.0
 10
1054.794056643
 20
32.3312693014
 30
0.0
 10
1053.9618326952
 20
33.19228087
 30
0.0
 10
1053.9618326952
 20
33.19228087
 30
0.0
 10
1053.9618326952
 20
33.19228087
 30
0.0
 10
1052.7412375719
 20
31.7769767476
 30
0.0
 10
1052.7412375719
 20
31.7769767476
 30
0.0
 10
1052.7412375719
 20
31.7769767476
 30
0.0
 10
1050.5633232031
 20
34.412352582
 30
0.0
 10
1050.5633232031
 20
34.412352582
 30
0.0
 10
1051.4368966426
 20
35.0503909419
 30
0.0
 10
1052.4635678837
 20
35.8413962507
 30
0.0
 10
1052.4635678837
 20
37.0202493238
 30
0.0
 10
1052.4635678837
 20
38.3939422488
 30
0.0
 10
1051.3256717439
 20
39.1984253983
 30
0.0
 10
1050.050380141
 20
39.1984253983
 30
0.0
 10
1048.6769489216
 20
39.1984253983
 30
0.0
 10
1047.6360147229
 20
38.3522001986
 30
0.0
 10
1047.6360147229
 20
36.9095478364
 30
0.0
 10
1047.6360147229
 20
36.021973145
 30
0.0
 10
1048.1913540993
 20
35.245099941
 30
0.0
 10
1048.7875195562
 20
34.6206702746
 30
0.0
 10
1048.7875195562
 20
34.6206702746
 30
0.0
 10
1048.1356107971
 20
34.1490767042
 30
0.0
 10
1048.1356107971
 20
34.1490767042
 30
0.0
 10
1047.1370729127
 20
33.4278159495
 30
0.0
 10
1046.3041947009
 20
32.7065551948
 30
0.0
 10
1046.3041947009
 20
31.3749968785
 30
0.0
 10
1046.3041947009
 20
29.5713215805
 30
0.0
 10
1047.7612408735
 20
28.2947214494
 30
0.0
 10
1049.5087803109
 20
28.2947214494
 30
0.0
 10
1050.7436383918
 20
28.2947214494
 30
0.0
 10
1051.8530086164
 20
29.0028969219
 30
0.0
 10
1052.6438830724
 20
29.9314285466
 30
0.0
 10
1052.6438830724
 20
29.9314285466
 30
0.0
 10
1053.7815175066
 20
28.5166478354
 30
0.0
 10
1053.7815175066
 20
28.5166478354
 30
0.0
  0
LINE
  5
24B
100
AcDbEntity
  8
0
100
AcDbLine
 62
7
  6
CONTINUOUS
 10
1039.5843788816
 20
26.4905227401
 11
1061.9982896092
 21
26.4905227401
  0
LINE
  5
24C
100
AcDbEntity
  8
0
100
AcDbLine
 62
7
  6
CONTINUOUS
 10
1061.9982896092
 20
26.4905227401
 11
1061.9982896092
 21
48.9044334677
  0
LINE
  5
24D
100
AcDbEntity
  8
0
100
AcDbLine
 62
7
  6
CONTINUOUS
 10
1061.9982896092
 20
48.9044334677
 11
1039.5843788816
 21
48.9044334677
  0
LINE
  5
24E
100
AcDbEntity
  8
0
100
AcDbLine
 62
7
  6
CONTINUOUS
 10
1039.5843788816
 20
48.9044334677
 11
1039.5843788816
 21
26.4905227401
  0
ENDBLK
  5
24F
100
AcDbEntity
  8
0
  6
BYBLOCK
 62
0
100
AcDbBlockEnd
  0
BLOCK
  5
250
100
AcDbEntity
  8
0
100
AcDbBlockBegin
  2
_CLOSED
 70
64
 10
0.0
 20
0.0
  3
_CLOSED
  1

  0
LINE
  5
251
100
AcDbEntity
  8
0
  6
BYBLOCK
 62
0
100
AcDbLine
 10
0.0
 20
0.0
 11
-1.0
 21
0.2
  0
LINE
  5
252
100
AcDbEntity
  8
0
  6
BYBLOCK
 62
0
100
AcDbLine
 10
-1.0
 20
0.2
 11
-1.0
 21
-0.2
  0
LINE
  5
253
100
AcDbEntity
  8
0
  6
BYBLOCK
 62
0
100
AcDbLine
 10
-1.0
 20
-0.2
 11
0.0
 21
0.0
  0
LINE
  5
254
100
AcDbEntity
  8
0
  6
BYBLOCK
 62
0
100
AcDbLine
 10
-1.0
 20
0.0
 11
0.0
 21
0.0
  0
ENDBLK
  5
255
100
AcDbEntity
  8
0
  6
BYBLOCK
 62
0
100
AcDbBlockEnd
  0
BLOCK
  5
256
100
AcDbEntity
  8
0
100
AcDbBlockBegin
 62
7
  6
CONTINUOUS
  2
*D0
 70
65
 10
0.0
 20
0.0
  3
*D0
  1

  0
MTEXT
  5
257
100
AcDbEntity
  8
0
100
AcDbMText
 62
7
  6
CONTINUOUS
  7
STANDARD
 71
2
 72
1
 10
422.0892137097
 20
693.399874823
 30
0.0
 11
1.0
 21
0.0
 31
0.0
  1
633,5
 40
10.0
 41
34.9442379182
  0
LINE
  5
258
100
AcDbEntity
  8
0
100
AcDbLine
 62
7
  6
CONTINUOUS
 10
105.3392137097
 20
666.0226814516
 11
105.3392137097
 21
681.649874823
  0
LINE
  5
259
100
AcDbEntity
  8
0
100
AcDbLine
 62
7
  6
CONTINUOUS
 10
738.8392137097
 20
671.0532974874
 11
738.8392137097
 21
681.649874823
  0
LINE
  5
25A
100
AcDbEntity
  8
0
100
AcDbLine
 62
7
  6
CONTINUOUS
 10
105.3392137097
 20
680.899874823
 11
422.0892137097
 21
680.899874823
  0
LINE
  5
25B
100
AcDbEntity
  8
0
100
AcDbLine
 62
7
  6
CONTINUOUS
 10
738.8392137097
 20
680.899874823
 11
422.0892137097
 21
680.899874823
  0
INSERT
  5
25C
100
AcDbEntity
  8
0
100
AcDbBlockReference
 62
7
  6
CONTINUOUS
  2
_CLOSED
 10
105.3392137097
 20
680.899874823
 41
2.5
 42
2.5
 43
2.5
 50
180.0
  0
INSERT
  5
25D
100
AcDbEntity
  8
0
100
AcDbBlockReference
 62
7
  6
CONTINUOUS
  2
_CLOSED
 10
738.8392137097
 20
680.899874823
 41
2.5
 42
2.5
 43
2.5
 50
360.0
  0
ENDBLK
  5
25E
100
AcDbEntity
  8
0
  6
BYBLOCK
 62
0
100
AcDbBlockEnd
  0
BLOCK
  5
25F
100
AcDbEntity
  8
0
100
AcDbBlockBegin
 62
7
  6
CONTINUOUS
  2
*D1
 70
65
 10
0.0
 20
0.0
  3
*D1
  1

  0
MTEXT
  5
260
100
AcDbEntity
  8
0
100
AcDbMText
 62
7
  6
CONTINUOUS
  7
STANDARD
 71
2
 72
1
 10
35.3139870749
 20
335.1315524194
 30
0.0
 11
0.0
 21
1.0
 31
0.0
  1
633,5
 40
10.0
 41
34.9442379182
  0
LINE
  5
261
100
AcDbEntity
  8
0
100
AcDbLine
 62
7
  6
CONTINUOUS
 10
88.7372773975
 20
651.8815524194
 11
47.0639870749
 21
651.8815524194
  0
LINE
  5
262
100
AcDbEntity
  8
0
100
AcDbLine
 62
7
  6
CONTINUOUS
 10
88.7372773975
 20
18.3815524194
 11
47.0639870749
 21
18.3815524194
  0
LINE
  5
263
100
AcDbEntity
  8
0
100
AcDbLine
 62
7
  6
CONTINUOUS
 10
47.8139870749
 20
651.8815524194
 11
47.8139870749
 21
335.1315524194
  0
LINE
  5
264
100
AcDbEntity
  8
0
100
AcDbLine
 62
7
  6
CONTINUOUS
 10
47.8139870749
 20
18.3815524194
 11
47.8139870749
 21
335.1315524194
  0
INSERT
  5
265
100
AcDbEntity
  8
0
100
AcDbBlockReference
 62
7
  6
CONTINUOUS
  2
_CLOSED
 10
47.8139870749
 20
651.8815524194
 41
2.5
 42
2.5
 43
2.5
 50
90.0
  0
INSERT
  5
266
100
AcDbEntity
  8
0
100
AcDbBlockReference
 62
7
  6
CONTINUOUS
  2
_CLOSED
 10
47.8139870749
 20
18.3815524194
 41
2.5
 42
2.5
 43
2.5
 50
270.0
  0
ENDBLK
  5
267
100
AcDbEntity
  8
0
  6
BYBLOCK
 62
0
100
AcDbBlockEnd
  0
BLOCK
  5
268
100
AcDbEntity
  8
0
100
AcDbBlockBegin
 62
7
  6
CONTINUOUS
  2
*D2
 70
65
 10
0.0
 20
0.0
  3
*D2
  1

  0
MTEXT
  5
269
100
AcDbEntity
  8
0
100
AcDbMText
 62
7
  6
CONTINUOUS
  7
STANDARD
 71
2
 72
1
 10
35.3139870749
 20
755.8361895161
 30
0.0
 11
0.0
 21
1.0
 31
0.0
  1
109,9
 40
10.0
 41
34.9442379182
  0
LINE
  5
26A
100
AcDbEntity
  8
0
100
AcDbLine
 62
7
  6
CONTINUOUS
 10
88.7372773975
 20
700.8861895161
 11
47.0639870749
 21
700.8861895161
  0
LINE
  5
26B
100
AcDbEntity
  8
0
100
AcDbLine
 62
7
  6
CONTINUOUS
 10
92.6030783579
 20
810.7861895161
 11
47.0639870749
 21
810.7861895161
  0
LINE
  5
26C
100
AcDbEntity
  8
0
100
AcDbLine
 62
7
  6
CONTINUOUS
 10
47.8139870749
 20
700.8861895161
 11
47.8139870749
 21
755.8361895161
  0
LINE
  5
26D
100
AcDbEntity
  8
0
100
AcDbLine
 62
7
  6
CONTINUOUS
 10
47.8139870749
 20
810.7861895161
 11
47.8139870749
 21
755.8361895161
  0
INSERT
  5
26E
100
AcDbEntity
  8
0
100
AcDbBlockReference
 62
7
  6
CONTINUOUS
  2
_CLOSED
 10
47.8139870749
 20
700.8861895161
 41
2.5
 42
2.5
 43
2.5
 50
270.0
  0
INSERT
  5
26F
100
AcDbEntity
  8
0
100
AcDbBlockReference
 62
7
  6
CONTINUOUS
  2
_CLOSED
 10
47.8139870749
 20
810.7861895161
 41
2.5
 42
2.5
 43
2.5
 50
90.0
  0
ENDBLK
  5
270
100
AcDbEntity
  8
0
  6
BYBLOCK
 62
0
100
AcDbBlockEnd
  0
ENDSEC
  0
SECTION
  2
ENTITIES
  0
DIMENSION
  5
271
100
AcDbEntity
  8
0
100
AcDbDimension
 62
7
  6
CONTINUOUS
  2
*D0
 10
738.8392137097
 20
680.899874823
 11
422.0494073944
 21
680.899874823
 70
160
  3
DIMSTYLE_1
100
AcDbAlignedDimension
 13
105.3392137097
 23
665.2726814516
 14
738.8392137097
 24
670.3032974874
100
AcDbRotatedDimension
  0
DIMENSION
  5
272
100
AcDbEntity
  8
0
100
AcDbDimension
 62
7
  6
CONTINUOUS
  2
*D1
 10
47.8139870749
 20
18.3815524194
 11
47.8139870749
 21
335.0917459592
 70
160
  3
DIMSTYLE_1
100
AcDbAlignedDimension
 13
89.4872773975
 23
651.8815524194
 14
89.4872773975
 24
18.3815524194
 50
270.0
100
AcDbRotatedDimension
  0
DIMENSION
  5
273
100
AcDbEntity
  8
0
100
AcDbDimension
 62
7
  6
CONTINUOUS
  2
*D2
 10
47.8139870749
 20
810.7861895161
 11
47.8139870749
 21
756.2610675004
 70
160
  3
DIMSTYLE_2
100
AcDbAlignedDimension
 13
89.4872773975
 23
700.8861895161
 14
93.3530783579
 24
810.7861895161
 50
90.0
100
AcDbRotatedDimension
  0
LINE
  5
274
100
AcDbEntity
  8
0
100
AcDbLine
 62
2
  6
CONTINUOUS
 10
1036.9652217742
 20
49.2807459677
 11
1126.9652217742
 21
49.2807459677
  0
LINE
  5
275
100
AcDbEntity
  8
0
100
AcDbLine
 62
2
  6
CONTINUOUS
 10
1036.9652217742
 20
49.2807459677
 11
1036.9652217742
 21
9.2807459677
  0
LINE
  5
276
100
AcDbEntity
  8
0
100
AcDbLine
 62
2
  6
CONTINUOUS
 10
1066.9652217742
 20
43.2807459677
 11
1126.9652217742
 21
43.2807459677
  0
LINE
  5
277
100
AcDbEntity
  8
0
100
AcDbLine
 62
2
  6
CONTINUOUS
 10
1066.9652217742
 20
37.2807459677
 11
1126.9652217742
 21
37.2807459677
  0
LINE
  5
278
100
AcDbEntity
  8
0
100
AcDbLine
 62
2
  6
CONTINUOUS
 10
1066.9652217742
 20
27.2807459677
 11
1126.9652217742
 21
27.2807459677
  0
LINE
  5
279
100
AcDbEntity
  8
0
100
AcDbLine
 62
2
  6
CONTINUOUS
 10
1036.9652217742
 20
22.2807459677
 11
1126.9652217742
 21
22.2807459677
  0
LINE
  5
27A
100
AcDbEntity
  8
0
100
AcDbLine
 62
2
  6
CONTINUOUS
 10
1036.9652217742
 20
9.2807459677
 11
1126.9652217742
 21
9.2807459677
  0
LINE
  5
27B
100
AcDbEntity
  8
0
100
AcDbLine
 62
2
  6
CONTINUOUS
 10
1066.9652217742
 20
49.2807459677
 11
1066.9652217742
 21
22.2807459677
  0
LINE
  5
27C
100
AcDbEntity
  8
0
100
AcDbLine
 62
2
  6
CONTINUOUS
 10
1106.9652217742
 20
49.2807459677
 11
1106.9652217742
 21
37.2807459677
  0
LINE
  5
27D
100
AcDbEntity
  8
0
100
AcDbLine
 62
2
  6
CONTINUOUS
 10
1126.9652217742
 20
49.2807459677
 11
1126.9652217742
 21
9.2807459677
  0
INSERT
  5
27E
100
AcDbEntity
  8
0
100
AcDbBlockReference
 62
2
  6
CONTINUOUS
  2
LOGO2_BL0
 10
1050.791268819
 20
35.7807459677
  0
MTEXT
  5
27F
100
AcDbEntity
  8
9_SOLID
100
AcDbMText
 62
2
  6
CONTINUOUS
  7
TEXTSTYLE_2
 71
1
 72
1
 10
1068.4527217742
 20
47.7807459677
 30
0.0
 11
1.0
 21
0.0
 31
0.0
  1
6F4_C_460
 40
3.0
 41
32.5714285714
  0
MTEXT
  5
280
100
AcDbEntity
  8
0
100
AcDbMText
 62
2
  6
CONTINUOUS
  7
TEXTSTYLE_2
 71
1
 72
1
 10
1108.4527217742
 20
47.5307459677
 30
0.0
 11
1.0
 21
0.0
 31
0.0
  1
Rev:00
 40
3.5
 41
22.75
  0
MTEXT
  5
281
100
AcDbEntity
  8
9_SOLID
100
AcDbMText
 62
2
  6
CONTINUOUS
  7
TEXTSTYLE_2
 71
1
 72
1
 10
1068.4527217742
 20
41.5307459677
 30
0.0
 11
1.0
 21
0.0
 31
0.0
  1
Scale:1:1
 40
3.5
 41
28.375
  0
MTEXT
  5
282
100
AcDbEntity
  8
9_SOLID
100
AcDbMText
 62
2
  6
CONTINUOUS
  7
TEXTSTYLE_2
 71
1
 72
1
 10
1108.4527217742
 20
42.0307459677
 30
0.0
 11
1.0
 21
0.0
 31
0.0
  1
A0
 40
3.5
 41
9.625
  0
MTEXT
  5
283
100
AcDbEntity
  8
0
100
AcDbMText
 62
2
  6
CONTINUOUS
  7
TEXTSTYLE_2
 71
1
 72
1
 10
1068.4527217742
 20
34.0307459677
 30
0.0
 11
1.0
 21
0.0
 31
0.0
  1
CASS. ARRETRATA BRENTA 2  A SCENDERE 90°
 40
3.5
 41
167.8375
  0
MTEXT
  5
284
100
AcDbEntity
  8
0
100
AcDbMText
 62
2
  6
CONTINUOUS
  7
TEXTSTYLE_2
 71
1
 72
1
 10
1068.4527217742
 20
26.0307459677
 30
0.0
 11
1.0
 21
0.0
 31
0.0
  1
DATE:08/05/18
 40
2.5
 41
36.875
  0
MTEXT
  5
285
100
AcDbEntity
  8
9_SOLID
100
AcDbMText
 62
2
  6
CONTINUOUS
  7
TEXTSTYLE_2
 71
1
 72
1
 10
1038.4527217742
 20
21.9682459677
 30
0.0
 11
1.0
 21
0.0
 31
0.0
  1
Any integral or partial reproductions are prohibited \Pwithout prior authorisation of L {\Ftxt.shx;\W0.190476;\H2.250000; }& L Luce & Light s.r.l., \Pin accordance with the law in force. \PAll rights reserved.
 40
2.25
 41
134.5982142857
  0
LINE
  5
286
100
AcDbEntity
  8
0
100
AcDbLine
 62
7
  6
CONTINUOUS
 10
0.0
 20
0.0
 11
0.0
 21
841.0
  0
LINE
  5
287
100
AcDbEntity
  8
0
100
AcDbLine
 62
7
  6
CONTINUOUS
 10
0.0
 20
0.0
 11
1189.0
 21
0.0
  0
LINE
  5
288
100
AcDbEntity
  8
0
100
AcDbLine
 62
7
  6
CONTINUOUS
 10
0.0
 20
841.0
 11
1189.0
 21
841.0
  0
LINE
  5
289
100
AcDbEntity
  8
0
100
AcDbLine
 62
7
  6
CONTINUOUS
 10
1189.0
 20
0.0
 11
1189.0
 21
841.0
  0
LINE
  5
28A
100
AcDbEntity
  8
7_ALL_FEATURES
100
AcDbLine
 62
7
  6
CONTINUOUS
 10
156.1392137097
 20
618.6136032269
 11
154.6392137097
 21
617.7475778231
  0
LINE
  5
28B
100
AcDbEntity
  8
7_ALL_FEATURES
100
AcDbLine
 62
7
  6
CONTINUOUS
 10
156.1392137097
 20
615.1495016118
 11
157.6392137097
 21
616.0155270156
  0
LINE
  5
28C
100
AcDbEntity
  8
7_ALL_FEATURES
100
AcDbLine
 62
7
  6
CONTINUOUS
 10
140.3392137097
 20
590.3136032269
 11
138.8392137097
 21
589.4475778231
  0
LINE
  5
28D
100
AcDbEntity
  8
7_ALL_FEATURES
100
AcDbLine
 62
7
  6
CONTINUOUS
 10
140.3392137097
 20
586.8495016118
 11
141.8392137097
 21
587.7155270156
  0
LINE
  5
28E
100
AcDbEntity
  8
7_ALL_FEATURES
100
AcDbLine
 62
7
  6
CONTINUOUS
 10
105.3392137097
 20
18.3815524194
 11
105.3392137097
 21
651.8815524194
  0
LINE
  5
28F
100
AcDbEntity
  8
7_ALL_FEATURES
100
AcDbLine
 62
9
  6
CONTINUOUS
 10
105.6392137097
 20
18.3815524194
 11
105.6392137097
 21
651.5815524194
  0
LINE
  5
290
100
AcDbEntity
  8
7_ALL_FEATURES
100
AcDbLine
 62
9
  6
CONTINUOUS
 10
106.3392137097
 20
18.3815524194
 11
106.3392137097
 21
650.8815524194
  0
LINE
  5
291
100
AcDbEntity
  8
7_ALL_FEATURES
100
AcDbLine
 62
7
  6
CONTINUOUS
 10
106.6392137097
 20
18.3815524194
 11
106.6392137097
 21
650.5815524194
  0
LINE
  5
292
100
AcDbEntity
  8
7_ALL_FEATURES
100
AcDbLine
 62
9
  6
CONTINUOUS
 10
107.3589106794
 20
649.8618554497
 11
107.3589106794
 21
18.3815524194
  0
LINE
  5
293
100
AcDbEntity
  8
7_ALL_FEATURES
100
AcDbLine
 62
9
  6
CONTINUOUS
 10
109.9892137097
 20
647.2315524194
 11
109.9892137097
 21
18.3815524194
  0
LINE
  5
294
100
AcDbEntity
  8
7_ALL_FEATURES
100
AcDbLine
 62
7
  6
CONTINUOUS
 10
110.7392137097
 20
18.3815524194
 11
110.7392137097
 21
646.4815524194
  0
LINE
  5
295
100
AcDbEntity
  8
7_ALL_FEATURES
100
AcDbLine
 62
9
  6
CONTINUOUS
 10
111.9142428352
 20
18.3815524194
 11
111.9142428352
 21
645.3065232939
  0
LINE
  5
296
100
AcDbEntity
  8
7_ALL_FEATURES
100
AcDbLine
 62
7
  6
CONTINUOUS
 10
196.3392137097
 20
18.3815524194
 11
193.8392137097
 21
18.3815524194
  0
LINE
  5
297
100
AcDbEntity
  8
6_ALL_SURFS
100
AcDbLine
 62
7
  6
CONTINUOUS
 10
193.8392137097
 20
18.3815524194
 11
193.6892137097
 21
18.3815524194
  0
LINE
  5
298
100
AcDbEntity
  8
7_ALL_FEATURES
100
AcDbLine
 62
7
  6
CONTINUOUS
 10
193.6540187394
 20
18.3815524194
 11
105.3392137097
 21
18.3815524194
  0
LINE
  5
299
100
AcDbEntity
  8
7_ALL_FEATURES
100
AcDbLine
 62
3
  6
CONTINUOUS
 10
127.8392137097
 20
574.3815524194
 11
127.8392137097
 21
629.3815524194
  0
LINE
  5
29A
100
AcDbEntity
  8
7_ALL_FEATURES
100
AcDbLine
 62
9
  6
CONTINUOUS
 10
129.8787039212
 20
18.3815524194
 11
129.8787039212
 21
574.3815524194
  0
LINE
  5
29B
100
AcDbEntity
  8
7_ALL_FEATURES
100
AcDbLine
 62
9
  6
CONTINUOUS
 10
130.9619401695
 20
18.3815524194
 11
130.9619401695
 21
574.3815524194
  0
LINE
  5
29C
100
AcDbEntity
  8
7_ALL_FEATURES
100
AcDbLine
 62
7
  6
CONTINUOUS
 10
138.8392137097
 20
589.4475778231
 11
138.8392137097
 21
587.7155270156
  0
LINE
  5
29D
100
AcDbEntity
  8
7_ALL_FEATURES
100
AcDbLine
 62
7
  6
CONTINUOUS
 10
141.8392137097
 20
587.7155270156
 11
141.8392137097
 21
589.4475778231
  0
LINE
  5
29E
100
AcDbEntity
  8
7_ALL_FEATURES
100
AcDbLine
 62
3
  6
CONTINUOUS
 10
152.8392137097
 20
604.3815524194
 11
152.8392137097
 21
574.3815524194
  0
LINE
  5
29F
100
AcDbEntity
  8
7_ALL_FEATURES
100
AcDbLine
 62
7
  6
CONTINUOUS
 10
154.6392137097
 20
617.7475778231
 11
154.6392137097
 21
616.0155270156
  0
LINE
  5
2A0
100
AcDbEntity
  8
7_ALL_FEATURES
100
AcDbLine
 62
7
  6
CONTINUOUS
 10
157.6392137097
 20
616.0155270156
 11
157.6392137097
 21
617.7475778231
  0
LINE
  5
2A1
100
AcDbEntity
  8
7_ALL_FEATURES
100
AcDbLine
 62
9
  6
CONTINUOUS
 10
166.1392137097
 20
591.0815524194
 11
166.1392137097
 21
18.3815524194
  0
LINE
  5
2A2
100
AcDbEntity
  8
7_ALL_FEATURES
100
AcDbLine
 62
7
  6
CONTINUOUS
 10
166.4392137097
 20
18.3815524194
 11
166.4392137097
 21
590.7815524194
  0
LINE
  5
2A3
100
AcDbEntity
  8
7_ALL_FEATURES
100
AcDbLine
 62
9
  6
CONTINUOUS
 10
167.9392137097
 20
18.3815524194
 11
167.9392137097
 21
589.2815524194
  0
LINE
  5
2A4
100
AcDbEntity
  8
7_ALL_FEATURES
100
AcDbLine
 62
9
  6
CONTINUOUS
 10
170.7392137097
 20
18.3815524194
 11
170.7392137097
 21
586.4815524194
  0
LINE
  5
2A5
100
AcDbEntity
  8
7_ALL_FEATURES
100
AcDbLine
 62
7
  6
CONTINUOUS
 10
172.2392137097
 20
18.3815524194
 11
172.2392137097
 21
584.9815524194
  0
LINE
  5
2A6
100
AcDbEntity
  8
7_ALL_FEATURES
100
AcDbLine
 62
9
  6
CONTINUOUS
 10
172.5392137097
 20
584.6815524194
 11
172.5392137097
 21
18.3815524194
  0
LINE
  5
2A7
100
AcDbEntity
  8
7_ALL_FEATURES
100
AcDbLine
 62
9
  6
CONTINUOUS
 10
173.9492530785
 20
583.2715130505
 11
173.9492530785
 21
18.3815524194
  0
LINE
  5
2A8
100
AcDbEntity
  8
7_ALL_FEATURES
100
AcDbLine
 62
9
  6
CONTINUOUS
 10
174.1538525865
 20
583.0669135425
 11
174.1538525865
 21
18.3815524194
  0
LINE
  5
2A9
100
AcDbEntity
  8
7_ALL_FEATURES
100
AcDbLine
 62
9
  6
CONTINUOUS
 10
176.3162161696
 20
18.3815524194
 11
176.3162161696
 21
580.9045499594
  0
LINE
  5
2AA
100
AcDbEntity
  8
7_ALL_FEATURES
100
AcDbLine
 62
9
  6
CONTINUOUS
 10
177.3392137097
 20
18.3815524194
 11
177.3392137097
 21
579.8815524194
  0
LINE
  5
2AB
100
AcDbEntity
  8
7_ALL_FEATURES
100
AcDbLine
 62
7
  6
CONTINUOUS
 10
180.8473213369
 20
576.3734447921
 11
180.8473213369
 21
18.3815524194
  0
LINE
  5
2AC
100
AcDbEntity
  8
7_ALL_FEATURES
100
AcDbLine
 62
3
  6
CONTINUOUS
 10
182.8392137097
 20
629.3815524194
 11
182.8392137097
 21
604.3815524194
  0
LINE
  5
2AD
100
AcDbEntity
  8
7_ALL_FEATURES
100
AcDbLine
 62
7
  6
CONTINUOUS
 10
183.8272542221
 20
573.3935119069
 11
183.8272542221
 21
18.3815524194
  0
LINE
  5
2AE
100
AcDbEntity
  8
7_ALL_FEATURES
100
AcDbLine
 62
9
  6
CONTINUOUS
 10
193.5392137097
 20
563.6815524194
 11
193.5392137097
 21
18.3815524194
  0
LINE
  5
2AF
100
AcDbEntity
  8
7_ALL_FEATURES
100
AcDbLine
 62
7
  6
CONTINUOUS
 10
193.6892137097
 20
563.5315524194
 11
193.6892137097
 21
18.3815524194
  0
LINE
  5
2B0
100
AcDbEntity
  8
7_ALL_FEATURES
100
AcDbLine
 62
7
  6
CONTINUOUS
 10
193.8392137097
 20
563.3815524194
 11
193.8392137097
 21
18.3815524194
  0
LINE
  5
2B1
100
AcDbEntity
  8
7_ALL_FEATURES
100
AcDbLine
 62
9
  6
CONTINUOUS
 10
194.6246665506
 20
562.5960995784
 11
194.6246665506
 21
18.3815524194
  0
LINE
  5
2B2
100
AcDbEntity
  8
7_ALL_FEATURES
100
AcDbLine
 62
7
  6
CONTINUOUS
 10
194.8392137097
 20
562.3815524194
 11
194.8392137097
 21
18.3815524194
  0
LINE
  5
2B3
100
AcDbEntity
  8
7_ALL_FEATURES
100
AcDbLine
 62
9
  6
CONTINUOUS
 10
195.1392137097
 20
562.0815524194
 11
195.1392137097
 21
18.3815524194
  0
LINE
  5
2B4
100
AcDbEntity
  8
7_ALL_FEATURES
100
AcDbLine
 62
9
  6
CONTINUOUS
 10
196.0392137097
 20
18.3815524194
 11
196.0392137097
 21
561.1815524194
  0
LINE
  5
2B5
100
AcDbEntity
  8
7_ALL_FEATURES
100
AcDbLine
 62
7
  6
CONTINUOUS
 10
196.3392137097
 20
18.3815524194
 11
196.3392137097
 21
560.8815524194
  0
LINE
  5
2B6
100
AcDbEntity
  8
7_ALL_FEATURES
100
AcDbLine
 62
7
  6
CONTINUOUS
 10
194.8392137097
 20
562.3815524194
 11
172.2422995394
 21
584.9784665897
  0
LINE
  5
2B7
100
AcDbEntity
  8
7_ALL_FEATURES
100
AcDbLine
 62
7
  6
CONTINUOUS
 10
172.2392137097
 20
584.9815524194
 11
166.4392137097
 21
590.7815524194
  0
LINE
  5
2B8
100
AcDbEntity
  8
7_ALL_FEATURES
100
AcDbLine
 62
7
  6
CONTINUOUS
 10
166.43612788
 20
590.784638249
 11
152.8392137097
 21
604.3815524194
  0
LINE
  5
2B9
100
AcDbEntity
  8
7_ALL_FEATURES
100
AcDbLine
 62
7
  6
CONTINUOUS
 10
127.8392137097
 20
629.3815524194
 11
110.7392137097
 21
646.4815524194
  0
LINE
  5
2BA
100
AcDbEntity
  8
7_ALL_FEATURES
100
AcDbLine
 62
7
  6
CONTINUOUS
 10
110.7345011895
 20
646.4862649395
 11
106.6436752544
 21
650.5770908746
  0
LINE
  5
2BB
100
AcDbEntity
  8
7_ALL_FEATURES
100
AcDbLine
 62
7
  6
CONTINUOUS
 10
106.6392137097
 20
650.5815524194
 11
105.3392137097
 21
651.8815524194
  0
LINE
  5
2BC
100
AcDbEntity
  8
7_ALL_FEATURES
100
AcDbLine
 62
7
  6
CONTINUOUS
 10
194.8422995394
 20
562.3784665897
 11
196.3392137097
 21
560.8815524194
  0
LINE
  5
2BD
100
AcDbEntity
  8
7_ALL_FEATURES
100
AcDbLine
 62
7
  6
CONTINUOUS
 10
138.8392137097
 20
587.7155270156
 11
140.3392137097
 21
586.8495016118
  0
LINE
  5
2BE
100
AcDbEntity
  8
7_ALL_FEATURES
100
AcDbLine
 62
7
  6
CONTINUOUS
 10
141.8392137097
 20
589.4475778231
 11
140.3392137097
 21
590.3136032269
  0
LINE
  5
2BF
100
AcDbEntity
  8
7_ALL_FEATURES
100
AcDbLine
 62
7
  6
CONTINUOUS
 10
154.6392137097
 20
616.0155270156
 11
156.1392137097
 21
615.1495016118
  0
LINE
  5
2C0
100
AcDbEntity
  8
7_ALL_FEATURES
100
AcDbLine
 62
7
  6
CONTINUOUS
 10
157.6392137097
 20
617.7475778231
 11
156.1392137097
 21
618.6136032269
  0
LINE
  5
2C1
100
AcDbEntity
  8
7_ALL_FEATURES
100
AcDbLine
 62
7
  6
CONTINUOUS
 10
738.8392137097
 20
560.8815524194
 11
196.3392137097
 21
560.8815524194
  0
LINE
  5
2C2
100
AcDbEntity
  8
7_ALL_FEATURES
100
AcDbLine
 62
9
  6
CONTINUOUS
 10
738.8392137097
 20
561.1815524194
 11
196.0392137097
 21
561.1815524194
  0
LINE
  5
2C3
100
AcDbEntity
  8
7_ALL_FEATURES
100
AcDbLine
 62
9
  6
CONTINUOUS
 10
195.1392137097
 20
562.0815524194
 11
738.8392137097
 21
562.0815524194
  0
LINE
  5
2C4
100
AcDbEntity
  8
7_ALL_FEATURES
100
AcDbLine
 62
7
  6
CONTINUOUS
 10
194.8392137097
 20
562.3815524194
 11
203.555805916
 21
562.3815524194
  0
LINE
  5
2C5
100
AcDbEntity
  8
6_ALL_SURFS
100
AcDbLine
 62
7
  6
CONTINUOUS
 10
203.555805916
 20
562.3815524194
 11
738.8392137097
 21
562.3815524194
  0
LINE
  5
2C6
100
AcDbEntity
  8
7_ALL_FEATURES
100
AcDbLine
 62
9
  6
CONTINUOUS
 10
194.6246665506
 20
562.5960995784
 11
738.8392137097
 21
562.5960995784
  0
LINE
  5
2C7
100
AcDbEntity
  8
7_ALL_FEATURES
100
AcDbLine
 62
7
  6
CONTINUOUS
 10
193.8392137097
 20
563.3815524194
 11
738.8392137097
 21
563.3815524194
  0
LINE
  5
2C8
100
AcDbEntity
  8
7_ALL_FEATURES
100
AcDbLine
 62
7
  6
CONTINUOUS
 10
193.6892137097
 20
563.5315524194
 11
206.8392137097
 21
563.5315524194
  0
LINE
  5
2C9
100
AcDbEntity
  8
6_ALL_SURFS
100
AcDbLine
 62
7
  6
CONTINUOUS
 10
206.8392137097
 20
563.5315524194
 11
738.8392137097
 21
563.5315524194
  0
LINE
  5
2CA
100
AcDbEntity
  8
7_ALL_FEATURES
100
AcDbLine
 62
9
  6
CONTINUOUS
 10
193.5392137097
 20
563.6815524194
 11
738.8392137097
 21
563.6815524194
  0
LINE
  5
2CB
100
AcDbEntity
  8
7_ALL_FEATURES
100
AcDbLine
 62
7
  6
CONTINUOUS
 10
183.8272542221
 20
573.3935119069
 11
738.8392137097
 21
573.3935119069
  0
LINE
  5
2CC
100
AcDbEntity
  8
7_ALL_FEATURES
100
AcDbLine
 62
3
  6
CONTINUOUS
 10
152.8392137097
 20
574.3815524194
 11
127.8392137097
 21
574.3815524194
  0
LINE
  5
2CD
100
AcDbEntity
  8
7_ALL_FEATURES
100
AcDbLine
 62
7
  6
CONTINUOUS
 10
180.8473213369
 20
576.3734447921
 11
738.8392137097
 21
576.3734447921
  0
LINE
  5
2CE
100
AcDbEntity
  8
7_ALL_FEATURES
100
AcDbLine
 62
9
  6
CONTINUOUS
 10
738.8392137097
 20
579.8815524194
 11
177.3392137097
 21
579.8815524194
  0
LINE
  5
2CF
100
AcDbEntity
  8
7_ALL_FEATURES
100
AcDbLine
 62
9
  6
CONTINUOUS
 10
738.8392137097
 20
580.9045499594
 11
176.3162161696
 21
580.9045499594
  0
LINE
  5
2D0
100
AcDbEntity
  8
7_ALL_FEATURES
100
AcDbLine
 62
9
  6
CONTINUOUS
 10
174.1538525865
 20
583.0669135425
 11
738.8392137097
 21
583.0669135425
  0
LINE
  5
2D1
100
AcDbEntity
  8
7_ALL_FEATURES
100
AcDbLine
 62
9
  6
CONTINUOUS
 10
173.9492530785
 20
583.2715130505
 11
738.8392137097
 21
583.2715130505
  0
LINE
  5
2D2
100
AcDbEntity
  8
7_ALL_FEATURES
100
AcDbLine
 62
9
  6
CONTINUOUS
 10
172.5392137097
 20
584.6815524194
 11
738.8392137097
 21
584.6815524194
  0
LINE
  5
2D3
100
AcDbEntity
  8
7_ALL_FEATURES
100
AcDbLine
 62
7
  6
CONTINUOUS
 10
738.8392137097
 20
584.9815524194
 11
172.2392137097
 21
584.9815524194
  0
LINE
  5
2D4
100
AcDbEntity
  8
7_ALL_FEATURES
100
AcDbLine
 62
9
  6
CONTINUOUS
 10
738.8392137097
 20
586.4815524194
 11
170.7392137097
 21
586.4815524194
  0
LINE
  5
2D5
100
AcDbEntity
  8
7_ALL_FEATURES
100
AcDbLine
 62
9
  6
CONTINUOUS
 10
738.8392137097
 20
589.2815524194
 11
167.9392137097
 21
589.2815524194
  0
LINE
  5
2D6
100
AcDbEntity
  8
7_ALL_FEATURES
100
AcDbLine
 62
7
  6
CONTINUOUS
 10
738.8392137097
 20
590.7815524194
 11
166.4392137097
 21
590.7815524194
  0
LINE
  5
2D7
100
AcDbEntity
  8
7_ALL_FEATURES
100
AcDbLine
 62
9
  6
CONTINUOUS
 10
166.1392137097
 20
591.0815524194
 11
738.8392137097
 21
591.0815524194
  0
LINE
  5
2D8
100
AcDbEntity
  8
7_ALL_FEATURES
100
AcDbLine
 62
3
  6
CONTINUOUS
 10
182.8392137097
 20
604.3815524194
 11
152.8392137097
 21
604.3815524194
  0
LINE
  5
2D9
100
AcDbEntity
  8
7_ALL_FEATURES
100
AcDbLine
 62
9
  6
CONTINUOUS
 10
738.8392137097
 20
626.2588259595
 11
182.8392137097
 21
626.2588259595
  0
LINE
  5
2DA
100
AcDbEntity
  8
7_ALL_FEATURES
100
AcDbLine
 62
9
  6
CONTINUOUS
 10
738.8392137097
 20
627.3420622078
 11
182.8392137097
 21
627.3420622078
  0
LINE
  5
2DB
100
AcDbEntity
  8
7_ALL_FEATURES
100
AcDbLine
 62
3
  6
CONTINUOUS
 10
127.8392137097
 20
629.3815524194
 11
182.8392137097
 21
629.3815524194
  0
LINE
  5
2DC
100
AcDbEntity
  8
6_ALL_SURFS
100
AcDbLine
 62
7
  6
CONTINUOUS
 10
738.8392137097
 20
560.8815524194
 11
738.8392137097
 21
563.5315524194
  0
LINE
  5
2DD
100
AcDbEntity
  8
6_ALL_SURFS
100
AcDbLine
 62
7
  6
CONTINUOUS
 10
738.8392137097
 20
563.5667473896
 11
738.8392137097
 21
651.8815524194
  0
LINE
  5
2DE
100
AcDbEntity
  8
7_ALL_FEATURES
100
AcDbLine
 62
9
  6
CONTINUOUS
 10
738.8392137097
 20
645.3065232939
 11
111.9142428352
 21
645.3065232939
  0
LINE
  5
2DF
100
AcDbEntity
  8
7_ALL_FEATURES
100
AcDbLine
 62
7
  6
CONTINUOUS
 10
738.8392137097
 20
646.4815524194
 11
110.7392137097
 21
646.4815524194
  0
LINE
  5
2E0
100
AcDbEntity
  8
7_ALL_FEATURES
100
AcDbLine
 62
9
  6
CONTINUOUS
 10
109.9892137097
 20
647.2315524194
 11
738.8392137097
 21
647.2315524194
  0
LINE
  5
2E1
100
AcDbEntity
  8
7_ALL_FEATURES
100
AcDbLine
 62
9
  6
CONTINUOUS
 10
107.3589106794
 20
649.8618554497
 11
738.8392137097
 21
649.8618554497
  0
LINE
  5
2E2
100
AcDbEntity
  8
7_ALL_FEATURES
100
AcDbLine
 62
7
  6
CONTINUOUS
 10
738.8392137097
 20
650.5815524194
 11
106.6392137097
 21
650.5815524194
  0
LINE
  5
2E3
100
AcDbEntity
  8
7_ALL_FEATURES
100
AcDbLine
 62
9
  6
CONTINUOUS
 10
738.8392137097
 20
650.8815524194
 11
106.3392137097
 21
650.8815524194
  0
LINE
  5
2E4
100
AcDbEntity
  8
7_ALL_FEATURES
100
AcDbLine
 62
9
  6
CONTINUOUS
 10
738.8392137097
 20
651.5815524194
 11
105.6392137097
 21
651.5815524194
  0
LINE
  5
2E5
100
AcDbEntity
  8
7_ALL_FEATURES
100
AcDbLine
 62
7
  6
CONTINUOUS
 10
738.8392137097
 20
651.8815524194
 11
105.3392137097
 21
651.8815524194
  0
LINE
  5
2E6
100
AcDbEntity
  8
7_ALL_FEATURES
100
AcDbLine
 62
7
  6
CONTINUOUS
 10
105.3392137097
 20
782.2940733486
 11
105.3392137097
 21
780.3069154584
  0
LINE
  5
2E7
100
AcDbEntity
  8
7_ALL_FEATURES
100
AcDbLine
 62
7
  6
CONTINUOUS
 10
105.3392137097
 20
776.265463574
 11
105.3392137097
 21
775.7861895161
  0
LINE
  5
2E8
100
AcDbEntity
  8
6_ALL_SURFS
100
AcDbLine
 62
7
  6
CONTINUOUS
 10
105.3392137097
 20
729.3783056836
 11
105.3392137097
 21
731.3654635739
  0
LINE
  5
2E9
100
AcDbEntity
  8
6_ALL_SURFS
100
AcDbLine
 62
7
  6
CONTINUOUS
 10
105.3392137097
 20
735.4069154583
 11
105.3392137097
 21
735.8861895161
  0
LINE
  5
2EA
100
AcDbEntity
  8
7_ALL_FEATURES
100
AcDbLine
 62
7
  6
CONTINUOUS
 10
105.3392137097
 20
753.7361895161
 11
105.3392137097
 21
757.9361895161
  0
LINE
  5
2EB
100
AcDbEntity
  8
6_ALL_SURFS
100
AcDbLine
 62
7
  6
CONTINUOUS
 10
106.6392137097
 20
730.4218177446
 11
106.6392137097
 21
729.3783056836
  0
LINE
  5
2EC
100
AcDbEntity
  8
7_ALL_FEATURES
100
AcDbLine
 62
7
  6
CONTINUOUS
 10
106.6392137097
 20
781.2505612877
 11
106.6392137097
 21
782.2940733486
  0
LINE
  5
2ED
100
AcDbEntity
  8
7_ALL_FEATURES
100
AcDbLine
 62
7
  6
CONTINUOUS
 10
106.9392137097
 20
757.2361895161
 11
106.9392137097
 21
754.4361895161
  0
LINE
  5
2EE
100
AcDbEntity
  8
7_ALL_FEATURES
100
AcDbLine
 62
7
  6
CONTINUOUS
 10
107.3392137097
 20
754.3361895161
 11
107.3392137097
 21
757.3361895161
  0
LINE
  5
2EF
100
AcDbEntity
  8
7_ALL_FEATURES
100
AcDbLine
 62
7
  6
CONTINUOUS
 10
107.8392137097
 20
754.1361895161
 11
107.8392137097
 21
757.5361895161
  0
LINE
  5
2F0
100
AcDbEntity
  8
7_ALL_FEATURES
100
AcDbLine
 62
7
  6
CONTINUOUS
 10
110.7392137097
 20
782.4164305189
 11
110.7392137097
 21
781.1440733486
  0
LINE
  5
2F1
100
AcDbEntity
  8
7_ALL_FEATURES
100
AcDbLine
 62
7
  6
CONTINUOUS
 10
110.7392137097
 20
775.4283056836
 11
110.7392137097
 21
759.7361895161
  0
LINE
  5
2F2
100
AcDbEntity
  8
6_ALL_SURFS
100
AcDbLine
 62
7
  6
CONTINUOUS
 10
110.7392137097
 20
729.2559485134
 11
110.7392137097
 21
730.5283056836
  0
LINE
  5
2F3
100
AcDbEntity
  8
6_ALL_SURFS
100
AcDbLine
 62
7
  6
CONTINUOUS
 10
110.7392137097
 20
736.2440733486
 11
110.7392137097
 21
751.9361895161
  0
LINE
  5
2F4
100
AcDbEntity
  8
6_ALL_SURFS
100
AcDbLine
 62
7
  6
CONTINUOUS
 10
112.3392137097
 20
753.8361895161
 11
112.3392137097
 21
729.7373945294
  0
LINE
  5
2F5
100
AcDbEntity
  8
7_ALL_FEATURES
100
AcDbLine
 62
7
  6
CONTINUOUS
 10
112.3392137097
 20
753.8361895161
 11
112.3392137097
 21
781.9349845028
  0
LINE
  5
2F6
100
AcDbEntity
  8
7_ALL_FEATURES
100
AcDbLine
 62
7
  6
CONTINUOUS
 10
113.3392137097
 20
763.3361895161
 11
113.3392137097
 21
748.3361895161
  0
LINE
  5
2F7
100
AcDbEntity
  8
7_ALL_FEATURES
100
AcDbLine
 62
7
  6
CONTINUOUS
 10
115.36741694
 20
759.8361895161
 11
115.36741694
 21
751.8361895161
  0
LINE
  5
2F8
100
AcDbEntity
  8
7_ALL_FEATURES
100
AcDbLine
 62
7
  6
CONTINUOUS
 10
127.8392137097
 20
790.9861895161
 11
127.8392137097
 21
787.9861895161
  0
LINE
  5
2F9
100
AcDbEntity
  8
7_ALL_FEATURES
100
AcDbLine
 62
7
  6
CONTINUOUS
 10
127.8392137097
 20
720.6861895161
 11
127.8392137097
 21
723.6861895161
  0
LINE
  5
2FA
100
AcDbEntity
  8
3_ALL_AXES
100
AcDbLine
 62
7
  6
CONTINUOUS
 10
135.3392137097
 20
785.6861895161
 11
135.3392137097
 21
785.3861895161
  0
LINE
  5
2FB
100
AcDbEntity
  8
3_ALL_AXES
100
AcDbLine
 62
7
  6
CONTINUOUS
 10
135.3392137097
 20
725.9861895161
 11
135.3392137097
 21
726.2861895161
  0
LINE
  5
2FC
100
AcDbEntity
  8
3_ALL_AXES
100
AcDbLine
 62
7
  6
CONTINUOUS
 10
135.9892137097
 20
792.9861895161
 11
135.9892137097
 21
790.9861895161
  0
LINE
  5
2FD
100
AcDbEntity
  8
3_ALL_AXES
100
AcDbLine
 62
7
  6
CONTINUOUS
 10
135.9892137097
 20
718.6861895161
 11
135.9892137097
 21
720.6861895161
  0
LINE
  5
2FE
100
AcDbEntity
  8
3_ALL_AXES
100
AcDbLine
 62
7
  6
CONTINUOUS
 10
144.6892137097
 20
792.9861895161
 11
144.6892137097
 21
790.9861895161
  0
LINE
  5
2FF
100
AcDbEntity
  8
3_ALL_AXES
100
AcDbLine
 62
7
  6
CONTINUOUS
 10
144.6892137097
 20
718.6861895161
 11
144.6892137097
 21
720.6861895161
  0
LINE
  5
300
100
AcDbEntity
  8
3_ALL_AXES
100
AcDbLine
 62
7
  6
CONTINUOUS
 10
145.3392137097
 20
785.6861895161
 11
145.3392137097
 21
785.3861895161
  0
LINE
  5
301
100
AcDbEntity
  8
3_ALL_AXES
100
AcDbLine
 62
7
  6
CONTINUOUS
 10
145.3392137097
 20
725.9861895161
 11
145.3392137097
 21
726.2861895161
  0
LINE
  5
302
100
AcDbEntity
  8
3_ALL_AXES
100
AcDbLine
 62
7
  6
CONTINUOUS
 10
151.1392137097
 20
725.9861895161
 11
151.1392137097
 21
726.2861895161
  0
LINE
  5
303
100
AcDbEntity
  8
3_ALL_AXES
100
AcDbLine
 62
7
  6
CONTINUOUS
 10
151.4892137097
 20
718.6861895161
 11
151.4892137097
 21
720.6861895161
  0
LINE
  5
304
100
AcDbEntity
  8
7_ALL_FEATURES
100
AcDbLine
 62
7
  6
CONTINUOUS
 10
152.8392137097
 20
790.9861895161
 11
152.8392137097
 21
787.9861895161
  0
LINE
  5
305
100
AcDbEntity
  8
7_ALL_FEATURES
100
AcDbLine
 62
7
  6
CONTINUOUS
 10
152.8392137097
 20
720.6861895161
 11
152.8392137097
 21
723.6861895161
  0
LINE
  5
306
100
AcDbEntity
  8
3_ALL_AXES
100
AcDbLine
 62
7
  6
CONTINUOUS
 10
160.1892137097
 20
718.6861895161
 11
160.1892137097
 21
720.6861895161
  0
LINE
  5
307
100
AcDbEntity
  8
3_ALL_AXES
100
AcDbLine
 62
7
  6
CONTINUOUS
 10
161.1392137097
 20
725.9861895161
 11
161.1392137097
 21
726.2861895161
  0
LINE
  5
308
100
AcDbEntity
  8
3_ALL_AXES
100
AcDbLine
 62
7
  6
CONTINUOUS
 10
163.6392137097
 20
785.6861895161
 11
163.6392137097
 21
785.3861895161
  0
LINE
  5
309
100
AcDbEntity
  8
3_ALL_AXES
100
AcDbLine
 62
7
  6
CONTINUOUS
 10
163.9892137097
 20
792.9861895161
 11
163.9892137097
 21
790.9861895161
  0
LINE
  5
30A
100
AcDbEntity
  8
7_ALL_FEATURES
100
AcDbLine
 62
7
  6
CONTINUOUS
 10
166.4392137097
 20
789.3861895161
 11
166.4392137097
 21
788.2861895161
  0
LINE
  5
30B
100
AcDbEntity
  8
6_ALL_SURFS
100
AcDbLine
 62
7
  6
CONTINUOUS
 10
166.4392137097
 20
722.2861895161
 11
166.4392137097
 21
723.3861895161
  0
LINE
  5
30C
100
AcDbEntity
  8
6_ALL_SURFS
100
AcDbLine
 62
7
  6
CONTINUOUS
 10
130.691398838
 20
725.530765482
 11
130.7727520991
 21
725.7542817299
  0
LINE
  5
30D
100
AcDbEntity
  8
7_ALL_FEATURES
100
AcDbLine
 62
7
  6
CONTINUOUS
 10
130.691398838
 20
786.1416135503
 11
130.7727520991
 21
785.9180973024
  0
LINE
  5
30E
100
AcDbEntity
  8
6_ALL_SURFS
100
AcDbLine
 62
7
  6
CONTINUOUS
 10
172.2392137097
 20
723.0861895161
 11
172.2392137097
 21
722.2861895161
  0
LINE
  5
30F
100
AcDbEntity
  8
7_ALL_FEATURES
100
AcDbLine
 62
7
  6
CONTINUOUS
 10
172.2392137097
 20
788.5861895161
 11
172.2392137097
 21
789.3861895161
  0
LINE
  5
310
100
AcDbEntity
  8
3_ALL_AXES
100
AcDbLine
 62
7
  6
CONTINUOUS
 10
172.6892137097
 20
792.9861895161
 11
172.6892137097
 21
790.9861895161
  0
LINE
  5
311
100
AcDbEntity
  8
3_ALL_AXES
100
AcDbLine
 62
7
  6
CONTINUOUS
 10
173.6392137097
 20
785.6861895161
 11
173.6392137097
 21
785.3861895161
  0
LINE
  5
312
100
AcDbEntity
  8
6_ALL_SURFS
100
AcDbLine
 62
7
  6
CONTINUOUS
 10
175.8392137097
 20
724.9861895161
 11
175.8392137097
 21
723.9154058578
  0
LINE
  5
313
100
AcDbEntity
  8
7_ALL_FEATURES
100
AcDbLine
 62
7
  6
CONTINUOUS
 10
175.8392137097
 20
786.6861895161
 11
175.8392137097
 21
787.7569731744
  0
LINE
  5
314
100
AcDbEntity
  8
7_ALL_FEATURES
100
AcDbLine
 62
7
  6
CONTINUOUS
 10
178.8392137097
 20
788.9861895161
 11
178.8392137097
 21
788.2721944688
  0
LINE
  5
315
100
AcDbEntity
  8
6_ALL_SURFS
100
AcDbLine
 62
7
  6
CONTINUOUS
 10
178.8392137097
 20
722.6861895161
 11
178.8392137097
 21
723.4001845635
  0
LINE
  5
316
100
AcDbEntity
  8
7_ALL_FEATURES
100
AcDbLine
 62
7
  6
CONTINUOUS
 10
179.8392137097
 20
724.7861895161
 11
179.8392137097
 21
786.8861895161
  0
LINE
  5
317
100
AcDbEntity
  8
7_ALL_FEATURES
100
AcDbLine
 62
7
  6
CONTINUOUS
 10
180.3392137097
 20
722.7361895161
 11
180.3392137097
 21
723.5861895161
  0
LINE
  5
318
100
AcDbEntity
  8
7_ALL_FEATURES
100
AcDbLine
 62
7
  6
CONTINUOUS
 10
180.3392137097
 20
788.0861895161
 11
180.3392137097
 21
788.9361895161
  0
LINE
  5
319
100
AcDbEntity
  8
7_ALL_FEATURES
100
AcDbLine
 62
7
  6
CONTINUOUS
 10
181.3392137097
 20
788.9361895161
 11
181.3392137097
 21
722.7361895161
  0
LINE
  5
31A
100
AcDbEntity
  8
7_ALL_FEATURES
100
AcDbLine
 62
7
  6
CONTINUOUS
 10
181.8392137097
 20
722.5361895161
 11
181.8392137097
 21
789.1361895161
  0
LINE
  5
31B
100
AcDbEntity
  8
7_ALL_FEATURES
100
AcDbLine
 62
7
  6
CONTINUOUS
 10
168.5020558194
 20
786.5361895161
 11
168.5534020274
 21
786.6251237572
  0
LINE
  5
31C
100
AcDbEntity
  8
6_ALL_SURFS
100
AcDbLine
 62
7
  6
CONTINUOUS
 10
168.5020558194
 20
725.1361895161
 11
168.5534020274
 21
725.047255275
  0
LINE
  5
31D
100
AcDbEntity
  8
7_ALL_FEATURES
100
AcDbLine
 62
7
  6
CONTINUOUS
 10
194.8392137097
 20
808.2861895161
 11
194.6246665506
 21
810.4316611065
  0
LINE
  5
31E
100
AcDbEntity
  8
7_ALL_FEATURES
100
AcDbLine
 62
7
  6
CONTINUOUS
 10
193.8392137097
 20
810.3924861582
 11
193.8392137097
 21
808.5861895161
  0
LINE
  5
31F
100
AcDbEntity
  8
6_ALL_SURFS
100
AcDbLine
 62
7
  6
CONTINUOUS
 10
193.8392137097
 20
807.9861895161
 11
193.8392137097
 21
805.5861895161
  0
LINE
  5
320
100
AcDbEntity
  8
6_ALL_SURFS
100
AcDbLine
 62
7
  6
CONTINUOUS
 10
193.8392137097
 20
804.9861895161
 11
193.8392137097
 21
802.5861895161
  0
LINE
  5
321
100
AcDbEntity
  8
6_ALL_SURFS
100
AcDbLine
 62
7
  6
CONTINUOUS
 10
193.8392137097
 20
801.9861895161
 11
193.8392137097
 21
799.5861895161
  0
LINE
  5
322
100
AcDbEntity
  8
6_ALL_SURFS
100
AcDbLine
 62
7
  6
CONTINUOUS
 10
193.8392137097
 20
798.9861895161
 11
193.8392137097
 21
796.5861895161
  0
LINE
  5
323
100
AcDbEntity
  8
6_ALL_SURFS
100
AcDbLine
 62
7
  6
CONTINUOUS
 10
193.8392137097
 20
795.9861895161
 11
193.8392137097
 21
793.5861895161
  0
LINE
  5
324
100
AcDbEntity
  8
7_ALL_FEATURES
100
AcDbLine
 62
7
  6
CONTINUOUS
 10
193.8392137097
 20
792.9861895161
 11
193.8392137097
 21
791.0861895161
  0
LINE
  5
325
100
AcDbEntity
  8
6_ALL_SURFS
100
AcDbLine
 62
7
  6
CONTINUOUS
 10
193.8392137097
 20
701.279892874
 11
193.8392137097
 21
703.0861895161
  0
LINE
  5
326
100
AcDbEntity
  8
6_ALL_SURFS
100
AcDbLine
 62
7
  6
CONTINUOUS
 10
193.8392137097
 20
703.6861895161
 11
193.8392137097
 21
706.0861895161
  0
LINE
  5
327
100
AcDbEntity
  8
6_ALL_SURFS
100
AcDbLine
 62
7
  6
CONTINUOUS
 10
193.8392137097
 20
706.6861895161
 11
193.8392137097
 21
709.0861895161
  0
LINE
  5
328
100
AcDbEntity
  8
6_ALL_SURFS
100
AcDbLine
 62
7
  6
CONTINUOUS
 10
193.8392137097
 20
709.6861895161
 11
193.8392137097
 21
712.0861895161
  0
LINE
  5
329
100
AcDbEntity
  8
6_ALL_SURFS
100
AcDbLine
 62
7
  6
CONTINUOUS
 10
193.8392137097
 20
712.6861895161
 11
193.8392137097
 21
715.0861895161
  0
LINE
  5
32A
100
AcDbEntity
  8
6_ALL_SURFS
100
AcDbLine
 62
7
  6
CONTINUOUS
 10
193.8392137097
 20
715.6861895161
 11
193.8392137097
 21
718.0861895161
  0
LINE
  5
32B
100
AcDbEntity
  8
6_ALL_SURFS
100
AcDbLine
 62
7
  6
CONTINUOUS
 10
193.8392137097
 20
718.6861895161
 11
193.8392137097
 21
720.5861895161
  0
LINE
  5
32C
100
AcDbEntity
  8
6_ALL_SURFS
100
AcDbLine
 62
7
  6
CONTINUOUS
 10
194.8392137097
 20
720.8361895161
 11
194.8392137097
 21
718.6861895161
  0
LINE
  5
32D
100
AcDbEntity
  8
6_ALL_SURFS
100
AcDbLine
 62
7
  6
CONTINUOUS
 10
194.8392137097
 20
718.0861895161
 11
194.8392137097
 21
715.6861895161
  0
LINE
  5
32E
100
AcDbEntity
  8
6_ALL_SURFS
100
AcDbLine
 62
7
  6
CONTINUOUS
 10
194.8392137097
 20
715.0861895161
 11
194.8392137097
 21
712.6861895161
  0
LINE
  5
32F
100
AcDbEntity
  8
6_ALL_SURFS
100
AcDbLine
 62
7
  6
CONTINUOUS
 10
194.8392137097
 20
712.0861895161
 11
194.8392137097
 21
709.6861895161
  0
LINE
  5
330
100
AcDbEntity
  8
6_ALL_SURFS
100
AcDbLine
 62
7
  6
CONTINUOUS
 10
194.8392137097
 20
709.0861895161
 11
194.8392137097
 21
706.6861895161
  0
LINE
  5
331
100
AcDbEntity
  8
6_ALL_SURFS
100
AcDbLine
 62
7
  6
CONTINUOUS
 10
194.8392137097
 20
706.0861895161
 11
194.8392137097
 21
703.3861895161
  0
LINE
  5
332
100
AcDbEntity
  8
7_ALL_FEATURES
100
AcDbLine
 62
7
  6
CONTINUOUS
 10
194.8392137097
 20
790.8361895161
 11
194.8392137097
 21
792.9861895161
  0
LINE
  5
333
100
AcDbEntity
  8
6_ALL_SURFS
100
AcDbLine
 62
7
  6
CONTINUOUS
 10
194.8392137097
 20
793.5861895161
 11
194.8392137097
 21
795.9861895161
  0
LINE
  5
334
100
AcDbEntity
  8
6_ALL_SURFS
100
AcDbLine
 62
7
  6
CONTINUOUS
 10
194.8392137097
 20
796.5861895161
 11
194.8392137097
 21
798.9861895161
  0
LINE
  5
335
100
AcDbEntity
  8
6_ALL_SURFS
100
AcDbLine
 62
7
  6
CONTINUOUS
 10
194.8392137097
 20
799.5861895161
 11
194.8392137097
 21
801.9861895161
  0
LINE
  5
336
100
AcDbEntity
  8
6_ALL_SURFS
100
AcDbLine
 62
7
  6
CONTINUOUS
 10
194.8392137097
 20
802.5861895161
 11
194.8392137097
 21
804.9861895161
  0
LINE
  5
337
100
AcDbEntity
  8
6_ALL_SURFS
100
AcDbLine
 62
7
  6
CONTINUOUS
 10
194.8392137097
 20
805.5861895161
 11
194.8392137097
 21
808.2861895161
  0
LINE
  5
338
100
AcDbEntity
  8
6_ALL_SURFS
100
AcDbLine
 62
7
  6
CONTINUOUS
 10
196.3392137097
 20
722.0861895161
 11
196.3392137097
 21
721.4361895161
  0
LINE
  5
339
100
AcDbEntity
  8
7_ALL_FEATURES
100
AcDbLine
 62
7
  6
CONTINUOUS
 10
196.3392137097
 20
789.5861895161
 11
196.3392137097
 21
790.2361895161
  0
LINE
  5
33A
100
AcDbEntity
  8
6_ALL_SURFS
100
AcDbLine
 62
7
  6
CONTINUOUS
 10
194.8392137097
 20
703.3861895161
 11
194.6246665506
 21
701.2407179257
  0
LINE
  5
33B
100
AcDbEntity
  8
6_ALL_SURFS
100
AcDbLine
 62
7
  6
CONTINUOUS
 10
193.8392137097
 20
808.5861895161
 11
193.6892137097
 21
808.2861895161
  0
LINE
  5
33C
100
AcDbEntity
  8
6_ALL_SURFS
100
AcDbLine
 62
7
  6
CONTINUOUS
 10
193.8392137097
 20
805.5861895161
 11
193.6892137097
 21
805.2861895161
  0
LINE
  5
33D
100
AcDbEntity
  8
6_ALL_SURFS
100
AcDbLine
 62
7
  6
CONTINUOUS
 10
193.8392137097
 20
802.5861895161
 11
193.6892137097
 21
802.2861895161
  0
LINE
  5
33E
100
AcDbEntity
  8
6_ALL_SURFS
100
AcDbLine
 62
7
  6
CONTINUOUS
 10
193.8392137097
 20
799.5861895161
 11
193.6892137097
 21
799.2861895161
  0
LINE
  5
33F
100
AcDbEntity
  8
6_ALL_SURFS
100
AcDbLine
 62
7
  6
CONTINUOUS
 10
193.8392137097
 20
796.5861895161
 11
193.6892137097
 21
796.2861895161
  0
LINE
  5
340
100
AcDbEntity
  8
6_ALL_SURFS
100
AcDbLine
 62
7
  6
CONTINUOUS
 10
193.8392137097
 20
793.5861895161
 11
193.6892137097
 21
793.2861895161
  0
LINE
  5
341
100
AcDbEntity
  8
7_ALL_FEATURES
100
AcDbLine
 62
7
  6
CONTINUOUS
 10
138.3392137097
 20
793.3861895161
 11
137.9392137097
 21
792.9861895161
  0
LINE
  5
342
100
AcDbEntity
  8
3_ALL_AXES
100
AcDbLine
 62
7
  6
CONTINUOUS
 10
136.0392137097
 20
786.3861895161
 11
135.3392137097
 21
785.6861895161
  0
LINE
  5
343
100
AcDbEntity
  8
7_ALL_FEATURES
100
AcDbLine
 62
7
  6
CONTINUOUS
 10
107.3392137097
 20
757.3361895161
 11
107.5392137097
 21
757.5361895161
  0
LINE
  5
344
100
AcDbEntity
  8
7_ALL_FEATURES
100
AcDbLine
 62
7
  6
CONTINUOUS
 10
138.3392137097
 20
718.2861895161
 11
137.9392137097
 21
718.6861895161
  0
LINE
  5
345
100
AcDbEntity
  8
3_ALL_AXES
100
AcDbLine
 62
7
  6
CONTINUOUS
 10
136.0392137097
 20
725.2861895161
 11
135.3392137097
 21
725.9861895161
  0
LINE
  5
346
100
AcDbEntity
  8
7_ALL_FEATURES
100
AcDbLine
 62
7
  6
CONTINUOUS
 10
107.3392137097
 20
754.3361895161
 11
107.5392137097
 21
754.1361895161
  0
LINE
  5
347
100
AcDbEntity
  8
7_ALL_FEATURES
100
AcDbLine
 62
7
  6
CONTINUOUS
 10
154.1392137097
 20
718.2861895161
 11
153.7392137097
 21
718.6861895161
  0
LINE
  5
348
100
AcDbEntity
  8
3_ALL_AXES
100
AcDbLine
 62
7
  6
CONTINUOUS
 10
151.8392137097
 20
725.2861895161
 11
151.1392137097
 21
725.9861895161
  0
LINE
  5
349
100
AcDbEntity
  8
6_ALL_SURFS
100
AcDbLine
 62
7
  6
CONTINUOUS
 10
193.8392137097
 20
703.0861895161
 11
193.6892137097
 21
703.3861895161
  0
LINE
  5
34A
100
AcDbEntity
  8
6_ALL_SURFS
100
AcDbLine
 62
7
  6
CONTINUOUS
 10
193.8392137097
 20
706.0861895161
 11
193.6892137097
 21
706.3861895161
  0
LINE
  5
34B
100
AcDbEntity
  8
6_ALL_SURFS
100
AcDbLine
 62
7
  6
CONTINUOUS
 10
193.8392137097
 20
709.0861895161
 11
193.6892137097
 21
709.3861895161
  0
LINE
  5
34C
100
AcDbEntity
  8
6_ALL_SURFS
100
AcDbLine
 62
7
  6
CONTINUOUS
 10
193.8392137097
 20
712.0861895161
 11
193.6892137097
 21
712.3861895161
  0
LINE
  5
34D
100
AcDbEntity
  8
6_ALL_SURFS
100
AcDbLine
 62
7
  6
CONTINUOUS
 10
193.8392137097
 20
715.0861895161
 11
193.6892137097
 21
715.3861895161
  0
LINE
  5
34E
100
AcDbEntity
  8
6_ALL_SURFS
100
AcDbLine
 62
7
  6
CONTINUOUS
 10
193.8392137097
 20
718.0861895161
 11
193.6892137097
 21
718.3861895161
  0
LINE
  5
34F
100
AcDbEntity
  8
6_ALL_SURFS
100
AcDbLine
 62
7
  6
CONTINUOUS
 10
170.125025392
 20
725.047255275
 11
170.1763716
 21
725.1361895161
  0
LINE
  5
350
100
AcDbEntity
  8
7_ALL_FEATURES
100
AcDbLine
 62
7
  6
CONTINUOUS
 10
166.6392137097
 20
793.3861895161
 11
166.2392137097
 21
792.9861895161
  0
LINE
  5
351
100
AcDbEntity
  8
3_ALL_AXES
100
AcDbLine
 62
7
  6
CONTINUOUS
 10
164.3392137097
 20
786.3861895161
 11
163.6392137097
 21
785.6861895161
  0
LINE
  5
352
100
AcDbEntity
  8
7_ALL_FEATURES
100
AcDbLine
 62
7
  6
CONTINUOUS
 10
172.051345744
 20
786.5983215505
 11
171.9270816753
 21
786.4740574818
  0
LINE
  5
353
100
AcDbEntity
  8
7_ALL_FEATURES
100
AcDbLine
 62
7
  6
CONTINUOUS
 10
176.3162161696
 20
790.3832200686
 11
174.1538525865
 21
788.3667834056
  0
LINE
  5
354
100
AcDbEntity
  8
7_ALL_FEATURES
100
AcDbLine
 62
7
  6
CONTINUOUS
 10
175.9346142017
 20
787.9763792849
 11
177.2527873443
 21
789.2055956266
  0
LINE
  5
355
100
AcDbEntity
  8
3_ALL_AXES
100
AcDbLine
 62
7
  6
CONTINUOUS
 10
176.7664143657
 20
788.1679426072
 11
177.1572153496
 21
788.5323704204
  0
LINE
  5
356
100
AcDbEntity
  8
3_ALL_AXES
100
AcDbLine
 62
7
  6
CONTINUOUS
 10
177.7028140377
 20
787.9472874592
 11
177.3120130537
 21
787.5828596459
  0
LINE
  5
357
100
AcDbEntity
  8
6_ALL_SURFS
100
AcDbLine
 62
7
  6
CONTINUOUS
 10
176.3162161696
 20
721.2891589637
 11
174.1538525865
 21
723.3055956266
  0
LINE
  5
358
100
AcDbEntity
  8
6_ALL_SURFS
100
AcDbLine
 62
7
  6
CONTINUOUS
 10
175.9346142017
 20
723.6959997473
 11
177.2527873443
 21
722.4667834056
  0
LINE
  5
359
100
AcDbEntity
  8
3_ALL_AXES
100
AcDbLine
 62
7
  6
CONTINUOUS
 10
177.1572153496
 20
723.1400086118
 11
176.7664143657
 21
723.504436425
  0
LINE
  5
35A
100
AcDbEntity
  8
3_ALL_AXES
100
AcDbLine
 62
7
  6
CONTINUOUS
 10
177.3120130537
 20
724.0895193863
 11
177.7028140377
 21
723.7250915731
  0
LINE
  5
35B
100
AcDbEntity
  8
6_ALL_SURFS
100
AcDbLine
 62
7
  6
CONTINUOUS
 10
172.051345744
 20
725.0740574818
 11
171.9270816753
 21
725.1983215505
  0
LINE
  5
35C
100
AcDbEntity
  8
7_ALL_FEATURES
100
AcDbLine
 62
7
  6
CONTINUOUS
 10
170.125025392
 20
786.6251237572
 11
170.1763716
 21
786.5361895161
  0
LINE
  5
35D
100
AcDbEntity
  8
6_ALL_SURFS
100
AcDbLine
 62
7
  6
CONTINUOUS
 10
193.6892137097
 20
718.3861895161
 11
193.8392137097
 21
718.6861895161
  0
LINE
  5
35E
100
AcDbEntity
  8
6_ALL_SURFS
100
AcDbLine
 62
7
  6
CONTINUOUS
 10
193.6892137097
 20
715.3861895161
 11
193.8392137097
 21
715.6861895161
  0
LINE
  5
35F
100
AcDbEntity
  8
6_ALL_SURFS
100
AcDbLine
 62
7
  6
CONTINUOUS
 10
193.6892137097
 20
712.3861895161
 11
193.8392137097
 21
712.6861895161
  0
LINE
  5
360
100
AcDbEntity
  8
6_ALL_SURFS
100
AcDbLine
 62
7
  6
CONTINUOUS
 10
193.6892137097
 20
709.3861895161
 11
193.8392137097
 21
709.6861895161
  0
LINE
  5
361
100
AcDbEntity
  8
6_ALL_SURFS
100
AcDbLine
 62
7
  6
CONTINUOUS
 10
193.6892137097
 20
706.3861895161
 11
193.8392137097
 21
706.6861895161
  0
LINE
  5
362
100
AcDbEntity
  8
6_ALL_SURFS
100
AcDbLine
 62
7
  6
CONTINUOUS
 10
193.6892137097
 20
703.3861895161
 11
193.8392137097
 21
703.6861895161
  0
LINE
  5
363
100
AcDbEntity
  8
3_ALL_AXES
100
AcDbLine
 62
7
  6
CONTINUOUS
 10
144.6392137097
 20
725.2861895161
 11
145.3392137097
 21
725.9861895161
  0
LINE
  5
364
100
AcDbEntity
  8
7_ALL_FEATURES
100
AcDbLine
 62
7
  6
CONTINUOUS
 10
142.3392137097
 20
718.2861895161
 11
142.7392137097
 21
718.6861895161
  0
LINE
  5
365
100
AcDbEntity
  8
7_ALL_FEATURES
100
AcDbLine
 62
7
  6
CONTINUOUS
 10
179.1609659955
 20
788.1135238007
 11
180.6084215586
 21
789.2241955182
  0
LINE
  5
366
100
AcDbEntity
  8
7_ALL_FEATURES
100
AcDbLine
 62
7
  6
CONTINUOUS
 10
107.1781479507
 20
777.5003778339
 11
105.4892137097
 21
776.5252711951
  0
LINE
  5
367
100
AcDbEntity
  8
6_ALL_SURFS
100
AcDbLine
 62
7
  6
CONTINUOUS
 10
107.1781479507
 20
734.1720011984
 11
105.4892137097
 21
735.1471078371
  0
LINE
  5
368
100
AcDbEntity
  8
6_ALL_SURFS
100
AcDbLine
 62
7
  6
CONTINUOUS
 10
179.1609659955
 20
723.5588552316
 11
180.6084215586
 21
722.448183514
  0
LINE
  5
369
100
AcDbEntity
  8
3_ALL_AXES
100
AcDbLine
 62
7
  6
CONTINUOUS
 10
144.6392137097
 20
786.3861895161
 11
145.3392137097
 21
785.6861895161
  0
LINE
  5
36A
100
AcDbEntity
  8
7_ALL_FEATURES
100
AcDbLine
 62
7
  6
CONTINUOUS
 10
142.3392137097
 20
793.3861895161
 11
142.7392137097
 21
792.9861895161
  0
LINE
  5
36B
100
AcDbEntity
  8
6_ALL_SURFS
100
AcDbLine
 62
7
  6
CONTINUOUS
 10
193.6892137097
 20
793.2861895161
 11
193.8392137097
 21
792.9861895161
  0
LINE
  5
36C
100
AcDbEntity
  8
6_ALL_SURFS
100
AcDbLine
 62
7
  6
CONTINUOUS
 10
193.6892137097
 20
796.2861895161
 11
193.8392137097
 21
795.9861895161
  0
LINE
  5
36D
100
AcDbEntity
  8
6_ALL_SURFS
100
AcDbLine
 62
7
  6
CONTINUOUS
 10
193.6892137097
 20
799.2861895161
 11
193.8392137097
 21
798.9861895161
  0
LINE
  5
36E
100
AcDbEntity
  8
6_ALL_SURFS
100
AcDbLine
 62
7
  6
CONTINUOUS
 10
193.6892137097
 20
802.2861895161
 11
193.8392137097
 21
801.9861895161
  0
LINE
  5
36F
100
AcDbEntity
  8
6_ALL_SURFS
100
AcDbLine
 62
7
  6
CONTINUOUS
 10
193.6892137097
 20
805.2861895161
 11
193.8392137097
 21
804.9861895161
  0
LINE
  5
370
100
AcDbEntity
  8
6_ALL_SURFS
100
AcDbLine
 62
7
  6
CONTINUOUS
 10
193.6892137097
 20
808.2861895161
 11
193.8392137097
 21
807.9861895161
  0
LINE
  5
371
100
AcDbEntity
  8
3_ALL_AXES
100
AcDbLine
 62
7
  6
CONTINUOUS
 10
160.4392137097
 20
725.2861895161
 11
161.1392137097
 21
725.9861895161
  0
LINE
  5
372
100
AcDbEntity
  8
7_ALL_FEATURES
100
AcDbLine
 62
7
  6
CONTINUOUS
 10
158.1392137097
 20
718.2861895161
 11
158.5392137097
 21
718.6861895161
  0
LINE
  5
373
100
AcDbEntity
  8
6_ALL_SURFS
100
AcDbLine
 62
7
  6
CONTINUOUS
 10
174.151345744
 20
725.1983215505
 11
174.0270816753
 21
725.0740574818
  0
LINE
  5
374
100
AcDbEntity
  8
3_ALL_AXES
100
AcDbLine
 62
7
  6
CONTINUOUS
 10
172.9392137097
 20
786.3861895161
 11
173.6392137097
 21
785.6861895161
  0
LINE
  5
375
100
AcDbEntity
  8
7_ALL_FEATURES
100
AcDbLine
 62
7
  6
CONTINUOUS
 10
174.151345744
 20
786.4740574818
 11
174.0270816753
 21
786.5983215505
  0
LINE
  5
376
100
AcDbEntity
  8
7_ALL_FEATURES
100
AcDbLine
 62
7
  6
CONTINUOUS
 10
170.6392137097
 20
793.3861895161
 11
171.0392137097
 21
792.9861895161
  0
LINE
  5
377
100
AcDbEntity
  8
6_ALL_SURFS
100
AcDbLine
 62
7
  6
CONTINUOUS
 10
105.4892137097
 20
731.625271195
 11
107.1781479508
 21
732.6003778338
  0
LINE
  5
378
100
AcDbEntity
  8
7_ALL_FEATURES
100
AcDbLine
 62
7
  6
CONTINUOUS
 10
131.1572659283
 20
785.7387955591
 11
132.6045798814
 21
786.2655747577
  0
LINE
  5
379
100
AcDbEntity
  8
6_ALL_SURFS
100
AcDbLine
 62
7
  6
CONTINUOUS
 10
131.1572659283
 20
725.9335834731
 11
132.6045798814
 21
725.4068042746
  0
LINE
  5
37A
100
AcDbEntity
  8
7_ALL_FEATURES
100
AcDbLine
 62
7
  6
CONTINUOUS
 10
105.4892137097
 20
780.0471078372
 11
107.1781479508
 21
779.0720011984
  0
LINE
  5
37B
100
AcDbEntity
  8
6_ALL_SURFS
100
AcDbLine
 62
7
  6
CONTINUOUS
 10
129.8787039212
 20
723.804939755
 11
111.9142428352
 21
727.791573585
  0
LINE
  5
37C
100
AcDbEntity
  8
6_ALL_SURFS
100
AcDbLine
 62
7
  6
CONTINUOUS
 10
112.7308900848
 20
729.2492695533
 11
130.3444968768
 21
725.3404965393
  0
LINE
  5
37D
100
AcDbEntity
  8
7_ALL_FEATURES
100
AcDbLine
 62
7
  6
CONTINUOUS
 10
194.2329170676
 20
700.8861895161
 11
738.8392137097
 21
700.8861895161
  0
LINE
  5
37E
100
AcDbEntity
  8
7_ALL_FEATURES
100
AcDbLine
 62
9
  6
CONTINUOUS
 10
194.6246665506
 20
701.2407179257
 11
738.8392137097
 21
701.2407179257
  0
LINE
  5
37F
100
AcDbEntity
  8
7_ALL_FEATURES
100
AcDbLine
 62
7
  6
CONTINUOUS
 10
194.8392137097
 20
703.3861895161
 11
203.555805916
 21
703.3861895161
  0
LINE
  5
380
100
AcDbEntity
  8
7_ALL_FEATURES
100
AcDbLine
 62
7
  6
CONTINUOUS
 10
210.1226215034
 20
703.3861895161
 11
453.555805916
 21
703.3861895161
  0
LINE
  5
381
100
AcDbEntity
  8
7_ALL_FEATURES
100
AcDbLine
 62
7
  6
CONTINUOUS
 10
460.1226215034
 20
703.3861895161
 11
703.555805916
 21
703.3861895161
  0
LINE
  5
382
100
AcDbEntity
  8
7_ALL_FEATURES
100
AcDbLine
 62
7
  6
CONTINUOUS
 10
710.1226215034
 20
703.3861895161
 11
738.8392137097
 21
703.3861895161
  0
LINE
  5
383
100
AcDbEntity
  8
7_ALL_FEATURES
100
AcDbLine
 62
7
  6
CONTINUOUS
 10
194.8392137097
 20
706.0861895161
 11
202.1073254249
 21
706.0861895161
  0
LINE
  5
384
100
AcDbEntity
  8
7_ALL_FEATURES
100
AcDbLine
 62
7
  6
CONTINUOUS
 10
211.5711019945
 20
706.0861895161
 11
452.1073254249
 21
706.0861895161
  0
LINE
  5
385
100
AcDbEntity
  8
7_ALL_FEATURES
100
AcDbLine
 62
7
  6
CONTINUOUS
 10
461.5711019945
 20
706.0861895161
 11
702.1073254249
 21
706.0861895161
  0
LINE
  5
386
100
AcDbEntity
  8
7_ALL_FEATURES
100
AcDbLine
 62
7
  6
CONTINUOUS
 10
711.5711019945
 20
706.0861895161
 11
738.8392137097
 21
706.0861895161
  0
LINE
  5
387
100
AcDbEntity
  8
7_ALL_FEATURES
100
AcDbLine
 62
7
  6
CONTINUOUS
 10
194.8392137097
 20
706.6861895161
 11
202.0443449169
 21
706.6861895161
  0
LINE
  5
388
100
AcDbEntity
  8
7_ALL_FEATURES
100
AcDbLine
 62
7
  6
CONTINUOUS
 10
211.6340825024
 20
706.6861895161
 11
452.0443449169
 21
706.6861895161
  0
LINE
  5
389
100
AcDbEntity
  8
7_ALL_FEATURES
100
AcDbLine
 62
7
  6
CONTINUOUS
 10
461.6340825024
 20
706.6861895161
 11
702.0443449169
 21
706.6861895161
  0
LINE
  5
38A
100
AcDbEntity
  8
7_ALL_FEATURES
100
AcDbLine
 62
7
  6
CONTINUOUS
 10
711.6340825024
 20
706.6861895161
 11
738.8392137097
 21
706.6861895161
  0
LINE
  5
38B
100
AcDbEntity
  8
7_ALL_FEATURES
100
AcDbLine
 62
7
  6
CONTINUOUS
 10
194.8392137097
 20
709.0861895161
 11
202.5741502002
 21
709.0861895161
  0
LINE
  5
38C
100
AcDbEntity
  8
7_ALL_FEATURES
100
AcDbLine
 62
7
  6
CONTINUOUS
 10
211.1042772191
 20
709.0861895161
 11
452.5741502002
 21
709.0861895161
  0
LINE
  5
38D
100
AcDbEntity
  8
7_ALL_FEATURES
100
AcDbLine
 62
7
  6
CONTINUOUS
 10
461.1042772191
 20
709.0861895161
 11
702.5741502002
 21
709.0861895161
  0
LINE
  5
38E
100
AcDbEntity
  8
7_ALL_FEATURES
100
AcDbLine
 62
7
  6
CONTINUOUS
 10
711.1042772191
 20
709.0861895161
 11
738.8392137097
 21
709.0861895161
  0
LINE
  5
38F
100
AcDbEntity
  8
7_ALL_FEATURES
100
AcDbLine
 62
7
  6
CONTINUOUS
 10
194.8392137097
 20
709.6861895161
 11
202.9416802923
 21
709.6861895161
  0
LINE
  5
390
100
AcDbEntity
  8
7_ALL_FEATURES
100
AcDbLine
 62
7
  6
CONTINUOUS
 10
210.7367471271
 20
709.6861895161
 11
452.9416802923
 21
709.6861895161
  0
LINE
  5
391
100
AcDbEntity
  8
7_ALL_FEATURES
100
AcDbLine
 62
7
  6
CONTINUOUS
 10
460.7367471271
 20
709.6861895161
 11
702.9416802923
 21
709.6861895161
  0
LINE
  5
392
100
AcDbEntity
  8
7_ALL_FEATURES
100
AcDbLine
 62
7
  6
CONTINUOUS
 10
710.7367471271
 20
709.6861895161
 11
738.8392137097
 21
709.6861895161
  0
LINE
  5
393
100
AcDbEntity
  8
7_ALL_FEATURES
100
AcDbLine
 62
7
  6
CONTINUOUS
 10
194.8392137097
 20
712.0861895161
 11
738.8392137097
 21
712.0861895161
  0
LINE
  5
394
100
AcDbEntity
  8
7_ALL_FEATURES
100
AcDbLine
 62
7
  6
CONTINUOUS
 10
194.8392137097
 20
712.6861895161
 11
738.8392137097
 21
712.6861895161
  0
LINE
  5
395
100
AcDbEntity
  8
7_ALL_FEATURES
100
AcDbLine
 62
7
  6
CONTINUOUS
 10
194.8392137097
 20
715.0861895161
 11
738.8392137097
 21
715.0861895161
  0
LINE
  5
396
100
AcDbEntity
  8
7_ALL_FEATURES
100
AcDbLine
 62
7
  6
CONTINUOUS
 10
194.8392137097
 20
715.6861895161
 11
738.8392137097
 21
715.6861895161
  0
LINE
  5
397
100
AcDbEntity
  8
7_ALL_FEATURES
100
AcDbLine
 62
7
  6
CONTINUOUS
 10
194.8392137097
 20
718.0861895161
 11
738.8392137097
 21
718.0861895161
  0
LINE
  5
398
100
AcDbEntity
  8
7_ALL_FEATURES
100
AcDbLine
 62
7
  6
CONTINUOUS
 10
138.3392137097
 20
718.2861895161
 11
142.3392137097
 21
718.2861895161
  0
LINE
  5
399
100
AcDbEntity
  8
7_ALL_FEATURES
100
AcDbLine
 62
7
  6
CONTINUOUS
 10
154.1392137097
 20
718.2861895161
 11
158.1392137097
 21
718.2861895161
  0
LINE
  5
39A
100
AcDbEntity
  8
3_ALL_AXES
100
AcDbLine
 62
7
  6
CONTINUOUS
 10
135.9892137097
 20
718.6861895161
 11
144.6892137097
 21
718.6861895161
  0
LINE
  5
39B
100
AcDbEntity
  8
3_ALL_AXES
100
AcDbLine
 62
7
  6
CONTINUOUS
 10
151.4892137097
 20
718.6861895161
 11
160.1892137097
 21
718.6861895161
  0
LINE
  5
39C
100
AcDbEntity
  8
7_ALL_FEATURES
100
AcDbLine
 62
7
  6
CONTINUOUS
 10
194.8392137097
 20
718.6861895161
 11
738.8392137097
 21
718.6861895161
  0
LINE
  5
39D
100
AcDbEntity
  8
6_ALL_SURFS
100
AcDbLine
 62
7
  6
CONTINUOUS
 10
182.3372877795
 20
720.2861895161
 11
193.8392137097
 21
720.2861895161
  0
LINE
  5
39E
100
AcDbEntity
  8
7_ALL_FEATURES
100
AcDbLine
 62
3
  6
CONTINUOUS
 10
127.8392137097
 20
720.6861895161
 11
181.0936109102
 21
720.6861895161
  0
LINE
  5
39F
100
AcDbEntity
  8
7_ALL_FEATURES
100
AcDbLine
 62
7
  6
CONTINUOUS
 10
180.9642393515
 20
720.7861895161
 11
170.7392137097
 21
720.7861895161
  0
LINE
  5
3A0
100
AcDbEntity
  8
6_ALL_SURFS
100
AcDbLine
 62
7
  6
CONTINUOUS
 10
170.7392137097
 20
720.7861895161
 11
167.9392137097
 21
720.7861895161
  0
LINE
  5
3A1
100
AcDbEntity
  8
7_ALL_FEATURES
100
AcDbLine
 62
9
  6
CONTINUOUS
 10
194.8392137097
 20
720.8361895161
 11
738.8392137097
 21
720.8361895161
  0
LINE
  5
3A2
100
AcDbEntity
  8
6_ALL_SURFS
100
AcDbLine
 62
7
  6
CONTINUOUS
 10
193.5392137097
 20
720.8861895161
 11
183.8272542221
 21
720.8861895161
  0
LINE
  5
3A3
100
AcDbEntity
  8
6_ALL_SURFS
100
AcDbLine
 62
7
  6
CONTINUOUS
 10
180.8473213369
 20
720.8861895161
 11
177.3392137097
 21
720.8861895161
  0
LINE
  5
3A4
100
AcDbEntity
  8
6_ALL_SURFS
100
AcDbLine
 62
7
  6
CONTINUOUS
 10
196.0392137097
 20
721.1361895161
 11
195.1392137097
 21
721.1361895161
  0
LINE
  5
3A5
100
AcDbEntity
  8
7_ALL_FEATURES
100
AcDbLine
 62
7
  6
CONTINUOUS
 10
738.8392137097
 20
721.1361895161
 11
196.0392137097
 21
721.1361895161
  0
LINE
  5
3A6
100
AcDbEntity
  8
7_ALL_FEATURES
100
AcDbLine
 62
9
  6
CONTINUOUS
 10
738.8392137097
 20
721.4361895161
 11
196.3392137097
 21
721.4361895161
  0
LINE
  5
3A7
100
AcDbEntity
  8
7_ALL_FEATURES
100
AcDbLine
 62
9
  6
CONTINUOUS
 10
738.8392137097
 20
722.0861895161
 11
196.3392137097
 21
722.0861895161
  0
LINE
  5
3A8
100
AcDbEntity
  8
7_ALL_FEATURES
100
AcDbLine
 62
9
  6
CONTINUOUS
 10
181.7330094045
 20
722.1967158319
 11
182.9415661546
 21
722.1967158319
  0
LINE
  5
3A9
100
AcDbEntity
  8
7_ALL_FEATURES
100
AcDbLine
 62
9
  6
CONTINUOUS
 10
175.2470318022
 20
722.2861895161
 11
172.2392137097
 21
722.2861895161
  0
LINE
  5
3AA
100
AcDbEntity
  8
7_ALL_FEATURES
100
AcDbLine
 62
7
  6
CONTINUOUS
 10
738.8392137097
 20
722.3861895161
 11
196.0392137097
 21
722.3861895161
  0
LINE
  5
3AB
100
AcDbEntity
  8
6_ALL_SURFS
100
AcDbLine
 62
7
  6
CONTINUOUS
 10
177.4573868524
 20
722.3861895161
 11
178.5392137097
 21
722.3861895161
  0
LINE
  5
3AC
100
AcDbEntity
  8
6_ALL_SURFS
100
AcDbLine
 62
7
  6
CONTINUOUS
 10
180.7910499873
 20
722.3861895161
 11
181.4541116929
 21
722.3861895161
  0
LINE
  5
3AD
100
AcDbEntity
  8
7_ALL_FEATURES
100
AcDbLine
 62
7
  6
CONTINUOUS
 10
181.4541116929
 20
722.3861895161
 11
183.2204638662
 21
722.3861895161
  0
LINE
  5
3AE
100
AcDbEntity
  8
6_ALL_SURFS
100
AcDbLine
 62
7
  6
CONTINUOUS
 10
183.2204638662
 20
722.3861895161
 11
196.0392137097
 21
722.3861895161
  0
LINE
  5
3AF
100
AcDbEntity
  8
7_ALL_FEATURES
100
AcDbLine
 62
9
  6
CONTINUOUS
 10
180.6084215586
 20
722.448183514
 11
738.8392137097
 21
722.448183514
  0
LINE
  5
3B0
100
AcDbEntity
  8
7_ALL_FEATURES
100
AcDbLine
 62
9
  6
CONTINUOUS
 10
177.2527873443
 20
722.4667834056
 11
178.7423458281
 21
722.4667834056
  0
LINE
  5
3B1
100
AcDbEntity
  8
7_ALL_FEATURES
100
AcDbLine
 62
7
  6
CONTINUOUS
 10
181.1392137097
 20
722.5361895161
 11
180.5392137097
 21
722.5361895161
  0
LINE
  5
3B2
100
AcDbEntity
  8
7_ALL_FEATURES
100
AcDbLine
 62
7
  6
CONTINUOUS
 10
181.8392137097
 20
722.5361895161
 11
738.8392137097
 21
722.5361895161
  0
LINE
  5
3B3
100
AcDbEntity
  8
7_ALL_FEATURES
100
AcDbLine
 62
9
  6
CONTINUOUS
 10
181.8392137097
 20
722.7361895161
 11
738.8392137097
 21
722.7361895161
  0
LINE
  5
3B4
100
AcDbEntity
  8
7_ALL_FEATURES
100
AcDbLine
 62
9
  6
CONTINUOUS
 10
172.2392137097
 20
723.0861895161
 11
174.3891368342
 21
723.0861895161
  0
LINE
  5
3B5
100
AcDbEntity
  8
6_ALL_SURFS
100
AcDbLine
 62
7
  6
CONTINUOUS
 10
173.9492530785
 20
723.3861895161
 11
172.5392137097
 21
723.3861895161
  0
LINE
  5
3B6
100
AcDbEntity
  8
7_ALL_FEATURES
100
AcDbLine
 62
9
  6
CONTINUOUS
 10
179.1609659955
 20
723.5588552316
 11
180.3392137097
 21
723.5588552316
  0
LINE
  5
3B7
100
AcDbEntity
  8
7_ALL_FEATURES
100
AcDbLine
 62
9
  6
CONTINUOUS
 10
181.3392137097
 20
723.5588552316
 11
181.8392137097
 21
723.5588552316
  0
LINE
  5
3B8
100
AcDbEntity
  8
7_ALL_FEATURES
100
AcDbLine
 62
7
  6
CONTINUOUS
 10
179.0392137097
 20
723.6001845635
 11
180.3392137097
 21
723.6001845635
  0
LINE
  5
3B9
100
AcDbEntity
  8
7_ALL_FEATURES
100
AcDbLine
 62
7
  6
CONTINUOUS
 10
181.3392137097
 20
723.6001845635
 11
181.8392137097
 21
723.6001845635
  0
LINE
  5
3BA
100
AcDbEntity
  8
6_ALL_SURFS
100
AcDbLine
 62
7
  6
CONTINUOUS
 10
166.1392137097
 20
723.6861895161
 11
130.9619401695
 21
723.6861895161
  0
LINE
  5
3BB
100
AcDbEntity
  8
7_ALL_FEATURES
100
AcDbLine
 62
7
  6
CONTINUOUS
 10
127.8392137097
 20
723.6861895161
 11
130.9619401695
 21
723.6861895161
  0
LINE
  5
3BC
100
AcDbEntity
  8
7_ALL_FEATURES
100
AcDbLine
 62
9
  6
CONTINUOUS
 10
175.9346142017
 20
723.6959997473
 11
176.6525167862
 21
723.6959997473
  0
LINE
  5
3BD
100
AcDbEntity
  8
7_ALL_FEATURES
100
AcDbLine
 62
9
  6
CONTINUOUS
 10
177.743909968
 20
723.6959997473
 11
177.9342908008
 21
723.6959997473
  0
LINE
  5
3BE
100
AcDbEntity
  8
7_ALL_FEATURES
100
AcDbLine
 62
9
  6
CONTINUOUS
 10
179.106274813
 20
723.6959997473
 11
180.306204536
 21
723.6959997473
  0
LINE
  5
3BF
100
AcDbEntity
  8
7_ALL_FEATURES
100
AcDbLine
 62
9
  6
CONTINUOUS
 10
181.3392137097
 20
723.6959997473
 11
181.8392137097
 21
723.6959997473
  0
LINE
  5
3C0
100
AcDbEntity
  8
7_ALL_FEATURES
100
AcDbLine
 62
7
  6
CONTINUOUS
 10
180.1392137097
 20
723.7861895161
 11
179.5192137097
 21
723.7861895161
  0
LINE
  5
3C1
100
AcDbEntity
  8
7_ALL_FEATURES
100
AcDbLine
 62
9
  6
CONTINUOUS
 10
175.8392137097
 20
723.9154058578
 11
176.6578022922
 21
723.9154058578
  0
LINE
  5
3C2
100
AcDbEntity
  8
7_ALL_FEATURES
100
AcDbLine
 62
9
  6
CONTINUOUS
 10
177.4987269537
 20
723.9154058578
 11
178.1190320324
 21
723.9154058578
  0
LINE
  5
3C3
100
AcDbEntity
  8
7_ALL_FEATURES
100
AcDbLine
 62
9
  6
CONTINUOUS
 10
181.3392137097
 20
723.9154058578
 11
181.8392137097
 21
723.9154058578
  0
LINE
  5
3C4
100
AcDbEntity
  8
7_ALL_FEATURES
100
AcDbLine
 62
7
  6
CONTINUOUS
 10
179.5192137097
 20
724.5861895161
 11
179.6392137097
 21
724.5861895161
  0
LINE
  5
3C5
100
AcDbEntity
  8
7_ALL_FEATURES
100
AcDbLine
 62
9
  6
CONTINUOUS
 10
170.1887793937
 20
724.6701804452
 11
168.4896480257
 21
724.6701804452
  0
LINE
  5
3C6
100
AcDbEntity
  8
7_ALL_FEATURES
100
AcDbLine
 62
9
  6
CONTINUOUS
 10
181.8392137097
 20
724.9861895161
 11
181.3392137097
 21
724.9861895161
  0
LINE
  5
3C7
100
AcDbEntity
  8
7_ALL_FEATURES
100
AcDbLine
 62
9
  6
CONTINUOUS
 10
179.8392137097
 20
724.9861895161
 11
175.8392137097
 21
724.9861895161
  0
LINE
  5
3C8
100
AcDbEntity
  8
6_ALL_SURFS
100
AcDbLine
 62
7
  6
CONTINUOUS
 10
173.814949641
 20
724.9861895161
 11
172.2634777784
 21
724.9861895161
  0
LINE
  5
3C9
100
AcDbEntity
  8
7_ALL_FEATURES
100
AcDbLine
 62
9
  6
CONTINUOUS
 10
170.125025392
 20
725.047255275
 11
168.5534020274
 21
725.047255275
  0
LINE
  5
3CA
100
AcDbEntity
  8
7_ALL_FEATURES
100
AcDbLine
 62
9
  6
CONTINUOUS
 10
174.0270816753
 20
725.0740574818
 11
172.051345744
 21
725.0740574818
  0
LINE
  5
3CB
100
AcDbEntity
  8
7_ALL_FEATURES
100
AcDbLine
 62
9
  6
CONTINUOUS
 10
170.1763716
 20
725.1361895161
 11
168.5020558194
 21
725.1361895161
  0
LINE
  5
3CC
100
AcDbEntity
  8
7_ALL_FEATURES
100
AcDbLine
 62
9
  6
CONTINUOUS
 10
171.9270816753
 20
725.1983215505
 11
174.151345744
 21
725.1983215505
  0
LINE
  5
3CD
100
AcDbEntity
  8
7_ALL_FEATURES
100
AcDbLine
 62
7
  6
CONTINUOUS
 10
181.8392137097
 20
725.2861895161
 11
181.3392137097
 21
725.2861895161
  0
LINE
  5
3CE
100
AcDbEntity
  8
7_ALL_FEATURES
100
AcDbLine
 62
7
  6
CONTINUOUS
 10
179.8392137097
 20
725.2861895161
 11
175.5392137097
 21
725.2861895161
  0
LINE
  5
3CF
100
AcDbEntity
  8
7_ALL_FEATURES
100
AcDbLine
 62
7
  6
CONTINUOUS
 10
170.4361792211
 20
725.2861895161
 11
168.2422481982
 21
725.2861895161
  0
LINE
  5
3D0
100
AcDbEntity
  8
6_ALL_SURFS
100
AcDbLine
 62
7
  6
CONTINUOUS
 10
133.2886201681
 20
725.2861895161
 11
168.2422481982
 21
725.2861895161
  0
LINE
  5
3D1
100
AcDbEntity
  8
6_ALL_SURFS
100
AcDbLine
 62
7
  6
CONTINUOUS
 10
170.4361792211
 20
725.2861895161
 11
171.714949641
 21
725.2861895161
  0
LINE
  5
3D2
100
AcDbEntity
  8
7_ALL_FEATURES
100
AcDbLine
 62
7
  6
CONTINUOUS
 10
171.714949641
 20
725.2861895161
 11
174.3634777784
 21
725.2861895161
  0
LINE
  5
3D3
100
AcDbEntity
  8
6_ALL_SURFS
100
AcDbLine
 62
7
  6
CONTINUOUS
 10
174.3634777784
 20
725.2861895161
 11
175.5392137097
 21
725.2861895161
  0
LINE
  5
3D4
100
AcDbEntity
  8
7_ALL_FEATURES
100
AcDbLine
 62
9
  6
CONTINUOUS
 10
130.3444968768
 20
725.3404965393
 11
130.4667229579
 21
725.3404965393
  0
LINE
  5
3D5
100
AcDbEntity
  8
7_ALL_FEATURES
100
AcDbLine
 62
9
  6
CONTINUOUS
 10
132.6045798814
 20
725.4068042746
 11
135.9185989512
 21
725.4068042746
  0
LINE
  5
3D6
100
AcDbEntity
  8
7_ALL_FEATURES
100
AcDbLine
 62
9
  6
CONTINUOUS
 10
144.7598284681
 20
725.4068042746
 11
151.7185989512
 21
725.4068042746
  0
LINE
  5
3D7
100
AcDbEntity
  8
7_ALL_FEATURES
100
AcDbLine
 62
9
  6
CONTINUOUS
 10
160.5598284681
 20
725.4068042746
 11
179.8392137097
 21
725.4068042746
  0
LINE
  5
3D8
100
AcDbEntity
  8
7_ALL_FEATURES
100
AcDbLine
 62
9
  6
CONTINUOUS
 10
181.3392137097
 20
725.4068042746
 11
181.8392137097
 21
725.4068042746
  0
LINE
  5
3D9
100
AcDbEntity
  8
7_ALL_FEATURES
100
AcDbLine
 62
9
  6
CONTINUOUS
 10
181.8392137097
 20
725.9335834731
 11
181.3392137097
 21
725.9335834731
  0
LINE
  5
3DA
100
AcDbEntity
  8
7_ALL_FEATURES
100
AcDbLine
 62
9
  6
CONTINUOUS
 10
179.8392137097
 20
725.9335834731
 11
161.0866076667
 21
725.9335834731
  0
LINE
  5
3DB
100
AcDbEntity
  8
7_ALL_FEATURES
100
AcDbLine
 62
9
  6
CONTINUOUS
 10
151.1918197527
 20
725.9335834731
 11
145.2866076667
 21
725.9335834731
  0
LINE
  5
3DC
100
AcDbEntity
  8
7_ALL_FEATURES
100
AcDbLine
 62
9
  6
CONTINUOUS
 10
135.3918197527
 20
725.9335834731
 11
131.1572659283
 21
725.9335834731
  0
LINE
  5
3DD
100
AcDbEntity
  8
7_ALL_FEATURES
100
AcDbLine
 62
7
  6
CONTINUOUS
 10
181.8392137097
 20
725.9516756869
 11
181.3392137097
 21
725.9516756869
  0
LINE
  5
3DE
100
AcDbEntity
  8
7_ALL_FEATURES
100
AcDbLine
 62
7
  6
CONTINUOUS
 10
179.8392137097
 20
725.9516756869
 11
161.1046998804
 21
725.9516756869
  0
LINE
  5
3DF
100
AcDbEntity
  8
7_ALL_FEATURES
100
AcDbLine
 62
7
  6
CONTINUOUS
 10
151.1737275389
 20
725.9516756869
 11
145.3046998804
 21
725.9516756869
  0
LINE
  5
3E0
100
AcDbEntity
  8
7_ALL_FEATURES
100
AcDbLine
 62
7
  6
CONTINUOUS
 10
135.3737275389
 20
725.9516756869
 11
131.0546598853
 21
725.9516756869
  0
LINE
  5
3E1
100
AcDbEntity
  8
3_ALL_AXES
100
AcDbLine
 62
7
  6
CONTINUOUS
 10
135.3392137097
 20
725.9861895161
 11
145.3392137097
 21
725.9861895161
  0
LINE
  5
3E2
100
AcDbEntity
  8
3_ALL_AXES
100
AcDbLine
 62
7
  6
CONTINUOUS
 10
151.1392137097
 20
725.9861895161
 11
161.1392137097
 21
725.9861895161
  0
LINE
  5
3E3
100
AcDbEntity
  8
3_ALL_AXES
100
AcDbLine
 62
7
  6
CONTINUOUS
 10
135.339242894
 20
726.2861895161
 11
145.3391845254
 21
726.2861895161
  0
LINE
  5
3E4
100
AcDbEntity
  8
3_ALL_AXES
100
AcDbLine
 62
7
  6
CONTINUOUS
 10
151.139242894
 20
726.2861895161
 11
161.1391845254
 21
726.2861895161
  0
LINE
  5
3E5
100
AcDbEntity
  8
7_ALL_FEATURES
100
AcDbLine
 62
7
  6
CONTINUOUS
 10
110.7508405406
 20
729.0783056836
 11
106.3392137097
 21
729.0783056836
  0
LINE
  5
3E6
100
AcDbEntity
  8
6_ALL_SURFS
100
AcDbLine
 62
7
  6
CONTINUOUS
 10
106.3392137097
 20
729.0783056836
 11
105.6392137097
 21
729.0783056836
  0
LINE
  5
3E7
100
AcDbEntity
  8
7_ALL_FEATURES
100
AcDbLine
 62
9
  6
CONTINUOUS
 10
112.7308900848
 20
729.2492695533
 11
179.8392137097
 21
729.2492695533
  0
LINE
  5
3E8
100
AcDbEntity
  8
7_ALL_FEATURES
100
AcDbLine
 62
9
  6
CONTINUOUS
 10
181.3392137097
 20
729.2492695533
 11
181.8392137097
 21
729.2492695533
  0
LINE
  5
3E9
100
AcDbEntity
  8
7_ALL_FEATURES
100
AcDbLine
 62
9
  6
CONTINUOUS
 10
110.7392137097
 20
729.3783056836
 11
106.6392137097
 21
729.3783056836
  0
LINE
  5
3EA
100
AcDbEntity
  8
7_ALL_FEATURES
100
AcDbLine
 62
9
  6
CONTINUOUS
 10
112.3392137097
 20
729.7373945294
 11
179.8392137097
 21
729.7373945294
  0
LINE
  5
3EB
100
AcDbEntity
  8
7_ALL_FEATURES
100
AcDbLine
 62
9
  6
CONTINUOUS
 10
181.3392137097
 20
729.7373945294
 11
181.8392137097
 21
729.7373945294
  0
LINE
  5
3EC
100
AcDbEntity
  8
7_ALL_FEATURES
100
AcDbLine
 62
9
  6
CONTINUOUS
 10
106.6392137097
 20
730.4218177446
 11
110.7392137097
 21
730.4218177446
  0
LINE
  5
3ED
100
AcDbEntity
  8
6_ALL_SURFS
100
AcDbLine
 62
7
  6
CONTINUOUS
 10
108.5892137097
 20
730.5861895161
 11
110.735230716
 21
730.5861895161
  0
LINE
  5
3EE
100
AcDbEntity
  8
7_ALL_FEATURES
100
AcDbLine
 62
9
  6
CONTINUOUS
 10
109.9892137097
 20
730.9613183855
 11
110.4861585516
 21
730.9613183855
  0
LINE
  5
3EF
100
AcDbEntity
  8
7_ALL_FEATURES
100
AcDbLine
 62
9
  6
CONTINUOUS
 10
109.5197114076
 20
732.5366238321
 11
107.5552227806
 21
732.5366238321
  0
LINE
  5
3F0
100
AcDbEntity
  8
7_ALL_FEATURES
100
AcDbLine
 62
7
  6
CONTINUOUS
 10
109.6022110048
 20
732.6405702127
 11
107.3281479508
 21
732.6405702127
  0
LINE
  5
3F1
100
AcDbEntity
  8
7_ALL_FEATURES
100
AcDbLine
 62
7
  6
CONTINUOUS
 10
109.6022110049
 20
734.1318088195
 11
107.3281479507
 21
734.1318088195
  0
LINE
  5
3F2
100
AcDbEntity
  8
7_ALL_FEATURES
100
AcDbLine
 62
9
  6
CONTINUOUS
 10
109.5197114077
 20
734.2357552001
 11
107.5552227805
 21
734.2357552001
  0
LINE
  5
3F3
100
AcDbEntity
  8
7_ALL_FEATURES
100
AcDbLine
 62
9
  6
CONTINUOUS
 10
109.9892137097
 20
735.8110606467
 11
110.4861585516
 21
735.8110606467
  0
LINE
  5
3F4
100
AcDbEntity
  8
6_ALL_SURFS
100
AcDbLine
 62
7
  6
CONTINUOUS
 10
105.6392137097
 20
736.1861895161
 11
108.5892137097
 21
736.1861895161
  0
LINE
  5
3F5
100
AcDbEntity
  8
7_ALL_FEATURES
100
AcDbLine
 62
7
  6
CONTINUOUS
 10
108.5892137097
 20
736.1861895161
 11
110.735230716
 21
736.1861895161
  0
LINE
  5
3F6
100
AcDbEntity
  8
7_ALL_FEATURES
100
AcDbLine
 62
7
  6
CONTINUOUS
 10
113.3392137097
 20
748.3361895161
 11
112.3392137097
 21
748.3361895161
  0
LINE
  5
3F7
100
AcDbEntity
  8
7_ALL_FEATURES
100
AcDbLine
 62
7
  6
CONTINUOUS
 10
115.36741694
 20
751.8361895161
 11
113.3392137097
 21
751.8361895161
  0
LINE
  5
3F8
100
AcDbEntity
  8
6_ALL_SURFS
100
AcDbLine
 62
7
  6
CONTINUOUS
 10
110.4392137097
 20
752.2361895161
 11
106.8392137097
 21
752.2361895161
  0
LINE
  5
3F9
100
AcDbEntity
  8
7_ALL_FEATURES
100
AcDbLine
 62
9
  6
CONTINUOUS
 10
181.8392137097
 20
753.8361895161
 11
181.3392137097
 21
753.8361895161
  0
LINE
  5
3FA
100
AcDbEntity
  8
7_ALL_FEATURES
100
AcDbLine
 62
7
  6
CONTINUOUS
 10
116.1851804021
 20
753.8361895161
 11
116.1690261265
 21
753.8361895161
  0
LINE
  5
3FB
100
AcDbEntity
  8
7_ALL_FEATURES
100
AcDbLine
 62
9
  6
CONTINUOUS
 10
179.8392137097
 20
753.8361895161
 11
116.1851804021
 21
753.8361895161
  0
LINE
  5
3FC
100
AcDbEntity
  8
7_ALL_FEATURES
100
AcDbLine
 62
7
  6
CONTINUOUS
 10
181.8392137097
 20
754.1361895161
 11
181.3392137097
 21
754.1361895161
  0
LINE
  5
3FD
100
AcDbEntity
  8
7_ALL_FEATURES
100
AcDbLine
 62
7
  6
CONTINUOUS
 10
179.8392137097
 20
754.1361895161
 11
116.2397495495
 21
754.1361895161
  0
LINE
  5
3FE
100
AcDbEntity
  8
6_ALL_SURFS
100
AcDbLine
 62
7
  6
CONTINUOUS
 10
107.2392137097
 20
754.1361895161
 11
112.0392137097
 21
754.1361895161
  0
LINE
  5
3FF
100
AcDbEntity
  8
7_ALL_FEATURES
100
AcDbLine
 62
9
  6
CONTINUOUS
 10
106.9392137097
 20
754.4361895161
 11
107.3392137097
 21
754.4361895161
  0
LINE
  5
400
100
AcDbEntity
  8
7_ALL_FEATURES
100
AcDbLine
 62
9
  6
CONTINUOUS
 10
116.2994046881
 20
754.4361895161
 11
179.8392137097
 21
754.4361895161
  0
LINE
  5
401
100
AcDbEntity
  8
7_ALL_FEATURES
100
AcDbLine
 62
9
  6
CONTINUOUS
 10
181.3392137097
 20
754.4361895161
 11
181.8392137097
 21
754.4361895161
  0
LINE
  5
402
100
AcDbEntity
  8
7_ALL_FEATURES
100
AcDbLine
 62
7
  6
CONTINUOUS
 10
116.4079024349
 20
755.3361895161
 11
116.1690261265
 21
755.3361895161
  0
LINE
  5
403
100
AcDbEntity
  8
7_ALL_FEATURES
100
AcDbLine
 62
7
  6
CONTINUOUS
 10
116.1690261265
 20
756.3361895161
 11
116.4079024349
 21
756.3361895161
  0
LINE
  5
404
100
AcDbEntity
  8
7_ALL_FEATURES
100
AcDbLine
 62
9
  6
CONTINUOUS
 10
106.9392137097
 20
757.2361895161
 11
107.3392137097
 21
757.2361895161
  0
LINE
  5
405
100
AcDbEntity
  8
7_ALL_FEATURES
100
AcDbLine
 62
9
  6
CONTINUOUS
 10
116.299356075
 20
757.2361895161
 11
179.8392137097
 21
757.2361895161
  0
LINE
  5
406
100
AcDbEntity
  8
7_ALL_FEATURES
100
AcDbLine
 62
9
  6
CONTINUOUS
 10
181.3392137097
 20
757.2361895161
 11
181.8392137097
 21
757.2361895161
  0
LINE
  5
407
100
AcDbEntity
  8
7_ALL_FEATURES
100
AcDbLine
 62
7
  6
CONTINUOUS
 10
181.8392137097
 20
757.5361895161
 11
181.3392137097
 21
757.5361895161
  0
LINE
  5
408
100
AcDbEntity
  8
7_ALL_FEATURES
100
AcDbLine
 62
7
  6
CONTINUOUS
 10
179.8392137097
 20
757.5361895161
 11
116.2397442623
 21
757.5361895161
  0
LINE
  5
409
100
AcDbEntity
  8
7_ALL_FEATURES
100
AcDbLine
 62
7
  6
CONTINUOUS
 10
107.2392137097
 20
757.5361895161
 11
112.0392137097
 21
757.5361895161
  0
LINE
  5
40A
100
AcDbEntity
  8
7_ALL_FEATURES
100
AcDbLine
 62
9
  6
CONTINUOUS
 10
181.8392137097
 20
757.8361895161
 11
181.3392137097
 21
757.8361895161
  0
LINE
  5
40B
100
AcDbEntity
  8
7_ALL_FEATURES
100
AcDbLine
 62
9
  6
CONTINUOUS
 10
179.8392137097
 20
757.8361895161
 11
116.1851804021
 21
757.8361895161
  0
LINE
  5
40C
100
AcDbEntity
  8
7_ALL_FEATURES
100
AcDbLine
 62
7
  6
CONTINUOUS
 10
116.1690261265
 20
757.8361895161
 11
116.1851804021
 21
757.8361895161
  0
LINE
  5
40D
100
AcDbEntity
  8
7_ALL_FEATURES
100
AcDbLine
 62
7
  6
CONTINUOUS
 10
110.4392137097
 20
759.4361895161
 11
106.8392137097
 21
759.4361895161
  0
LINE
  5
40E
100
AcDbEntity
  8
7_ALL_FEATURES
100
AcDbLine
 62
7
  6
CONTINUOUS
 10
115.36741694
 20
759.8361895161
 11
113.3392137097
 21
759.8361895161
  0
LINE
  5
40F
100
AcDbEntity
  8
7_ALL_FEATURES
100
AcDbLine
 62
7
  6
CONTINUOUS
 10
112.3392137097
 20
763.3361895161
 11
113.3392137097
 21
763.3361895161
  0
LINE
  5
410
100
AcDbEntity
  8
7_ALL_FEATURES
100
AcDbLine
 62
7
  6
CONTINUOUS
 10
105.6392137097
 20
775.4861895161
 11
110.735230716
 21
775.4861895161
  0
LINE
  5
411
100
AcDbEntity
  8
7_ALL_FEATURES
100
AcDbLine
 62
9
  6
CONTINUOUS
 10
109.9892137097
 20
775.8613183855
 11
110.4861585516
 21
775.8613183855
  0
LINE
  5
412
100
AcDbEntity
  8
7_ALL_FEATURES
100
AcDbLine
 62
9
  6
CONTINUOUS
 10
109.5197114077
 20
777.4366238322
 11
107.5552227805
 21
777.4366238322
  0
LINE
  5
413
100
AcDbEntity
  8
6_ALL_SURFS
100
AcDbLine
 62
7
  6
CONTINUOUS
 10
107.3281479507
 20
777.5405702128
 11
109.6022110049
 21
777.5405702128
  0
LINE
  5
414
100
AcDbEntity
  8
6_ALL_SURFS
100
AcDbLine
 62
7
  6
CONTINUOUS
 10
107.3281479508
 20
779.0318088195
 11
109.6022110048
 21
779.0318088195
  0
LINE
  5
415
100
AcDbEntity
  8
7_ALL_FEATURES
100
AcDbLine
 62
9
  6
CONTINUOUS
 10
109.5197114076
 20
779.1357552002
 11
107.5552227806
 21
779.1357552002
  0
LINE
  5
416
100
AcDbEntity
  8
7_ALL_FEATURES
100
AcDbLine
 62
9
  6
CONTINUOUS
 10
109.9892137097
 20
780.7110606467
 11
110.4861585516
 21
780.7110606467
  0
LINE
  5
417
100
AcDbEntity
  8
6_ALL_SURFS
100
AcDbLine
 62
7
  6
CONTINUOUS
 10
110.735230716
 20
781.0861895161
 11
108.5892137097
 21
781.0861895161
  0
LINE
  5
418
100
AcDbEntity
  8
7_ALL_FEATURES
100
AcDbLine
 62
9
  6
CONTINUOUS
 10
106.6392137097
 20
781.2505612877
 11
110.7392137097
 21
781.2505612877
  0
LINE
  5
419
100
AcDbEntity
  8
7_ALL_FEATURES
100
AcDbLine
 62
9
  6
CONTINUOUS
 10
112.3392137097
 20
781.9349845028
 11
179.8392137097
 21
781.9349845028
  0
LINE
  5
41A
100
AcDbEntity
  8
7_ALL_FEATURES
100
AcDbLine
 62
9
  6
CONTINUOUS
 10
181.3392137097
 20
781.9349845028
 11
181.8392137097
 21
781.9349845028
  0
LINE
  5
41B
100
AcDbEntity
  8
7_ALL_FEATURES
100
AcDbLine
 62
9
  6
CONTINUOUS
 10
110.7392137097
 20
782.2940733486
 11
106.6392137097
 21
782.2940733486
  0
LINE
  5
41C
100
AcDbEntity
  8
7_ALL_FEATURES
100
AcDbLine
 62
9
  6
CONTINUOUS
 10
112.7308900848
 20
782.4231094789
 11
179.8392137097
 21
782.4231094789
  0
LINE
  5
41D
100
AcDbEntity
  8
7_ALL_FEATURES
100
AcDbLine
 62
9
  6
CONTINUOUS
 10
181.3392137097
 20
782.4231094789
 11
181.8392137097
 21
782.4231094789
  0
LINE
  5
41E
100
AcDbEntity
  8
7_ALL_FEATURES
100
AcDbLine
 62
7
  6
CONTINUOUS
 10
110.7508405406
 20
782.5940733486
 11
105.6392137097
 21
782.5940733486
  0
LINE
  5
41F
100
AcDbEntity
  8
3_ALL_AXES
100
AcDbLine
 62
7
  6
CONTINUOUS
 10
135.339242894
 20
785.3861895161
 11
145.3391845254
 21
785.3861895161
  0
LINE
  5
420
100
AcDbEntity
  8
3_ALL_AXES
100
AcDbLine
 62
7
  6
CONTINUOUS
 10
163.639242894
 20
785.3861895161
 11
173.6391845254
 21
785.3861895161
  0
LINE
  5
421
100
AcDbEntity
  8
3_ALL_AXES
100
AcDbLine
 62
7
  6
CONTINUOUS
 10
135.3392137097
 20
785.6861895161
 11
145.3392137097
 21
785.6861895161
  0
LINE
  5
422
100
AcDbEntity
  8
3_ALL_AXES
100
AcDbLine
 62
7
  6
CONTINUOUS
 10
163.6392137097
 20
785.6861895161
 11
173.6392137097
 21
785.6861895161
  0
LINE
  5
423
100
AcDbEntity
  8
6_ALL_SURFS
100
AcDbLine
 62
7
  6
CONTINUOUS
 10
131.0546598853
 20
785.7207033454
 11
135.3737275389
 21
785.7207033454
  0
LINE
  5
424
100
AcDbEntity
  8
6_ALL_SURFS
100
AcDbLine
 62
7
  6
CONTINUOUS
 10
145.3046998804
 20
785.7207033454
 11
163.6737275389
 21
785.7207033454
  0
LINE
  5
425
100
AcDbEntity
  8
6_ALL_SURFS
100
AcDbLine
 62
7
  6
CONTINUOUS
 10
173.6046998804
 20
785.7207033454
 11
179.8392137097
 21
785.7207033454
  0
LINE
  5
426
100
AcDbEntity
  8
6_ALL_SURFS
100
AcDbLine
 62
7
  6
CONTINUOUS
 10
181.3392137097
 20
785.7207033454
 11
181.8392137097
 21
785.7207033454
  0
LINE
  5
427
100
AcDbEntity
  8
7_ALL_FEATURES
100
AcDbLine
 62
9
  6
CONTINUOUS
 10
181.8392137097
 20
785.7387955591
 11
181.3392137097
 21
785.7387955591
  0
LINE
  5
428
100
AcDbEntity
  8
7_ALL_FEATURES
100
AcDbLine
 62
9
  6
CONTINUOUS
 10
179.8392137097
 20
785.7387955591
 11
173.5866076667
 21
785.7387955591
  0
LINE
  5
429
100
AcDbEntity
  8
7_ALL_FEATURES
100
AcDbLine
 62
9
  6
CONTINUOUS
 10
163.6918197527
 20
785.7387955591
 11
145.2866076667
 21
785.7387955591
  0
LINE
  5
42A
100
AcDbEntity
  8
7_ALL_FEATURES
100
AcDbLine
 62
9
  6
CONTINUOUS
 10
135.3918197527
 20
785.7387955591
 11
131.1572659283
 21
785.7387955591
  0
LINE
  5
42B
100
AcDbEntity
  8
7_ALL_FEATURES
100
AcDbLine
 62
9
  6
CONTINUOUS
 10
132.6045798814
 20
786.2655747577
 11
135.9185989512
 21
786.2655747577
  0
LINE
  5
42C
100
AcDbEntity
  8
7_ALL_FEATURES
100
AcDbLine
 62
9
  6
CONTINUOUS
 10
144.7598284681
 20
786.2655747577
 11
164.2185989512
 21
786.2655747577
  0
LINE
  5
42D
100
AcDbEntity
  8
7_ALL_FEATURES
100
AcDbLine
 62
9
  6
CONTINUOUS
 10
173.0598284681
 20
786.2655747577
 11
179.8392137097
 21
786.2655747577
  0
LINE
  5
42E
100
AcDbEntity
  8
7_ALL_FEATURES
100
AcDbLine
 62
9
  6
CONTINUOUS
 10
181.3392137097
 20
786.2655747577
 11
181.8392137097
 21
786.2655747577
  0
LINE
  5
42F
100
AcDbEntity
  8
7_ALL_FEATURES
100
AcDbLine
 62
9
  6
CONTINUOUS
 10
130.3444968768
 20
786.331882493
 11
130.4667229579
 21
786.331882493
  0
LINE
  5
430
100
AcDbEntity
  8
7_ALL_FEATURES
100
AcDbLine
 62
7
  6
CONTINUOUS
 10
181.8392137097
 20
786.3861895161
 11
181.3392137097
 21
786.3861895161
  0
LINE
  5
431
100
AcDbEntity
  8
7_ALL_FEATURES
100
AcDbLine
 62
7
  6
CONTINUOUS
 10
133.2886201681
 20
786.3861895161
 11
179.8392137097
 21
786.3861895161
  0
LINE
  5
432
100
AcDbEntity
  8
7_ALL_FEATURES
100
AcDbLine
 62
9
  6
CONTINUOUS
 10
171.9270816753
 20
786.4740574818
 11
174.151345744
 21
786.4740574818
  0
LINE
  5
433
100
AcDbEntity
  8
7_ALL_FEATURES
100
AcDbLine
 62
9
  6
CONTINUOUS
 10
170.1763716
 20
786.5361895161
 11
168.5020558194
 21
786.5361895161
  0
LINE
  5
434
100
AcDbEntity
  8
7_ALL_FEATURES
100
AcDbLine
 62
9
  6
CONTINUOUS
 10
174.0270816753
 20
786.5983215505
 11
172.051345744
 21
786.5983215505
  0
LINE
  5
435
100
AcDbEntity
  8
7_ALL_FEATURES
100
AcDbLine
 62
9
  6
CONTINUOUS
 10
170.125025392
 20
786.6251237572
 11
168.5534020274
 21
786.6251237572
  0
LINE
  5
436
100
AcDbEntity
  8
7_ALL_FEATURES
100
AcDbLine
 62
9
  6
CONTINUOUS
 10
181.8392137097
 20
786.6861895161
 11
181.3392137097
 21
786.6861895161
  0
LINE
  5
437
100
AcDbEntity
  8
7_ALL_FEATURES
100
AcDbLine
 62
9
  6
CONTINUOUS
 10
179.8392137097
 20
786.6861895161
 11
175.8392137097
 21
786.6861895161
  0
LINE
  5
438
100
AcDbEntity
  8
7_ALL_FEATURES
100
AcDbLine
 62
7
  6
CONTINUOUS
 10
173.814949641
 20
786.6861895161
 11
172.2634777784
 21
786.6861895161
  0
LINE
  5
439
100
AcDbEntity
  8
7_ALL_FEATURES
100
AcDbLine
 62
9
  6
CONTINUOUS
 10
170.1887793937
 20
787.002198587
 11
168.4896480257
 21
787.002198587
  0
LINE
  5
43A
100
AcDbEntity
  8
7_ALL_FEATURES
100
AcDbLine
 62
7
  6
CONTINUOUS
 10
179.6392137097
 20
787.0861895161
 11
179.5192137097
 21
787.0861895161
  0
LINE
  5
43B
100
AcDbEntity
  8
7_ALL_FEATURES
100
AcDbLine
 62
9
  6
CONTINUOUS
 10
175.8392137097
 20
787.7569731744
 11
176.6578022922
 21
787.7569731744
  0
LINE
  5
43C
100
AcDbEntity
  8
7_ALL_FEATURES
100
AcDbLine
 62
9
  6
CONTINUOUS
 10
177.4987269537
 20
787.7569731744
 11
178.1190320324
 21
787.7569731744
  0
LINE
  5
43D
100
AcDbEntity
  8
7_ALL_FEATURES
100
AcDbLine
 62
9
  6
CONTINUOUS
 10
181.3392137097
 20
787.7569731744
 11
181.8392137097
 21
787.7569731744
  0
LINE
  5
43E
100
AcDbEntity
  8
7_ALL_FEATURES
100
AcDbLine
 62
7
  6
CONTINUOUS
 10
179.5192137097
 20
787.8861895161
 11
180.1392137097
 21
787.8861895161
  0
LINE
  5
43F
100
AcDbEntity
  8
7_ALL_FEATURES
100
AcDbLine
 62
9
  6
CONTINUOUS
 10
175.9346142017
 20
787.9763792849
 11
176.6525167862
 21
787.9763792849
  0
LINE
  5
440
100
AcDbEntity
  8
7_ALL_FEATURES
100
AcDbLine
 62
9
  6
CONTINUOUS
 10
177.743909968
 20
787.9763792849
 11
177.9342908008
 21
787.9763792849
  0
LINE
  5
441
100
AcDbEntity
  8
7_ALL_FEATURES
100
AcDbLine
 62
9
  6
CONTINUOUS
 10
179.106274813
 20
787.9763792849
 11
180.306204536
 21
787.9763792849
  0
LINE
  5
442
100
AcDbEntity
  8
7_ALL_FEATURES
100
AcDbLine
 62
9
  6
CONTINUOUS
 10
181.3392137097
 20
787.9763792849
 11
181.8392137097
 21
787.9763792849
  0
LINE
  5
443
100
AcDbEntity
  8
7_ALL_FEATURES
100
AcDbLine
 62
7
  6
CONTINUOUS
 10
166.1392137097
 20
787.9861895161
 11
127.8392137097
 21
787.9861895161
  0
LINE
  5
444
100
AcDbEntity
  8
6_ALL_SURFS
100
AcDbLine
 62
7
  6
CONTINUOUS
 10
181.8392137097
 20
788.0721944688
 11
181.3392137097
 21
788.0721944688
  0
LINE
  5
445
100
AcDbEntity
  8
6_ALL_SURFS
100
AcDbLine
 62
7
  6
CONTINUOUS
 10
180.3392137097
 20
788.0721944688
 11
179.0392137097
 21
788.0721944688
  0
LINE
  5
446
100
AcDbEntity
  8
7_ALL_FEATURES
100
AcDbLine
 62
9
  6
CONTINUOUS
 10
179.1609659955
 20
788.1135238007
 11
180.3392137097
 21
788.1135238007
  0
LINE
  5
447
100
AcDbEntity
  8
7_ALL_FEATURES
100
AcDbLine
 62
9
  6
CONTINUOUS
 10
181.3392137097
 20
788.1135238007
 11
181.8392137097
 21
788.1135238007
  0
LINE
  5
448
100
AcDbEntity
  8
7_ALL_FEATURES
100
AcDbLine
 62
7
  6
CONTINUOUS
 10
173.9492530785
 20
788.2861895161
 11
172.5392137097
 21
788.2861895161
  0
LINE
  5
449
100
AcDbEntity
  8
7_ALL_FEATURES
100
AcDbLine
 62
9
  6
CONTINUOUS
 10
172.2392137097
 20
788.5861895161
 11
174.3891368342
 21
788.5861895161
  0
LINE
  5
44A
100
AcDbEntity
  8
7_ALL_FEATURES
100
AcDbLine
 62
9
  6
CONTINUOUS
 10
181.8392137097
 20
788.9361895161
 11
738.8392137097
 21
788.9361895161
  0
LINE
  5
44B
100
AcDbEntity
  8
7_ALL_FEATURES
100
AcDbLine
 62
7
  6
CONTINUOUS
 10
180.5392137097
 20
789.1361895161
 11
181.1392137097
 21
789.1361895161
  0
LINE
  5
44C
100
AcDbEntity
  8
7_ALL_FEATURES
100
AcDbLine
 62
7
  6
CONTINUOUS
 10
181.8392137097
 20
789.1361895161
 11
738.8392137097
 21
789.1361895161
  0
LINE
  5
44D
100
AcDbEntity
  8
7_ALL_FEATURES
100
AcDbLine
 62
9
  6
CONTINUOUS
 10
177.2527873443
 20
789.2055956266
 11
178.7423458281
 21
789.2055956266
  0
LINE
  5
44E
100
AcDbEntity
  8
7_ALL_FEATURES
100
AcDbLine
 62
9
  6
CONTINUOUS
 10
180.6084215586
 20
789.2241955182
 11
738.8392137097
 21
789.2241955182
  0
LINE
  5
44F
100
AcDbEntity
  8
7_ALL_FEATURES
100
AcDbLine
 62
7
  6
CONTINUOUS
 10
177.4573868524
 20
789.2861895161
 11
178.5392137097
 21
789.2861895161
  0
LINE
  5
450
100
AcDbEntity
  8
7_ALL_FEATURES
100
AcDbLine
 62
7
  6
CONTINUOUS
 10
180.7910499873
 20
789.2861895161
 11
738.8392137097
 21
789.2861895161
  0
LINE
  5
451
100
AcDbEntity
  8
7_ALL_FEATURES
100
AcDbLine
 62
9
  6
CONTINUOUS
 10
175.2470318022
 20
789.3861895161
 11
172.2392137097
 21
789.3861895161
  0
LINE
  5
452
100
AcDbEntity
  8
7_ALL_FEATURES
100
AcDbLine
 62
9
  6
CONTINUOUS
 10
181.7330094045
 20
789.4756632003
 11
182.9415661546
 21
789.4756632003
  0
LINE
  5
453
100
AcDbEntity
  8
7_ALL_FEATURES
100
AcDbLine
 62
9
  6
CONTINUOUS
 10
738.8392137097
 20
789.5861895161
 11
196.3392137097
 21
789.5861895161
  0
LINE
  5
454
100
AcDbEntity
  8
7_ALL_FEATURES
100
AcDbLine
 62
9
  6
CONTINUOUS
 10
738.8392137097
 20
790.2361895161
 11
196.3392137097
 21
790.2361895161
  0
LINE
  5
455
100
AcDbEntity
  8
7_ALL_FEATURES
100
AcDbLine
 62
7
  6
CONTINUOUS
 10
738.8392137097
 20
790.5361895161
 11
195.1392137097
 21
790.5361895161
  0
LINE
  5
456
100
AcDbEntity
  8
7_ALL_FEATURES
100
AcDbLine
 62
7
  6
CONTINUOUS
 10
193.5392137097
 20
790.7861895161
 11
183.8272542221
 21
790.7861895161
  0
LINE
  5
457
100
AcDbEntity
  8
7_ALL_FEATURES
100
AcDbLine
 62
7
  6
CONTINUOUS
 10
180.8473213369
 20
790.7861895161
 11
177.3392137097
 21
790.7861895161
  0
LINE
  5
458
100
AcDbEntity
  8
7_ALL_FEATURES
100
AcDbLine
 62
9
  6
CONTINUOUS
 10
194.8392137097
 20
790.8361895161
 11
738.8392137097
 21
790.8361895161
  0
LINE
  5
459
100
AcDbEntity
  8
7_ALL_FEATURES
100
AcDbLine
 62
7
  6
CONTINUOUS
 10
180.9642393515
 20
790.8861895161
 11
167.9392137097
 21
790.8861895161
  0
LINE
  5
45A
100
AcDbEntity
  8
7_ALL_FEATURES
100
AcDbLine
 62
3
  6
CONTINUOUS
 10
181.0936109102
 20
790.9861895161
 11
127.8392137097
 21
790.9861895161
  0
LINE
  5
45B
100
AcDbEntity
  8
6_ALL_SURFS
100
AcDbLine
 62
7
  6
CONTINUOUS
 10
193.8392137097
 20
791.3861895161
 11
182.3372877795
 21
791.3861895161
  0
LINE
  5
45C
100
AcDbEntity
  8
3_ALL_AXES
100
AcDbLine
 62
7
  6
CONTINUOUS
 10
172.6892137097
 20
792.9861895161
 11
163.9892137097
 21
792.9861895161
  0
LINE
  5
45D
100
AcDbEntity
  8
3_ALL_AXES
100
AcDbLine
 62
7
  6
CONTINUOUS
 10
144.6892137097
 20
792.9861895161
 11
135.9892137097
 21
792.9861895161
  0
LINE
  5
45E
100
AcDbEntity
  8
7_ALL_FEATURES
100
AcDbLine
 62
7
  6
CONTINUOUS
 10
194.8392137097
 20
792.9861895161
 11
738.8392137097
 21
792.9861895161
  0
LINE
  5
45F
100
AcDbEntity
  8
7_ALL_FEATURES
100
AcDbLine
 62
7
  6
CONTINUOUS
 10
138.3392137097
 20
793.3861895161
 11
142.3392137097
 21
793.3861895161
  0
LINE
  5
460
100
AcDbEntity
  8
7_ALL_FEATURES
100
AcDbLine
 62
7
  6
CONTINUOUS
 10
166.6392137097
 20
793.3861895161
 11
170.6392137097
 21
793.3861895161
  0
LINE
  5
461
100
AcDbEntity
  8
7_ALL_FEATURES
100
AcDbLine
 62
7
  6
CONTINUOUS
 10
194.8392137097
 20
793.5861895161
 11
738.8392137097
 21
793.5861895161
  0
LINE
  5
462
100
AcDbEntity
  8
7_ALL_FEATURES
100
AcDbLine
 62
7
  6
CONTINUOUS
 10
194.8392137097
 20
795.9861895161
 11
738.8392137097
 21
795.9861895161
  0
LINE
  5
463
100
AcDbEntity
  8
7_ALL_FEATURES
100
AcDbLine
 62
7
  6
CONTINUOUS
 10
194.8392137097
 20
796.5861895161
 11
738.8392137097
 21
796.5861895161
  0
LINE
  5
464
100
AcDbEntity
  8
7_ALL_FEATURES
100
AcDbLine
 62
7
  6
CONTINUOUS
 10
194.8392137097
 20
798.9861895161
 11
738.8392137097
 21
798.9861895161
  0
LINE
  5
465
100
AcDbEntity
  8
7_ALL_FEATURES
100
AcDbLine
 62
7
  6
CONTINUOUS
 10
194.8392137097
 20
799.5861895161
 11
738.8392137097
 21
799.5861895161
  0
LINE
  5
466
100
AcDbEntity
  8
7_ALL_FEATURES
100
AcDbLine
 62
7
  6
CONTINUOUS
 10
194.8392137097
 20
801.9861895161
 11
202.9416802923
 21
801.9861895161
  0
LINE
  5
467
100
AcDbEntity
  8
6_ALL_SURFS
100
AcDbLine
 62
7
  6
CONTINUOUS
 10
210.7367471271
 20
801.9861895161
 11
452.9416802923
 21
801.9861895161
  0
LINE
  5
468
100
AcDbEntity
  8
6_ALL_SURFS
100
AcDbLine
 62
7
  6
CONTINUOUS
 10
460.7367471271
 20
801.9861895161
 11
702.9416802923
 21
801.9861895161
  0
LINE
  5
469
100
AcDbEntity
  8
6_ALL_SURFS
100
AcDbLine
 62
7
  6
CONTINUOUS
 10
710.7367471271
 20
801.9861895161
 11
738.8392137097
 21
801.9861895161
  0
LINE
  5
46A
100
AcDbEntity
  8
7_ALL_FEATURES
100
AcDbLine
 62
7
  6
CONTINUOUS
 10
194.8392137097
 20
802.5861895161
 11
202.5741502002
 21
802.5861895161
  0
LINE
  5
46B
100
AcDbEntity
  8
6_ALL_SURFS
100
AcDbLine
 62
7
  6
CONTINUOUS
 10
211.1042772191
 20
802.5861895161
 11
452.5741502002
 21
802.5861895161
  0
LINE
  5
46C
100
AcDbEntity
  8
6_ALL_SURFS
100
AcDbLine
 62
7
  6
CONTINUOUS
 10
461.1042772191
 20
802.5861895161
 11
702.5741502002
 21
802.5861895161
  0
LINE
  5
46D
100
AcDbEntity
  8
6_ALL_SURFS
100
AcDbLine
 62
7
  6
CONTINUOUS
 10
711.1042772191
 20
802.5861895161
 11
738.8392137097
 21
802.5861895161
  0
LINE
  5
46E
100
AcDbEntity
  8
7_ALL_FEATURES
100
AcDbLine
 62
7
  6
CONTINUOUS
 10
194.8392137097
 20
804.9861895161
 11
202.0443449169
 21
804.9861895161
  0
LINE
  5
46F
100
AcDbEntity
  8
6_ALL_SURFS
100
AcDbLine
 62
7
  6
CONTINUOUS
 10
211.6340825024
 20
804.9861895161
 11
452.0443449169
 21
804.9861895161
  0
LINE
  5
470
100
AcDbEntity
  8
6_ALL_SURFS
100
AcDbLine
 62
7
  6
CONTINUOUS
 10
461.6340825024
 20
804.9861895161
 11
702.0443449169
 21
804.9861895161
  0
LINE
  5
471
100
AcDbEntity
  8
6_ALL_SURFS
100
AcDbLine
 62
7
  6
CONTINUOUS
 10
711.6340825024
 20
804.9861895161
 11
738.8392137097
 21
804.9861895161
  0
LINE
  5
472
100
AcDbEntity
  8
7_ALL_FEATURES
100
AcDbLine
 62
7
  6
CONTINUOUS
 10
194.8392137097
 20
805.5861895161
 11
202.1073254249
 21
805.5861895161
  0
LINE
  5
473
100
AcDbEntity
  8
6_ALL_SURFS
100
AcDbLine
 62
7
  6
CONTINUOUS
 10
211.5711019945
 20
805.5861895161
 11
452.1073254249
 21
805.5861895161
  0
LINE
  5
474
100
AcDbEntity
  8
6_ALL_SURFS
100
AcDbLine
 62
7
  6
CONTINUOUS
 10
461.5711019945
 20
805.5861895161
 11
702.1073254249
 21
805.5861895161
  0
LINE
  5
475
100
AcDbEntity
  8
6_ALL_SURFS
100
AcDbLine
 62
7
  6
CONTINUOUS
 10
711.5711019945
 20
805.5861895161
 11
738.8392137097
 21
805.5861895161
  0
LINE
  5
476
100
AcDbEntity
  8
7_ALL_FEATURES
100
AcDbLine
 62
7
  6
CONTINUOUS
 10
194.8392137097
 20
808.2861895161
 11
203.555805916
 21
808.2861895161
  0
LINE
  5
477
100
AcDbEntity
  8
6_ALL_SURFS
100
AcDbLine
 62
7
  6
CONTINUOUS
 10
210.1226215034
 20
808.2861895161
 11
453.555805916
 21
808.2861895161
  0
LINE
  5
478
100
AcDbEntity
  8
6_ALL_SURFS
100
AcDbLine
 62
7
  6
CONTINUOUS
 10
460.1226215034
 20
808.2861895161
 11
703.555805916
 21
808.2861895161
  0
LINE
  5
479
100
AcDbEntity
  8
6_ALL_SURFS
100
AcDbLine
 62
7
  6
CONTINUOUS
 10
710.1226215034
 20
808.2861895161
 11
738.8392137097
 21
808.2861895161
  0
LINE
  5
47A
100
AcDbEntity
  8
7_ALL_FEATURES
100
AcDbLine
 62
9
  6
CONTINUOUS
 10
194.6246665506
 20
810.4316611065
 11
738.8392137097
 21
810.4316611065
  0
LINE
  5
47B
100
AcDbEntity
  8
6_ALL_SURFS
100
AcDbLine
 62
7
  6
CONTINUOUS
 10
738.8392137097
 20
810.7861895161
 11
194.2329170676
 21
810.7861895161
  0
LINE
  5
47C
100
AcDbEntity
  8
7_ALL_FEATURES
100
AcDbLine
 62
7
  6
CONTINUOUS
 10
112.7308900848
 20
782.4231094789
 11
130.3444968768
 21
786.331882493
  0
LINE
  5
47D
100
AcDbEntity
  8
7_ALL_FEATURES
100
AcDbLine
 62
7
  6
CONTINUOUS
 10
129.8787039212
 20
787.8674392772
 11
111.9142428352
 21
783.8808054472
  0
LINE
  5
47E
100
AcDbEntity
  8
6_ALL_SURFS
100
AcDbLine
 62
7
  6
CONTINUOUS
 10
738.8392137097
 20
718.6861895161
 11
738.8392137097
 21
703.3861895161
  0
LINE
  5
47F
100
AcDbEntity
  8
7_ALL_FEATURES
100
AcDbLine
 62
7
  6
CONTINUOUS
 10
738.8392137097
 20
703.3861895161
 11
738.8392137097
 21
700.8861940157
  0
LINE
  5
480
100
AcDbEntity
  8
7_ALL_FEATURES
100
AcDbLine
 62
7
  6
CONTINUOUS
 10
738.8392137097
 20
718.6861895161
 11
738.8392137097
 21
789.1361895161
  0
LINE
  5
481
100
AcDbEntity
  8
6_ALL_SURFS
100
AcDbLine
 62
7
  6
CONTINUOUS
 10
738.8392137097
 20
789.1361895161
 11
738.8392137097
 21
810.7861850165
  0
LINE
  5
482
100
AcDbEntity
  8
7_ALL_FEATURES
100
AcDbLine
 62
7
  6
CONTINUOUS
 10
890.490318081
 20
18.3815524194
 11
888.2903225806
 21
18.3815524194
  0
LINE
  5
483
100
AcDbEntity
  8
6_ALL_SURFS
100
AcDbLine
 62
7
  6
CONTINUOUS
 10
888.2903225806
 20
18.3815524194
 11
872.6903225806
 21
18.3815524194
  0
LINE
  5
484
100
AcDbEntity
  8
7_ALL_FEATURES
100
AcDbLine
 62
7
  6
CONTINUOUS
 10
872.6903225806
 20
18.3815524194
 11
862.3045198849
 21
18.3815524194
  0
LINE
  5
485
100
AcDbEntity
  8
6_ALL_SURFS
100
AcDbLine
 62
7
  6
CONTINUOUS
 10
780.5903270803
 20
18.3815524194
 11
808.7761252764
 21
18.3815524194
  0
LINE
  5
486
100
AcDbEntity
  8
6_ALL_SURFS
100
AcDbLine
 62
7
  6
CONTINUOUS
 10
808.7824387482
 20
18.3815524194
 11
833.4403225806
 21
18.3815524194
  0
LINE
  5
487
100
AcDbEntity
  8
7_ALL_FEATURES
100
AcDbLine
 62
7
  6
CONTINUOUS
 10
833.4403225806
 20
18.3815524194
 11
862.2982064131
 21
18.3815524194
  0
LINE
  5
488
100
AcDbEntity
  8
7_ALL_FEATURES
100
AcDbLine
 62
7
  6
CONTINUOUS
 10
797.9903225806
 20
618.8815524194
 11
798.3903225806
 21
619.2815524194
  0
LINE
  5
489
100
AcDbEntity
  8
7_ALL_FEATURES
100
AcDbLine
 62
7
  6
CONTINUOUS
 10
782.7903225806
 20
563.3815524194
 11
783.0903225806
 21
563.5315524194
  0
LINE
  5
48A
100
AcDbEntity
  8
7_ALL_FEATURES
100
AcDbLine
 62
7
  6
CONTINUOUS
 10
785.7903225806
 20
563.3815524194
 11
786.0903225806
 21
563.5315524194
  0
LINE
  5
48B
100
AcDbEntity
  8
7_ALL_FEATURES
100
AcDbLine
 62
7
  6
CONTINUOUS
 10
788.7903225806
 20
563.3815524194
 11
789.0903225806
 21
563.5315524194
  0
LINE
  5
48C
100
AcDbEntity
  8
7_ALL_FEATURES
100
AcDbLine
 62
7
  6
CONTINUOUS
 10
791.7903225806
 20
563.3815524194
 11
792.0903225806
 21
563.5315524194
  0
LINE
  5
48D
100
AcDbEntity
  8
7_ALL_FEATURES
100
AcDbLine
 62
7
  6
CONTINUOUS
 10
794.7903225806
 20
563.3815524194
 11
795.0903225806
 21
563.5315524194
  0
LINE
  5
48E
100
AcDbEntity
  8
7_ALL_FEATURES
100
AcDbLine
 62
7
  6
CONTINUOUS
 10
797.7903225806
 20
563.3815524194
 11
798.0903225806
 21
563.5315524194
  0
LINE
  5
48F
100
AcDbEntity
  8
7_ALL_FEATURES
100
AcDbLine
 62
7
  6
CONTINUOUS
 10
797.9903225806
 20
590.5815524194
 11
798.3903225806
 21
590.9815524194
  0
LINE
  5
490
100
AcDbEntity
  8
7_ALL_FEATURES
100
AcDbLine
 62
7
  6
CONTINUOUS
 10
813.8761342629
 20
650.0426181783
 11
814.8512409016
 21
651.7315524194
  0
LINE
  5
491
100
AcDbEntity
  8
7_ALL_FEATURES
100
AcDbLine
 62
7
  6
CONTINUOUS
 10
873.0903225806
 20
614.8815524194
 11
872.6903225806
 21
614.4815524194
  0
LINE
  5
492
100
AcDbEntity
  8
7_ALL_FEATURES
100
AcDbLine
 62
7
  6
CONTINUOUS
 10
872.9903225806
 20
563.5315524194
 11
872.6903225806
 21
563.3815524194
  0
LINE
  5
493
100
AcDbEntity
  8
7_ALL_FEATURES
100
AcDbLine
 62
7
  6
CONTINUOUS
 10
875.9903225806
 20
563.5315524194
 11
875.6903225806
 21
563.3815524194
  0
LINE
  5
494
100
AcDbEntity
  8
7_ALL_FEATURES
100
AcDbLine
 62
7
  6
CONTINUOUS
 10
878.9903225806
 20
563.5315524194
 11
878.6903225806
 21
563.3815524194
  0
LINE
  5
495
100
AcDbEntity
  8
7_ALL_FEATURES
100
AcDbLine
 62
7
  6
CONTINUOUS
 10
881.9903225806
 20
563.5315524194
 11
881.6903225806
 21
563.3815524194
  0
LINE
  5
496
100
AcDbEntity
  8
7_ALL_FEATURES
100
AcDbLine
 62
7
  6
CONTINUOUS
 10
884.9903225806
 20
563.5315524194
 11
884.6903225806
 21
563.3815524194
  0
LINE
  5
497
100
AcDbEntity
  8
7_ALL_FEATURES
100
AcDbLine
 62
7
  6
CONTINUOUS
 10
887.9903225806
 20
563.5315524194
 11
887.6903225806
 21
563.3815524194
  0
LINE
  5
498
100
AcDbEntity
  8
7_ALL_FEATURES
100
AcDbLine
 62
7
  6
CONTINUOUS
 10
873.0903225806
 20
599.0815524194
 11
872.6903225806
 21
598.6815524194
  0
LINE
  5
499
100
AcDbEntity
  8
7_ALL_FEATURES
100
AcDbLine
 62
7
  6
CONTINUOUS
 10
859.7512409017
 20
651.7315524194
 11
858.7761342629
 21
650.0426181782
  0
LINE
  5
49A
100
AcDbEntity
  8
7_ALL_FEATURES
100
AcDbLine
 62
7
  6
CONTINUOUS
 10
803.5090728195
 20
627.3420622078
 11
807.4957066495
 21
645.3065232939
  0
LINE
  5
49B
100
AcDbEntity
  8
6_ALL_SURFS
100
AcDbLine
 62
7
  6
CONTINUOUS
 10
780.5903225806
 20
18.3815524194
 11
780.5903225806
 21
562.9878490614
  0
LINE
  5
49C
100
AcDbEntity
  8
7_ALL_FEATURES
100
AcDbLine
 62
9
  6
CONTINUOUS
 10
780.9840259386
 20
563.3815524194
 11
780.9840259386
 21
18.3815524194
  0
LINE
  5
49D
100
AcDbEntity
  8
7_ALL_FEATURES
100
AcDbLine
 62
7
  6
CONTINUOUS
 10
782.7903225806
 20
563.3815524194
 11
782.7903225806
 21
18.3815524194
  0
LINE
  5
49E
100
AcDbEntity
  8
7_ALL_FEATURES
100
AcDbLine
 62
7
  6
CONTINUOUS
 10
783.0903225806
 20
563.5315524194
 11
783.0903225806
 21
550.3815524194
  0
LINE
  5
49F
100
AcDbEntity
  8
6_ALL_SURFS
100
AcDbLine
 62
7
  6
CONTINUOUS
 10
783.0903225806
 20
550.3815524194
 11
783.0903225806
 21
18.3815524194
  0
LINE
  5
4A0
100
AcDbEntity
  8
7_ALL_FEATURES
100
AcDbLine
 62
7
  6
CONTINUOUS
 10
783.3903225806
 20
563.3815524194
 11
783.3903225806
 21
551.7992971072
  0
LINE
  5
4A1
100
AcDbEntity
  8
6_ALL_SURFS
100
AcDbLine
 62
7
  6
CONTINUOUS
 10
783.3903225806
 20
548.9638077315
 11
783.3903225806
 21
301.7992971072
  0
LINE
  5
4A2
100
AcDbEntity
  8
6_ALL_SURFS
100
AcDbLine
 62
7
  6
CONTINUOUS
 10
783.3903225806
 20
298.9638077315
 11
783.3903225806
 21
51.7992971072
  0
LINE
  5
4A3
100
AcDbEntity
  8
6_ALL_SURFS
100
AcDbLine
 62
7
  6
CONTINUOUS
 10
783.3903225806
 20
48.9638077315
 11
783.3903225806
 21
18.3815524194
  0
LINE
  5
4A4
100
AcDbEntity
  8
7_ALL_FEATURES
100
AcDbLine
 62
7
  6
CONTINUOUS
 10
785.7903225806
 20
563.3815524194
 11
785.7903225806
 21
553.7888974268
  0
LINE
  5
4A5
100
AcDbEntity
  8
6_ALL_SURFS
100
AcDbLine
 62
7
  6
CONTINUOUS
 10
785.7903225806
 20
546.9742074119
 11
785.7903225806
 21
303.7888974268
  0
LINE
  5
4A6
100
AcDbEntity
  8
6_ALL_SURFS
100
AcDbLine
 62
7
  6
CONTINUOUS
 10
785.7903225806
 20
296.9742074119
 11
785.7903225806
 21
53.7888974268
  0
LINE
  5
4A7
100
AcDbEntity
  8
6_ALL_SURFS
100
AcDbLine
 62
7
  6
CONTINUOUS
 10
785.7903225806
 20
46.9742074119
 11
785.7903225806
 21
18.3815524194
  0
LINE
  5
4A8
100
AcDbEntity
  8
7_ALL_FEATURES
100
AcDbLine
 62
7
  6
CONTINUOUS
 10
786.0903225806
 20
563.5315524194
 11
786.0903225806
 21
553.8456540345
  0
LINE
  5
4A9
100
AcDbEntity
  8
6_ALL_SURFS
100
AcDbLine
 62
7
  6
CONTINUOUS
 10
786.0903225806
 20
546.9174508042
 11
786.0903225806
 21
303.8456540345
  0
LINE
  5
4AA
100
AcDbEntity
  8
6_ALL_SURFS
100
AcDbLine
 62
7
  6
CONTINUOUS
 10
786.0903225806
 20
296.9174508042
 11
786.0903225806
 21
53.8456540345
  0
LINE
  5
4AB
100
AcDbEntity
  8
6_ALL_SURFS
100
AcDbLine
 62
7
  6
CONTINUOUS
 10
786.0903225806
 20
46.9174508042
 11
786.0903225806
 21
18.3815524194
  0
LINE
  5
4AC
100
AcDbEntity
  8
7_ALL_FEATURES
100
AcDbLine
 62
7
  6
CONTINUOUS
 10
786.3903225806
 20
563.3815524194
 11
786.3903225806
 21
553.8758334613
  0
LINE
  5
4AD
100
AcDbEntity
  8
6_ALL_SURFS
100
AcDbLine
 62
7
  6
CONTINUOUS
 10
786.3903225806
 20
546.8872713774
 11
786.3903225806
 21
303.8758334613
  0
LINE
  5
4AE
100
AcDbEntity
  8
6_ALL_SURFS
100
AcDbLine
 62
7
  6
CONTINUOUS
 10
786.3903225806
 20
296.8872713774
 11
786.3903225806
 21
53.8758334613
  0
LINE
  5
4AF
100
AcDbEntity
  8
6_ALL_SURFS
100
AcDbLine
 62
7
  6
CONTINUOUS
 10
786.3903225806
 20
46.8872713774
 11
786.3903225806
 21
18.3815524194
  0
LINE
  5
4B0
100
AcDbEntity
  8
7_ALL_FEATURES
100
AcDbLine
 62
7
  6
CONTINUOUS
 10
788.7903225806
 20
563.3815524194
 11
788.7903225806
 21
553.1036839371
  0
LINE
  5
4B1
100
AcDbEntity
  8
6_ALL_SURFS
100
AcDbLine
 62
7
  6
CONTINUOUS
 10
788.7903225806
 20
547.6594209016
 11
788.7903225806
 21
303.1036839371
  0
LINE
  5
4B2
100
AcDbEntity
  8
6_ALL_SURFS
100
AcDbLine
 62
7
  6
CONTINUOUS
 10
788.7903225806
 20
297.6594209016
 11
788.7903225806
 21
53.1036839371
  0
LINE
  5
4B3
100
AcDbEntity
  8
6_ALL_SURFS
100
AcDbLine
 62
7
  6
CONTINUOUS
 10
788.7903225806
 20
47.6594209016
 11
788.7903225806
 21
18.3815524194
  0
LINE
  5
4B4
100
AcDbEntity
  8
7_ALL_FEATURES
100
AcDbLine
 62
7
  6
CONTINUOUS
 10
789.0903225806
 20
563.5315524194
 11
789.0903225806
 21
552.8310421621
  0
LINE
  5
4B5
100
AcDbEntity
  8
6_ALL_SURFS
100
AcDbLine
 62
7
  6
CONTINUOUS
 10
789.0903225806
 20
547.9320626766
 11
789.0903225806
 21
302.8310421621
  0
LINE
  5
4B6
100
AcDbEntity
  8
6_ALL_SURFS
100
AcDbLine
 62
7
  6
CONTINUOUS
 10
789.0903225806
 20
297.9320626766
 11
789.0903225806
 21
52.8310421621
  0
LINE
  5
4B7
100
AcDbEntity
  8
6_ALL_SURFS
100
AcDbLine
 62
7
  6
CONTINUOUS
 10
789.0903225806
 20
47.9320626766
 11
789.0903225806
 21
18.3815524194
  0
LINE
  5
4B8
100
AcDbEntity
  8
7_ALL_FEATURES
100
AcDbLine
 62
7
  6
CONTINUOUS
 10
789.3903225806
 20
563.3815524194
 11
789.3903225806
 21
552.4815524194
  0
LINE
  5
4B9
100
AcDbEntity
  8
6_ALL_SURFS
100
AcDbLine
 62
7
  6
CONTINUOUS
 10
789.3903225806
 20
548.2815524194
 11
789.3903225806
 21
302.4815524194
  0
LINE
  5
4BA
100
AcDbEntity
  8
6_ALL_SURFS
100
AcDbLine
 62
7
  6
CONTINUOUS
 10
789.3903225806
 20
298.2815524194
 11
789.3903225806
 21
52.4815524194
  0
LINE
  5
4BB
100
AcDbEntity
  8
6_ALL_SURFS
100
AcDbLine
 62
7
  6
CONTINUOUS
 10
789.3903225806
 20
48.2815524194
 11
789.3903225806
 21
18.3815524194
  0
LINE
  5
4BC
100
AcDbEntity
  8
7_ALL_FEATURES
100
AcDbLine
 62
7
  6
CONTINUOUS
 10
791.7903225806
 20
563.3815524194
 11
791.7903225806
 21
18.3815524194
  0
LINE
  5
4BD
100
AcDbEntity
  8
7_ALL_FEATURES
100
AcDbLine
 62
7
  6
CONTINUOUS
 10
792.0903225806
 20
563.5315524194
 11
792.0903225806
 21
18.3815524194
  0
LINE
  5
4BE
100
AcDbEntity
  8
7_ALL_FEATURES
100
AcDbLine
 62
7
  6
CONTINUOUS
 10
792.3903225806
 20
563.3815524194
 11
792.3903225806
 21
18.3815524194
  0
LINE
  5
4BF
100
AcDbEntity
  8
7_ALL_FEATURES
100
AcDbLine
 62
7
  6
CONTINUOUS
 10
794.7903225806
 20
563.3815524194
 11
794.7903225806
 21
18.3815524194
  0
LINE
  5
4C0
100
AcDbEntity
  8
7_ALL_FEATURES
100
AcDbLine
 62
7
  6
CONTINUOUS
 10
795.0903225806
 20
563.5315524194
 11
795.0903225806
 21
18.3815524194
  0
LINE
  5
4C1
100
AcDbEntity
  8
7_ALL_FEATURES
100
AcDbLine
 62
7
  6
CONTINUOUS
 10
795.3903225806
 20
563.3815524194
 11
795.3903225806
 21
18.3815524194
  0
LINE
  5
4C2
100
AcDbEntity
  8
7_ALL_FEATURES
100
AcDbLine
 62
7
  6
CONTINUOUS
 10
797.7903225806
 20
563.3815524194
 11
797.7903225806
 21
18.3815524194
  0
LINE
  5
4C3
100
AcDbEntity
  8
7_ALL_FEATURES
100
AcDbLine
 62
7
  6
CONTINUOUS
 10
797.9903225806
 20
618.8815524194
 11
797.9903225806
 21
614.8815524194
  0
LINE
  5
4C4
100
AcDbEntity
  8
7_ALL_FEATURES
100
AcDbLine
 62
7
  6
CONTINUOUS
 10
797.9903225806
 20
590.5815524194
 11
797.9903225806
 21
586.5815524194
  0
LINE
  5
4C5
100
AcDbEntity
  8
7_ALL_FEATURES
100
AcDbLine
 62
7
  6
CONTINUOUS
 10
798.0903225806
 20
563.5315524194
 11
798.0903225806
 21
18.3815524194
  0
LINE
  5
4C6
100
AcDbEntity
  8
3_ALL_AXES
100
AcDbLine
 62
7
  6
CONTINUOUS
 10
798.3903225806
 20
621.2315524194
 11
798.3903225806
 21
612.5315524194
  0
LINE
  5
4C7
100
AcDbEntity
  8
3_ALL_AXES
100
AcDbLine
 62
7
  6
CONTINUOUS
 10
798.3903225806
 20
593.2315524194
 11
798.3903225806
 21
584.5315524194
  0
LINE
  5
4C8
100
AcDbEntity
  8
7_ALL_FEATURES
100
AcDbLine
 62
7
  6
CONTINUOUS
 10
798.3903225806
 20
563.3815524194
 11
798.3903225806
 21
18.3815524194
  0
LINE
  5
4C9
100
AcDbEntity
  8
6_ALL_SURFS
100
AcDbLine
 62
7
  6
CONTINUOUS
 10
799.9903225806
 20
18.3815524194
 11
799.9903225806
 21
574.8834783495
  0
LINE
  5
4CA
100
AcDbEntity
  8
7_ALL_FEATURES
100
AcDbLine
 62
3
  6
CONTINUOUS
 10
800.3903225806
 20
629.3815524194
 11
800.3903225806
 21
574.3815524194
  0
LINE
  5
4CB
100
AcDbEntity
  8
7_ALL_FEATURES
100
AcDbLine
 62
7
  6
CONTINUOUS
 10
800.4903225806
 20
18.3815524194
 11
800.4903225806
 21
574.3815524194
  0
LINE
  5
4CC
100
AcDbEntity
  8
7_ALL_FEATURES
100
AcDbLine
 62
9
  6
CONTINUOUS
 10
801.9903225806
 20
18.3815524194
 11
801.9903225806
 21
574.3815524194
  0
LINE
  5
4CD
100
AcDbEntity
  8
7_ALL_FEATURES
100
AcDbLine
 62
9
  6
CONTINUOUS
 10
803.0903225806
 20
574.3815524194
 11
803.0903225806
 21
18.3815524194
  0
LINE
  5
4CE
100
AcDbEntity
  8
7_ALL_FEATURES
100
AcDbLine
 62
7
  6
CONTINUOUS
 10
803.3903225806
 20
18.3815524194
 11
803.3903225806
 21
629.3815524194
  0
LINE
  5
4CF
100
AcDbEntity
  8
7_ALL_FEATURES
100
AcDbLine
 62
9
  6
CONTINUOUS
 10
803.5090728195
 20
18.3815524194
 11
803.5090728195
 21
627.3420622078
  0
LINE
  5
4D0
100
AcDbEntity
  8
7_ALL_FEATURES
100
AcDbLine
 62
9
  6
CONTINUOUS
 10
807.4957066495
 20
18.3815524194
 11
807.4957066495
 21
645.3065232939
  0
LINE
  5
4D1
100
AcDbEntity
  8
7_ALL_FEATURES
100
AcDbLine
 62
7
  6
CONTINUOUS
 10
808.7824387482
 20
18.3815524194
 11
808.7824387482
 21
651.5815524194
  0
LINE
  5
4D2
100
AcDbEntity
  8
7_ALL_FEATURES
100
AcDbLine
 62
9
  6
CONTINUOUS
 10
809.0824387482
 20
18.3815524194
 11
809.0824387482
 21
651.8815524194
  0
LINE
  5
4D3
100
AcDbEntity
  8
7_ALL_FEATURES
100
AcDbLine
 62
9
  6
CONTINUOUS
 10
811.0695966384
 20
18.3815524194
 11
811.0695966384
 21
651.8815524194
  0
LINE
  5
4D4
100
AcDbEntity
  8
7_ALL_FEATURES
100
AcDbLine
 62
9
  6
CONTINUOUS
 10
811.3294042595
 20
18.3815524194
 11
811.3294042595
 21
651.7315524194
  0
LINE
  5
4D5
100
AcDbEntity
  8
7_ALL_FEATURES
100
AcDbLine
 62
9
  6
CONTINUOUS
 10
812.3045108984
 20
18.3815524194
 11
812.3045108984
 21
650.0426181782
  0
LINE
  5
4D6
100
AcDbEntity
  8
6_ALL_SURFS
100
AcDbLine
 62
7
  6
CONTINUOUS
 10
812.3447032772
 20
649.8926181782
 11
812.3447032772
 21
18.3815524194
  0
LINE
  5
4D7
100
AcDbEntity
  8
6_ALL_SURFS
100
AcDbLine
 62
7
  6
CONTINUOUS
 10
813.835941884
 20
649.8926181783
 11
813.835941884
 21
18.3815524194
  0
LINE
  5
4D8
100
AcDbEntity
  8
7_ALL_FEATURES
100
AcDbLine
 62
9
  6
CONTINUOUS
 10
813.8761342629
 20
18.3815524194
 11
813.8761342629
 21
650.0426181783
  0
LINE
  5
4D9
100
AcDbEntity
  8
7_ALL_FEATURES
100
AcDbLine
 62
9
  6
CONTINUOUS
 10
814.8512409016
 20
18.3815524194
 11
814.8512409016
 21
651.7315524194
  0
LINE
  5
4DA
100
AcDbEntity
  8
7_ALL_FEATURES
100
AcDbLine
 62
9
  6
CONTINUOUS
 10
815.1110485228
 20
18.3815524194
 11
815.1110485228
 21
651.8815524194
  0
LINE
  5
4DB
100
AcDbEntity
  8
7_ALL_FEATURES
100
AcDbLine
 62
9
  6
CONTINUOUS
 10
815.5903225806
 20
18.3815524194
 11
815.5903225806
 21
651.8815524194
  0
LINE
  5
4DC
100
AcDbEntity
  8
7_ALL_FEATURES
100
AcDbLine
 62
7
  6
CONTINUOUS
 10
815.8903225806
 20
18.3815524194
 11
815.8903225806
 21
651.5815524194
  0
LINE
  5
4DD
100
AcDbEntity
  8
7_ALL_FEATURES
100
AcDbLine
 62
9
  6
CONTINUOUS
 10
815.9482064131
 20
646.4815524194
 11
815.9482064131
 21
18.3815524194
  0
LINE
  5
4DE
100
AcDbEntity
  8
7_ALL_FEATURES
100
AcDbLine
 62
9
  6
CONTINUOUS
 10
831.6403225806
 20
646.4815524194
 11
831.6403225806
 21
18.3815524194
  0
LINE
  5
4DF
100
AcDbEntity
  8
7_ALL_FEATURES
100
AcDbLine
 62
7
  6
CONTINUOUS
 10
831.9403225806
 20
18.3815524194
 11
831.9403225806
 21
650.3815524194
  0
LINE
  5
4E0
100
AcDbEntity
  8
7_ALL_FEATURES
100
AcDbLine
 62
9
  6
CONTINUOUS
 10
833.4403225806
 20
18.3815524194
 11
833.4403225806
 21
651.8815524194
  0
LINE
  5
4E1
100
AcDbEntity
  8
7_ALL_FEATURES
100
AcDbLine
 62
9
  6
CONTINUOUS
 10
837.6403225806
 20
18.3815524194
 11
837.6403225806
 21
651.8815524194
  0
LINE
  5
4E2
100
AcDbEntity
  8
7_ALL_FEATURES
100
AcDbLine
 62
7
  6
CONTINUOUS
 10
839.1403225806
 20
18.3815524194
 11
839.1403225806
 21
650.3815524194
  0
LINE
  5
4E3
100
AcDbEntity
  8
7_ALL_FEATURES
100
AcDbLine
 62
9
  6
CONTINUOUS
 10
839.4403225806
 20
646.4815524194
 11
839.4403225806
 21
18.3815524194
  0
LINE
  5
4E4
100
AcDbEntity
  8
7_ALL_FEATURES
100
AcDbLine
 62
9
  6
CONTINUOUS
 10
855.1324387482
 20
646.4815524194
 11
855.1324387482
 21
18.3815524194
  0
LINE
  5
4E5
100
AcDbEntity
  8
7_ALL_FEATURES
100
AcDbLine
 62
7
  6
CONTINUOUS
 10
855.1903225806
 20
18.3815524194
 11
855.1903225806
 21
651.5815524194
  0
LINE
  5
4E6
100
AcDbEntity
  8
7_ALL_FEATURES
100
AcDbLine
 62
9
  6
CONTINUOUS
 10
855.4903225806
 20
18.3815524194
 11
855.4903225806
 21
651.8815524194
  0
LINE
  5
4E7
100
AcDbEntity
  8
7_ALL_FEATURES
100
AcDbLine
 62
9
  6
CONTINUOUS
 10
855.9695966385
 20
18.3815524194
 11
855.9695966385
 21
651.8815524194
  0
LINE
  5
4E8
100
AcDbEntity
  8
7_ALL_FEATURES
100
AcDbLine
 62
9
  6
CONTINUOUS
 10
856.2294042596
 20
18.3815524194
 11
856.2294042596
 21
651.7315524194
  0
LINE
  5
4E9
100
AcDbEntity
  8
7_ALL_FEATURES
100
AcDbLine
 62
9
  6
CONTINUOUS
 10
857.2045108984
 20
18.3815524194
 11
857.2045108984
 21
650.0426181783
  0
LINE
  5
4EA
100
AcDbEntity
  8
7_ALL_FEATURES
100
AcDbLine
 62
7
  6
CONTINUOUS
 10
857.2447032773
 20
18.3815524194
 11
857.2447032773
 21
649.8926181783
  0
LINE
  5
4EB
100
AcDbEntity
  8
7_ALL_FEATURES
100
AcDbLine
 62
7
  6
CONTINUOUS
 10
858.7359418841
 20
18.3815524194
 11
858.7359418841
 21
649.8926181782
  0
LINE
  5
4EC
100
AcDbEntity
  8
7_ALL_FEATURES
100
AcDbLine
 62
9
  6
CONTINUOUS
 10
858.7761342629
 20
18.3815524194
 11
858.7761342629
 21
650.0426181782
  0
LINE
  5
4ED
100
AcDbEntity
  8
7_ALL_FEATURES
100
AcDbLine
 62
9
  6
CONTINUOUS
 10
859.7512409017
 20
18.3815524194
 11
859.7512409017
 21
651.7315524194
  0
LINE
  5
4EE
100
AcDbEntity
  8
7_ALL_FEATURES
100
AcDbLine
 62
9
  6
CONTINUOUS
 10
860.0110485229
 20
18.3815524194
 11
860.0110485229
 21
651.8815524194
  0
LINE
  5
4EF
100
AcDbEntity
  8
7_ALL_FEATURES
100
AcDbLine
 62
9
  6
CONTINUOUS
 10
861.9982064131
 20
18.3815524194
 11
861.9982064131
 21
651.8815524194
  0
LINE
  5
4F0
100
AcDbEntity
  8
7_ALL_FEATURES
100
AcDbLine
 62
7
  6
CONTINUOUS
 10
862.2982064131
 20
18.3815524194
 11
862.2982064131
 21
651.5815524194
  0
LINE
  5
4F1
100
AcDbEntity
  8
7_ALL_FEATURES
100
AcDbLine
 62
9
  6
CONTINUOUS
 10
863.5849385117
 20
18.3815524194
 11
863.5849385117
 21
645.3065232939
  0
LINE
  5
4F2
100
AcDbEntity
  8
7_ALL_FEATURES
100
AcDbLine
 62
9
  6
CONTINUOUS
 10
867.5715723417
 20
18.3815524194
 11
867.5715723417
 21
627.3420622078
  0
LINE
  5
4F3
100
AcDbEntity
  8
7_ALL_FEATURES
100
AcDbLine
 62
7
  6
CONTINUOUS
 10
867.6903225806
 20
18.3815524194
 11
867.6903225806
 21
629.3815524194
  0
LINE
  5
4F4
100
AcDbEntity
  8
7_ALL_FEATURES
100
AcDbLine
 62
9
  6
CONTINUOUS
 10
867.9903225806
 20
574.3815524194
 11
867.9903225806
 21
18.3815524194
  0
LINE
  5
4F5
100
AcDbEntity
  8
7_ALL_FEATURES
100
AcDbLine
 62
9
  6
CONTINUOUS
 10
869.0903225806
 20
18.3815524194
 11
869.0903225806
 21
574.3815524194
  0
LINE
  5
4F6
100
AcDbEntity
  8
7_ALL_FEATURES
100
AcDbLine
 62
7
  6
CONTINUOUS
 10
870.5903225806
 20
18.3815524194
 11
870.5903225806
 21
574.3815524194
  0
LINE
  5
4F7
100
AcDbEntity
  8
7_ALL_FEATURES
100
AcDbLine
 62
3
  6
CONTINUOUS
 10
870.6903225806
 20
574.3815524194
 11
870.6903225806
 21
629.3815524194
  0
LINE
  5
4F8
100
AcDbEntity
  8
6_ALL_SURFS
100
AcDbLine
 62
7
  6
CONTINUOUS
 10
871.0903225806
 20
574.8834783495
 11
871.0903225806
 21
18.3815524194
  0
LINE
  5
4F9
100
AcDbEntity
  8
7_ALL_FEATURES
100
AcDbLine
 62
7
  6
CONTINUOUS
 10
872.6903225806
 20
563.3815524194
 11
872.6903225806
 21
18.3815524194
  0
LINE
  5
4FA
100
AcDbEntity
  8
3_ALL_AXES
100
AcDbLine
 62
7
  6
CONTINUOUS
 10
872.6903225806
 20
597.0315524194
 11
872.6903225806
 21
605.7315524194
  0
LINE
  5
4FB
100
AcDbEntity
  8
3_ALL_AXES
100
AcDbLine
 62
7
  6
CONTINUOUS
 10
872.6903225806
 20
612.5315524194
 11
872.6903225806
 21
621.2315524194
  0
LINE
  5
4FC
100
AcDbEntity
  8
7_ALL_FEATURES
100
AcDbLine
 62
7
  6
CONTINUOUS
 10
872.9903225806
 20
563.5315524194
 11
872.9903225806
 21
18.3815524194
  0
LINE
  5
4FD
100
AcDbEntity
  8
7_ALL_FEATURES
100
AcDbLine
 62
7
  6
CONTINUOUS
 10
873.0903225806
 20
599.0815524194
 11
873.0903225806
 21
603.0815524194
  0
LINE
  5
4FE
100
AcDbEntity
  8
7_ALL_FEATURES
100
AcDbLine
 62
7
  6
CONTINUOUS
 10
873.0903225806
 20
614.8815524194
 11
873.0903225806
 21
618.8815524194
  0
LINE
  5
4FF
100
AcDbEntity
  8
7_ALL_FEATURES
100
AcDbLine
 62
7
  6
CONTINUOUS
 10
873.2903225806
 20
563.3815524194
 11
873.2903225806
 21
18.3815524194
  0
LINE
  5
500
100
AcDbEntity
  8
7_ALL_FEATURES
100
AcDbLine
 62
7
  6
CONTINUOUS
 10
875.6903225806
 20
563.3815524194
 11
875.6903225806
 21
18.3815524194
  0
LINE
  5
501
100
AcDbEntity
  8
7_ALL_FEATURES
100
AcDbLine
 62
7
  6
CONTINUOUS
 10
875.9903225806
 20
563.5315524194
 11
875.9903225806
 21
18.3815524194
  0
LINE
  5
502
100
AcDbEntity
  8
7_ALL_FEATURES
100
AcDbLine
 62
7
  6
CONTINUOUS
 10
876.2903225806
 20
563.3815524194
 11
876.2903225806
 21
18.3815524194
  0
LINE
  5
503
100
AcDbEntity
  8
7_ALL_FEATURES
100
AcDbLine
 62
7
  6
CONTINUOUS
 10
878.6903225806
 20
563.3815524194
 11
878.6903225806
 21
18.3815524194
  0
LINE
  5
504
100
AcDbEntity
  8
7_ALL_FEATURES
100
AcDbLine
 62
7
  6
CONTINUOUS
 10
878.9903225806
 20
563.5315524194
 11
878.9903225806
 21
18.3815524194
  0
LINE
  5
505
100
AcDbEntity
  8
7_ALL_FEATURES
100
AcDbLine
 62
7
  6
CONTINUOUS
 10
879.2903225806
 20
563.3815524194
 11
879.2903225806
 21
18.3815524194
  0
LINE
  5
506
100
AcDbEntity
  8
7_ALL_FEATURES
100
AcDbLine
 62
7
  6
CONTINUOUS
 10
881.6903225806
 20
563.3815524194
 11
881.6903225806
 21
552.4815524194
  0
LINE
  5
507
100
AcDbEntity
  8
7_ALL_FEATURES
100
AcDbLine
 62
7
  6
CONTINUOUS
 10
881.6903225806
 20
548.2815524194
 11
881.6903225806
 21
302.4815524194
  0
LINE
  5
508
100
AcDbEntity
  8
7_ALL_FEATURES
100
AcDbLine
 62
7
  6
CONTINUOUS
 10
881.6903225806
 20
298.2815524194
 11
881.6903225806
 21
52.4815524194
  0
LINE
  5
509
100
AcDbEntity
  8
7_ALL_FEATURES
100
AcDbLine
 62
7
  6
CONTINUOUS
 10
881.6903225806
 20
48.2815524194
 11
881.6903225806
 21
18.3815524194
  0
LINE
  5
50A
100
AcDbEntity
  8
7_ALL_FEATURES
100
AcDbLine
 62
7
  6
CONTINUOUS
 10
881.9903225806
 20
563.5315524194
 11
881.9903225806
 21
552.8310421621
  0
LINE
  5
50B
100
AcDbEntity
  8
7_ALL_FEATURES
100
AcDbLine
 62
7
  6
CONTINUOUS
 10
881.9903225806
 20
547.9320626766
 11
881.9903225806
 21
302.8310421621
  0
LINE
  5
50C
100
AcDbEntity
  8
7_ALL_FEATURES
100
AcDbLine
 62
7
  6
CONTINUOUS
 10
881.9903225806
 20
297.9320626766
 11
881.9903225806
 21
52.8310421621
  0
LINE
  5
50D
100
AcDbEntity
  8
7_ALL_FEATURES
100
AcDbLine
 62
7
  6
CONTINUOUS
 10
881.9903225806
 20
47.9320626766
 11
881.9903225806
 21
18.3815524194
  0
LINE
  5
50E
100
AcDbEntity
  8
7_ALL_FEATURES
100
AcDbLine
 62
7
  6
CONTINUOUS
 10
882.2903225806
 20
563.3815524194
 11
882.2903225806
 21
553.1036839371
  0
LINE
  5
50F
100
AcDbEntity
  8
7_ALL_FEATURES
100
AcDbLine
 62
7
  6
CONTINUOUS
 10
882.2903225806
 20
547.6594209016
 11
882.2903225806
 21
303.1036839371
  0
LINE
  5
510
100
AcDbEntity
  8
7_ALL_FEATURES
100
AcDbLine
 62
7
  6
CONTINUOUS
 10
882.2903225806
 20
297.6594209016
 11
882.2903225806
 21
53.1036839371
  0
LINE
  5
511
100
AcDbEntity
  8
7_ALL_FEATURES
100
AcDbLine
 62
7
  6
CONTINUOUS
 10
882.2903225806
 20
47.6594209016
 11
882.2903225806
 21
18.3815524194
  0
LINE
  5
512
100
AcDbEntity
  8
7_ALL_FEATURES
100
AcDbLine
 62
7
  6
CONTINUOUS
 10
884.6903225806
 20
563.3815524194
 11
884.6903225806
 21
553.8758334613
  0
LINE
  5
513
100
AcDbEntity
  8
7_ALL_FEATURES
100
AcDbLine
 62
7
  6
CONTINUOUS
 10
884.6903225806
 20
546.8872713774
 11
884.6903225806
 21
303.8758334613
  0
LINE
  5
514
100
AcDbEntity
  8
7_ALL_FEATURES
100
AcDbLine
 62
7
  6
CONTINUOUS
 10
884.6903225806
 20
296.8872713774
 11
884.6903225806
 21
53.8758334613
  0
LINE
  5
515
100
AcDbEntity
  8
7_ALL_FEATURES
100
AcDbLine
 62
7
  6
CONTINUOUS
 10
884.6903225806
 20
46.8872713774
 11
884.6903225806
 21
18.3815524194
  0
LINE
  5
516
100
AcDbEntity
  8
7_ALL_FEATURES
100
AcDbLine
 62
7
  6
CONTINUOUS
 10
884.9903225806
 20
563.5315524194
 11
884.9903225806
 21
553.8456540345
  0
LINE
  5
517
100
AcDbEntity
  8
7_ALL_FEATURES
100
AcDbLine
 62
7
  6
CONTINUOUS
 10
884.9903225806
 20
546.9174508042
 11
884.9903225806
 21
303.8456540345
  0
LINE
  5
518
100
AcDbEntity
  8
7_ALL_FEATURES
100
AcDbLine
 62
7
  6
CONTINUOUS
 10
884.9903225806
 20
296.9174508042
 11
884.9903225806
 21
53.8456540345
  0
LINE
  5
519
100
AcDbEntity
  8
7_ALL_FEATURES
100
AcDbLine
 62
7
  6
CONTINUOUS
 10
884.9903225806
 20
46.9174508042
 11
884.9903225806
 21
18.3815524194
  0
LINE
  5
51A
100
AcDbEntity
  8
7_ALL_FEATURES
100
AcDbLine
 62
7
  6
CONTINUOUS
 10
885.2903225806
 20
563.3815524194
 11
885.2903225806
 21
553.7888974268
  0
LINE
  5
51B
100
AcDbEntity
  8
7_ALL_FEATURES
100
AcDbLine
 62
7
  6
CONTINUOUS
 10
885.2903225806
 20
546.9742074119
 11
885.2903225806
 21
303.7888974268
  0
LINE
  5
51C
100
AcDbEntity
  8
7_ALL_FEATURES
100
AcDbLine
 62
7
  6
CONTINUOUS
 10
885.2903225806
 20
296.9742074119
 11
885.2903225806
 21
53.7888974268
  0
LINE
  5
51D
100
AcDbEntity
  8
7_ALL_FEATURES
100
AcDbLine
 62
7
  6
CONTINUOUS
 10
885.2903225806
 20
46.9742074119
 11
885.2903225806
 21
18.3815524194
  0
LINE
  5
51E
100
AcDbEntity
  8
7_ALL_FEATURES
100
AcDbLine
 62
7
  6
CONTINUOUS
 10
887.6903225806
 20
563.3815524194
 11
887.6903225806
 21
551.7992971072
  0
LINE
  5
51F
100
AcDbEntity
  8
7_ALL_FEATURES
100
AcDbLine
 62
7
  6
CONTINUOUS
 10
887.6903225806
 20
548.9638077315
 11
887.6903225806
 21
301.7992971072
  0
LINE
  5
520
100
AcDbEntity
  8
7_ALL_FEATURES
100
AcDbLine
 62
7
  6
CONTINUOUS
 10
887.6903225806
 20
298.9638077315
 11
887.6903225806
 21
51.7992971072
  0
LINE
  5
521
100
AcDbEntity
  8
7_ALL_FEATURES
100
AcDbLine
 62
7
  6
CONTINUOUS
 10
887.6903225806
 20
48.9638077315
 11
887.6903225806
 21
18.3815524194
  0
LINE
  5
522
100
AcDbEntity
  8
7_ALL_FEATURES
100
AcDbLine
 62
7
  6
CONTINUOUS
 10
887.9903225806
 20
563.5315524194
 11
887.9903225806
 21
18.3815524194
  0
LINE
  5
523
100
AcDbEntity
  8
7_ALL_FEATURES
100
AcDbLine
 62
7
  6
CONTINUOUS
 10
888.2903225806
 20
563.3815524194
 11
888.2903225806
 21
18.3815524194
  0
LINE
  5
524
100
AcDbEntity
  8
7_ALL_FEATURES
100
AcDbLine
 62
9
  6
CONTINUOUS
 10
890.0966192227
 20
563.3815524194
 11
890.0966192227
 21
18.3815524194
  0
LINE
  5
525
100
AcDbEntity
  8
7_ALL_FEATURES
100
AcDbLine
 62
7
  6
CONTINUOUS
 10
890.4903225806
 20
562.9878490614
 11
890.4903225806
 21
18.3815524194
  0
LINE
  5
526
100
AcDbEntity
  8
7_ALL_FEATURES
100
AcDbLine
 62
7
  6
CONTINUOUS
 10
867.5715723417
 20
627.3420622078
 11
863.5849385117
 21
645.3065232939
  0
LINE
  5
527
100
AcDbEntity
  8
7_ALL_FEATURES
100
AcDbLine
 62
7
  6
CONTINUOUS
 10
797.9903225806
 20
586.5815524194
 11
798.3903225806
 21
586.1815524194
  0
LINE
  5
528
100
AcDbEntity
  8
7_ALL_FEATURES
100
AcDbLine
 62
7
  6
CONTINUOUS
 10
811.3294042595
 20
651.7315524194
 11
812.3045108984
 21
650.0426181782
  0
LINE
  5
529
100
AcDbEntity
  8
7_ALL_FEATURES
100
AcDbLine
 62
7
  6
CONTINUOUS
 10
797.9903225806
 20
614.8815524194
 11
798.3903225806
 21
614.4815524194
  0
LINE
  5
52A
100
AcDbEntity
  8
7_ALL_FEATURES
100
AcDbLine
 62
7
  6
CONTINUOUS
 10
783.0903225806
 20
563.5315524194
 11
783.3903225806
 21
563.3815524194
  0
LINE
  5
52B
100
AcDbEntity
  8
7_ALL_FEATURES
100
AcDbLine
 62
7
  6
CONTINUOUS
 10
786.0903225806
 20
563.5315524194
 11
786.3903225806
 21
563.3815524194
  0
LINE
  5
52C
100
AcDbEntity
  8
7_ALL_FEATURES
100
AcDbLine
 62
7
  6
CONTINUOUS
 10
789.0903225806
 20
563.5315524194
 11
789.3903225806
 21
563.3815524194
  0
LINE
  5
52D
100
AcDbEntity
  8
7_ALL_FEATURES
100
AcDbLine
 62
7
  6
CONTINUOUS
 10
792.0903225806
 20
563.5315524194
 11
792.3903225806
 21
563.3815524194
  0
LINE
  5
52E
100
AcDbEntity
  8
7_ALL_FEATURES
100
AcDbLine
 62
7
  6
CONTINUOUS
 10
795.0903225806
 20
563.5315524194
 11
795.3903225806
 21
563.3815524194
  0
LINE
  5
52F
100
AcDbEntity
  8
7_ALL_FEATURES
100
AcDbLine
 62
7
  6
CONTINUOUS
 10
798.0903225806
 20
563.5315524194
 11
798.3903225806
 21
563.3815524194
  0
LINE
  5
530
100
AcDbEntity
  8
7_ALL_FEATURES
100
AcDbLine
 62
7
  6
CONTINUOUS
 10
857.2045108984
 20
650.0426181783
 11
856.2294042596
 21
651.7315524194
  0
LINE
  5
531
100
AcDbEntity
  8
7_ALL_FEATURES
100
AcDbLine
 62
7
  6
CONTINUOUS
 10
873.0903225806
 20
603.0815524194
 11
872.6903225806
 21
603.4815524194
  0
LINE
  5
532
100
AcDbEntity
  8
7_ALL_FEATURES
100
AcDbLine
 62
7
  6
CONTINUOUS
 10
890.0966192227
 20
563.3815524194
 11
888.2903225806
 21
563.3815524194
  0
LINE
  5
533
100
AcDbEntity
  8
7_ALL_FEATURES
100
AcDbLine
 62
7
  6
CONTINUOUS
 10
887.6903225806
 20
563.3815524194
 11
885.2903225806
 21
563.3815524194
  0
LINE
  5
534
100
AcDbEntity
  8
7_ALL_FEATURES
100
AcDbLine
 62
7
  6
CONTINUOUS
 10
884.6903225806
 20
563.3815524194
 11
882.2903225806
 21
563.3815524194
  0
LINE
  5
535
100
AcDbEntity
  8
7_ALL_FEATURES
100
AcDbLine
 62
7
  6
CONTINUOUS
 10
881.6903225806
 20
563.3815524194
 11
879.2903225806
 21
563.3815524194
  0
LINE
  5
536
100
AcDbEntity
  8
7_ALL_FEATURES
100
AcDbLine
 62
7
  6
CONTINUOUS
 10
878.6903225806
 20
563.3815524194
 11
876.2903225806
 21
563.3815524194
  0
LINE
  5
537
100
AcDbEntity
  8
7_ALL_FEATURES
100
AcDbLine
 62
7
  6
CONTINUOUS
 10
875.6903225806
 20
563.3815524194
 11
873.2903225806
 21
563.3815524194
  0
LINE
  5
538
100
AcDbEntity
  8
7_ALL_FEATURES
100
AcDbLine
 62
7
  6
CONTINUOUS
 10
872.6903225806
 20
563.3815524194
 11
871.0903225806
 21
563.3815524194
  0
LINE
  5
539
100
AcDbEntity
  8
7_ALL_FEATURES
100
AcDbLine
 62
7
  6
CONTINUOUS
 10
780.9840259386
 20
563.3815524194
 11
782.7903225806
 21
563.3815524194
  0
LINE
  5
53A
100
AcDbEntity
  8
7_ALL_FEATURES
100
AcDbLine
 62
7
  6
CONTINUOUS
 10
783.3903225806
 20
563.3815524194
 11
785.7903225806
 21
563.3815524194
  0
LINE
  5
53B
100
AcDbEntity
  8
7_ALL_FEATURES
100
AcDbLine
 62
7
  6
CONTINUOUS
 10
786.3903225806
 20
563.3815524194
 11
788.7903225806
 21
563.3815524194
  0
LINE
  5
53C
100
AcDbEntity
  8
7_ALL_FEATURES
100
AcDbLine
 62
7
  6
CONTINUOUS
 10
789.3903225806
 20
563.3815524194
 11
791.7903225806
 21
563.3815524194
  0
LINE
  5
53D
100
AcDbEntity
  8
7_ALL_FEATURES
100
AcDbLine
 62
7
  6
CONTINUOUS
 10
792.3903225806
 20
563.3815524194
 11
794.7903225806
 21
563.3815524194
  0
LINE
  5
53E
100
AcDbEntity
  8
7_ALL_FEATURES
100
AcDbLine
 62
7
  6
CONTINUOUS
 10
795.3903225806
 20
563.3815524194
 11
797.7903225806
 21
563.3815524194
  0
LINE
  5
53F
100
AcDbEntity
  8
7_ALL_FEATURES
100
AcDbLine
 62
7
  6
CONTINUOUS
 10
798.3903225806
 20
563.3815524194
 11
799.9903225806
 21
563.3815524194
  0
LINE
  5
540
100
AcDbEntity
  8
7_ALL_FEATURES
100
AcDbLine
 62
7
  6
CONTINUOUS
 10
873.2903225806
 20
563.3815524194
 11
872.9903225806
 21
563.5315524194
  0
LINE
  5
541
100
AcDbEntity
  8
7_ALL_FEATURES
100
AcDbLine
 62
7
  6
CONTINUOUS
 10
876.2903225806
 20
563.3815524194
 11
875.9903225806
 21
563.5315524194
  0
LINE
  5
542
100
AcDbEntity
  8
7_ALL_FEATURES
100
AcDbLine
 62
7
  6
CONTINUOUS
 10
879.2903225806
 20
563.3815524194
 11
878.9903225806
 21
563.5315524194
  0
LINE
  5
543
100
AcDbEntity
  8
7_ALL_FEATURES
100
AcDbLine
 62
7
  6
CONTINUOUS
 10
882.2903225806
 20
563.3815524194
 11
881.9903225806
 21
563.5315524194
  0
LINE
  5
544
100
AcDbEntity
  8
7_ALL_FEATURES
100
AcDbLine
 62
7
  6
CONTINUOUS
 10
885.2903225806
 20
563.3815524194
 11
884.9903225806
 21
563.5315524194
  0
LINE
  5
545
100
AcDbEntity
  8
7_ALL_FEATURES
100
AcDbLine
 62
7
  6
CONTINUOUS
 10
888.2903225806
 20
563.3815524194
 11
887.9903225806
 21
563.5315524194
  0
LINE
  5
546
100
AcDbEntity
  8
7_ALL_FEATURES
100
AcDbLine
 62
7
  6
CONTINUOUS
 10
873.0903225806
 20
618.8815524194
 11
872.6903225806
 21
619.2815524194
  0
LINE
  5
547
100
AcDbEntity
  8
7_ALL_FEATURES
100
AcDbLine
 62
7
  6
CONTINUOUS
 10
870.6903225806
 20
574.3815524194
 11
867.6903225806
 21
574.3815524194
  0
LINE
  5
548
100
AcDbEntity
  8
7_ALL_FEATURES
100
AcDbLine
 62
7
  6
CONTINUOUS
 10
800.3903225806
 20
574.3815524194
 11
803.3903225806
 21
574.3815524194
  0
LINE
  5
549
100
AcDbEntity
  8
3_ALL_AXES
100
AcDbLine
 62
7
  6
CONTINUOUS
 10
798.3903225806
 20
584.5315524194
 11
800.3903225806
 21
584.5315524194
  0
LINE
  5
54A
100
AcDbEntity
  8
3_ALL_AXES
100
AcDbLine
 62
7
  6
CONTINUOUS
 10
798.3903225806
 20
593.2315524194
 11
800.3903225806
 21
593.2315524194
  0
LINE
  5
54B
100
AcDbEntity
  8
3_ALL_AXES
100
AcDbLine
 62
7
  6
CONTINUOUS
 10
872.6903225806
 20
597.0315524194
 11
870.6903225806
 21
597.0315524194
  0
LINE
  5
54C
100
AcDbEntity
  8
3_ALL_AXES
100
AcDbLine
 62
7
  6
CONTINUOUS
 10
872.6903225806
 20
605.7315524194
 11
870.6903225806
 21
605.7315524194
  0
LINE
  5
54D
100
AcDbEntity
  8
3_ALL_AXES
100
AcDbLine
 62
7
  6
CONTINUOUS
 10
872.6903225806
 20
612.5315524194
 11
870.6903225806
 21
612.5315524194
  0
LINE
  5
54E
100
AcDbEntity
  8
3_ALL_AXES
100
AcDbLine
 62
7
  6
CONTINUOUS
 10
798.3903225806
 20
612.5315524194
 11
800.3903225806
 21
612.5315524194
  0
LINE
  5
54F
100
AcDbEntity
  8
3_ALL_AXES
100
AcDbLine
 62
7
  6
CONTINUOUS
 10
872.6903225806
 20
621.2315524194
 11
870.6903225806
 21
621.2315524194
  0
LINE
  5
550
100
AcDbEntity
  8
3_ALL_AXES
100
AcDbLine
 62
7
  6
CONTINUOUS
 10
798.3903225806
 20
621.2315524194
 11
800.3903225806
 21
621.2315524194
  0
LINE
  5
551
100
AcDbEntity
  8
7_ALL_FEATURES
100
AcDbLine
 62
7
  6
CONTINUOUS
 10
870.6903225806
 20
629.3815524194
 11
867.6903225806
 21
629.3815524194
  0
LINE
  5
552
100
AcDbEntity
  8
7_ALL_FEATURES
100
AcDbLine
 62
7
  6
CONTINUOUS
 10
800.3903225806
 20
629.3815524194
 11
803.3903225806
 21
629.3815524194
  0
LINE
  5
553
100
AcDbEntity
  8
7_ALL_FEATURES
100
AcDbLine
 62
7
  6
CONTINUOUS
 10
855.1324387482
 20
646.4815524194
 11
839.4403225806
 21
646.4815524194
  0
LINE
  5
554
100
AcDbEntity
  8
7_ALL_FEATURES
100
AcDbLine
 62
7
  6
CONTINUOUS
 10
815.9482064131
 20
646.4815524194
 11
831.6403225806
 21
646.4815524194
  0
LINE
  5
555
100
AcDbEntity
  8
7_ALL_FEATURES
100
AcDbLine
 62
7
  6
CONTINUOUS
 10
861.9982064131
 20
651.8815524194
 11
860.0110485229
 21
651.8815524194
  0
LINE
  5
556
100
AcDbEntity
  8
7_ALL_FEATURES
100
AcDbLine
 62
7
  6
CONTINUOUS
 10
855.9695966385
 20
651.8815524194
 11
855.4903225806
 21
651.8815524194
  0
LINE
  5
557
100
AcDbEntity
  8
7_ALL_FEATURES
100
AcDbLine
 62
7
  6
CONTINUOUS
 10
837.6403225806
 20
651.8815524194
 11
833.4403225806
 21
651.8815524194
  0
LINE
  5
558
100
AcDbEntity
  8
7_ALL_FEATURES
100
AcDbLine
 62
7
  6
CONTINUOUS
 10
809.0824387482
 20
651.8815524194
 11
811.0695966384
 21
651.8815524194
  0
LINE
  5
559
100
AcDbEntity
  8
7_ALL_FEATURES
100
AcDbLine
 62
7
  6
CONTINUOUS
 10
815.1110485228
 20
651.8815524194
 11
815.5903225806
 21
651.8815524194
  0
CIRCLE
  5
55A
100
AcDbEntity
  8
3_ALL_AXES
100
AcDbCircle
 62
7
  6
CONTINUOUS
 10
168.3392137097
 20
616.8815524194
 40
4.35
  0
CIRCLE
  5
55B
100
AcDbEntity
  8
3_ALL_AXES
100
AcDbCircle
 62
7
  6
CONTINUOUS
 10
140.3392137097
 20
601.3815524194
 40
4.35
  0
ARC
  5
55C
100
AcDbEntity
  8
0
100
AcDbCircle
 62
2
  6
CONTINUOUS
 10
168.3392137097
 20
616.8815524194
 40
2.5
100
AcDbArc
 50
255.0
 51
360.0
  0
ARC
  5
55D
100
AcDbEntity
  8
0
100
AcDbCircle
 62
2
  6
CONTINUOUS
 10
168.3392137097
 20
616.8815524194
 40
2.5
100
AcDbArc
 50
180.0
 51
195.0
  0
ARC
  5
55E
100
AcDbEntity
  8
0
100
AcDbCircle
 62
2
  6
CONTINUOUS
 10
140.3392137097
 20
601.3815524194
 40
2.5
100
AcDbArc
 50
0.0
 51
195.0
  0
CIRCLE
  5
55F
100
AcDbEntity
  8
3_ALL_AXES
100
AcDbCircle
 62
3
  6
CONTINUOUS
 10
155.8392137097
 20
616.8815524194
 40
2.5
  0
CIRCLE
  5
560
100
AcDbEntity
  8
3_ALL_AXES
100
AcDbCircle
 62
3
  6
CONTINUOUS
 10
140.3392137097
 20
588.8815524194
 40
2.5
  0
CIRCLE
  5
561
100
AcDbEntity
  8
7_ALL_FEATURES
100
AcDbCircle
 62
7
  6
CONTINUOUS
 10
140.3392137097
 20
601.0815524194
 40
2.0
  0
CIRCLE
  5
562
100
AcDbEntity
  8
7_ALL_FEATURES
100
AcDbCircle
 62
7
  6
CONTINUOUS
 10
168.6392137097
 20
616.8815524194
 40
2.0
  0
ARC
  5
563
100
AcDbEntity
  8
6_ALL_SURFS
100
AcDbCircle
 62
7
  6
CONTINUOUS
 10
133.2886201681
 20
727.2861895161
 40
2.0
100
AcDbArc
 50
250.0
 51
270.0
  0
ARC
  5
564
100
AcDbEntity
  8
6_ALL_SURFS
100
AcDbCircle
 62
7
  6
CONTINUOUS
 10
131.0546598853
 20
725.6516756869
 40
0.3
100
AcDbArc
 50
70.0
 51
160.0
  0
ARC
  5
565
100
AcDbEntity
  8
6_ALL_SURFS
100
AcDbCircle
 62
7
  6
CONTINUOUS
 10
130.4094910517
 20
725.633371525
 40
0.3
100
AcDbArc
 50
257.4878142168
 51
340.0
  0
ARC
  5
566
100
AcDbEntity
  8
6_ALL_SURFS
100
AcDbCircle
 62
7
  6
CONTINUOUS
 10
130.9619401695
 20
728.6861895161
 40
5.0
100
AcDbArc
 50
257.4878142167
 51
270.0
  0
ARC
  5
567
100
AcDbEntity
  8
6_ALL_SURFS
100
AcDbCircle
 62
7
  6
CONTINUOUS
 10
108.5892137097
 20
733.3861895161
 40
2.8
100
AcDbArc
 50
60.0
 51
90.0
  0
ARC
  5
568
100
AcDbEntity
  8
6_ALL_SURFS
100
AcDbCircle
 62
7
  6
CONTINUOUS
 10
108.5892137097
 20
733.3861895161
 40
2.8
100
AcDbArc
 50
243.9347815174
 51
300.0
  0
ARC
  5
569
100
AcDbEntity
  8
6_ALL_SURFS
100
AcDbCircle
 62
7
  6
CONTINUOUS
 10
106.8392137097
 20
753.7361895161
 40
1.5
100
AcDbArc
 50
180.0
 51
270.0
  0
ARC
  5
56A
100
AcDbEntity
  8
6_ALL_SURFS
100
AcDbCircle
 62
7
  6
CONTINUOUS
 10
112.2392137097
 20
729.2559485134
 40
1.5
100
AcDbArc
 50
180.0
 51
257.4878142167
  0
ARC
  5
56B
100
AcDbEntity
  8
6_ALL_SURFS
100
AcDbCircle
 62
7
  6
CONTINUOUS
 10
108.5392137097
 20
733.3861895161
 40
1.3
100
AcDbArc
 50
220.8069228753
 51
139.1930771278
  0
ARC
  5
56C
100
AcDbEntity
  8
6_ALL_SURFS
100
AcDbCircle
 62
7
  6
CONTINUOUS
 10
112.8392137097
 20
729.7373945294
 40
0.5
100
AcDbArc
 50
180.0
 51
257.4878142168
  0
ARC
  5
56D
100
AcDbEntity
  8
6_ALL_SURFS
100
AcDbCircle
 62
7
  6
CONTINUOUS
 10
110.2392137097
 20
736.2440733486
 40
0.5
100
AcDbArc
 50
240.0
 51
360.0
  0
ARC
  5
56E
100
AcDbEntity
  8
6_ALL_SURFS
100
AcDbCircle
 62
7
  6
CONTINUOUS
 10
110.2392137097
 20
730.5283056836
 40
0.5
100
AcDbArc
 50
0.0
 51
120.0
  0
ARC
  5
56F
100
AcDbEntity
  8
6_ALL_SURFS
100
AcDbCircle
 62
7
  6
CONTINUOUS
 10
107.1392137097
 20
730.4218177446
 40
0.5
100
AcDbArc
 50
63.9347815174
 51
180.0
  0
ARC
  5
570
100
AcDbEntity
  8
6_ALL_SURFS
100
AcDbCircle
 62
7
  6
CONTINUOUS
 10
105.6392137097
 20
735.8861895161
 40
0.3
100
AcDbArc
 50
90.0
 51
180.0
  0
ARC
  5
571
100
AcDbEntity
  8
6_ALL_SURFS
100
AcDbCircle
 62
7
  6
CONTINUOUS
 10
105.6392137097
 20
735.4069154583
 40
0.3
100
AcDbArc
 50
180.0
 51
239.9999999985
  0
ARC
  5
572
100
AcDbEntity
  8
6_ALL_SURFS
100
AcDbCircle
 62
7
  6
CONTINUOUS
 10
107.3281479507
 20
734.4318088195
 40
0.3
100
AcDbArc
 50
239.9999999985
 51
319.1930771278
  0
ARC
  5
573
100
AcDbEntity
  8
6_ALL_SURFS
100
AcDbCircle
 62
7
  6
CONTINUOUS
 10
107.3281479508
 20
732.3405702127
 40
0.3
100
AcDbArc
 50
40.8069228753
 51
120.0000000015
  0
ARC
  5
574
100
AcDbEntity
  8
6_ALL_SURFS
100
AcDbCircle
 62
7
  6
CONTINUOUS
 10
105.6392137097
 20
731.3654635739
 40
0.3
100
AcDbArc
 50
120.0000000015
 51
180.0
  0
ARC
  5
575
100
AcDbEntity
  8
6_ALL_SURFS
100
AcDbCircle
 62
7
  6
CONTINUOUS
 10
105.6392137097
 20
729.3783056836
 40
0.3
100
AcDbArc
 50
180.0
 51
270.0
  0
ARC
  5
576
100
AcDbEntity
  8
6_ALL_SURFS
100
AcDbCircle
 62
7
  6
CONTINUOUS
 10
106.3392137097
 20
729.3783056836
 40
0.3
100
AcDbArc
 50
270.0
 51
360.0
  0
ARC
  5
577
100
AcDbEntity
  8
6_ALL_SURFS
100
AcDbCircle
 62
7
  6
CONTINUOUS
 10
112.0392137097
 20
753.8361895161
 40
0.3
100
AcDbArc
 50
0.0
 51
90.0
  0
ARC
  5
578
100
AcDbEntity
  8
6_ALL_SURFS
100
AcDbCircle
 62
7
  6
CONTINUOUS
 10
107.2392137097
 20
754.4361895161
 40
0.3
100
AcDbArc
 50
180.0
 51
270.0
  0
ARC
  5
579
100
AcDbEntity
  8
6_ALL_SURFS
100
AcDbCircle
 62
7
  6
CONTINUOUS
 10
110.4392137097
 20
751.9361895161
 40
0.3
100
AcDbArc
 50
0.0
 51
90.0
  0
ARC
  5
57A
100
AcDbEntity
  8
6_ALL_SURFS
100
AcDbCircle
 62
7
  6
CONTINUOUS
 10
182.3372877795
 20
722.4361895161
 40
2.15
100
AcDbArc
 50
226.1313356567
 51
313.8686643433
  0
ARC
  5
57B
100
AcDbEntity
  8
3_ALL_AXES
100
AcDbCircle
 62
7
  6
CONTINUOUS
 10
179.5192137097
 20
722.7861895161
 40
1.8
100
AcDbArc
 50
90.0
 51
147.1401196211
  0
ARC
  5
57C
100
AcDbEntity
  8
6_ALL_SURFS
100
AcDbCircle
 62
7
  6
CONTINUOUS
 10
167.9392137097
 20
722.2861895161
 40
1.5
100
AcDbArc
 50
180.0
 51
270.0
  0
ARC
  5
57D
100
AcDbEntity
  8
6_ALL_SURFS
100
AcDbCircle
 62
7
  6
CONTINUOUS
 10
170.7392137097
 20
722.2861895161
 40
1.5
100
AcDbArc
 50
270.0
 51
360.0
  0
ARC
  5
57E
100
AcDbEntity
  8
6_ALL_SURFS
100
AcDbCircle
 62
7
  6
CONTINUOUS
 10
177.3392137097
 20
722.3861895161
 40
1.5
100
AcDbArc
 50
227.0
 51
270.0
  0
ARC
  5
57F
100
AcDbEntity
  8
6_ALL_SURFS
100
AcDbCircle
 62
7
  6
CONTINUOUS
 10
169.3392137097
 20
723.6861895161
 40
1.3
100
AcDbArc
 50
130.8069228749
 51
49.1930771251
  0
ARC
  5
580
100
AcDbEntity
  8
3_ALL_AXES
100
AcDbCircle
 62
7
  6
CONTINUOUS
 10
179.5192137097
 20
722.7861895161
 40
1.0
100
AcDbArc
 50
90.0
 51
147.1401196211
  0
ARC
  5
581
100
AcDbEntity
  8
3_ALL_AXES
100
AcDbCircle
 62
7
  6
CONTINUOUS
 10
177.8392137097
 20
723.8713623134
 40
1.0
100
AcDbArc
 50
227.0
 51
327.1401196211
  0
ARC
  5
582
100
AcDbEntity
  8
6_ALL_SURFS
100
AcDbCircle
 62
7
  6
CONTINUOUS
 10
182.3372877795
 20
722.4361895161
 40
0.65
100
AcDbArc
 50
201.6182724221
 51
338.3817275778
  0
ARC
  5
583
100
AcDbEntity
  8
3_ALL_AXES
100
AcDbCircle
 62
7
  6
CONTINUOUS
 10
177.0392137097
 20
723.7969779057
 40
0.4
100
AcDbArc
 50
47.0
 51
227.0
  0
ARC
  5
584
100
AcDbEntity
  8
6_ALL_SURFS
100
AcDbCircle
 62
7
  6
CONTINUOUS
 10
183.2204638662
 20
722.0861895161
 40
0.3
100
AcDbArc
 50
90.0
 51
158.3817275778
  0
ARC
  5
585
100
AcDbEntity
  8
6_ALL_SURFS
100
AcDbCircle
 62
7
  6
CONTINUOUS
 10
181.4541116929
 20
722.0861895161
 40
0.3
100
AcDbArc
 50
21.6182724222
 51
90.0
  0
ARC
  5
586
100
AcDbEntity
  8
6_ALL_SURFS
100
AcDbCircle
 62
7
  6
CONTINUOUS
 10
175.5392137097
 20
724.9861895161
 40
0.3
100
AcDbArc
 50
0.0
 51
90.0
  0
ARC
  5
587
100
AcDbEntity
  8
6_ALL_SURFS
100
AcDbCircle
 62
7
  6
CONTINUOUS
 10
174.3634777784
 20
724.9861895161
 40
0.3
100
AcDbArc
 50
90.0
 51
135.0
  0
ARC
  5
588
100
AcDbEntity
  8
6_ALL_SURFS
100
AcDbCircle
 62
7
  6
CONTINUOUS
 10
171.714949641
 20
724.9861895161
 40
0.3
100
AcDbArc
 50
45.0
 51
90.0
  0
ARC
  5
589
100
AcDbEntity
  8
6_ALL_SURFS
100
AcDbCircle
 62
7
  6
CONTINUOUS
 10
170.4361792211
 20
724.9861895161
 40
0.3
100
AcDbArc
 50
90.0
 51
150.0
  0
ARC
  5
58A
100
AcDbEntity
  8
6_ALL_SURFS
100
AcDbCircle
 62
7
  6
CONTINUOUS
 10
170.3848330131
 20
724.897255275
 40
0.3
100
AcDbArc
 50
150.0
 51
229.1930771251
  0
ARC
  5
58B
100
AcDbEntity
  8
6_ALL_SURFS
100
AcDbCircle
 62
7
  6
CONTINUOUS
 10
168.2935944063
 20
724.897255275
 40
0.3
100
AcDbArc
 50
310.8069228749
 51
30.0
  0
ARC
  5
58C
100
AcDbEntity
  8
6_ALL_SURFS
100
AcDbCircle
 62
7
  6
CONTINUOUS
 10
168.2422481982
 20
724.9861895161
 40
0.3
100
AcDbArc
 50
30.0
 51
90.0
  0
ARC
  5
58D
100
AcDbEntity
  8
6_ALL_SURFS
100
AcDbCircle
 62
7
  6
CONTINUOUS
 10
173.9492530785
 20
723.0861895161
 40
0.3
100
AcDbArc
 50
47.0
 51
90.0
  0
ARC
  5
58E
100
AcDbEntity
  8
6_ALL_SURFS
100
AcDbCircle
 62
7
  6
CONTINUOUS
 10
172.5392137097
 20
723.0861895161
 40
0.3
100
AcDbArc
 50
90.0
 51
180.0
  0
ARC
  5
58F
100
AcDbEntity
  8
6_ALL_SURFS
100
AcDbCircle
 62
7
  6
CONTINUOUS
 10
178.5392137097
 20
722.6861895161
 40
0.3
100
AcDbArc
 50
270.0
 51
360.0
  0
ARC
  5
590
100
AcDbEntity
  8
6_ALL_SURFS
100
AcDbCircle
 62
7
  6
CONTINUOUS
 10
177.4573868524
 20
722.6861895161
 40
0.3
100
AcDbArc
 50
227.0
 51
270.0
  0
ARC
  5
591
100
AcDbEntity
  8
6_ALL_SURFS
100
AcDbCircle
 62
7
  6
CONTINUOUS
 10
176.1392137097
 20
723.9154058578
 40
0.3
100
AcDbArc
 50
180.0
 51
227.0
  0
ARC
  5
592
100
AcDbEntity
  8
6_ALL_SURFS
100
AcDbCircle
 62
7
  6
CONTINUOUS
 10
173.814949641
 20
725.2861895161
 40
0.3
100
AcDbArc
 50
270.0
 51
315.0
  0
ARC
  5
593
100
AcDbEntity
  8
6_ALL_SURFS
100
AcDbCircle
 62
7
  6
CONTINUOUS
 10
172.2634777784
 20
725.2861895161
 40
0.3
100
AcDbArc
 50
225.0
 51
270.0
  0
ARC
  5
594
100
AcDbEntity
  8
6_ALL_SURFS
100
AcDbCircle
 62
7
  6
CONTINUOUS
 10
166.1392137097
 20
723.3861895161
 40
0.3
100
AcDbArc
 50
0.0
 51
90.0
  0
ARC
  5
595
100
AcDbEntity
  8
6_ALL_SURFS
100
AcDbCircle
 62
7
  6
CONTINUOUS
 10
180.7910499873
 20
722.6861895161
 40
0.3
100
AcDbArc
 50
232.5
 51
270.0
  0
ARC
  5
596
100
AcDbEntity
  8
7_ALL_FEATURES
100
AcDbCircle
 62
7
  6
CONTINUOUS
 10
180.5392137097
 20
722.7361895161
 40
0.2
100
AcDbArc
 50
180.0
 51
270.0
  0
ARC
  5
597
100
AcDbEntity
  8
3_ALL_AXES
100
AcDbCircle
 62
7
  6
CONTINUOUS
 10
177.8392137097
 20
723.8713623134
 40
0.2
100
AcDbArc
 50
227.0
 51
327.1401196211
  0
ARC
  5
598
100
AcDbEntity
  8
7_ALL_FEATURES
100
AcDbCircle
 62
7
  6
CONTINUOUS
 10
181.1392137097
 20
722.7361895161
 40
0.2
100
AcDbArc
 50
270.0
 51
360.0
  0
ARC
  5
599
100
AcDbEntity
  8
7_ALL_FEATURES
100
AcDbCircle
 62
7
  6
CONTINUOUS
 10
179.6392137097
 20
724.7861895161
 40
0.2
100
AcDbArc
 50
270.0
 51
360.0
  0
ARC
  5
59A
100
AcDbEntity
  8
7_ALL_FEATURES
100
AcDbCircle
 62
7
  6
CONTINUOUS
 10
180.1392137097
 20
723.5861895161
 40
0.2
100
AcDbArc
 50
0.0
 51
90.0
  0
ARC
  5
59B
100
AcDbEntity
  8
6_ALL_SURFS
100
AcDbCircle
 62
7
  6
CONTINUOUS
 10
179.0392137097
 20
723.4001845635
 40
0.2
100
AcDbArc
 50
52.5
 51
180.0
  0
ARC
  5
59C
100
AcDbEntity
  8
7_ALL_FEATURES
100
AcDbCircle
 62
7
  6
CONTINUOUS
 10
206.8392137097
 20
706.8861895161
 40
4.7990381057
100
AcDbArc
 50
189.5960093944
 51
226.828815981
  0
ARC
  5
59D
100
AcDbEntity
  8
7_ALL_FEATURES
100
AcDbCircle
 62
7
  6
CONTINUOUS
 10
206.8392137097
 20
706.8861895161
 40
4.7990381057
100
AcDbArc
 50
313.171184019
 51
350.4039906056
  0
ARC
  5
59E
100
AcDbEntity
  8
7_ALL_FEATURES
100
AcDbCircle
 62
7
  6
CONTINUOUS
 10
206.8392137097
 20
706.8861895161
 40
4.7990381057
100
AcDbArc
 50
152.7144649101
 51
182.3884943821
  0
ARC
  5
59F
100
AcDbEntity
  8
7_ALL_FEATURES
100
AcDbCircle
 62
7
  6
CONTINUOUS
 10
206.8392137097
 20
706.8861895161
 40
4.7990381057
100
AcDbArc
 50
357.6115056179
 51
27.2855350899
  0
ARC
  5
5A0
100
AcDbEntity
  8
7_ALL_FEATURES
100
AcDbCircle
 62
7
  6
CONTINUOUS
 10
206.8392137097
 20
706.8861895161
 40
4.7990381057
100
AcDbArc
 50
35.6935828234
 51
144.3064171766
  0
CIRCLE
  5
5A1
100
AcDbEntity
  8
6_ALL_SURFS
100
AcDbCircle
 62
7
  6
CONTINUOUS
 10
206.8392137097
 20
706.8861895161
 40
3.5
  0
ARC
  5
5A2
100
AcDbEntity
  8
6_ALL_SURFS
100
AcDbCircle
 62
7
  6
CONTINUOUS
 10
195.2392137097
 20
706.3861895161
 40
0.5
100
AcDbArc
 50
143.1301023541
 51
216.8698976458
  0
ARC
  5
5A3
100
AcDbEntity
  8
6_ALL_SURFS
100
AcDbCircle
 62
7
  6
CONTINUOUS
 10
195.2392137097
 20
709.3861895161
 40
0.5
100
AcDbArc
 50
143.1301023541
 51
216.8698976458
  0
ARC
  5
5A4
100
AcDbEntity
  8
6_ALL_SURFS
100
AcDbCircle
 62
7
  6
CONTINUOUS
 10
195.2392137097
 20
712.3861895161
 40
0.5
100
AcDbArc
 50
143.1301023541
 51
216.8698976458
  0
ARC
  5
5A5
100
AcDbEntity
  8
6_ALL_SURFS
100
AcDbCircle
 62
7
  6
CONTINUOUS
 10
194.2329170676
 20
701.279892874
 40
0.3937033579
100
AcDbArc
 50
180.0
 51
354.2894068625
  0
ARC
  5
5A6
100
AcDbEntity
  8
6_ALL_SURFS
100
AcDbCircle
 62
7
  6
CONTINUOUS
 10
195.2392137097
 20
715.3861895161
 40
0.5
100
AcDbArc
 50
143.1301023541
 51
216.8698976458
  0
ARC
  5
5A7
100
AcDbEntity
  8
6_ALL_SURFS
100
AcDbCircle
 62
7
  6
CONTINUOUS
 10
195.2392137097
 20
718.3861895161
 40
0.5
100
AcDbArc
 50
143.1301023541
 51
216.8698976458
  0
ARC
  5
5A8
100
AcDbEntity
  8
6_ALL_SURFS
100
AcDbCircle
 62
7
  6
CONTINUOUS
 10
196.0392137097
 20
721.4361895161
 40
0.3
100
AcDbArc
 50
270.0
 51
360.0
  0
ARC
  5
5A9
100
AcDbEntity
  8
6_ALL_SURFS
100
AcDbCircle
 62
7
  6
CONTINUOUS
 10
196.0392137097
 20
722.0861895161
 40
0.3
100
AcDbArc
 50
0.0
 51
90.0
  0
ARC
  5
5AA
100
AcDbEntity
  8
6_ALL_SURFS
100
AcDbCircle
 62
7
  6
CONTINUOUS
 10
195.1392137097
 20
720.8361895161
 40
0.3
100
AcDbArc
 50
90.0
 51
180.0
  0
ARC
  5
5AB
100
AcDbEntity
  8
6_ALL_SURFS
100
AcDbCircle
 62
7
  6
CONTINUOUS
 10
193.5392137097
 20
720.5861895161
 40
0.3
100
AcDbArc
 50
0.0
 51
90.0
  0
ARC
  5
5AC
100
AcDbEntity
  8
7_ALL_FEATURES
100
AcDbCircle
 62
7
  6
CONTINUOUS
 10
108.4392137097
 20
755.8361895161
 40
8.0
100
AcDbArc
 50
330.0
 51
345.5224878141
  0
ARC
  5
5AD
100
AcDbEntity
  8
7_ALL_FEATURES
100
AcDbCircle
 62
7
  6
CONTINUOUS
 10
108.4392137097
 20
755.8361895161
 40
8.0
100
AcDbArc
 50
14.4775121859
 51
30.0
  0
ARC
  5
5AE
100
AcDbEntity
  8
7_ALL_FEATURES
100
AcDbCircle
 62
7
  6
CONTINUOUS
 10
108.4392137097
 20
755.8361895161
 40
7.9843597113
100
AcDbArc
 50
345.4935070353
 51
356.4096498625
  0
ARC
  5
5AF
100
AcDbEntity
  8
7_ALL_FEATURES
100
AcDbCircle
 62
7
  6
CONTINUOUS
 10
108.4392137097
 20
755.8361895161
 40
7.9843597113
100
AcDbArc
 50
3.5903501375
 51
14.5064929647
  0
ARC
  5
5B0
100
AcDbEntity
  8
7_ALL_FEATURES
100
AcDbCircle
 62
7
  6
CONTINUOUS
 10
108.4392137097
 20
755.8361895161
 40
7.7459666924
100
AcDbArc
 50
356.2990001561
 51
3.7009998439
  0
ARC
  5
5B1
100
AcDbEntity
  8
7_ALL_FEATURES
100
AcDbCircle
 62
7
  6
CONTINUOUS
 10
130.9619401695
 20
782.9861895161
 40
5.0
100
AcDbArc
 50
90.0
 51
102.5121857833
  0
ARC
  5
5B2
100
AcDbEntity
  8
7_ALL_FEATURES
100
AcDbCircle
 62
7
  6
CONTINUOUS
 10
108.5892137097
 20
778.2861895161
 40
2.8
100
AcDbArc
 50
60.0
 51
116.0652184826
  0
ARC
  5
5B3
100
AcDbEntity
  8
7_ALL_FEATURES
100
AcDbCircle
 62
7
  6
CONTINUOUS
 10
108.5892137097
 20
778.2861895161
 40
2.8
100
AcDbArc
 50
270.0
 51
300.0
  0
ARC
  5
5B4
100
AcDbEntity
  8
7_ALL_FEATURES
100
AcDbCircle
 62
7
  6
CONTINUOUS
 10
112.2392137097
 20
782.4164305189
 40
1.5
100
AcDbArc
 50
102.5121857833
 51
180.0
  0
ARC
  5
5B5
100
AcDbEntity
  8
7_ALL_FEATURES
100
AcDbCircle
 62
7
  6
CONTINUOUS
 10
106.8392137097
 20
757.9361895161
 40
1.5
100
AcDbArc
 50
90.0
 51
180.0
  0
ARC
  5
5B6
100
AcDbEntity
  8
7_ALL_FEATURES
100
AcDbCircle
 62
7
  6
CONTINUOUS
 10
108.5392137097
 20
778.2861895161
 40
1.3
100
AcDbArc
 50
220.8069228722
 51
139.1930771247
  0
ARC
  5
5B7
100
AcDbEntity
  8
7_ALL_FEATURES
100
AcDbCircle
 62
7
  6
CONTINUOUS
 10
107.1392137097
 20
781.2505612877
 40
0.5
100
AcDbArc
 50
180.0
 51
296.0652184826
  0
ARC
  5
5B8
100
AcDbEntity
  8
7_ALL_FEATURES
100
AcDbCircle
 62
7
  6
CONTINUOUS
 10
110.2392137097
 20
781.1440733486
 40
0.5
100
AcDbArc
 50
240.0
 51
360.0
  0
ARC
  5
5B9
100
AcDbEntity
  8
7_ALL_FEATURES
100
AcDbCircle
 62
7
  6
CONTINUOUS
 10
110.2392137097
 20
775.4283056836
 40
0.5
100
AcDbArc
 50
0.0
 51
120.0
  0
ARC
  5
5BA
100
AcDbEntity
  8
7_ALL_FEATURES
100
AcDbCircle
 62
7
  6
CONTINUOUS
 10
112.8392137097
 20
781.9349845028
 40
0.5
100
AcDbArc
 50
102.5121857832
 51
180.0
  0
ARC
  5
5BB
100
AcDbEntity
  8
7_ALL_FEATURES
100
AcDbCircle
 62
7
  6
CONTINUOUS
 10
110.4392137097
 20
759.7361895161
 40
0.3
100
AcDbArc
 50
270.0
 51
360.0
  0
ARC
  5
5BC
100
AcDbEntity
  8
7_ALL_FEATURES
100
AcDbCircle
 62
7
  6
CONTINUOUS
 10
107.2392137097
 20
757.2361895161
 40
0.3
100
AcDbArc
 50
90.0
 51
180.0
  0
ARC
  5
5BD
100
AcDbEntity
  8
7_ALL_FEATURES
100
AcDbCircle
 62
7
  6
CONTINUOUS
 10
112.0392137097
 20
757.8361895161
 40
0.3
100
AcDbArc
 50
270.0
 51
360.0
  0
ARC
  5
5BE
100
AcDbEntity
  8
7_ALL_FEATURES
100
AcDbCircle
 62
7
  6
CONTINUOUS
 10
106.3392137097
 20
782.2940733486
 40
0.3
100
AcDbArc
 50
0.0
 51
90.0
  0
ARC
  5
5BF
100
AcDbEntity
  8
7_ALL_FEATURES
100
AcDbCircle
 62
7
  6
CONTINUOUS
 10
105.6392137097
 20
782.2940733486
 40
0.3
100
AcDbArc
 50
90.0
 51
180.0
  0
ARC
  5
5C0
100
AcDbEntity
  8
7_ALL_FEATURES
100
AcDbCircle
 62
7
  6
CONTINUOUS
 10
105.6392137097
 20
780.3069154584
 40
0.3
100
AcDbArc
 50
180.0
 51
239.9999999985
  0
ARC
  5
5C1
100
AcDbEntity
  8
7_ALL_FEATURES
100
AcDbCircle
 62
7
  6
CONTINUOUS
 10
107.3281479508
 20
779.3318088195
 40
0.3
100
AcDbArc
 50
239.9999999985
 51
319.1930771247
  0
ARC
  5
5C2
100
AcDbEntity
  8
7_ALL_FEATURES
100
AcDbCircle
 62
7
  6
CONTINUOUS
 10
107.3281479507
 20
777.2405702128
 40
0.3
100
AcDbArc
 50
40.8069228721
 51
120.0000000015
  0
ARC
  5
5C3
100
AcDbEntity
  8
7_ALL_FEATURES
100
AcDbCircle
 62
7
  6
CONTINUOUS
 10
105.6392137097
 20
776.265463574
 40
0.3
100
AcDbArc
 50
120.0000000014
 51
180.0
  0
ARC
  5
5C4
100
AcDbEntity
  8
7_ALL_FEATURES
100
AcDbCircle
 62
7
  6
CONTINUOUS
 10
105.6392137097
 20
775.7861895161
 40
0.3
100
AcDbArc
 50
180.0
 51
270.0
  0
ARC
  5
5C5
100
AcDbEntity
  8
7_ALL_FEATURES
100
AcDbCircle
 62
7
  6
CONTINUOUS
 10
133.2886201681
 20
784.3861895161
 40
2.0
100
AcDbArc
 50
90.0
 51
110.0
  0
ARC
  5
5C6
100
AcDbEntity
  8
7_ALL_FEATURES
100
AcDbCircle
 62
7
  6
CONTINUOUS
 10
130.4094910517
 20
786.0390075073
 40
0.3
100
AcDbArc
 50
20.0
 51
102.5121857832
  0
ARC
  5
5C7
100
AcDbEntity
  8
7_ALL_FEATURES
100
AcDbCircle
 62
7
  6
CONTINUOUS
 10
131.0546598853
 20
786.0207033454
 40
0.3
100
AcDbArc
 50
200.0
 51
290.0
  0
ARC
  5
5C8
100
AcDbEntity
  8
7_ALL_FEATURES
100
AcDbCircle
 62
7
  6
CONTINUOUS
 10
182.3372877795
 20
789.2361895161
 40
2.15
100
AcDbArc
 50
46.1313356567
 51
133.8686643433
  0
ARC
  5
5C9
100
AcDbEntity
  8
3_ALL_AXES
100
AcDbCircle
 62
7
  6
CONTINUOUS
 10
179.5192137097
 20
788.8861895161
 40
1.8
100
AcDbArc
 50
212.8598803789
 51
270.0
  0
ARC
  5
5CA
100
AcDbEntity
  8
7_ALL_FEATURES
100
AcDbCircle
 62
7
  6
CONTINUOUS
 10
177.3392137097
 20
789.2861895161
 40
1.5
100
AcDbArc
 50
90.0
 51
133.0
  0
ARC
  5
5CB
100
AcDbEntity
  8
7_ALL_FEATURES
100
AcDbCircle
 62
7
  6
CONTINUOUS
 10
170.7392137097
 20
789.3861895161
 40
1.5
100
AcDbArc
 50
0.0
 51
90.0
  0
ARC
  5
5CC
100
AcDbEntity
  8
7_ALL_FEATURES
100
AcDbCircle
 62
7
  6
CONTINUOUS
 10
167.9392137097
 20
789.3861895161
 40
1.5
100
AcDbArc
 50
90.0
 51
180.0
  0
ARC
  5
5CD
100
AcDbEntity
  8
7_ALL_FEATURES
100
AcDbCircle
 62
7
  6
CONTINUOUS
 10
169.3392137097
 20
787.9861895161
 40
1.3
100
AcDbArc
 50
310.8069228749
 51
229.1930771251
  0
ARC
  5
5CE
100
AcDbEntity
  8
3_ALL_AXES
100
AcDbCircle
 62
7
  6
CONTINUOUS
 10
177.8392137097
 20
787.8010167188
 40
1.0
100
AcDbArc
 50
32.8598803789
 51
133.0
  0
ARC
  5
5CF
100
AcDbEntity
  8
3_ALL_AXES
100
AcDbCircle
 62
7
  6
CONTINUOUS
 10
179.5192137097
 20
788.8861895161
 40
1.0
100
AcDbArc
 50
212.8598803789
 51
270.0
  0
ARC
  5
5D0
100
AcDbEntity
  8
7_ALL_FEATURES
100
AcDbCircle
 62
7
  6
CONTINUOUS
 10
182.3372877795
 20
789.2361895161
 40
0.65
100
AcDbArc
 50
21.6182724222
 51
158.3817275779
  0
ARC
  5
5D1
100
AcDbEntity
  8
3_ALL_AXES
100
AcDbCircle
 62
7
  6
CONTINUOUS
 10
177.0392137097
 20
787.8754011266
 40
0.4
100
AcDbArc
 50
133.0
 51
313.0
  0
ARC
  5
5D2
100
AcDbEntity
  8
7_ALL_FEATURES
100
AcDbCircle
 62
7
  6
CONTINUOUS
 10
180.7910499873
 20
788.9861895161
 40
0.3
100
AcDbArc
 50
90.0
 51
127.5
  0
ARC
  5
5D3
100
AcDbEntity
  8
7_ALL_FEATURES
100
AcDbCircle
 62
7
  6
CONTINUOUS
 10
166.1392137097
 20
788.2861895161
 40
0.3
100
AcDbArc
 50
270.0
 51
360.0
  0
ARC
  5
5D4
100
AcDbEntity
  8
7_ALL_FEATURES
100
AcDbCircle
 62
7
  6
CONTINUOUS
 10
172.2634777784
 20
786.3861895161
 40
0.3
100
AcDbArc
 50
90.0
 51
135.0
  0
ARC
  5
5D5
100
AcDbEntity
  8
7_ALL_FEATURES
100
AcDbCircle
 62
7
  6
CONTINUOUS
 10
173.814949641
 20
786.3861895161
 40
0.3
100
AcDbArc
 50
45.0
 51
90.0
  0
ARC
  5
5D6
100
AcDbEntity
  8
7_ALL_FEATURES
100
AcDbCircle
 62
7
  6
CONTINUOUS
 10
176.1392137097
 20
787.7569731744
 40
0.3
100
AcDbArc
 50
133.0
 51
180.0
  0
ARC
  5
5D7
100
AcDbEntity
  8
7_ALL_FEATURES
100
AcDbCircle
 62
7
  6
CONTINUOUS
 10
177.4573868524
 20
788.9861895161
 40
0.3
100
AcDbArc
 50
90.0
 51
133.0
  0
ARC
  5
5D8
100
AcDbEntity
  8
7_ALL_FEATURES
100
AcDbCircle
 62
7
  6
CONTINUOUS
 10
178.5392137097
 20
788.9861895161
 40
0.3
100
AcDbArc
 50
0.0
 51
90.0
  0
ARC
  5
5D9
100
AcDbEntity
  8
7_ALL_FEATURES
100
AcDbCircle
 62
7
  6
CONTINUOUS
 10
172.5392137097
 20
788.5861895161
 40
0.3
100
AcDbArc
 50
180.0
 51
270.0
  0
ARC
  5
5DA
100
AcDbEntity
  8
7_ALL_FEATURES
100
AcDbCircle
 62
7
  6
CONTINUOUS
 10
173.9492530785
 20
788.5861895161
 40
0.3
100
AcDbArc
 50
270.0
 51
313.0
  0
ARC
  5
5DB
100
AcDbEntity
  8
7_ALL_FEATURES
100
AcDbCircle
 62
7
  6
CONTINUOUS
 10
168.2422481982
 20
786.6861895161
 40
0.3
100
AcDbArc
 50
270.0
 51
330.0
  0
ARC
  5
5DC
100
AcDbEntity
  8
7_ALL_FEATURES
100
AcDbCircle
 62
7
  6
CONTINUOUS
 10
168.2935944063
 20
786.7751237572
 40
0.3
100
AcDbArc
 50
330.0
 51
49.1930771251
  0
ARC
  5
5DD
100
AcDbEntity
  8
7_ALL_FEATURES
100
AcDbCircle
 62
7
  6
CONTINUOUS
 10
170.3848330131
 20
786.7751237572
 40
0.3
100
AcDbArc
 50
130.8069228749
 51
210.0
  0
ARC
  5
5DE
100
AcDbEntity
  8
7_ALL_FEATURES
100
AcDbCircle
 62
7
  6
CONTINUOUS
 10
170.4361792211
 20
786.6861895161
 40
0.3
100
AcDbArc
 50
210.0
 51
270.0
  0
ARC
  5
5DF
100
AcDbEntity
  8
7_ALL_FEATURES
100
AcDbCircle
 62
7
  6
CONTINUOUS
 10
171.714949641
 20
786.6861895161
 40
0.3
100
AcDbArc
 50
270.0
 51
315.0
  0
ARC
  5
5E0
100
AcDbEntity
  8
7_ALL_FEATURES
100
AcDbCircle
 62
7
  6
CONTINUOUS
 10
174.3634777784
 20
786.6861895161
 40
0.3
100
AcDbArc
 50
225.0
 51
270.0
  0
ARC
  5
5E1
100
AcDbEntity
  8
7_ALL_FEATURES
100
AcDbCircle
 62
7
  6
CONTINUOUS
 10
175.5392137097
 20
786.6861895161
 40
0.3
100
AcDbArc
 50
270.0
 51
360.0
  0
ARC
  5
5E2
100
AcDbEntity
  8
7_ALL_FEATURES
100
AcDbCircle
 62
7
  6
CONTINUOUS
 10
181.4541116929
 20
789.5861895161
 40
0.3
100
AcDbArc
 50
270.0
 51
338.3817275778
  0
ARC
  5
5E3
100
AcDbEntity
  8
7_ALL_FEATURES
100
AcDbCircle
 62
7
  6
CONTINUOUS
 10
183.2204638662
 20
789.5861895161
 40
0.3
100
AcDbArc
 50
201.6182724222
 51
270.0
  0
ARC
  5
5E4
100
AcDbEntity
  8
3_ALL_AXES
100
AcDbCircle
 62
7
  6
CONTINUOUS
 10
177.8392137097
 20
787.8010167188
 40
0.2
100
AcDbArc
 50
32.8598803789
 51
133.0
  0
ARC
  5
5E5
100
AcDbEntity
  8
7_ALL_FEATURES
100
AcDbCircle
 62
7
  6
CONTINUOUS
 10
180.5392137097
 20
788.9361895161
 40
0.2
100
AcDbArc
 50
90.0
 51
180.0
  0
ARC
  5
5E6
100
AcDbEntity
  8
7_ALL_FEATURES
100
AcDbCircle
 62
7
  6
CONTINUOUS
 10
181.1392137097
 20
788.9361895161
 40
0.2
100
AcDbArc
 50
0.0
 51
90.0
  0
ARC
  5
5E7
100
AcDbEntity
  8
7_ALL_FEATURES
100
AcDbCircle
 62
7
  6
CONTINUOUS
 10
179.6392137097
 20
786.8861895161
 40
0.2
100
AcDbArc
 50
0.0
 51
90.0
  0
ARC
  5
5E8
100
AcDbEntity
  8
7_ALL_FEATURES
100
AcDbCircle
 62
7
  6
CONTINUOUS
 10
180.1392137097
 20
788.0861895161
 40
0.2
100
AcDbArc
 50
270.0
 51
360.0
  0
ARC
  5
5E9
100
AcDbEntity
  8
7_ALL_FEATURES
100
AcDbCircle
 62
7
  6
CONTINUOUS
 10
179.0392137097
 20
788.2721944688
 40
0.2
100
AcDbArc
 50
180.0
 51
307.5
  0
ARC
  5
5EA
100
AcDbEntity
  8
6_ALL_SURFS
100
AcDbCircle
 62
7
  6
CONTINUOUS
 10
195.2392137097
 20
793.2861895161
 40
0.5
100
AcDbArc
 50
143.1301023541
 51
216.8698976458
  0
ARC
  5
5EB
100
AcDbEntity
  8
6_ALL_SURFS
100
AcDbCircle
 62
7
  6
CONTINUOUS
 10
195.2392137097
 20
796.2861895161
 40
0.5
100
AcDbArc
 50
143.1301023541
 51
216.8698976458
  0
ARC
  5
5EC
100
AcDbEntity
  8
7_ALL_FEATURES
100
AcDbCircle
 62
7
  6
CONTINUOUS
 10
193.5392137097
 20
791.0861895161
 40
0.3
100
AcDbArc
 50
270.0
 51
360.0
  0
ARC
  5
5ED
100
AcDbEntity
  8
7_ALL_FEATURES
100
AcDbCircle
 62
7
  6
CONTINUOUS
 10
195.1392137097
 20
790.8361895161
 40
0.3
100
AcDbArc
 50
180.0
 51
270.0
  0
ARC
  5
5EE
100
AcDbEntity
  8
7_ALL_FEATURES
100
AcDbCircle
 62
7
  6
CONTINUOUS
 10
196.0392137097
 20
789.5861895161
 40
0.3
100
AcDbArc
 50
270.0
 51
360.0
  0
ARC
  5
5EF
100
AcDbEntity
  8
7_ALL_FEATURES
100
AcDbCircle
 62
7
  6
CONTINUOUS
 10
196.0392137097
 20
790.2361895161
 40
0.3
100
AcDbArc
 50
0.0
 51
90.0
  0
ARC
  5
5F0
100
AcDbEntity
  8
6_ALL_SURFS
100
AcDbCircle
 62
7
  6
CONTINUOUS
 10
206.8392137097
 20
804.7861895161
 40
4.7990381057
100
AcDbArc
 50
332.7144649101
 51
2.3884943821
  0
ARC
  5
5F1
100
AcDbEntity
  8
6_ALL_SURFS
100
AcDbCircle
 62
7
  6
CONTINUOUS
 10
206.8392137097
 20
804.7861895161
 40
4.7990381057
100
AcDbArc
 50
177.6115056179
 51
207.2855350899
  0
ARC
  5
5F2
100
AcDbEntity
  8
6_ALL_SURFS
100
AcDbCircle
 62
7
  6
CONTINUOUS
 10
206.8392137097
 20
804.7861895161
 40
4.7990381057
100
AcDbArc
 50
9.5960093944
 51
46.828815981
  0
ARC
  5
5F3
100
AcDbEntity
  8
6_ALL_SURFS
100
AcDbCircle
 62
7
  6
CONTINUOUS
 10
206.8392137097
 20
804.7861895161
 40
4.7990381057
100
AcDbArc
 50
133.171184019
 51
170.4039906056
  0
ARC
  5
5F4
100
AcDbEntity
  8
6_ALL_SURFS
100
AcDbCircle
 62
7
  6
CONTINUOUS
 10
206.8392137097
 20
804.7861895161
 40
4.7990381057
100
AcDbArc
 50
215.6935828234
 51
324.3064171766
  0
CIRCLE
  5
5F5
100
AcDbEntity
  8
6_ALL_SURFS
100
AcDbCircle
 62
7
  6
CONTINUOUS
 10
206.8392137097
 20
804.7861895161
 40
3.5
  0
ARC
  5
5F6
100
AcDbEntity
  8
6_ALL_SURFS
100
AcDbCircle
 62
7
  6
CONTINUOUS
 10
195.2392137097
 20
799.2861895161
 40
0.5
100
AcDbArc
 50
143.1301023541
 51
216.8698976458
  0
ARC
  5
5F7
100
AcDbEntity
  8
6_ALL_SURFS
100
AcDbCircle
 62
7
  6
CONTINUOUS
 10
195.2392137097
 20
802.2861895161
 40
0.5
100
AcDbArc
 50
143.1301023541
 51
216.8698976458
  0
ARC
  5
5F8
100
AcDbEntity
  8
6_ALL_SURFS
100
AcDbCircle
 62
7
  6
CONTINUOUS
 10
195.2392137097
 20
805.2861895161
 40
0.5
100
AcDbArc
 50
143.1301023541
 51
216.8698976458
  0
ARC
  5
5F9
100
AcDbEntity
  8
7_ALL_FEATURES
100
AcDbCircle
 62
7
  6
CONTINUOUS
 10
194.2329170676
 20
810.3924861582
 40
0.3937033579
100
AcDbArc
 50
5.7105931375
 51
180.0
  0
ARC
  5
5FA
100
AcDbEntity
  8
7_ALL_FEATURES
100
AcDbCircle
 62
7
  6
CONTINUOUS
 10
456.8392137097
 20
706.8861895161
 40
4.7990381057
100
AcDbArc
 50
189.5960093944
 51
226.828815981
  0
ARC
  5
5FB
100
AcDbEntity
  8
7_ALL_FEATURES
100
AcDbCircle
 62
7
  6
CONTINUOUS
 10
706.8392137097
 20
706.8861895161
 40
4.7990381057
100
AcDbArc
 50
189.5960093944
 51
226.828815981
  0
ARC
  5
5FC
100
AcDbEntity
  8
7_ALL_FEATURES
100
AcDbCircle
 62
7
  6
CONTINUOUS
 10
456.8392137097
 20
706.8861895161
 40
4.7990381057
100
AcDbArc
 50
313.171184019
 51
350.4039906056
  0
ARC
  5
5FD
100
AcDbEntity
  8
7_ALL_FEATURES
100
AcDbCircle
 62
7
  6
CONTINUOUS
 10
706.8392137097
 20
706.8861895161
 40
4.7990381057
100
AcDbArc
 50
313.171184019
 51
350.4039906056
  0
ARC
  5
5FE
100
AcDbEntity
  8
7_ALL_FEATURES
100
AcDbCircle
 62
7
  6
CONTINUOUS
 10
456.8392137097
 20
706.8861895161
 40
4.7990381057
100
AcDbArc
 50
152.7144649101
 51
182.3884943821
  0
ARC
  5
5FF
100
AcDbEntity
  8
7_ALL_FEATURES
100
AcDbCircle
 62
7
  6
CONTINUOUS
 10
706.8392137097
 20
706.8861895161
 40
4.7990381057
100
AcDbArc
 50
152.7144649101
 51
182.3884943821
  0
ARC
  5
600
100
AcDbEntity
  8
7_ALL_FEATURES
100
AcDbCircle
 62
7
  6
CONTINUOUS
 10
456.8392137097
 20
706.8861895161
 40
4.7990381057
100
AcDbArc
 50
357.6115056179
 51
27.2855350899
  0
ARC
  5
601
100
AcDbEntity
  8
7_ALL_FEATURES
100
AcDbCircle
 62
7
  6
CONTINUOUS
 10
706.8392137097
 20
706.8861895161
 40
4.7990381057
100
AcDbArc
 50
357.6115056179
 51
27.2855350899
  0
ARC
  5
602
100
AcDbEntity
  8
7_ALL_FEATURES
100
AcDbCircle
 62
7
  6
CONTINUOUS
 10
456.8392137097
 20
706.8861895161
 40
4.7990381057
100
AcDbArc
 50
35.6935828234
 51
144.3064171766
  0
ARC
  5
603
100
AcDbEntity
  8
7_ALL_FEATURES
100
AcDbCircle
 62
7
  6
CONTINUOUS
 10
706.8392137097
 20
706.8861895161
 40
4.7990381057
100
AcDbArc
 50
35.6935828234
 51
144.3064171766
  0
CIRCLE
  5
604
100
AcDbEntity
  8
6_ALL_SURFS
100
AcDbCircle
 62
7
  6
CONTINUOUS
 10
456.8392137097
 20
706.8861895161
 40
3.5
  0
CIRCLE
  5
605
100
AcDbEntity
  8
6_ALL_SURFS
100
AcDbCircle
 62
7
  6
CONTINUOUS
 10
706.8392137097
 20
706.8861895161
 40
3.5
  0
ARC
  5
606
100
AcDbEntity
  8
6_ALL_SURFS
100
AcDbCircle
 62
7
  6
CONTINUOUS
 10
706.8392137097
 20
804.7861895161
 40
4.7990381057
100
AcDbArc
 50
332.7144649101
 51
2.3884943821
  0
ARC
  5
607
100
AcDbEntity
  8
6_ALL_SURFS
100
AcDbCircle
 62
7
  6
CONTINUOUS
 10
456.8392137097
 20
804.7861895161
 40
4.7990381057
100
AcDbArc
 50
332.7144649101
 51
2.3884943821
  0
ARC
  5
608
100
AcDbEntity
  8
6_ALL_SURFS
100
AcDbCircle
 62
7
  6
CONTINUOUS
 10
706.8392137097
 20
804.7861895161
 40
4.7990381057
100
AcDbArc
 50
177.6115056179
 51
207.2855350899
  0
ARC
  5
609
100
AcDbEntity
  8
6_ALL_SURFS
100
AcDbCircle
 62
7
  6
CONTINUOUS
 10
456.8392137097
 20
804.7861895161
 40
4.7990381057
100
AcDbArc
 50
177.6115056179
 51
207.2855350899
  0
ARC
  5
60A
100
AcDbEntity
  8
6_ALL_SURFS
100
AcDbCircle
 62
7
  6
CONTINUOUS
 10
706.8392137097
 20
804.7861895161
 40
4.7990381057
100
AcDbArc
 50
9.5960093944
 51
46.828815981
  0
ARC
  5
60B
100
AcDbEntity
  8
6_ALL_SURFS
100
AcDbCircle
 62
7
  6
CONTINUOUS
 10
456.8392137097
 20
804.7861895161
 40
4.7990381057
100
AcDbArc
 50
9.5960093944
 51
46.828815981
  0
ARC
  5
60C
100
AcDbEntity
  8
6_ALL_SURFS
100
AcDbCircle
 62
7
  6
CONTINUOUS
 10
706.8392137097
 20
804.7861895161
 40
4.7990381057
100
AcDbArc
 50
133.171184019
 51
170.4039906056
  0
ARC
  5
60D
100
AcDbEntity
  8
6_ALL_SURFS
100
AcDbCircle
 62
7
  6
CONTINUOUS
 10
456.8392137097
 20
804.7861895161
 40
4.7990381057
100
AcDbArc
 50
133.171184019
 51
170.4039906056
  0
ARC
  5
60E
100
AcDbEntity
  8
6_ALL_SURFS
100
AcDbCircle
 62
7
  6
CONTINUOUS
 10
456.8392137097
 20
804.7861895161
 40
4.7990381057
100
AcDbArc
 50
215.6935828234
 51
324.3064171766
  0
ARC
  5
60F
100
AcDbEntity
  8
6_ALL_SURFS
100
AcDbCircle
 62
7
  6
CONTINUOUS
 10
706.8392137097
 20
804.7861895161
 40
4.7990381057
100
AcDbArc
 50
215.6935828234
 51
324.3064171766
  0
CIRCLE
  5
610
100
AcDbEntity
  8
6_ALL_SURFS
100
AcDbCircle
 62
7
  6
CONTINUOUS
 10
706.8392137097
 20
804.7861895161
 40
3.5
  0
CIRCLE
  5
611
100
AcDbEntity
  8
6_ALL_SURFS
100
AcDbCircle
 62
7
  6
CONTINUOUS
 10
456.8392137097
 20
804.7861895161
 40
3.5
  0
CIRCLE
  5
612
100
AcDbEntity
  8
6_ALL_SURFS
100
AcDbCircle
 62
7
  6
CONTINUOUS
 10
786.5903225806
 20
50.3815524194
 40
3.5
  0
CIRCLE
  5
613
100
AcDbEntity
  8
6_ALL_SURFS
100
AcDbCircle
 62
7
  6
CONTINUOUS
 10
786.5903225806
 20
300.3815524194
 40
3.5
  0
ARC
  5
614
100
AcDbEntity
  8
7_ALL_FEATURES
100
AcDbCircle
 62
7
  6
CONTINUOUS
 10
808.3903225806
 20
626.2588259595
 40
5.0
100
AcDbArc
 50
167.4878142167
 51
180.0
  0
CIRCLE
  5
615
100
AcDbEntity
  8
6_ALL_SURFS
100
AcDbCircle
 62
7
  6
CONTINUOUS
 10
786.5903225806
 20
550.3815524194
 40
3.5
  0
ARC
  5
616
100
AcDbEntity
  8
7_ALL_FEATURES
100
AcDbCircle
 62
7
  6
CONTINUOUS
 10
802.1403225806
 20
574.8834783495
 40
2.15
100
AcDbArc
 50
144.5681267208
 51
180.0
  0
ARC
  5
617
100
AcDbEntity
  8
7_ALL_FEATURES
100
AcDbCircle
 62
7
  6
CONTINUOUS
 10
833.4403225806
 20
650.3815524194
 40
1.5
100
AcDbArc
 50
90.0
 51
180.0
  0
ARC
  5
618
100
AcDbEntity
  8
7_ALL_FEATURES
100
AcDbCircle
 62
7
  6
CONTINUOUS
 10
808.9600815779
 20
644.9815524194
 40
1.5
100
AcDbArc
 50
96.801350545
 51
167.4878142167
  0
ARC
  5
619
100
AcDbEntity
  8
7_ALL_FEATURES
100
AcDbCircle
 62
7
  6
CONTINUOUS
 10
813.0903225806
 20
648.6815524194
 40
1.3
100
AcDbArc
 50
234.9794498455
 51
305.020550151
  0
ARC
  5
61A
100
AcDbEntity
  8
7_ALL_FEATURES
100
AcDbCircle
 62
7
  6
CONTINUOUS
 10
815.9482064131
 20
646.9815524194
 40
0.5
100
AcDbArc
 50
263.3510905391
 51
270.0
  0
ARC
  5
61B
100
AcDbEntity
  8
7_ALL_FEATURES
100
AcDbCircle
 62
7
  6
CONTINUOUS
 10
780.9840259386
 20
562.9878490614
 40
0.3937033579
100
AcDbArc
 50
90.0
 51
169.5799589353
  0
ARC
  5
61C
100
AcDbEntity
  8
7_ALL_FEATURES
100
AcDbCircle
 62
7
  6
CONTINUOUS
 10
831.6403225806
 20
646.7815524194
 40
0.3
100
AcDbArc
 50
270.0
 51
360.0
  0
ARC
  5
61D
100
AcDbEntity
  8
7_ALL_FEATURES
100
AcDbCircle
 62
7
  6
CONTINUOUS
 10
815.5903225806
 20
651.5815524194
 40
0.3
100
AcDbArc
 50
0.0
 51
90.0
  0
ARC
  5
61E
100
AcDbEntity
  8
7_ALL_FEATURES
100
AcDbCircle
 62
7
  6
CONTINUOUS
 10
815.1110485228
 20
651.5815524194
 40
0.3
100
AcDbArc
 50
90.0
 51
149.9999999986
  0
ARC
  5
61F
100
AcDbEntity
  8
7_ALL_FEATURES
100
AcDbCircle
 62
7
  6
CONTINUOUS
 10
814.135941884
 20
649.8926181783
 40
0.3
100
AcDbArc
 50
149.9999999986
 51
173.1856242952
  0
ARC
  5
620
100
AcDbEntity
  8
7_ALL_FEATURES
100
AcDbCircle
 62
7
  6
CONTINUOUS
 10
812.0447032772
 20
649.8926181782
 40
0.3
100
AcDbArc
 50
6.814375706
 51
30.0000000015
  0
ARC
  5
621
100
AcDbEntity
  8
7_ALL_FEATURES
100
AcDbCircle
 62
7
  6
CONTINUOUS
 10
811.0695966384
 20
651.5815524194
 40
0.3
100
AcDbArc
 50
30.0000000015
 51
90.0
  0
ARC
  5
622
100
AcDbEntity
  8
7_ALL_FEATURES
100
AcDbCircle
 62
7
  6
CONTINUOUS
 10
809.0824387482
 20
651.5815524194
 40
0.3
100
AcDbArc
 50
90.0
 51
180.0
  0
CIRCLE
  5
623
100
AcDbEntity
  8
7_ALL_FEATURES
100
AcDbCircle
 62
7
  6
CONTINUOUS
 10
884.4903225806
 20
300.3815524194
 40
3.5
  0
CIRCLE
  5
624
100
AcDbEntity
  8
7_ALL_FEATURES
100
AcDbCircle
 62
7
  6
CONTINUOUS
 10
884.4903225806
 20
50.3815524194
 40
3.5
  0
ARC
  5
625
100
AcDbEntity
  8
7_ALL_FEATURES
100
AcDbCircle
 62
7
  6
CONTINUOUS
 10
862.6903225806
 20
626.2588259595
 40
5.0
100
AcDbArc
 50
0.0
 51
12.5121857833
  0
CIRCLE
  5
626
100
AcDbEntity
  8
7_ALL_FEATURES
100
AcDbCircle
 62
7
  6
CONTINUOUS
 10
884.4903225806
 20
550.3815524194
 40
3.5
  0
ARC
  5
627
100
AcDbEntity
  8
7_ALL_FEATURES
100
AcDbCircle
 62
7
  6
CONTINUOUS
 10
868.9403225806
 20
574.8834783495
 40
2.15
100
AcDbArc
 50
0.0
 51
35.4318732792
  0
ARC
  5
628
100
AcDbEntity
  8
7_ALL_FEATURES
100
AcDbCircle
 62
7
  6
CONTINUOUS
 10
862.1205635834
 20
644.9815524194
 40
1.5
100
AcDbArc
 50
12.5121857833
 51
83.198649455
  0
ARC
  5
629
100
AcDbEntity
  8
7_ALL_FEATURES
100
AcDbCircle
 62
7
  6
CONTINUOUS
 10
837.6403225806
 20
650.3815524194
 40
1.5
100
AcDbArc
 50
0.0
 51
90.0
  0
ARC
  5
62A
100
AcDbEntity
  8
7_ALL_FEATURES
100
AcDbCircle
 62
7
  6
CONTINUOUS
 10
857.9903225806
 20
648.6815524194
 40
1.3
100
AcDbArc
 50
234.979449849
 51
305.0205501545
  0
ARC
  5
62B
100
AcDbEntity
  8
7_ALL_FEATURES
100
AcDbCircle
 62
7
  6
CONTINUOUS
 10
855.1324387482
 20
646.9815524194
 40
0.5
100
AcDbArc
 50
270.0
 51
276.6489094608
  0
ARC
  5
62C
100
AcDbEntity
  8
7_ALL_FEATURES
100
AcDbCircle
 62
7
  6
CONTINUOUS
 10
890.0966192227
 20
562.9878490614
 40
0.3937033579
100
AcDbArc
 50
10.4200410647
 51
90.0
  0
ARC
  5
62D
100
AcDbEntity
  8
7_ALL_FEATURES
100
AcDbCircle
 62
7
  6
CONTINUOUS
 10
861.9982064131
 20
651.5815524194
 40
0.3
100
AcDbArc
 50
0.0
 51
90.0
  0
ARC
  5
62E
100
AcDbEntity
  8
7_ALL_FEATURES
100
AcDbCircle
 62
7
  6
CONTINUOUS
 10
860.0110485229
 20
651.5815524194
 40
0.3
100
AcDbArc
 50
90.0
 51
149.9999999985
  0
ARC
  5
62F
100
AcDbEntity
  8
7_ALL_FEATURES
100
AcDbCircle
 62
7
  6
CONTINUOUS
 10
859.0359418841
 20
649.8926181782
 40
0.3
100
AcDbArc
 50
149.9999999985
 51
161.3802029681
  0
ARC
  5
630
100
AcDbEntity
  8
7_ALL_FEATURES
100
AcDbCircle
 62
7
  6
CONTINUOUS
 10
856.9447032773
 20
649.8926181783
 40
0.3
100
AcDbArc
 50
343.0212186758
 51
30.0000000014
  0
ARC
  5
631
100
AcDbEntity
  8
7_ALL_FEATURES
100
AcDbCircle
 62
7
  6
CONTINUOUS
 10
855.9695966385
 20
651.5815524194
 40
0.3
100
AcDbArc
 50
30.0000000015
 51
90.0
  0
ARC
  5
632
100
AcDbEntity
  8
7_ALL_FEATURES
100
AcDbCircle
 62
7
  6
CONTINUOUS
 10
855.4903225806
 20
651.5815524194
 40
0.3
100
AcDbArc
 50
90.0
 51
180.0
  0
ARC
  5
633
100
AcDbEntity
  8
7_ALL_FEATURES
100
AcDbCircle
 62
7
  6
CONTINUOUS
 10
839.4403225806
 20
646.7815524194
 40
0.3
100
AcDbArc
 50
180.0
 51
270.0
  0
SPLINE
  5
634
100
AcDbEntity
  8
6_ALL_SURFS
100
AcDbSpline
 62
7
  6
CONTINUOUS
 70
0
 71
3
 72
13
 73
9
 74
0
 42
0.0000001
 43
0.0000001
 44
0.0000000001
 40
0.0
 40
0.0
 40
0.0
 40
0.0
 40
0.1147640369
 40
0.2361274265
 40
0.36446135
 40
0.494481193
 40
0.7503397308
 40
1.0
 40
1.0
 40
1.0
 40
1.0
 10
710.7367471271
 20
801.9861895161
 30
0.0
 10
710.7163573664
 20
802.0093306598
 30
0.0
 10
710.6814940815
 20
802.0649618163
 30
0.0
 10
710.6746439226
 20
802.1667040109
 30
0.0
 10
710.7126240371
 20
802.2637529479
 30
0.0
 10
710.7948305818
 20
802.3757905797
 30
0.0
 10
710.9269654754
 20
802.4869811342
 30
0.0
 10
711.0444022765
 20
802.5559113095
 30
0.0
 10
711.1042772191
 20
802.5861895161
 30
0.0
  0
SPLINE
  5
635
100
AcDbEntity
  8
6_ALL_SURFS
100
AcDbSpline
 62
7
  6
CONTINUOUS
 70
0
 71
3
 72
13
 73
9
 74
0
 42
0.0000001
 43
0.0000001
 44
0.0000000001
 40
0.0
 40
0.0
 40
0.0
 40
0.0
 40
0.1147640369
 40
0.2361274265
 40
0.36446135
 40
0.494481193
 40
0.7503397308
 40
1.0
 40
1.0
 40
1.0
 40
1.0
 10
460.7367471271
 20
801.9861895161
 30
0.0
 10
460.7163573664
 20
802.0093306598
 30
0.0
 10
460.6814940815
 20
802.0649618163
 30
0.0
 10
460.6746439226
 20
802.1667040109
 30
0.0
 10
460.7126240371
 20
802.2637529479
 30
0.0
 10
460.7948305818
 20
802.3757905797
 30
0.0
 10
460.9269654754
 20
802.4869811342
 30
0.0
 10
461.0444022765
 20
802.5559113095
 30
0.0
 10
461.1042772191
 20
802.5861895161
 30
0.0
  0
SPLINE
  5
636
100
AcDbEntity
  8
6_ALL_SURFS
100
AcDbSpline
 62
7
  6
CONTINUOUS
 70
0
 71
3
 72
13
 73
9
 74
0
 42
0.0000001
 43
0.0000001
 44
0.0000000001
 40
0.0
 40
0.0
 40
0.0
 40
0.0
 40
0.2496601731
 40
0.505517787
 40
0.6355355974
 40
0.7638678992
 40
0.8852338713
 40
1.0
 40
1.0
 40
1.0
 40
1.0
 10
702.5741502002
 20
802.5861895161
 30
0.0
 10
702.634025129
 20
802.5559113165
 30
0.0
 10
702.7514616752
 20
802.486981237
 30
0.0
 10
702.8835960738
 20
802.3757912926
 30
0.0
 10
702.9658019793
 20
802.2637548031
 30
0.0
 10
703.0037834224
 20
802.166706821
 30
0.0
 10
702.9969343431
 20
802.0649634648
 30
0.0
 10
702.9620704277
 20
802.0093310851
 30
0.0
 10
702.9416802923
 20
801.9861895161
 30
0.0
  0
SPLINE
  5
637
100
AcDbEntity
  8
6_ALL_SURFS
100
AcDbSpline
 62
7
  6
CONTINUOUS
 70
0
 71
3
 72
13
 73
9
 74
0
 42
0.0000001
 43
0.0000001
 44
0.0000000001
 40
0.0
 40
0.0
 40
0.0
 40
0.0
 40
0.1147640369
 40
0.2361274265
 40
0.36446135
 40
0.494481193
 40
0.7503397308
 40
1.0
 40
1.0
 40
1.0
 40
1.0
 10
210.7367471271
 20
801.9861895161
 30
0.0
 10
210.7163573664
 20
802.0093306598
 30
0.0
 10
210.6814940815
 20
802.0649618163
 30
0.0
 10
210.6746439226
 20
802.1667040109
 30
0.0
 10
210.7126240371
 20
802.2637529479
 30
0.0
 10
210.7948305818
 20
802.3757905797
 30
0.0
 10
210.9269654754
 20
802.4869811342
 30
0.0
 10
211.0444022765
 20
802.5559113095
 30
0.0
 10
211.1042772191
 20
802.5861895161
 30
0.0
  0
SPLINE
  5
638
100
AcDbEntity
  8
6_ALL_SURFS
100
AcDbSpline
 62
7
  6
CONTINUOUS
 70
0
 71
3
 72
13
 73
9
 74
0
 42
0.0000001
 43
0.0000001
 44
0.0000000001
 40
0.0
 40
0.0
 40
0.0
 40
0.0
 40
0.2496601731
 40
0.505517787
 40
0.6355355974
 40
0.7638678992
 40
0.8852338713
 40
1.0
 40
1.0
 40
1.0
 40
1.0
 10
452.5741502002
 20
802.5861895161
 30
0.0
 10
452.634025129
 20
802.5559113165
 30
0.0
 10
452.7514616752
 20
802.486981237
 30
0.0
 10
452.8835960738
 20
802.3757912926
 30
0.0
 10
452.9658019793
 20
802.2637548031
 30
0.0
 10
453.0037834224
 20
802.166706821
 30
0.0
 10
452.9969343431
 20
802.0649634648
 30
0.0
 10
452.9620704277
 20
802.0093310851
 30
0.0
 10
452.9416802923
 20
801.9861895161
 30
0.0
  0
SPLINE
  5
639
100
AcDbEntity
  8
6_ALL_SURFS
100
AcDbSpline
 62
7
  6
CONTINUOUS
 70
0
 71
3
 72
13
 73
9
 74
0
 42
0.0000001
 43
0.0000001
 44
0.0000000001
 40
0.0
 40
0.0
 40
0.0
 40
0.0
 40
0.2496601731
 40
0.505517787
 40
0.6355355974
 40
0.7638678992
 40
0.8852338713
 40
1.0
 40
1.0
 40
1.0
 40
1.0
 10
202.5741502002
 20
802.5861895161
 30
0.0
 10
202.634025129
 20
802.5559113165
 30
0.0
 10
202.7514616752
 20
802.486981237
 30
0.0
 10
202.8835960738
 20
802.3757912926
 30
0.0
 10
202.9658019793
 20
802.2637548031
 30
0.0
 10
203.0037834224
 20
802.166706821
 30
0.0
 10
202.9969343431
 20
802.0649634648
 30
0.0
 10
202.9620704277
 20
802.0093310851
 30
0.0
 10
202.9416802923
 20
801.9861895161
 30
0.0
  0
SPLINE
  5
63A
100
AcDbEntity
  8
6_ALL_SURFS
100
AcDbSpline
 62
7
  6
CONTINUOUS
 70
0
 71
3
 72
12
 73
8
 74
0
 42
0.0000001
 43
0.0000001
 44
0.0000000001
 40
0.0
 40
0.0
 40
0.0
 40
0.0
 40
0.2446057941
 40
0.5006098113
 40
0.6314145567
 40
0.7589415737
 40
1.0
 40
1.0
 40
1.0
 40
1.0
 10
711.6340825024
 20
804.9861895161
 30
0.0
 10
711.5879129478
 20
805.0205961633
 30
0.0
 10
711.5008898061
 20
805.1023239679
 30
0.0
 10
711.4349300108
 20
805.2428737562
 30
0.0
 10
711.4350171454
 20
805.365942707
 30
0.0
 10
711.4707923326
 20
805.4795219712
 30
0.0
 10
711.528307583
 20
805.5489253637
 30
0.0
 10
711.5711019945
 20
805.5861895161
 30
0.0
  0
SPLINE
  5
63B
100
AcDbEntity
  8
6_ALL_SURFS
100
AcDbSpline
 62
7
  6
CONTINUOUS
 70
0
 71
3
 72
12
 73
8
 74
0
 42
0.0000001
 43
0.0000001
 44
0.0000000001
 40
0.0
 40
0.0
 40
0.0
 40
0.0
 40
0.2446057941
 40
0.5006098113
 40
0.6314145567
 40
0.7589415737
 40
1.0
 40
1.0
 40
1.0
 40
1.0
 10
461.6340825024
 20
804.9861895161
 30
0.0
 10
461.5879129478
 20
805.0205961633
 30
0.0
 10
461.5008898061
 20
805.1023239679
 30
0.0
 10
461.4349300108
 20
805.2428737562
 30
0.0
 10
461.4350171454
 20
805.365942707
 30
0.0
 10
461.4707923326
 20
805.4795219712
 30
0.0
 10
461.528307583
 20
805.5489253637
 30
0.0
 10
461.5711019945
 20
805.5861895161
 30
0.0
  0
SPLINE
  5
63C
100
AcDbEntity
  8
6_ALL_SURFS
100
AcDbSpline
 62
7
  6
CONTINUOUS
 70
0
 71
3
 72
12
 73
8
 74
0
 42
0.0000001
 43
0.0000001
 44
0.0000000001
 40
0.0
 40
0.0
 40
0.0
 40
0.0
 40
0.2410584028
 40
0.3685854259
 40
0.4993902002
 40
0.7553942381
 40
1.0
 40
1.0
 40
1.0
 40
1.0
 10
702.1073254249
 20
805.5861895161
 30
0.0
 10
702.1501198322
 20
805.5489253673
 30
0.0
 10
702.2076350805
 20
805.4795219798
 30
0.0
 10
702.2434102739
 20
805.3659427145
 30
0.0
 10
702.2434974089
 20
805.2428737496
 30
0.0
 10
702.1775376067
 20
805.1023239589
 30
0.0
 10
702.0905144655
 20
805.0205961588
 30
0.0
 10
702.0443449169
 20
804.9861895161
 30
0.0
  0
SPLINE
  5
63D
100
AcDbEntity
  8
6_ALL_SURFS
100
AcDbSpline
 62
7
  6
CONTINUOUS
 70
0
 71
3
 72
12
 73
8
 74
0
 42
0.0000001
 43
0.0000001
 44
0.0000000001
 40
0.0
 40
0.0
 40
0.0
 40
0.0
 40
0.2446057941
 40
0.5006098113
 40
0.6314145567
 40
0.7589415737
 40
1.0
 40
1.0
 40
1.0
 40
1.0
 10
211.6340825024
 20
804.9861895161
 30
0.0
 10
211.5879129478
 20
805.0205961633
 30
0.0
 10
211.5008898061
 20
805.1023239679
 30
0.0
 10
211.4349300108
 20
805.2428737562
 30
0.0
 10
211.4350171454
 20
805.365942707
 30
0.0
 10
211.4707923326
 20
805.4795219712
 30
0.0
 10
211.528307583
 20
805.5489253637
 30
0.0
 10
211.5711019945
 20
805.5861895161
 30
0.0
  0
SPLINE
  5
63E
100
AcDbEntity
  8
6_ALL_SURFS
100
AcDbSpline
 62
7
  6
CONTINUOUS
 70
0
 71
3
 72
12
 73
8
 74
0
 42
0.0000001
 43
0.0000001
 44
0.0000000001
 40
0.0
 40
0.0
 40
0.0
 40
0.0
 40
0.2410584028
 40
0.3685854259
 40
0.4993902002
 40
0.7553942381
 40
1.0
 40
1.0
 40
1.0
 40
1.0
 10
452.1073254249
 20
805.5861895161
 30
0.0
 10
452.1501198322
 20
805.5489253673
 30
0.0
 10
452.2076350805
 20
805.4795219798
 30
0.0
 10
452.2434102739
 20
805.3659427145
 30
0.0
 10
452.2434974089
 20
805.2428737496
 30
0.0
 10
452.1775376067
 20
805.1023239589
 30
0.0
 10
452.0905144655
 20
805.0205961588
 30
0.0
 10
452.0443449169
 20
804.9861895161
 30
0.0
  0
SPLINE
  5
63F
100
AcDbEntity
  8
6_ALL_SURFS
100
AcDbSpline
 62
7
  6
CONTINUOUS
 70
0
 71
3
 72
12
 73
8
 74
0
 42
0.0000001
 43
0.0000001
 44
0.0000000001
 40
0.0
 40
0.0
 40
0.0
 40
0.0
 40
0.2410584028
 40
0.3685854259
 40
0.4993902002
 40
0.7553942381
 40
1.0
 40
1.0
 40
1.0
 40
1.0
 10
202.1073254249
 20
805.5861895161
 30
0.0
 10
202.1501198322
 20
805.5489253673
 30
0.0
 10
202.2076350805
 20
805.4795219798
 30
0.0
 10
202.2434102739
 20
805.3659427145
 30
0.0
 10
202.2434974089
 20
805.2428737496
 30
0.0
 10
202.1775376067
 20
805.1023239589
 30
0.0
 10
202.0905144655
 20
805.0205961588
 30
0.0
 10
202.0443449169
 20
804.9861895161
 30
0.0
  0
SPLINE
  5
640
100
AcDbEntity
  8
7_ALL_FEATURES
100
AcDbSpline
 62
7
  6
CONTINUOUS
 70
0
 71
3
 72
12
 73
8
 74
0
 42
0.0000001
 43
0.0000001
 44
0.0000000001
 40
0.0
 40
0.0
 40
0.0
 40
0.0
 40
0.2410584028
 40
0.3685854259
 40
0.4993902002
 40
0.7553942381
 40
1.0
 40
1.0
 40
1.0
 40
1.0
 10
202.1073254249
 20
706.0861895161
 30
0.0
 10
202.1501198322
 20
706.1234536649
 30
0.0
 10
202.2076350805
 20
706.1928570525
 30
0.0
 10
202.2434102739
 20
706.3064363177
 30
0.0
 10
202.2434974089
 20
706.4295052827
 30
0.0
 10
202.1775376067
 20
706.5700550734
 30
0.0
 10
202.0905144655
 20
706.6517828735
 30
0.0
 10
202.0443449169
 20
706.6861895161
 30
0.0
  0
SPLINE
  5
641
100
AcDbEntity
  8
7_ALL_FEATURES
100
AcDbSpline
 62
7
  6
CONTINUOUS
 70
0
 71
3
 72
12
 73
8
 74
0
 42
0.0000001
 43
0.0000001
 44
0.0000000001
 40
0.0
 40
0.0
 40
0.0
 40
0.0
 40
0.2410584028
 40
0.3685854259
 40
0.4993902002
 40
0.7553942381
 40
1.0
 40
1.0
 40
1.0
 40
1.0
 10
452.1073254249
 20
706.0861895161
 30
0.0
 10
452.1501198322
 20
706.1234536649
 30
0.0
 10
452.2076350805
 20
706.1928570525
 30
0.0
 10
452.2434102739
 20
706.3064363177
 30
0.0
 10
452.2434974089
 20
706.4295052827
 30
0.0
 10
452.1775376067
 20
706.5700550734
 30
0.0
 10
452.0905144655
 20
706.6517828735
 30
0.0
 10
452.0443449169
 20
706.6861895161
 30
0.0
  0
SPLINE
  5
642
100
AcDbEntity
  8
7_ALL_FEATURES
100
AcDbSpline
 62
7
  6
CONTINUOUS
 70
0
 71
3
 72
12
 73
8
 74
0
 42
0.0000001
 43
0.0000001
 44
0.0000000001
 40
0.0
 40
0.0
 40
0.0
 40
0.0
 40
0.2446057941
 40
0.5006098113
 40
0.6314145567
 40
0.7589415737
 40
1.0
 40
1.0
 40
1.0
 40
1.0
 10
211.6340825024
 20
706.6861895161
 30
0.0
 10
211.5879129478
 20
706.651782869
 30
0.0
 10
211.5008898061
 20
706.5700550644
 30
0.0
 10
211.4349300108
 20
706.429505276
 30
0.0
 10
211.4350171454
 20
706.3064363252
 30
0.0
 10
211.4707923326
 20
706.192857061
 30
0.0
 10
211.528307583
 20
706.1234536686
 30
0.0
 10
211.5711019945
 20
706.0861895161
 30
0.0
  0
SPLINE
  5
643
100
AcDbEntity
  8
7_ALL_FEATURES
100
AcDbSpline
 62
7
  6
CONTINUOUS
 70
0
 71
3
 72
12
 73
8
 74
0
 42
0.0000001
 43
0.0000001
 44
0.0000000001
 40
0.0
 40
0.0
 40
0.0
 40
0.0
 40
0.2410584028
 40
0.3685854259
 40
0.4993902002
 40
0.7553942381
 40
1.0
 40
1.0
 40
1.0
 40
1.0
 10
702.1073254249
 20
706.0861895161
 30
0.0
 10
702.1501198322
 20
706.1234536649
 30
0.0
 10
702.2076350805
 20
706.1928570525
 30
0.0
 10
702.2434102739
 20
706.3064363177
 30
0.0
 10
702.2434974089
 20
706.4295052827
 30
0.0
 10
702.1775376067
 20
706.5700550734
 30
0.0
 10
702.0905144655
 20
706.6517828735
 30
0.0
 10
702.0443449169
 20
706.6861895161
 30
0.0
  0
SPLINE
  5
644
100
AcDbEntity
  8
7_ALL_FEATURES
100
AcDbSpline
 62
7
  6
CONTINUOUS
 70
0
 71
3
 72
12
 73
8
 74
0
 42
0.0000001
 43
0.0000001
 44
0.0000000001
 40
0.0
 40
0.0
 40
0.0
 40
0.0
 40
0.2446057941
 40
0.5006098113
 40
0.6314145567
 40
0.7589415737
 40
1.0
 40
1.0
 40
1.0
 40
1.0
 10
461.6340825024
 20
706.6861895161
 30
0.0
 10
461.5879129478
 20
706.651782869
 30
0.0
 10
461.5008898061
 20
706.5700550644
 30
0.0
 10
461.4349300108
 20
706.429505276
 30
0.0
 10
461.4350171454
 20
706.3064363252
 30
0.0
 10
461.4707923326
 20
706.192857061
 30
0.0
 10
461.528307583
 20
706.1234536686
 30
0.0
 10
461.5711019945
 20
706.0861895161
 30
0.0
  0
SPLINE
  5
645
100
AcDbEntity
  8
7_ALL_FEATURES
100
AcDbSpline
 62
7
  6
CONTINUOUS
 70
0
 71
3
 72
12
 73
8
 74
0
 42
0.0000001
 43
0.0000001
 44
0.0000000001
 40
0.0
 40
0.0
 40
0.0
 40
0.0
 40
0.2446057941
 40
0.5006098113
 40
0.6314145567
 40
0.7589415737
 40
1.0
 40
1.0
 40
1.0
 40
1.0
 10
711.6340825024
 20
706.6861895161
 30
0.0
 10
711.5879129478
 20
706.651782869
 30
0.0
 10
711.5008898061
 20
706.5700550644
 30
0.0
 10
711.4349300108
 20
706.429505276
 30
0.0
 10
711.4350171454
 20
706.3064363252
 30
0.0
 10
711.4707923326
 20
706.192857061
 30
0.0
 10
711.528307583
 20
706.1234536686
 30
0.0
 10
711.5711019945
 20
706.0861895161
 30
0.0
  0
SPLINE
  5
646
100
AcDbEntity
  8
7_ALL_FEATURES
100
AcDbSpline
 62
7
  6
CONTINUOUS
 70
0
 71
3
 72
13
 73
9
 74
0
 42
0.0000001
 43
0.0000001
 44
0.0000000001
 40
0.0
 40
0.0
 40
0.0
 40
0.0
 40
0.2496601731
 40
0.505517787
 40
0.6355355974
 40
0.7638678992
 40
0.8852338713
 40
1.0
 40
1.0
 40
1.0
 40
1.0
 10
202.5741502002
 20
709.0861895161
 30
0.0
 10
202.634025129
 20
709.1164677158
 30
0.0
 10
202.7514616752
 20
709.1853977953
 30
0.0
 10
202.8835960738
 20
709.2965877397
 30
0.0
 10
202.9658019793
 20
709.4086242292
 30
0.0
 10
203.0037834224
 20
709.5056722112
 30
0.0
 10
202.9969343431
 20
709.6074155675
 30
0.0
 10
202.9620704277
 20
709.6630479472
 30
0.0
 10
202.9416802923
 20
709.6861895161
 30
0.0
  0
SPLINE
  5
647
100
AcDbEntity
  8
7_ALL_FEATURES
100
AcDbSpline
 62
7
  6
CONTINUOUS
 70
0
 71
3
 72
13
 73
9
 74
0
 42
0.0000001
 43
0.0000001
 44
0.0000000001
 40
0.0
 40
0.0
 40
0.0
 40
0.0
 40
0.2496601731
 40
0.505517787
 40
0.6355355974
 40
0.7638678992
 40
0.8852338713
 40
1.0
 40
1.0
 40
1.0
 40
1.0
 10
452.5741502002
 20
709.0861895161
 30
0.0
 10
452.634025129
 20
709.1164677158
 30
0.0
 10
452.7514616752
 20
709.1853977953
 30
0.0
 10
452.8835960738
 20
709.2965877397
 30
0.0
 10
452.9658019793
 20
709.4086242292
 30
0.0
 10
453.0037834224
 20
709.5056722112
 30
0.0
 10
452.9969343431
 20
709.6074155675
 30
0.0
 10
452.9620704277
 20
709.6630479472
 30
0.0
 10
452.9416802923
 20
709.6861895161
 30
0.0
  0
SPLINE
  5
648
100
AcDbEntity
  8
7_ALL_FEATURES
100
AcDbSpline
 62
7
  6
CONTINUOUS
 70
0
 71
3
 72
13
 73
9
 74
0
 42
0.0000001
 43
0.0000001
 44
0.0000000001
 40
0.0
 40
0.0
 40
0.0
 40
0.0
 40
0.1147640369
 40
0.2361274265
 40
0.36446135
 40
0.494481193
 40
0.7503397308
 40
1.0
 40
1.0
 40
1.0
 40
1.0
 10
210.7367471271
 20
709.6861895161
 30
0.0
 10
210.7163573664
 20
709.6630483725
 30
0.0
 10
210.6814940815
 20
709.6074172159
 30
0.0
 10
210.6746439226
 20
709.5056750213
 30
0.0
 10
210.7126240371
 20
709.4086260844
 30
0.0
 10
210.7948305818
 20
709.2965884526
 30
0.0
 10
210.9269654754
 20
709.1853978981
 30
0.0
 10
211.0444022765
 20
709.1164677228
 30
0.0
 10
211.1042772191
 20
709.0861895161
 30
0.0
  0
SPLINE
  5
649
100
AcDbEntity
  8
7_ALL_FEATURES
100
AcDbSpline
 62
7
  6
CONTINUOUS
 70
0
 71
3
 72
13
 73
9
 74
0
 42
0.0000001
 43
0.0000001
 44
0.0000000001
 40
0.0
 40
0.0
 40
0.0
 40
0.0
 40
0.2496601731
 40
0.505517787
 40
0.6355355974
 40
0.7638678992
 40
0.8852338713
 40
1.0
 40
1.0
 40
1.0
 40
1.0
 10
702.5741502002
 20
709.0861895161
 30
0.0
 10
702.634025129
 20
709.1164677158
 30
0.0
 10
702.7514616752
 20
709.1853977953
 30
0.0
 10
702.8835960738
 20
709.2965877397
 30
0.0
 10
702.9658019793
 20
709.4086242292
 30
0.0
 10
703.0037834224
 20
709.5056722112
 30
0.0
 10
702.9969343431
 20
709.6074155675
 30
0.0
 10
702.9620704277
 20
709.6630479472
 30
0.0
 10
702.9416802923
 20
709.6861895161
 30
0.0
  0
SPLINE
  5
64A
100
AcDbEntity
  8
7_ALL_FEATURES
100
AcDbSpline
 62
7
  6
CONTINUOUS
 70
0
 71
3
 72
13
 73
9
 74
0
 42
0.0000001
 43
0.0000001
 44
0.0000000001
 40
0.0
 40
0.0
 40
0.0
 40
0.0
 40
0.1147640369
 40
0.2361274265
 40
0.36446135
 40
0.494481193
 40
0.7503397308
 40
1.0
 40
1.0
 40
1.0
 40
1.0
 10
460.7367471271
 20
709.6861895161
 30
0.0
 10
460.7163573664
 20
709.6630483725
 30
0.0
 10
460.6814940815
 20
709.6074172159
 30
0.0
 10
460.6746439226
 20
709.5056750213
 30
0.0
 10
460.7126240371
 20
709.4086260844
 30
0.0
 10
460.7948305818
 20
709.2965884526
 30
0.0
 10
460.9269654754
 20
709.1853978981
 30
0.0
 10
461.0444022765
 20
709.1164677228
 30
0.0
 10
461.1042772191
 20
709.0861895161
 30
0.0
  0
SPLINE
  5
64B
100
AcDbEntity
  8
7_ALL_FEATURES
100
AcDbSpline
 62
7
  6
CONTINUOUS
 70
0
 71
3
 72
13
 73
9
 74
0
 42
0.0000001
 43
0.0000001
 44
0.0000000001
 40
0.0
 40
0.0
 40
0.0
 40
0.0
 40
0.1147640369
 40
0.2361274265
 40
0.36446135
 40
0.494481193
 40
0.7503397308
 40
1.0
 40
1.0
 40
1.0
 40
1.0
 10
710.7367471271
 20
709.6861895161
 30
0.0
 10
710.7163573664
 20
709.6630483725
 30
0.0
 10
710.6814940815
 20
709.6074172159
 30
0.0
 10
710.6746439226
 20
709.5056750213
 30
0.0
 10
710.7126240371
 20
709.4086260844
 30
0.0
 10
710.7948305818
 20
709.2965884526
 30
0.0
 10
710.9269654754
 20
709.1853978981
 30
0.0
 10
711.0444022765
 20
709.1164677228
 30
0.0
 10
711.1042772191
 20
709.0861895161
 30
0.0
  0
ELLIPSE
  5
64C
100
AcDbEntity
  8
7_ALL_FEATURES
100
AcDbEllipse
 62
7
  6
CONTINUOUS
 10
195.2857310069
 20
50.3815524194
 30
0.0
 11
-0.0
 21
5.4882058378
 31
0.0
 40
0.1015346165
 41
0.9294607698
 42
2.2121318838
  0
ELLIPSE
  5
64D
100
AcDbEntity
  8
7_ALL_FEATURES
100
AcDbEllipse
 62
7
  6
CONTINUOUS
 10
195.2857310069
 20
300.3815524194
 30
0.0
 11
0.0
 21
5.4882058378
 31
0.0
 40
0.1015346165
 41
0.9294607698
 42
2.2121318838
  0
ELLIPSE
  5
64E
100
AcDbEntity
  8
7_ALL_FEATURES
100
AcDbEllipse
 62
7
  6
CONTINUOUS
 10
195.2857310069
 20
550.3815524194
 30
0.0
 11
0.0
 21
5.4882058378
 31
0.0
 40
0.1015346165
 41
0.9294607698
 42
2.2121318838
  0
ELLIPSE
  5
64F
100
AcDbEntity
  8
6_ALL_SURFS
100
AcDbEllipse
 62
7
  6
CONTINUOUS
 10
706.8392137097
 20
561.9350351222
 30
0.0
 11
5.4882058378
 21
0.0
 31
0.0
 40
0.1015346165
 41
7.212646077
 42
8.495317191
  0
ELLIPSE
  5
650
100
AcDbEntity
  8
6_ALL_SURFS
100
AcDbEllipse
 62
7
  6
CONTINUOUS
 10
456.8392137097
 20
561.9350351222
 30
0.0
 11
5.4882058378
 21
0.0
 31
0.0
 40
0.1015346165
 41
7.212646077
 42
8.495317191
  0
ELLIPSE
  5
651
100
AcDbEntity
  8
6_ALL_SURFS
100
AcDbEllipse
 62
7
  6
CONTINUOUS
 10
206.8392137097
 20
561.9350351222
 30
0.0
 11
5.4882058378
 21
0.0
 31
0.0
 40
0.1015346165
 41
7.212646077
 42
8.495317191
  0
ELLIPSE
  5
652
100
AcDbEntity
  8
7_ALL_FEATURES
100
AcDbEllipse
 62
7
  6
CONTINUOUS
 10
706.8392137097
 20
707.8513624879
 30
0.0
 11
-0.0
 21
5.5724287509
 31
0.0
 40
0.9848857802
 41
-3.7829282106
 42
-2.5002570966
  0
ELLIPSE
  5
653
100
AcDbEntity
  8
7_ALL_FEATURES
100
AcDbEllipse
 62
7
  6
CONTINUOUS
 10
456.8392137097
 20
707.8513624879
 30
0.0
 11
0.0
 21
5.5724287509
 31
0.0
 40
0.9848857802
 41
-3.7829282106
 42
-2.5002570966
  0
ELLIPSE
  5
654
100
AcDbEntity
  8
7_ALL_FEATURES
100
AcDbEllipse
 62
7
  6
CONTINUOUS
 10
206.8392137097
 20
707.8513624879
 30
0.0
 11
0.0
 21
5.5724287509
 31
0.0
 40
0.9848857802
 41
-3.7829282106
 42
-2.5002570966
  0
ELLIPSE
  5
655
100
AcDbEntity
  8
6_ALL_SURFS
100
AcDbEllipse
 62
7
  6
CONTINUOUS
 10
706.8392137097
 20
803.8210165443
 30
0.0
 11
-0.0
 21
5.5724287509
 31
0.0
 40
0.9848857802
 41
5.6418497502
 42
6.9245208642
  0
ELLIPSE
  5
656
100
AcDbEntity
  8
6_ALL_SURFS
100
AcDbEllipse
 62
7
  6
CONTINUOUS
 10
456.8392137097
 20
803.8210165443
 30
0.0
 11
-0.0
 21
5.5724287509
 31
0.0
 40
0.9848857802
 41
5.6418497502
 42
6.9245208642
  0
ELLIPSE
  5
657
100
AcDbEntity
  8
6_ALL_SURFS
100
AcDbEllipse
 62
7
  6
CONTINUOUS
 10
206.8392137097
 20
803.8210165443
 30
0.0
 11
0.0
 21
5.5724287509
 31
0.0
 40
0.9848857802
 41
5.6418497502
 42
6.9245208642
  0
ELLIPSE
  5
658
100
AcDbEntity
  8
7_ALL_FEATURES
100
AcDbEllipse
 62
7
  6
CONTINUOUS
 10
859.0359418841
 20
649.8926181782
 30
0.0
 11
0.0
 21
0.3
 31
0.0
 40
1.0
 41
1.0471975512
 42
1.5707963516
  0
ELLIPSE
  5
659
100
AcDbEntity
  8
7_ALL_FEATURES
100
AcDbEllipse
 62
7
  6
CONTINUOUS
 10
868.9403225806
 20
574.8834783495
 30
0.0
 11
0.0
 21
2.15
 31
0.0
 40
1.0
 41
-1.5707963268
 42
-0.9533513014
  0
ELLIPSE
  5
65A
100
AcDbEntity
  8
7_ALL_FEATURES
100
AcDbEllipse
 62
7
  6
CONTINUOUS
 10
857.9903225806
 20
648.6815524194
 30
0.0
 11
1.3
 21
-0.0
 31
0.0
 40
1.0
 41
-2.182910552
 42
-0.9586821015
  0
ELLIPSE
  5
65B
100
AcDbEntity
  8
7_ALL_FEATURES
100
AcDbEllipse
 62
7
  6
CONTINUOUS
 10
812.0447032772
 20
649.8926181782
 30
0.0
 11
0.3
 21
0.0
 31
0.0
 40
1.0
 41
-0.0000000248
 42
0.5235987756
  0
ELLIPSE
  5
65C
100
AcDbEntity
  8
7_ALL_FEATURES
100
AcDbEllipse
 62
7
  6
CONTINUOUS
 10
802.1403225806
 20
574.8834783495
 30
0.0
 11
-0.0
 21
2.15
 31
0.0
 40
1.0
 41
0.9533513014
 42
1.5707963268
  0
ELLIPSE
  5
65D
100
AcDbEntity
  8
7_ALL_FEATURES
100
AcDbEllipse
 62
7
  6
CONTINUOUS
 10
813.0903225806
 20
648.6815524194
 30
0.0
 11
1.3
 21
0.0
 31
0.0
 40
1.0
 41
-2.1829105521
 42
-0.9586821016
  0
ELLIPSE
  5
65E
100
AcDbEntity
  8
7_ALL_FEATURES
100
AcDbEllipse
 62
7
  6
CONTINUOUS
 10
855.1324387482
 20
646.9815524194
 30
0.0
 11
0.5
 21
0.0
 31
0.0
 40
1.0
 41
-1.5707963268
 42
-1.4544839873
  0
ELLIPSE
  5
65F
100
AcDbEntity
  8
7_ALL_FEATURES
100
AcDbEllipse
 62
7
  6
CONTINUOUS
 10
839.4403225806
 20
646.7815524194
 30
0.0
 11
0.0
 21
0.3
 31
0.0
 40
1.0
 41
1.5707963268
 42
3.1415926536
  0
ELLIPSE
  5
660
100
AcDbEntity
  8
7_ALL_FEATURES
100
AcDbEllipse
 62
7
  6
CONTINUOUS
 10
831.6403225806
 20
646.7815524194
 30
0.0
 11
-0.0
 21
0.3
 31
0.0
 40
1.0
 41
-3.1415926536
 42
-1.5707963268
  0
ELLIPSE
  5
661
100
AcDbEntity
  8
7_ALL_FEATURES
100
AcDbEllipse
 62
7
  6
CONTINUOUS
 10
815.9482064131
 20
646.9815524194
 30
0.0
 11
0.5
 21
-0.0
 31
0.0
 40
1.0
 41
-1.6871086663
 42
-1.5707963268
  0
ELLIPSE
  5
662
100
AcDbEntity
  8
7_ALL_FEATURES
100
AcDbEllipse
 62
7
  6
CONTINUOUS
 10
890.0966192227
 20
562.9878490614
 30
0.0
 11
0.3937033579
 21
-0.0
 31
0.0
 40
1.0
 41
-0.0000000545
 42
1.5707963268
  0
ELLIPSE
  5
663
100
AcDbEntity
  8
7_ALL_FEATURES
100
AcDbEllipse
 62
7
  6
CONTINUOUS
 10
862.6903225806
 20
626.2588259595
 30
0.0
 11
5.0
 21
-0.0
 31
0.0
 40
1.0
 41
-0.0
 42
0.2183788385
  0
ELLIPSE
  5
664
100
AcDbEntity
  8
7_ALL_FEATURES
100
AcDbEllipse
 62
7
  6
CONTINUOUS
 10
862.1205635834
 20
644.9815524194
 30
0.0
 11
1.5
 21
-0.0
 31
0.0
 40
1.0
 41
0.2183788385
 42
1.4519222206
  0
ELLIPSE
  5
665
100
AcDbEntity
  8
7_ALL_FEATURES
100
AcDbEllipse
 62
7
  6
CONTINUOUS
 10
861.9982064131
 20
651.5815524194
 30
0.0
 11
0.0
 21
0.3
 31
0.0
 40
1.0
 41
-1.5707963268
 42
0.0
  0
ELLIPSE
  5
666
100
AcDbEntity
  8
7_ALL_FEATURES
100
AcDbEllipse
 62
7
  6
CONTINUOUS
 10
860.0110485229
 20
651.5815524194
 30
0.0
 11
0.3
 21
0.0
 31
0.0
 40
1.0
 41
1.5707963268
 42
2.617993878
  0
ELLIPSE
  5
667
100
AcDbEntity
  8
7_ALL_FEATURES
100
AcDbEllipse
 62
7
  6
CONTINUOUS
 10
856.9447032773
 20
649.8926181783
 30
0.0
 11
0.3
 21
0.0
 31
0.0
 40
1.0
 41
-0.0000000248
 42
0.5235987756
  0
ELLIPSE
  5
668
100
AcDbEntity
  8
7_ALL_FEATURES
100
AcDbEllipse
 62
7
  6
CONTINUOUS
 10
855.9695966385
 20
651.5815524194
 30
0.0
 11
0.3
 21
0.0
 31
0.0
 40
1.0
 41
0.5235987756
 42
1.5707963268
  0
ELLIPSE
  5
669
100
AcDbEntity
  8
7_ALL_FEATURES
100
AcDbEllipse
 62
7
  6
CONTINUOUS
 10
855.4903225806
 20
651.5815524194
 30
0.0
 11
0.0
 21
0.3
 31
0.0
 40
1.0
 41
0.0
 42
1.5707963268
  0
ELLIPSE
  5
66A
100
AcDbEntity
  8
7_ALL_FEATURES
100
AcDbEllipse
 62
7
  6
CONTINUOUS
 10
837.6403225806
 20
650.3815524194
 30
0.0
 11
0.0
 21
1.5
 31
0.0
 40
1.0
 41
-1.5707963268
 42
0.0
  0
ELLIPSE
  5
66B
100
AcDbEntity
  8
7_ALL_FEATURES
100
AcDbEllipse
 62
7
  6
CONTINUOUS
 10
833.4403225806
 20
650.3815524194
 30
0.0
 11
-0.0
 21
1.5
 31
0.0
 40
1.0
 41
0.0
 42
1.5707963268
  0
ELLIPSE
  5
66C
100
AcDbEntity
  8
7_ALL_FEATURES
100
AcDbEllipse
 62
7
  6
CONTINUOUS
 10
815.5903225806
 20
651.5815524194
 30
0.0
 11
0.0
 21
0.3
 31
0.0
 40
1.0
 41
-1.5707963268
 42
0.0
  0
ELLIPSE
  5
66D
100
AcDbEntity
  8
7_ALL_FEATURES
100
AcDbEllipse
 62
7
  6
CONTINUOUS
 10
815.1110485228
 20
651.5815524194
 30
0.0
 11
0.3
 21
-0.0
 31
0.0
 40
1.0
 41
1.5707963268
 42
2.617993878
  0
ELLIPSE
  5
66E
100
AcDbEntity
  8
7_ALL_FEATURES
100
AcDbEllipse
 62
7
  6
CONTINUOUS
 10
814.135941884
 20
649.8926181783
 30
0.0
 11
0.3
 21
0.0
 31
0.0
 40
1.0
 41
2.617993878
 42
3.1415926784
  0
ELLIPSE
  5
66F
100
AcDbEntity
  8
7_ALL_FEATURES
100
AcDbEllipse
 62
7
  6
CONTINUOUS
 10
811.0695966384
 20
651.5815524194
 30
0.0
 11
0.3
 21
0.0
 31
0.0
 40
1.0
 41
0.5235987756
 42
1.5707963268
  0
ELLIPSE
  5
670
100
AcDbEntity
  8
7_ALL_FEATURES
100
AcDbEllipse
 62
7
  6
CONTINUOUS
 10
809.0824387482
 20
651.5815524194
 30
0.0
 11
0.0
 21
0.3
 31
0.0
 40
1.0
 41
0.0
 42
1.5707963268
  0
ELLIPSE
  5
671
100
AcDbEntity
  8
7_ALL_FEATURES
100
AcDbEllipse
 62
7
  6
CONTINUOUS
 10
808.9600815779
 20
644.9815524194
 30
0.0
 11
-0.0
 21
1.5
 31
0.0
 40
1.0
 41
0.1188741061
 42
1.3524174883
  0
ELLIPSE
  5
672
100
AcDbEntity
  8
7_ALL_FEATURES
100
AcDbEllipse
 62
7
  6
CONTINUOUS
 10
808.3903225806
 20
626.2588259595
 30
0.0
 11
5.0
 21
0.0
 31
0.0
 40
1.0
 41
2.923213815
 42
3.1415926536
  0
ELLIPSE
  5
673
100
AcDbEntity
  8
7_ALL_FEATURES
100
AcDbEllipse
 62
7
  6
CONTINUOUS
 10
780.9840259386
 20
562.9878490614
 30
0.0
 11
0.3937033579
 21
0.0
 31
0.0
 40
1.0
 41
1.5707963268
 42
3.1415927081
  0
ENDSEC
  0
SECTION
  2
OBJECTS
  0
DICTIONARY
  5
674
100
AcDbDictionary
  3
ACAD_GROUP
350
675
  3
ACAD_MLINESTYLE
350
676
  0
DICTIONARY
  5
675
102
{ACAD_REACTORS
330
674
102
}
100
AcDbDictionary
  0
DICTIONARY
  5
676
102
{ACAD_REACTORS
330
674
102
}
100
AcDbDictionary
  3
STANDARD
350
677
  0
MLINESTYLE
  5
677
102
{ACAD_REACTORS
330
676
102
}
100
AcDbMlineStyle
  2
STANDARD
 70
0
  3

 62
256
 51
90.0
 52
90.0
 71
2
 49
0.5
 62
256
  6
BYLAYER
 49
-0.5
 62
256
  6
BYLAYER
  0
ENDSEC
  0
EOF
