  0
SECTION
  2
HEADER
  9
$ACADVER
  1
AC1027
  9
$ACADMAINTVER
 70
   105
  9
$DWGCODEPAGE
  3
ANSI_1252
  9
$REQUIREDVERSIONS
160
                 0
  9
$LASTSAVEDBY
  1
andrea.zolin
  9
$INSBASE
 10
0.0
 20
0.0
 30
0.0
  9
$EXTMIN
 10
0.0
 20
0.0
 30
0.0
  9
$EXTMAX
 10
2000.0
 20
841.0
 30
0.0
  9
$LIMMIN
 10
0.0
 20
0.0
  9
$LIMMAX
 10
2000.0
 20
841.0
  9
$ORTHOMODE
 70
     0
  9
$REGENMODE
 70
     1
  9
$FILLMODE
 70
     1
  9
$QTEXTMODE
 70
     0
  9
$MIRRTEXT
 70
     1
  9
$LTSCALE
 40
110.0
  9
$ATTMODE
 70
     1
  9
$TEXTSIZE
 40
0.2
  9
$TRACEWID
 40
0.05
  9
$TEXTSTYLE
  7
STANDARD
  9
$CLAYER
  8
0
  9
$CELTYPE
  6
BYLAYER
  9
$CECOLOR
 62
   256
  9
$CELTSCALE
 40
1.0
  9
$DISPSILH
 70
     0
  9
$DIMSCALE
 40
1.0
  9
$DIMASZ
 40
2.5
  9
$DIMEXO
 40
0.75
  9
$DIMDLI
 40
76.0
  9
$DIMRND
 40
0.0
  9
$DIMDLE
 40
0.0
  9
$DIMEXE
 40
0.75
  9
$DIMTP
 40
0.01
  9
$DIMTM
 40
0.01
  9
$DIMTXT
 40
3.0
  9
$DIMCEN
 40
18.0
  9
$DIMTSZ
 40
0.0
  9
$DIMTOL
 70
     1
  9
$DIMLIM
 70
     0
  9
$DIMTIH
 70
     1
  9
$DIMTOH
 70
     1
  9
$DIMSE1
 70
     0
  9
$DIMSE2
 70
     0
  9
$DIMTAD
 70
     0
  9
$DIMZIN
 70
     0
  9
$DIMBLK
  1
CLOSED
  9
$DIMASO
 70
     1
  9
$DIMSHO
 70
     1
  9
$DIMPOST
  1

  9
$DIMAPOST
  1

  9
$DIMALT
 70
     0
  9
$DIMALTD
 70
     2
  9
$DIMALTF
 40
25.4
  9
$DIMLFAC
 40
1.0
  9
$DIMTOFL
 70
     0
  9
$DIMTVP
 40
0.0
  9
$DIMTIX
 70
     0
  9
$DIMSOXD
 70
     0
  9
$DIMSAH
 70
     0
  9
$DIMBLK1
  1

  9
$DIMBLK2
  1

  9
$DIMSTYLE
  2
STANDARD
  9
$DIMCLRD
 70
     0
  9
$DIMCLRE
 70
     0
  9
$DIMCLRT
 70
     0
  9
$DIMTFAC
 40
1.0
  9
$DIMGAP
 40
0.625
  9
$DIMJUST
 70
     0
  9
$DIMSD1
 70
     0
  9
$DIMSD2
 70
     0
  9
$DIMTOLJ
 70
     1
  9
$DIMTZIN
 70
     0
  9
$DIMALTZ
 70
     0
  9
$DIMALTTZ
 70
     0
  9
$DIMUPT
 70
     0
  9
$DIMDEC
 70
     4
  9
$DIMTDEC
 70
     4
  9
$DIMALTU
 70
     2
  9
$DIMALTTD
 70
     2
  9
$DIMTXSTY
  7
STANDARD
  9
$DIMAUNIT
 70
     0
  9
$DIMADEC
 70
     0
  9
$DIMALTRND
 40
0.0
  9
$DIMAZIN
 70
     0
  9
$DIMDSEP
 70
    46
  9
$DIMATFIT
 70
     3
  9
$DIMFRAC
 70
     0
  9
$DIMLDRBLK
  1

  9
$DIMLUNIT
 70
     2
  9
$DIMLWD
 70
    -2
  9
$DIMLWE
 70
    -2
  9
$DIMTMOVE
 70
     2
  9
$DIMFXL
 40
1.0
  9
$DIMFXLON
 70
     0
  9
$DIMJOGANG
 40
0.7853981633974483
  9
$DIMTFILL
 70
     0
  9
$DIMTFILLCLR
 70
     0
  9
$DIMARCSYM
 70
     0
  9
$DIMLTYPE
  6

  9
$DIMLTEX1
  6

  9
$DIMLTEX2
  6

  9
$DIMTXTDIRECTION
 70
     0
  9
$LUNITS
 70
     2
  9
$LUPREC
 70
     4
  9
$SKETCHINC
 40
0.1
  9
$FILLETRAD
 40
0.5
  9
$AUNITS
 70
     0
  9
$AUPREC
 70
     0
  9
$MENU
  1
.
  9
$ELEVATION
 40
0.0
  9
$PELEVATION
 40
0.0
  9
$THICKNESS
 40
0.0
  9
$LIMCHECK
 70
     0
  9
$CHAMFERA
 40
0.0
  9
$CHAMFERB
 40
0.0
  9
$CHAMFERC
 40
0.0
  9
$CHAMFERD
 40
0.0
  9
$SKPOLY
 70
     0
  9
$TDCREATE
 40
2447893.041666667
  9
$TDUCREATE
 40
0.0
  9
$TDUPDATE
 40
2458466.628916354
  9
$TDUUPDATE
 40
2458466.587249687
  9
$TDINDWG
 40
0.0001911458
  9
$TDUSRTIMER
 40
0.0001911458
  9
$USRTIMER
 70
     1
  9
$ANGBASE
 50
0.0
  9
$ANGDIR
 70
     0
  9
$PDMODE
 70
     3
  9
$PDSIZE
 40
0.3125
  9
$PLINEWID
 40
0.0
  9
$SPLFRAME
 70
     0
  9
$SPLINETYPE
 70
     6
  9
$SPLINESEGS
 70
     8
  9
$HANDSEED
  5
651
  9
$SURFTAB1
 70
     6
  9
$SURFTAB2
 70
     6
  9
$SURFTYPE
 70
     6
  9
$SURFU
 70
     6
  9
$SURFV
 70
     6
  9
$UCSBASE
  2

  9
$UCSNAME
  2

  9
$UCSORG
 10
0.0
 20
0.0
 30
0.0
  9
$UCSXDIR
 10
1.0
 20
0.0
 30
0.0
  9
$UCSYDIR
 10
0.0
 20
1.0
 30
0.0
  9
$UCSORTHOREF
  2

  9
$UCSORTHOVIEW
 70
     0
  9
$UCSORGTOP
 10
0.0
 20
0.0
 30
0.0
  9
$UCSORGBOTTOM
 10
0.0
 20
0.0
 30
0.0
  9
$UCSORGLEFT
 10
0.0
 20
0.0
 30
0.0
  9
$UCSORGRIGHT
 10
0.0
 20
0.0
 30
0.0
  9
$UCSORGFRONT
 10
0.0
 20
0.0
 30
0.0
  9
$UCSORGBACK
 10
0.0
 20
0.0
 30
0.0
  9
$PUCSBASE
  2

  9
$PUCSNAME
  2

  9
$PUCSORG
 10
0.0
 20
0.0
 30
0.0
  9
$PUCSXDIR
 10
1.0
 20
0.0
 30
0.0
  9
$PUCSYDIR
 10
0.0
 20
1.0
 30
0.0
  9
$PUCSORTHOREF
  2

  9
$PUCSORTHOVIEW
 70
     0
  9
$PUCSORGTOP
 10
0.0
 20
0.0
 30
0.0
  9
$PUCSORGBOTTOM
 10
0.0
 20
0.0
 30
0.0
  9
$PUCSORGLEFT
 10
0.0
 20
0.0
 30
0.0
  9
$PUCSORGRIGHT
 10
0.0
 20
0.0
 30
0.0
  9
$PUCSORGFRONT
 10
0.0
 20
0.0
 30
0.0
  9
$PUCSORGBACK
 10
0.0
 20
0.0
 30
0.0
  9
$USERI1
 70
     0
  9
$USERI2
 70
     0
  9
$USERI3
 70
     0
  9
$USERI4
 70
     0
  9
$USERI5
 70
     0
  9
$USERR1
 40
0.0
  9
$USERR2
 40
0.0
  9
$USERR3
 40
0.0
  9
$USERR4
 40
0.0
  9
$USERR5
 40
0.0
  9
$WORLDVIEW
 70
     1
  9
$SHADEDGE
 70
     3
  9
$SHADEDIF
 70
    70
  9
$TILEMODE
 70
     0
  9
$MAXACTVP
 70
    64
  9
$PINSBASE
 10
0.0
 20
0.0
 30
0.0
  9
$PLIMCHECK
 70
     0
  9
$PEXTMIN
 10
0.0
 20
0.0
 30
0.0
  9
$PEXTMAX
 10
2000.0
 20
841.0
 30
0.0
  9
$PLIMMIN
 10
-37.03703703703704
 20
-98.76543209876543
  9
$PLIMMAX
 10
2037.037037037037
 20
1367.901234567901
  9
$UNITMODE
 70
     0
  9
$VISRETAIN
 70
     1
  9
$PLINEGEN
 70
     0
  9
$PSLTSCALE
 70
     1
  9
$TREEDEPTH
 70
  3020
  9
$CMLSTYLE
  2
STANDARD
  9
$CMLJUST
 70
     0
  9
$CMLSCALE
 40
1.0
  9
$PROXYGRAPHICS
 70
     1
  9
$MEASUREMENT
 70
     1
  9
$CELWEIGHT
370
    -1
  9
$ENDCAPS
280
     0
  9
$JOINSTYLE
280
     0
  9
$LWDISPLAY
290
     0
  9
$INSUNITS
 70
     0
  9
$HYPERLINKBASE
  1

  9
$STYLESHEET
  1

  9
$XEDIT
290
     1
  9
$CEPSNTYPE
380
     0
  9
$PSTYLEMODE
290
     1
  9
$FINGERPRINTGUID
  2
{49AFDD58-3E19-4214-94AA-1C7C60A6FF33}
  9
$VERSIONGUID
  2
{FAEB1C32-E019-11D5-929B-00C0DF256EC4}
  9
$EXTNAMES
290
     1
  9
$PSVPSCALE
 40
0.0
  9
$OLESTARTUP
290
     0
  9
$SORTENTS
280
   127
  9
$INDEXCTL
280
     0
  9
$HIDETEXT
280
     1
  9
$XCLIPFRAME
280
     2
  9
$HALOGAP
280
     0
  9
$OBSCOLOR
 70
   257
  9
$OBSLTYPE
280
     0
  9
$INTERSECTIONDISPLAY
280
     0
  9
$INTERSECTIONCOLOR
 70
   257
  9
$DIMASSOC
280
     2
  9
$PROJECTNAME
  1

  9
$CAMERADISPLAY
290
     0
  9
$LENSLENGTH
 40
50.0
  9
$CAMERAHEIGHT
 40
0.0
  9
$STEPSPERSEC
 40
2.0
  9
$STEPSIZE
 40
6.0
  9
$3DDWFPREC
 40
2.0
  9
$PSOLWIDTH
 40
0.25
  9
$PSOLHEIGHT
 40
4.0
  9
$LOFTANG1
 40
1.570796326794897
  9
$LOFTANG2
 40
1.570796326794897
  9
$LOFTMAG1
 40
0.0
  9
$LOFTMAG2
 40
0.0
  9
$LOFTPARAM
 70
     7
  9
$LOFTNORMALS
280
     1
  9
$LATITUDE
 40
37.795
  9
$LONGITUDE
 40
-122.394
  9
$NORTHDIRECTION
 40
0.0
  9
$TIMEZONE
 70
 -8000
  9
$LIGHTGLYPHDISPLAY
280
     1
  9
$TILEMODELIGHTSYNCH
280
     1
  9
$SOLIDHIST
280
     0
  9
$SHOWHIST
280
     1
  9
$DWFFRAME
280
     2
  9
$DGNFRAME
280
     2
  9
$REALWORLDSCALE
290
     1
  9
$INTERFERECOLOR
 62
   256
  9
$CSHADOW
280
     0
  9
$SHADOWPLANELOCATION
 40
0.0
  0
ENDSEC
  0
SECTION
  2
CLASSES
  0
CLASS
  1
ACDBDICTIONARYWDFLT
  2
AcDbDictionaryWithDefault
  3
ObjectDBX Classes
 90
        0
 91
        4
280
     0
281
     0
  0
CLASS
  1
SCALE
  2
AcDbScale
  3
ObjectDBX Classes
 90
     1153
 91
        4
280
     0
281
     0
  0
CLASS
  1
VISUALSTYLE
  2
AcDbVisualStyle
  3
ObjectDBX Classes
 90
     4095
 91
        4
280
     0
281
     0
  0
CLASS
  1
MATERIAL
  2
AcDbMaterial
  3
ObjectDBX Classes
 90
     1153
 91
        4
280
     0
281
     0
  0
CLASS
  1
TABLESTYLE
  2
AcDbTableStyle
  3
ObjectDBX Classes
 90
     4095
 91
        4
280
     0
281
     0
  0
CLASS
  1
MLEADERSTYLE
  2
AcDbMLeaderStyle
  3
ACDB_MLEADERSTYLE_CLASS
 90
     4095
 91
        4
280
     0
281
     0
  0
CLASS
  1
DICTIONARYVAR
  2
AcDbDictionaryVar
  3
ObjectDBX Classes
 90
        0
 91
        4
280
     0
281
     0
  0
CLASS
  1
CELLSTYLEMAP
  2
AcDbCellStyleMap
  3
ObjectDBX Classes
 90
     1152
 91
        4
280
     0
281
     0
  0
ENDSEC
  0
SECTION
  2
TABLES
  0
TABLE
  2
VPORT
  5
8
330
0
100
AcDbSymbolTable
 70
     1
  0
VPORT
  5
1F4
330
8
100
AcDbSymbolTableRecord
100
AcDbViewportTableRecord
  2
*ACTIVE
 70
     0
 10
0.0
 20
0.0
 11
1.0
 21
1.0
 12
1000.0
 22
420.5
 13
0.0
 23
0.0
 14
1.0
 24
1.0
 15
0.0
 25
0.0
 16
0.0
 26
0.0
 36
1.0
 17
0.0
 27
0.0
 37
0.0
 40
841.0
 41
2.3781212842
 42
50.0
 43
0.0
 44
0.0
 50
0.0
 51
0.0
 71
     0
 72
   100
 73
     1
 74
     1
 75
     0
 76
     0
 77
     0
 78
     0
281
     0
 65
     1
110
0.0
120
0.0
130
0.0
111
1.0
121
0.0
131
0.0
112
0.0
122
1.0
132
0.0
 79
     0
146
0.0
348
62A
 60
     3
 61
     5
292
     1
282
     1
141
0.0
142
0.0
 63
   256
  0
ENDTAB
  0
TABLE
  2
LTYPE
  5
5
330
0
100
AcDbSymbolTable
 70
     6
  0
LTYPE
  5
14
330
5
100
AcDbSymbolTableRecord
100
AcDbLinetypeTableRecord
  2
BYBLOCK
 70
     0
  3

 72
    65
 73
     0
 40
0.0
  0
LTYPE
  5
15
330
5
100
AcDbSymbolTableRecord
100
AcDbLinetypeTableRecord
  2
BYLAYER
 70
     0
  3

 72
    65
 73
     0
 40
0.0
  0
LTYPE
  5
16
330
5
100
AcDbSymbolTableRecord
100
AcDbLinetypeTableRecord
  2
CONTINUOUS
 70
     0
  3
Solid line
 72
    65
 73
     0
 40
0.0
  0
LTYPE
  5
1F5
330
5
100
AcDbSymbolTableRecord
100
AcDbLinetypeTableRecord
  2
CENTER
 70
     0
  3
____ _ ____ _ ____ _ ____ _ ____ _ ____ _ ____
 72
    65
 73
     4
 40
0.6
 49
0.375
 74
     0
 49
-0.075
 74
     0
 49
0.075
 74
     0
 49
-0.075
 74
     0
  0
LTYPE
  5
1F6
330
5
100
AcDbSymbolTableRecord
100
AcDbLinetypeTableRecord
  2
HIDDEN
 70
     0
  3
- - - - - - - - - - - - - - - - - - - -
 72
    65
 73
     2
 40
0.2
 49
0.1
 74
     0
 49
-0.1
 74
     0
  0
LTYPE
  5
1F7
330
5
100
AcDbSymbolTableRecord
100
AcDbLinetypeTableRecord
  2
PHANTOM
 70
     0
  3
_____ _ _ _____ _ _ _____ _ _ _____
 72
    65
 73
     6
 40
0.8
 49
0.45
 74
     0
 49
-0.05
 74
     0
 49
0.1
 74
     0
 49
-0.05
 74
     0
 49
0.1
 74
     0
 49
-0.05
 74
     0
  0
LTYPE
  5
1F8
330
5
100
AcDbSymbolTableRecord
100
AcDbLinetypeTableRecord
  2
DOT
 70
     0
  3
. . . . . . . . . . . . . . . . . . . .
 72
    65
 73
     2
 40
0.2
 49
0.1
 74
     0
 49
-0.1
 74
     0
  0
LTYPE
  5
1F9
330
5
100
AcDbSymbolTableRecord
100
AcDbLinetypeTableRecord
  2
DASHED
 70
     0
  3
- - - - - - - - - - - - - - - - - - - -
 72
    65
 73
     2
 40
0.2
 49
0.1
 74
     0
 49
-0.1
 74
     0
  0
ENDTAB
  0
TABLE
  2
LAYER
  5
2
330
0
100
AcDbSymbolTable
 70
    38
  0
LAYER
  5
10
330
2
100
AcDbSymbolTableRecord
100
AcDbLayerTableRecord
  2
0
 70
     0
 62
     7
  6
CONTINUOUS
370
    -3
390
5FF
347
641
348
0
  0
LAYER
  5
1FA
330
2
100
AcDbSymbolTableRecord
100
AcDbLayerTableRecord
  2
DEFAULT_1
 70
     0
 62
     7
  6
CENTER
370
    -3
390
5FF
347
641
348
0
  0
LAYER
  5
1FB
330
2
100
AcDbSymbolTableRecord
100
AcDbLayerTableRecord
  2
DEFAULT_2
 70
     0
 62
     8
  6
HIDDEN
370
    -3
390
5FF
347
641
348
0
  0
LAYER
  5
1FC
330
2
100
AcDbSymbolTableRecord
100
AcDbLayerTableRecord
  2
DEFAULT_3
 70
     0
 62
     7
  6
PHANTOM
370
    -3
390
5FF
347
641
348
0
  0
LAYER
  5
1FD
330
2
100
AcDbSymbolTableRecord
100
AcDbLayerTableRecord
  2
01_ALL_DTM_PLN
 70
     0
 62
     7
  6
CONTINUOUS
370
    -3
390
5FF
347
641
348
0
  0
LAYER
  5
1FE
330
2
100
AcDbSymbolTableRecord
100
AcDbLayerTableRecord
  2
01__ASM_ALL_DTM_PLN
 70
     0
 62
     7
  6
CONTINUOUS
370
    -3
390
5FF
347
641
348
0
  0
LAYER
  5
1FF
330
2
100
AcDbSymbolTableRecord
100
AcDbLayerTableRecord
  2
01__ASM_DEF_DTM_PLN
 70
     0
 62
     7
  6
CONTINUOUS
370
    -3
390
5FF
347
641
348
0
  0
LAYER
  5
200
330
2
100
AcDbSymbolTableRecord
100
AcDbLayerTableRecord
  2
01___PRT_ALL_DTM_PLN
 70
     0
 62
     7
  6
CONTINUOUS
370
    -3
390
5FF
347
641
348
0
  0
LAYER
  5
201
330
2
100
AcDbSymbolTableRecord
100
AcDbLayerTableRecord
  2
01___PRT_DEF_DTM_PLN
 70
     0
 62
     7
  6
CONTINUOUS
370
    -3
390
5FF
347
641
348
0
  0
LAYER
  5
202
330
2
100
AcDbSymbolTableRecord
100
AcDbLayerTableRecord
  2
02_ALL_AXES
 70
     0
 62
     7
  6
CONTINUOUS
370
    -3
390
5FF
347
641
348
0
  0
LAYER
  5
203
330
2
100
AcDbSymbolTableRecord
100
AcDbLayerTableRecord
  2
02__ASM_ALL_AXES
 70
     0
 62
     7
  6
CONTINUOUS
370
    -3
390
5FF
347
641
348
0
  0
LAYER
  5
204
330
2
100
AcDbSymbolTableRecord
100
AcDbLayerTableRecord
  2
02___PRT_ALL_AXES
 70
     0
 62
     7
  6
CONTINUOUS
370
    -3
390
5FF
347
641
348
0
  0
LAYER
  5
205
330
2
100
AcDbSymbolTableRecord
100
AcDbLayerTableRecord
  2
03_ALL_CURVES
 70
     0
 62
     7
  6
CONTINUOUS
370
    -3
390
5FF
347
641
348
0
  0
LAYER
  5
206
330
2
100
AcDbSymbolTableRecord
100
AcDbLayerTableRecord
  2
03__ASM_ALL_CURVES
 70
     0
 62
     7
  6
CONTINUOUS
370
    -3
390
5FF
347
641
348
0
  0
LAYER
  5
207
330
2
100
AcDbSymbolTableRecord
100
AcDbLayerTableRecord
  2
03___PRT_ALL_CURVES
 70
     0
 62
     7
  6
CONTINUOUS
370
    -3
390
5FF
347
641
348
0
  0
LAYER
  5
208
330
2
100
AcDbSymbolTableRecord
100
AcDbLayerTableRecord
  2
04_ALL_DTM_PNT
 70
     0
 62
     7
  6
CONTINUOUS
370
    -3
390
5FF
347
641
348
0
  0
LAYER
  5
209
330
2
100
AcDbSymbolTableRecord
100
AcDbLayerTableRecord
  2
04__ASM_ALL_DTM_PNT
 70
     0
 62
     7
  6
CONTINUOUS
370
    -3
390
5FF
347
641
348
0
  0
LAYER
  5
20A
330
2
100
AcDbSymbolTableRecord
100
AcDbLayerTableRecord
  2
04___PRT_ALL_DTM_PNT
 70
     0
 62
     7
  6
CONTINUOUS
370
    -3
390
5FF
347
641
348
0
  0
LAYER
  5
20B
330
2
100
AcDbSymbolTableRecord
100
AcDbLayerTableRecord
  2
05_ALL_DTM_CSYS
 70
     0
 62
     7
  6
CONTINUOUS
370
    -3
390
5FF
347
641
348
0
  0
LAYER
  5
20C
330
2
100
AcDbSymbolTableRecord
100
AcDbLayerTableRecord
  2
05__ASM_ALL_DTM_CSYS
 70
     0
 62
     7
  6
CONTINUOUS
370
    -3
390
5FF
347
641
348
0
  0
LAYER
  5
20D
330
2
100
AcDbSymbolTableRecord
100
AcDbLayerTableRecord
  2
05__ASM_DEF_DTM_CSYS
 70
     0
 62
     7
  6
CONTINUOUS
370
    -3
390
5FF
347
641
348
0
  0
LAYER
  5
20E
330
2
100
AcDbSymbolTableRecord
100
AcDbLayerTableRecord
  2
05___PRT_ALL_DTM_CSYS
 70
     0
 62
     7
  6
CONTINUOUS
370
    -3
390
5FF
347
641
348
0
  0
LAYER
  5
20F
330
2
100
AcDbSymbolTableRecord
100
AcDbLayerTableRecord
  2
05___PRT_DEF_DTM_CSYS
 70
     0
 62
     7
  6
CONTINUOUS
370
    -3
390
5FF
347
641
348
0
  0
LAYER
  5
210
330
2
100
AcDbSymbolTableRecord
100
AcDbLayerTableRecord
  2
06_ALL_SURFS
 70
     0
 62
     7
  6
CONTINUOUS
370
    -3
390
5FF
347
641
348
0
  0
LAYER
  5
211
330
2
100
AcDbSymbolTableRecord
100
AcDbLayerTableRecord
  2
06__ASM_ALL_SURFS
 70
     0
 62
     7
  6
CONTINUOUS
370
    -3
390
5FF
347
641
348
0
  0
LAYER
  5
212
330
2
100
AcDbSymbolTableRecord
100
AcDbLayerTableRecord
  2
06___PRT_ALL_SURFS
 70
     0
 62
     7
  6
CONTINUOUS
370
    -3
390
5FF
347
641
348
0
  0
LAYER
  5
213
330
2
100
AcDbSymbolTableRecord
100
AcDbLayerTableRecord
  2
07__ASM_ALL_SKELETONS
 70
     0
 62
     7
  6
CONTINUOUS
370
    -3
390
5FF
347
641
348
0
  0
LAYER
  5
214
330
2
100
AcDbSymbolTableRecord
100
AcDbLayerTableRecord
  2
1_ALL_PLANES
 70
     0
 62
     7
  6
CONTINUOUS
370
    -3
390
5FF
347
641
348
0
  0
LAYER
  5
215
330
2
100
AcDbSymbolTableRecord
100
AcDbLayerTableRecord
  2
2_ALL_CSYS
 70
     0
 62
     7
  6
CONTINUOUS
370
    -3
390
5FF
347
641
348
0
  0
LAYER
  5
216
330
2
100
AcDbSymbolTableRecord
100
AcDbLayerTableRecord
  2
3_ALL_AXES
 70
     0
 62
     7
  6
CONTINUOUS
370
    -3
390
5FF
347
641
348
0
  0
LAYER
  5
217
330
2
100
AcDbSymbolTableRecord
100
AcDbLayerTableRecord
  2
4_ALL_POINTS
 70
     0
 62
     7
  6
CONTINUOUS
370
    -3
390
5FF
347
641
348
0
  0
LAYER
  5
218
330
2
100
AcDbSymbolTableRecord
100
AcDbLayerTableRecord
  2
5_ALL_CURVES
 70
     0
 62
     7
  6
CONTINUOUS
370
    -3
390
5FF
347
641
348
0
  0
LAYER
  5
219
330
2
100
AcDbSymbolTableRecord
100
AcDbLayerTableRecord
  2
6_ALL_SURFS
 70
     0
 62
     7
  6
CONTINUOUS
370
    -3
390
5FF
347
641
348
0
  0
LAYER
  5
21A
330
2
100
AcDbSymbolTableRecord
100
AcDbLayerTableRecord
  2
7_ALL_FEATURES
 70
     0
 62
     7
  6
CONTINUOUS
370
    -3
390
5FF
347
641
348
0
  0
LAYER
  5
21B
330
2
100
AcDbSymbolTableRecord
100
AcDbLayerTableRecord
  2
8_ALL_NOTES_BALLOONS_SYMBOLS_GT
 70
     0
 62
     7
  6
CONTINUOUS
370
    -3
390
5FF
347
641
348
0
  0
LAYER
  5
21C
330
2
100
AcDbSymbolTableRecord
100
AcDbLayerTableRecord
  2
9_SOLID
 70
     0
 62
     7
  6
CONTINUOUS
370
    -3
390
5FF
347
641
348
0
  0
LAYER
  5
21D
330
2
100
AcDbSymbolTableRecord
100
AcDbLayerTableRecord
  2
INTFCLR_2
 70
     0
 62
     7
  6
CONTINUOUS
370
    -3
390
5FF
347
641
348
0
  0
LAYER
  5
21E
330
2
100
AcDbSymbolTableRecord
100
AcDbLayerTableRecord
  2
XXX_SOLIDO
 70
     0
 62
     7
  6
CONTINUOUS
370
    -3
390
5FF
347
641
348
0
  0
ENDTAB
  0
TABLE
  2
STYLE
  5
3
330
0
100
AcDbSymbolTable
 70
     3
  0
STYLE
  5
11
330
3
100
AcDbSymbolTableRecord
100
AcDbTextStyleTableRecord
  2
STANDARD
 70
     0
 40
0.0
 41
0.85
 50
0.0
 71
     0
 42
0.2
  3
txt
  4

  0
STYLE
  5
21F
330
3
100
AcDbSymbolTableRecord
100
AcDbTextStyleTableRecord
  2
TEXTSTYLE_1
 70
     0
 40
0.0
 41
0.8
 50
0.0
 71
     0
 42
0.2
  3
gdt
  4

  0
STYLE
  5
220
330
3
100
AcDbSymbolTableRecord
100
AcDbTextStyleTableRecord
  2
TEXTSTYLE_2
 70
     0
 40
0.0
 41
2.0
 50
0.0
 71
     0
 42
0.2
  3
txt
  4

  0
ENDTAB
  0
TABLE
  2
VIEW
  5
6
330
0
100
AcDbSymbolTable
 70
     0
  0
ENDTAB
  0
TABLE
  2
UCS
  5
7
330
0
100
AcDbSymbolTable
 70
     0
  0
ENDTAB
  0
TABLE
  2
APPID
  5
9
330
0
100
AcDbSymbolTable
 70
     1
  0
APPID
  5
221
330
9
100
AcDbSymbolTableRecord
100
AcDbRegAppTableRecord
  2
ACAD
 70
     0
  0
ENDTAB
  0
TABLE
  2
DIMSTYLE
  5
A
330
0
100
AcDbSymbolTable
 70
     4
100
AcDbDimStyleTable
  0
DIMSTYLE
105
229
330
A
100
AcDbSymbolTableRecord
100
AcDbDimStyleTableRecord
  2
STANDARD
 70
     0
 41
2.5
 42
0.75
 44
0.75
 47
0.01
 48
0.01
 71
     1
 73
     0
 74
     0
 77
     1
 78
     8
 79
     2
140
3.0
147
0.625
171
     1
178
     0
179
     2
271
     2
272
     2
284
     8
340
11
341
222
342
222
343
222
344
222
  0
DIMSTYLE
105
22A
330
A
100
AcDbSymbolTableRecord
100
AcDbDimStyleTableRecord
  2
DIMSTYLE_1
 70
     0
 41
2.5
 42
0.75
 44
0.75
 47
1.2
 48
1.2
 73
     0
 74
     0
 77
     1
 78
     8
 79
     2
140
3.0
147
0.75
171
     1
178
     0
271
     0
272
     0
284
     8
340
11
341
222
342
222
343
222
344
222
  0
DIMSTYLE
105
22B
330
A
100
AcDbSymbolTableRecord
100
AcDbDimStyleTableRecord
  2
DIMSTYLE_2
 70
     0
 41
2.5
 42
0.75
 44
0.75
 47
0.2
 48
0.2
 73
     0
 74
     0
 77
     1
 78
     8
 79
     2
140
3.0
147
0.75
171
     1
178
     0
271
     0
272
     0
284
     8
340
11
341
222
342
222
343
222
344
222
  0
DIMSTYLE
105
22C
330
A
100
AcDbSymbolTableRecord
100
AcDbDimStyleTableRecord
  2
DIMSTYLE_3
 70
     0
 41
2.5
 42
0.75
 44
0.75
 47
0.3
 48
0.3
 73
     0
 74
     0
 77
     1
 78
     8
 79
     2
140
3.0
147
0.75
171
     1
178
     0
179
     2
271
     2
272
     2
284
     8
340
11
341
222
342
222
343
222
344
222
  0
ENDTAB
  0
TABLE
  2
BLOCK_RECORD
  5
1
330
0
100
AcDbSymbolTable
 70
     7
  0
BLOCK_RECORD
  5
1F
330
1
100
AcDbSymbolTableRecord
100
AcDbBlockTableRecord
  2
*MODEL_SPACE
340
623
 70
     0
280
     1
281
     0
  0
BLOCK_RECORD
  5
1B
330
1
100
AcDbSymbolTableRecord
100
AcDbBlockTableRecord
  2
*PAPER_SPACE
340
624
 70
     0
280
     1
281
     0
  0
BLOCK_RECORD
  5
222
330
1
100
AcDbSymbolTableRecord
100
AcDbBlockTableRecord
  2
_CLOSED
340
0
102
{BLKREFS
331
27F
331
280
331
288
331
289
331
291
331
292
331
29A
331
29B
102
}
 70
     0
280
     1
281
     0
  0
BLOCK_RECORD
  5
223
330
1
100
AcDbSymbolTableRecord
100
AcDbBlockTableRecord
  2
*D1
340
0
 70
     0
280
     1
281
     0
  0
BLOCK_RECORD
  5
224
330
1
100
AcDbSymbolTableRecord
100
AcDbBlockTableRecord
  2
*D2
340
0
 70
     0
280
     1
281
     0
  0
BLOCK_RECORD
  5
225
330
1
100
AcDbSymbolTableRecord
100
AcDbBlockTableRecord
  2
*D3
340
0
 70
     0
280
     1
281
     0
  0
BLOCK_RECORD
  5
226
330
1
100
AcDbSymbolTableRecord
100
AcDbBlockTableRecord
  2
*D4
340
0
 70
     0
280
     1
281
     0
  0
BLOCK_RECORD
  5
227
330
1
100
AcDbSymbolTableRecord
100
AcDbBlockTableRecord
  2
LOGO2_BL1
340
0
102
{BLKREFS
331
5E7
102
}
 70
     0
280
     1
281
     0
  0
BLOCK_RECORD
  5
228
330
1
100
AcDbSymbolTableRecord
100
AcDbBlockTableRecord
  2
PROIEZIONE_EU_BL0
340
0
102
{BLKREFS
331
5E4
102
}
 70
     0
280
     1
281
     0
  0
ENDTAB
  0
ENDSEC
  0
SECTION
  2
BLOCKS
  0
BLOCK
  5
20
330
1F
100
AcDbEntity
  8
0
100
AcDbBlockBegin
  2
*MODEL_SPACE
 70
     0
 10
0.0
 20
0.0
 30
0.0
  3
*MODEL_SPACE
  1

  0
ENDBLK
  5
21
330
1F
100
AcDbEntity
  8
0
100
AcDbBlockEnd
  0
BLOCK
  5
1C
330
1B
100
AcDbEntity
 67
     1
  8
0
100
AcDbBlockBegin
  2
*PAPER_SPACE
 70
     0
 10
0.0
 20
0.0
 30
0.0
  3
*PAPER_SPACE
  1

  0
ENDBLK
  5
1D
330
1B
100
AcDbEntity
 67
     1
  8
0
100
AcDbBlockEnd
  0
BLOCK
  5
273
330
222
100
AcDbEntity
  8
0
100
AcDbBlockBegin
  2
_CLOSED
 70
     0
 10
0.0
 20
0.0
 30
0.0
  3
_CLOSED
  1

  0
LINE
  5
274
330
222
100
AcDbEntity
  8
0
  6
ByBlock
 62
     0
100
AcDbLine
 10
0.0
 20
0.0
 30
0.0
 11
-1.0
 21
0.2
 31
0.0
  0
LINE
  5
275
330
222
100
AcDbEntity
  8
0
  6
ByBlock
 62
     0
100
AcDbLine
 10
-1.0
 20
0.2
 30
0.0
 11
-1.0
 21
-0.2
 31
0.0
  0
LINE
  5
276
330
222
100
AcDbEntity
  8
0
  6
ByBlock
 62
     0
100
AcDbLine
 10
-1.0
 20
-0.2
 30
0.0
 11
0.0
 21
0.0
 31
0.0
  0
LINE
  5
277
330
222
100
AcDbEntity
  8
0
  6
ByBlock
 62
     0
100
AcDbLine
 10
-1.0
 20
0.0
 30
0.0
 11
0.0
 21
0.0
 31
0.0
  0
ENDBLK
  5
278
330
222
100
AcDbEntity
  8
0
  6
ByBlock
 62
     0
100
AcDbBlockEnd
  0
BLOCK
  5
279
330
223
100
AcDbEntity
  8
0
100
AcDbBlockBegin
  2
*D1
 70
     1
 10
0.0
 20
0.0
 30
0.0
  3
*D1
  1

  0
MTEXT
  5
27A
330
223
100
AcDbEntity
  8
0
  6
Continuous
 62
     2
100
AcDbMText
 10
980.3215008504
 20
350.9524908991
 30
0.0
 40
3.0
 41
11.5714285714
 46
0.0
 71
     2
 72
     1
  1
1515
 73
     1
 44
1.0
  0
LINE
  5
27B
330
223
100
AcDbEntity
  8
0
  6
Continuous
 62
     2
100
AcDbLine
 10
1737.5715008504
 20
325.8031202574
 30
0.0
 11
1737.5715008504
 21
347.9524908991
 31
0.0
  0
LINE
  5
27C
330
223
100
AcDbEntity
  8
0
  6
Continuous
 62
     2
100
AcDbLine
 10
223.0715008504
 20
325.8031202574
 30
0.0
 11
223.0715008504
 21
347.9524908991
 31
0.0
  0
LINE
  5
27D
330
223
100
AcDbEntity
  8
0
  6
Continuous
 62
     2
100
AcDbLine
 10
1737.5715008504
 20
347.2024908991
 30
0.0
 11
980.3215008504
 21
347.2024908991
 31
0.0
  0
LINE
  5
27E
330
223
100
AcDbEntity
  8
0
  6
Continuous
 62
     2
100
AcDbLine
 10
223.0715008504
 20
347.2024908991
 30
0.0
 11
980.3215008504
 21
347.2024908991
 31
0.0
  0
INSERT
  5
27F
330
223
100
AcDbEntity
  8
0
  6
Continuous
 62
     2
100
AcDbBlockReference
  2
_CLOSED
 10
1737.5715008504
 20
347.2024908991
 30
0.0
 41
2.5
 42
2.5
 43
2.5
  0
INSERT
  5
280
330
223
100
AcDbEntity
  8
0
  6
Continuous
 62
     2
100
AcDbBlockReference
  2
_CLOSED
 10
223.0715008504
 20
347.2024908991
 30
0.0
 41
2.5
 42
2.5
 43
2.5
 50
180.0
  0
ENDBLK
  5
281
330
223
100
AcDbEntity
  8
0
  6
ByBlock
 62
     0
100
AcDbBlockEnd
  0
BLOCK
  5
282
330
224
100
AcDbEntity
  8
0
100
AcDbBlockBegin
  2
*D2
 70
     1
 10
0.0
 20
0.0
 30
0.0
  3
*D2
  1

  0
MTEXT
  5
283
330
224
100
AcDbEntity
  8
0
  6
Continuous
 62
     2
100
AcDbMText
 10
1747.7013323058
 20
95.4639376666
 30
0.0
 40
3.0
 41
7.0714285714
 46
0.0
 71
     2
 72
     1
  1
26
 11
0.0
 21
1.0
 31
0.0
 73
     1
 44
1.0
  0
LINE
  5
284
330
224
100
AcDbEntity
  8
0
  6
Continuous
 62
     2
100
AcDbLine
 10
1741.2239036415
 20
82.6639376666
 30
0.0
 11
1752.2013323058
 21
82.6639376666
 31
0.0
  0
LINE
  5
285
330
224
100
AcDbEntity
  8
0
  6
Continuous
 62
     2
100
AcDbLine
 10
1740.4925983993
 20
108.2639376666
 30
0.0
 11
1752.2013323058
 21
108.2639376666
 31
0.0
  0
LINE
  5
286
330
224
100
AcDbEntity
  8
0
  6
Continuous
 62
     2
100
AcDbLine
 10
1751.4513323058
 20
82.6639376666
 30
0.0
 11
1751.4513323058
 21
95.4639376666
 31
0.0
  0
LINE
  5
287
330
224
100
AcDbEntity
  8
0
  6
Continuous
 62
     2
100
AcDbLine
 10
1751.4513323058
 20
108.2639376666
 30
0.0
 11
1751.4513323058
 21
95.4639376666
 31
0.0
  0
INSERT
  5
288
330
224
100
AcDbEntity
  8
0
  6
Continuous
 62
     2
100
AcDbBlockReference
  2
_CLOSED
 10
1751.4513323058
 20
82.6639376666
 30
0.0
 41
2.5
 42
2.5
 43
2.5
 50
270.0
  0
INSERT
  5
289
330
224
100
AcDbEntity
  8
0
  6
Continuous
 62
     2
100
AcDbBlockReference
  2
_CLOSED
 10
1751.4513323058
 20
108.2639376666
 30
0.0
 41
2.5
 42
2.5
 43
2.5
 50
90.0
  0
ENDBLK
  5
28A
330
224
100
AcDbEntity
  8
0
  6
ByBlock
 62
     0
100
AcDbBlockEnd
  0
BLOCK
  5
28B
330
225
100
AcDbEntity
  8
0
100
AcDbBlockBegin
  2
*D3
 70
     1
 10
0.0
 20
0.0
 30
0.0
  3
*D3
  1

  0
MTEXT
  5
28C
330
225
100
AcDbEntity
  8
0
  6
Continuous
 62
     2
100
AcDbMText
 10
1939.0658768025
 20
287.5531202574
 30
0.0
 40
3.0
 41
6.75
 46
0.0
 71
     2
 72
     1
  1
75
 11
0.0
 21
1.0
 31
0.0
 73
     1
 44
1.0
  0
LINE
  5
28D
330
225
100
AcDbEntity
  8
0
  6
Continuous
 62
     2
100
AcDbLine
 10
1939.2358703056
 20
325.0531202574
 30
0.0
 11
1943.5658768025
 21
325.0531202574
 31
0.0
  0
LINE
  5
28E
330
225
100
AcDbEntity
  8
0
  6
Continuous
 62
     2
100
AcDbLine
 10
1939.0334728275
 20
250.0531202574
 30
0.0
 11
1943.5658768025
 21
250.0531202574
 31
0.0
  0
LINE
  5
28F
330
225
100
AcDbEntity
  8
0
  6
Continuous
 62
     2
100
AcDbLine
 10
1942.8158768025
 20
325.0531202574
 30
0.0
 11
1942.8158768025
 21
287.5531202574
 31
0.0
  0
LINE
  5
290
330
225
100
AcDbEntity
  8
0
  6
Continuous
 62
     2
100
AcDbLine
 10
1942.8158768025
 20
250.0531202574
 30
0.0
 11
1942.8158768025
 21
287.5531202574
 31
0.0
  0
INSERT
  5
291
330
225
100
AcDbEntity
  8
0
  6
Continuous
 62
     2
100
AcDbBlockReference
  2
_CLOSED
 10
1942.8158768025
 20
325.0531202574
 30
0.0
 41
2.5
 42
2.5
 43
2.5
 50
90.0
  0
INSERT
  5
292
330
225
100
AcDbEntity
  8
0
  6
Continuous
 62
     2
100
AcDbBlockReference
  2
_CLOSED
 10
1942.8158768025
 20
250.0531202574
 30
0.0
 41
2.5
 42
2.5
 43
2.5
 50
270.0
  0
ENDBLK
  5
293
330
225
100
AcDbEntity
  8
0
  6
ByBlock
 62
     0
100
AcDbBlockEnd
  0
BLOCK
  5
294
330
226
100
AcDbEntity
  8
0
100
AcDbBlockBegin
  2
*D4
 70
     1
 10
0.0
 20
0.0
 30
0.0
  3
*D4
  1

  0
MTEXT
  5
295
330
226
100
AcDbEntity
  8
0
  6
Continuous
 62
     2
100
AcDbMText
 10
1756.0658145189
 20
95.4639376666
 30
0.0
 40
3.0
 41
12.8571428571
 46
0.0
 71
     2
 72
     1
  1
72,3
 11
0.0
 21
1.0
 31
0.0
 73
     1
 44
1.0
  0
LINE
  5
296
330
226
100
AcDbEntity
  8
0
  6
Continuous
 62
     2
100
AcDbLine
 10
1701.220394831
 20
59.3139376666
 30
0.0
 11
1760.5658145189
 21
59.3139376666
 31
0.0
  0
LINE
  5
297
330
226
100
AcDbEntity
  8
0
  6
Continuous
 62
     2
100
AcDbLine
 10
1703.750696526
 20
131.6139376666
 30
0.0
 11
1760.5658145189
 21
131.6139376666
 31
0.0
  0
LINE
  5
298
330
226
100
AcDbEntity
  8
0
  6
Continuous
 62
     2
100
AcDbLine
 10
1759.8158145189
 20
59.3139376666
 30
0.0
 11
1759.8158145189
 21
95.4639376666
 31
0.0
  0
LINE
  5
299
330
226
100
AcDbEntity
  8
0
  6
Continuous
 62
     2
100
AcDbLine
 10
1759.8158145189
 20
131.6139376666
 30
0.0
 11
1759.8158145189
 21
95.4639376666
 31
0.0
  0
INSERT
  5
29A
330
226
100
AcDbEntity
  8
0
  6
Continuous
 62
     2
100
AcDbBlockReference
  2
_CLOSED
 10
1759.8158145189
 20
59.3139376666
 30
0.0
 41
2.5
 42
2.5
 43
2.5
 50
270.0
  0
INSERT
  5
29B
330
226
100
AcDbEntity
  8
0
  6
Continuous
 62
     2
100
AcDbBlockReference
  2
_CLOSED
 10
1759.8158145189
 20
131.6139376666
 30
0.0
 41
2.5
 42
2.5
 43
2.5
 50
90.0
  0
ENDBLK
  5
29C
330
226
100
AcDbEntity
  8
0
  6
ByBlock
 62
     0
100
AcDbBlockEnd
  0
BLOCK
  5
22D
330
227
100
AcDbEntity
  8
0
100
AcDbBlockBegin
  2
LOGO2_BL1
 70
     0
 10
1868.373045082
 20
44.4325494004
 30
0.0
  3
LOGO2_BL1
  1

  0
LINE
  5
22E
330
227
100
AcDbEntity
  8
0
  6
Continuous
 62
     7
100
AcDbLine
 10
1860.1159703102
 20
47.6280407392
 30
0.0
 11
1858.8116293808
 21
47.6280407392
 31
0.0
  0
LINE
  5
22F
330
227
100
AcDbEntity
  8
0
  6
Continuous
 62
     7
100
AcDbLine
 10
1858.8116293808
 20
47.6280407392
 30
0.0
 11
1858.8116293808
 21
37.1689746793
 31
0.0
  0
LINE
  5
230
330
227
100
AcDbEntity
  8
0
  6
Continuous
 62
     7
100
AcDbLine
 10
1858.8116293808
 20
37.1689746793
 30
0.0
 11
1863.2926842691
 21
37.1689746793
 31
0.0
  0
LINE
  5
231
330
227
100
AcDbEntity
  8
0
  6
Continuous
 62
     7
100
AcDbLine
 10
1863.2926842691
 20
37.1689746793
 30
0.0
 11
1863.2926842691
 21
38.3618290044
 31
0.0
  0
LINE
  5
232
330
227
100
AcDbEntity
  8
0
  6
Continuous
 62
     7
100
AcDbLine
 10
1863.2926842691
 20
38.3618290044
 30
0.0
 11
1860.1159703102
 21
38.3618290044
 31
0.0
  0
LINE
  5
233
330
227
100
AcDbEntity
  8
0
  6
Continuous
 62
     7
100
AcDbLine
 10
1860.1159703102
 20
38.3618290044
 30
0.0
 11
1860.1159703102
 21
47.6280407392
 31
0.0
  0
LINE
  5
234
330
227
100
AcDbEntity
  8
0
  6
Continuous
 62
     7
100
AcDbLine
 10
1875.0522965265
 20
47.6280407392
 30
0.0
 11
1873.7484790084
 21
47.6280407392
 31
0.0
  0
LINE
  5
235
330
227
100
AcDbEntity
  8
0
  6
Continuous
 62
     7
100
AcDbLine
 10
1873.7484790084
 20
47.6280407392
 30
0.0
 11
1873.7484790084
 21
37.1689746793
 31
0.0
  0
LINE
  5
236
330
227
100
AcDbEntity
  8
0
  6
Continuous
 62
     7
100
AcDbLine
 10
1873.7484790084
 20
37.1689746793
 30
0.0
 11
1878.2296647495
 21
37.1689746793
 31
0.0
  0
LINE
  5
237
330
227
100
AcDbEntity
  8
0
  6
Continuous
 62
     7
100
AcDbLine
 10
1878.2296647495
 20
37.1689746793
 30
0.0
 11
1878.2296647495
 21
38.3618290044
 31
0.0
  0
LINE
  5
238
330
227
100
AcDbEntity
  8
0
  6
Continuous
 62
     7
100
AcDbLine
 10
1878.2296647495
 20
38.3618290044
 30
0.0
 11
1875.0522965265
 21
38.3618290044
 31
0.0
  0
LINE
  5
239
330
227
100
AcDbEntity
  8
0
  6
Continuous
 62
     7
100
AcDbLine
 10
1875.0522965265
 20
38.3618290044
 30
0.0
 11
1875.0522965265
 21
47.6280407392
 31
0.0
  0
LWPOLYLINE
  5
23A
330
227
100
AcDbEntity
  8
0
  6
Continuous
 62
     7
100
AcDbPolyline
 90
        2
 70
     0
 43
0.2
 10
1857.1660242917
 20
33.8254233724
 10
1857.1660242917
 20
31.9683601231
  0
LWPOLYLINE
  5
23B
330
227
100
AcDbEntity
  8
0
  6
Continuous
 62
     7
100
AcDbPolyline
 90
        2
 70
     0
 43
0.2
 10
1857.1660242917
 20
31.9683601231
 10
1857.9617403021
 20
31.9683601231
  0
LWPOLYLINE
  5
23C
330
227
100
AcDbEntity
  8
0
  6
Continuous
 62
     7
100
AcDbPolyline
 90
        2
 70
     0
 43
0.2
 10
1857.9617403021
 20
31.9683601231
 10
1857.9617403021
 20
32.1803416947
  0
LWPOLYLINE
  5
23D
330
227
100
AcDbEntity
  8
0
  6
Continuous
 62
     7
100
AcDbPolyline
 90
        2
 70
     0
 43
0.2
 10
1857.9617403021
 20
32.1803416947
 10
1857.3976337866
 20
32.1803416947
  0
LWPOLYLINE
  5
23E
330
227
100
AcDbEntity
  8
0
  6
Continuous
 62
     7
100
AcDbPolyline
 90
        2
 70
     0
 43
0.2
 10
1857.3976337866
 20
32.1803416947
 10
1857.3976337866
 20
33.8254233724
  0
LWPOLYLINE
  5
23F
330
227
100
AcDbEntity
  8
0
  6
Continuous
 62
     7
100
AcDbPolyline
 90
        2
 70
     0
 43
0.2
 10
1857.3976337866
 20
33.8254233724
 10
1857.1660242917
 20
33.8254233724
  0
SPLINE
  5
240
330
227
100
AcDbEntity
  8
0
  6
Continuous
 62
     7
100
AcDbSpline
 70
     3
 71
     3
 72
    35
 73
    31
 74
     0
 42
0.000000001
 43
0.0000001
 40
0.0
 40
0.0
 40
0.0
 40
0.0
 40
1.0
 40
1.0
 40
1.0
 40
2.0
 40
2.0
 40
2.0
 40
3.0
 40
3.0
 40
3.0
 40
4.0
 40
4.0
 40
4.0
 40
5.0
 40
5.0
 40
5.0
 40
6.0
 40
6.0
 40
6.0
 40
7.0
 40
7.0
 40
7.0
 40
8.0
 40
8.0
 40
8.0
 40
9.0
 40
9.0
 40
9.0
 40
10.0
 40
10.0
 40
10.0
 40
10.0
 10
1859.3600335577
 20
33.120911779
 30
0.0
 10
1859.3600335577
 20
33.120911779
 30
0.0
 10
1859.3600335577
 20
32.4587964998
 30
0.0
 10
1859.3600335577
 20
32.4587964998
 30
0.0
 10
1859.3600335577
 20
32.1437029045
 30
0.0
 10
1859.5078972465
 20
31.9291042765
 30
0.0
 10
1859.8479837308
 20
31.9291042765
 30
0.0
 10
1860.1875468038
 20
31.9291042765
 30
0.0
 10
1860.3356721982
 20
32.1437029045
 30
0.0
 10
1860.3356721982
 20
32.4587964998
 30
0.0
 10
1860.3356721982
 20
32.4587964998
 30
0.0
 10
1860.3356721982
 20
33.120911779
 30
0.0
 10
1860.3356721982
 20
33.120911779
 30
0.0
 10
1860.3356721982
 20
33.120911779
 30
0.0
 10
1860.1136149594
 20
33.120911779
 30
0.0
 10
1860.1136149594
 20
33.120911779
 30
0.0
 10
1860.1136149594
 20
33.120911779
 30
0.0
 10
1860.1136149594
 20
32.4839202416
 30
0.0
 10
1860.1136149594
 20
32.4839202416
 30
0.0
 10
1860.1136149594
 20
32.2981092344
 30
0.0
 10
1860.0669005019
 20
32.1353283239
 30
0.0
 10
1859.8479837308
 20
32.1353283239
 30
0.0
 10
1859.6285435483
 20
32.1353283239
 30
0.0
 10
1859.5818290909
 20
32.2981092344
 30
0.0
 10
1859.5818290909
 20
32.4839202416
 30
0.0
 10
1859.5818290909
 20
32.4839202416
 30
0.0
 10
1859.5818290909
 20
33.120911779
 30
0.0
 10
1859.5818290909
 20
33.120911779
 30
0.0
 10
1859.5818290909
 20
33.120911779
 30
0.0
 10
1859.3600335577
 20
33.120911779
 30
0.0
 10
1859.3600335577
 20
33.120911779
 30
0.0
  0
SPLINE
  5
241
330
227
100
AcDbEntity
  8
0
  6
Continuous
 62
     7
100
AcDbSpline
 70
     3
 71
     3
 72
    35
 73
    31
 74
     0
 42
0.000000001
 43
0.0000001
 40
0.0
 40
0.0
 40
0.0
 40
0.0
 40
1.0
 40
1.0
 40
1.0
 40
2.0
 40
2.0
 40
2.0
 40
3.0
 40
3.0
 40
3.0
 40
4.0
 40
4.0
 40
4.0
 40
5.0
 40
5.0
 40
5.0
 40
6.0
 40
6.0
 40
6.0
 40
7.0
 40
7.0
 40
7.0
 40
8.0
 40
8.0
 40
8.0
 40
9.0
 40
9.0
 40
9.0
 40
10.0
 40
10.0
 40
10.0
 40
10.0
 10
1862.7588047554
 20
33.0795622872
 30
0.0
 10
1862.6703482478
 20
33.1308565934
 30
0.0
 10
1862.5568988511
 20
33.1559803352
 30
0.0
 10
1862.4532634161
 20
33.1559803352
 30
0.0
 10
1862.098390563
 20
33.1559803352
 30
0.0
 10
1861.8229453727
 20
32.8921810462
 30
0.0
 10
1861.8229453727
 20
32.5346911365
 30
0.0
 10
1861.8229453727
 20
32.1897630978
 30
0.0
 10
1862.1014001779
 20
31.9296276878
 30
0.0
 10
1862.4409632509
 20
31.9296276878
 30
0.0
 10
1862.5568988511
 20
31.9296276878
 30
0.0
 10
1862.6576555241
 20
31.9516109619
 30
0.0
 10
1862.7588047554
 20
32.0055223245
 30
0.0
 10
1862.7588047554
 20
32.0055223245
 30
0.0
 10
1862.7588047554
 20
32.28816442
 30
0.0
 10
1862.7588047554
 20
32.28816442
 30
0.0
 10
1862.6749280966
 20
32.1949972107
 30
0.0
 10
1862.5714235144
 20
32.1358517352
 30
0.0
 10
1862.4433186017
 20
32.1358517352
 30
0.0
 10
1862.2096154616
 20
32.1358517352
 30
0.0
 10
1862.0443483475
 20
32.3080540489
 30
0.0
 10
1862.0443483475
 20
32.544635951
 30
0.0
 10
1862.0443483475
 20
32.7566175226
 30
0.0
 10
1862.2121016653
 20
32.9487094652
 30
0.0
 10
1862.4289247913
 20
32.9487094652
 30
0.0
 10
1862.5617404056
 20
32.9487094652
 30
0.0
 10
1862.6703482478
 20
32.8947981026
 30
0.0
 10
1862.7588047554
 20
32.793779724
 30
0.0
 10
1862.7588047554
 20
32.793779724
 30
0.0
 10
1862.7588047554
 20
33.0795622872
 30
0.0
 10
1862.7588047554
 20
33.0795622872
 30
0.0
  0
SPLINE
  5
242
330
227
100
AcDbEntity
  8
0
  6
Continuous
 62
     7
100
AcDbSpline
 70
     3
 71
     3
 72
    32
 73
    28
 74
     0
 42
0.000000001
 43
0.0000001
 40
0.0
 40
0.0
 40
0.0
 40
0.0
 40
1.0
 40
1.0
 40
1.0
 40
2.0
 40
2.0
 40
2.0
 40
3.0
 40
3.0
 40
3.0
 40
4.0
 40
4.0
 40
4.0
 40
5.0
 40
5.0
 40
5.0
 40
6.0
 40
6.0
 40
6.0
 40
7.0
 40
7.0
 40
7.0
 40
8.0
 40
8.0
 40
8.0
 40
9.0
 40
9.0
 40
9.0
 40
9.0
 10
1865.2906760077
 20
32.5079971609
 30
0.0
 10
1865.2906760077
 20
32.5079971609
 30
0.0
 10
1865.2906760077
 20
32.5420188946
 30
0.0
 10
1865.2906760077
 20
32.5420188946
 30
0.0
 10
1865.2906760077
 20
32.8843298768
 30
0.0
 10
1865.1178194299
 20
33.1559803352
 30
0.0
 10
1864.7511698227
 20
33.1559803352
 30
0.0
 10
1864.3795478083
 20
33.1559803352
 30
0.0
 10
1864.1898112165
 20
32.8895639897
 30
0.0
 10
1864.1898112165
 20
32.5346911365
 30
0.0
 10
1864.1898112165
 20
32.1949972107
 30
0.0
 10
1864.4038864332
 20
31.9291042765
 30
0.0
 10
1864.7560113771
 20
31.9291042765
 30
0.0
 10
1864.9800314083
 20
31.9291042765
 30
0.0
 10
1865.1821990183
 20
32.0447781711
 30
0.0
 10
1865.2906760077
 20
32.2441978718
 30
0.0
 10
1865.2906760077
 20
32.2441978718
 30
0.0
 10
1865.103033061
 20
32.3509737745
 30
0.0
 10
1865.103033061
 20
32.3509737745
 30
0.0
 10
1865.0195489606
 20
32.2122697832
 30
0.0
 10
1864.9283445437
 20
32.126430332
 30
0.0
 10
1864.7587592864
 20
32.126430332
 30
0.0
 10
1864.5467777148
 20
32.126430332
 30
0.0
 10
1864.4138312477
 20
32.3111945166
 30
0.0
 10
1864.4114758969
 20
32.5079971609
 30
0.0
 10
1864.4114758969
 20
32.5079971609
 30
0.0
 10
1865.2906760077
 20
32.5079971609
 30
0.0
 10
1865.2906760077
 20
32.5079971609
 30
0.0
  0
SPLINE
  5
243
330
227
100
AcDbEntity
  8
0
  6
Continuous
 62
     7
100
AcDbSpline
 70
     3
 71
     3
 72
    14
 73
    10
 74
     0
 42
0.000000001
 43
0.0000001
 40
0.0
 40
0.0
 40
0.0
 40
0.0
 40
1.0
 40
1.0
 40
1.0
 40
2.0
 40
2.0
 40
2.0
 40
3.0
 40
3.0
 40
3.0
 40
3.0
 10
1864.4235143565
 20
32.675488773
 30
0.0
 10
1864.4511243019
 20
32.8403633287
 30
0.0
 10
1864.578967509
 20
32.9633649813
 30
0.0
 10
1864.7511698227
 20
32.9633649813
 30
0.0
 10
1864.9283445437
 20
32.9633649813
 30
0.0
 10
1865.0417939403
 20
32.8476910867
 30
0.0
 10
1865.0690113273
 20
32.675488773
 30
0.0
 10
1865.0690113273
 20
32.675488773
 30
0.0
 10
1864.4235143565
 20
32.675488773
 30
0.0
 10
1864.4235143565
 20
32.675488773
 30
0.0
  0
SPLINE
  5
244
330
227
100
AcDbEntity
  8
0
  6
Continuous
 62
     7
100
AcDbSpline
 70
     3
 71
     3
 72
    20
 73
    16
 74
     0
 42
0.000000001
 43
0.0000001
 40
0.0
 40
0.0
 40
0.0
 40
0.0
 40
1.0
 40
1.0
 40
1.0
 40
2.0
 40
2.0
 40
2.0
 40
3.0
 40
3.0
 40
3.0
 40
4.0
 40
4.0
 40
4.0
 40
5.0
 40
5.0
 40
5.0
 40
5.0
 10
1867.3147074579
 20
32.8848532881
 30
0.0
 10
1867.3147074579
 20
32.8848532881
 30
0.0
 10
1867.7258470245
 20
32.3823784518
 30
0.0
 10
1867.7258470245
 20
32.3823784518
 30
0.0
 10
1867.6097805714
 20
32.2667045572
 30
0.0
 10
1867.4719925499
 20
32.1363751465
 30
0.0
 10
1867.3000519418
 20
32.1363751465
 30
0.0
 10
1867.1226155152
 20
32.1363751465
 30
0.0
 10
1866.9551239031
 20
32.3007262909
 30
0.0
 10
1866.9551239031
 20
32.4776393062
 30
0.0
 10
1866.9551239031
 20
32.655599144
 30
0.0
 10
1867.1648809767
 20
32.7817412644
 30
0.0
 10
1867.2924624782
 20
32.8696743608
 30
0.0
 10
1867.2924624782
 20
32.8696743608
 30
0.0
 10
1867.3147074579
 20
32.8848532881
 30
0.0
 10
1867.3147074579
 20
32.8848532881
 30
0.0
  0
SPLINE
  5
245
330
227
100
AcDbEntity
  8
0
  6
Continuous
 62
     7
100
AcDbSpline
 70
     3
 71
     3
 72
    23
 73
    19
 74
     0
 42
0.000000001
 43
0.0000001
 40
0.0
 40
0.0
 40
0.0
 40
0.0
 40
1.0
 40
1.0
 40
1.0
 40
2.0
 40
2.0
 40
2.0
 40
3.0
 40
3.0
 40
3.0
 40
4.0
 40
4.0
 40
4.0
 40
5.0
 40
5.0
 40
5.0
 40
6.0
 40
6.0
 40
6.0
 40
6.0
 10
1867.3640389718
 20
33.1758699642
 30
0.0
 10
1867.3640389718
 20
33.1758699642
 30
0.0
 10
1867.3024072926
 20
33.2543816574
 30
0.0
 10
1867.3024072926
 20
33.2543816574
 30
0.0
 10
1867.24849593
 20
33.3229485361
 30
0.0
 10
1867.1917058052
 20
33.3920388261
 30
0.0
 10
1867.1917058052
 20
33.4857294466
 30
0.0
 10
1867.1917058052
 20
33.6045438089
 30
0.0
 10
1867.2876209237
 20
33.6820086796
 30
0.0
 10
1867.3985841168
 20
33.6820086796
 30
0.0
 10
1867.5218474751
 20
33.6820086796
 30
0.0
 10
1867.6151455371
 20
33.6108247444
 30
0.0
 10
1867.6151455371
 20
33.4804953337
 30
0.0
 10
1867.6151455371
 20
33.3454552215
 30
0.0
 10
1867.4870406244
 20
33.2690371734
 30
0.0
 10
1867.3934808567
 20
33.1952361818
 30
0.0
 10
1867.3934808567
 20
33.1952361818
 30
0.0
 10
1867.3640389718
 20
33.1758699642
 30
0.0
 10
1867.3640389718
 20
33.1758699642
 30
0.0
  0
SPLINE
  5
246
330
227
100
AcDbEntity
  8
0
  6
Continuous
 62
     7
100
AcDbSpline
 70
     3
 71
     3
 72
    50
 73
    46
 74
     0
 42
0.000000001
 43
0.0000001
 40
0.0
 40
0.0
 40
0.0
 40
0.0
 40
1.0
 40
1.0
 40
1.0
 40
2.0
 40
2.0
 40
2.0
 40
3.0
 40
3.0
 40
3.0
 40
4.0
 40
4.0
 40
4.0
 40
5.0
 40
5.0
 40
5.0
 40
6.0
 40
6.0
 40
6.0
 40
7.0
 40
7.0
 40
7.0
 40
8.0
 40
8.0
 40
8.0
 40
9.0
 40
9.0
 40
9.0
 40
10.0
 40
10.0
 40
10.0
 40
11.0
 40
11.0
 40
11.0
 40
12.0
 40
12.0
 40
12.0
 40
13.0
 40
13.0
 40
13.0
 40
14.0
 40
14.0
 40
14.0
 40
15.0
 40
15.0
 40
15.0
 40
15.0
 10
1868.0661952144
 20
31.9688835344
 30
0.0
 10
1868.0661952144
 20
31.9688835344
 30
0.0
 10
1868.3515852192
 20
31.9688835344
 30
0.0
 10
1868.3515852192
 20
31.9688835344
 30
0.0
 10
1868.3515852192
 20
31.9688835344
 30
0.0
 10
1868.0192190514
 20
32.3797613953
 30
0.0
 10
1868.0192190514
 20
32.3797613953
 30
0.0
 10
1868.0192190514
 20
32.3797613953
 30
0.0
 10
1868.2457252862
 20
32.6456543296
 30
0.0
 10
1868.2457252862
 20
32.6456543296
 30
0.0
 10
1868.2457252862
 20
32.6456543296
 30
0.0
 10
1868.0974690389
 20
32.7984904256
 30
0.0
 10
1868.0974690389
 20
32.7984904256
 30
0.0
 10
1868.0974690389
 20
32.7984904256
 30
0.0
 10
1867.8815618826
 20
32.5472530075
 30
0.0
 10
1867.8815618826
 20
32.5472530075
 30
0.0
 10
1867.8815618826
 20
32.5472530075
 30
0.0
 10
1867.4944992353
 20
33.0151826988
 30
0.0
 10
1867.4944992353
 20
33.0151826988
 30
0.0
 10
1867.6499523878
 20
33.1292863596
 30
0.0
 10
1867.8322303688
 20
33.2690371734
 30
0.0
 10
1867.8322303688
 20
33.4784016886
 30
0.0
 10
1867.8322303688
 20
33.7223113487
 30
0.0
 10
1867.6301936116
 20
33.8657260416
 30
0.0
 10
1867.4036873768
 20
33.8657260416
 30
0.0
 10
1867.159516011
 20
33.8657260416
 30
0.0
 10
1866.9751443849
 20
33.7149835907
 30
0.0
 10
1866.9751443849
 20
33.4585120596
 30
0.0
 10
1866.9751443849
 20
33.300965262
 30
0.0
 10
1867.0738074126
 20
33.1633080933
 30
0.0
 10
1867.1791439343
 20
33.0523449002
 30
0.0
 10
1867.1791439343
 20
33.0523449002
 30
0.0
 10
1867.0636008925
 20
32.9685990942
 30
0.0
 10
1867.0636008925
 20
32.9685990942
 30
0.0
 10
1866.8859027603
 20
32.8403633287
 30
0.0
 10
1866.7385624828
 20
32.7126509744
 30
0.0
 10
1866.7385624828
 20
32.475545661
 30
0.0
 10
1866.7385624828
 20
32.1552179528
 30
0.0
 10
1866.997127659
 20
31.9291042765
 30
0.0
 10
1867.3075105527
 20
31.9291042765
 30
0.0
 10
1867.5264273238
 20
31.9291042765
 30
0.0
 10
1867.7236225265
 20
32.0541995743
 30
0.0
 10
1867.8638967517
 20
32.2201209525
 30
0.0
 10
1867.8638967517
 20
32.2201209525
 30
0.0
 10
1868.0661952144
 20
31.9688835344
 30
0.0
 10
1868.0661952144
 20
31.9688835344
 30
0.0
  0
LWPOLYLINE
  5
247
330
227
100
AcDbEntity
  8
0
  6
Continuous
 62
     7
100
AcDbPolyline
 90
        2
 70
     0
 43
0.2
 10
1870.0016393042
 20
33.8254233724
 10
1869.7702915149
 20
33.8254233724
  0
LWPOLYLINE
  5
248
330
227
100
AcDbEntity
  8
0
  6
Continuous
 62
     7
100
AcDbPolyline
 90
        2
 70
     0
 43
0.2
 10
1869.7702915149
 20
33.8254233724
 10
1869.7702915149
 20
31.9683601231
  0
LWPOLYLINE
  5
249
330
227
100
AcDbEntity
  8
0
  6
Continuous
 62
     7
100
AcDbPolyline
 90
        2
 70
     0
 43
0.2
 10
1869.7702915149
 20
31.9683601231
 10
1870.5656149668
 20
31.9683601231
  0
LWPOLYLINE
  5
24A
330
227
100
AcDbEntity
  8
0
  6
Continuous
 62
     7
100
AcDbPolyline
 90
        2
 70
     0
 43
0.2
 10
1870.5656149668
 20
31.9683601231
 10
1870.5656149668
 20
32.1803416947
  0
LWPOLYLINE
  5
24B
330
227
100
AcDbEntity
  8
0
  6
Continuous
 62
     7
100
AcDbPolyline
 90
        2
 70
     0
 43
0.2
 10
1870.5656149668
 20
32.1803416947
 10
1870.0016393042
 20
32.1803416947
  0
LWPOLYLINE
  5
24C
330
227
100
AcDbEntity
  8
0
  6
Continuous
 62
     7
100
AcDbPolyline
 90
        2
 70
     0
 43
0.2
 10
1870.0016393042
 20
32.1803416947
 10
1870.0016393042
 20
33.8254233724
  0
LWPOLYLINE
  5
24D
330
227
100
AcDbEntity
  8
0
  6
Continuous
 62
     7
100
AcDbPolyline
 90
        2
 70
     0
 43
0.2
 10
1872.2447183783
 20
33.120911779
 10
1872.0235771092
 20
33.120911779
  0
LWPOLYLINE
  5
24E
330
227
100
AcDbEntity
  8
0
  6
Continuous
 62
     7
100
AcDbPolyline
 90
        2
 70
     0
 43
0.2
 10
1872.0235771092
 20
33.120911779
 10
1872.0235771092
 20
31.9688835344
  0
LWPOLYLINE
  5
24F
330
227
100
AcDbEntity
  8
0
  6
Continuous
 62
     7
100
AcDbPolyline
 90
        2
 70
     0
 43
0.2
 10
1872.0235771092
 20
31.9688835344
 10
1872.2447183783
 20
31.9688835344
  0
LWPOLYLINE
  5
250
330
227
100
AcDbEntity
  8
0
  6
Continuous
 62
     7
100
AcDbPolyline
 90
        2
 70
     0
 43
0.2
 10
1872.2447183783
 20
31.9688835344
 10
1872.2447183783
 20
33.120911779
  0
LWPOLYLINE
  5
251
330
227
100
AcDbEntity
  8
0
  6
Continuous
 62
     7
100
AcDbPolyline
 90
        2
 70
     1
 43
0.2
 10
1871.9816951011
 20
33.6508657079
 42
1.0
 10
1872.2868620921
 20
33.6508657079
 42
1.0
  0
SPLINE
  5
252
330
227
100
AcDbEntity
  8
0
  6
Continuous
 62
     7
100
AcDbSpline
 70
     3
 71
     3
 72
    17
 73
    13
 74
     0
 42
0.000000001
 43
0.0000001
 40
0.0
 40
0.0
 40
0.0
 40
0.0
 40
1.0
 40
1.0
 40
1.0
 40
2.0
 40
2.0
 40
2.0
 40
3.0
 40
3.0
 40
3.0
 40
4.0
 40
4.0
 40
4.0
 40
4.0
 10
1874.37500232
 20
32.126430332
 30
0.0
 10
1874.1410374743
 20
32.126430332
 30
0.0
 10
1874.0107080636
 20
32.3284670891
 30
0.0
 10
1874.0107080636
 20
32.544635951
 30
0.0
 10
1874.0107080636
 20
32.759234579
 30
0.0
 10
1874.1465332928
 20
32.9581308684
 30
0.0
 10
1874.37500232
 20
32.9581308684
 30
0.0
 10
1874.6144629842
 20
32.9581308684
 30
0.0
 10
1874.7500265077
 20
32.7691793935
 30
0.0
 10
1874.7500265077
 20
32.544635951
 30
0.0
 10
1874.7500265077
 20
32.3185222747
 30
0.0
 10
1874.616818335
 20
32.126430332
 30
0.0
 10
1874.37500232
 20
32.126430332
 30
0.0
  0
SPLINE
  5
253
330
227
100
AcDbEntity
  8
0
  6
Continuous
 62
     7
100
AcDbSpline
 70
     3
 71
     3
 72
    50
 73
    46
 74
     0
 42
0.000000001
 43
0.0000001
 40
0.0
 40
0.0
 40
0.0
 40
0.0
 40
1.0
 40
1.0
 40
1.0
 40
2.0
 40
2.0
 40
2.0
 40
3.0
 40
3.0
 40
3.0
 40
4.0
 40
4.0
 40
4.0
 40
5.0
 40
5.0
 40
5.0
 40
6.0
 40
6.0
 40
6.0
 40
7.0
 40
7.0
 40
7.0
 40
8.0
 40
8.0
 40
8.0
 40
9.0
 40
9.0
 40
9.0
 40
10.0
 40
10.0
 40
10.0
 40
11.0
 40
11.0
 40
11.0
 40
12.0
 40
12.0
 40
12.0
 40
13.0
 40
13.0
 40
13.0
 40
14.0
 40
14.0
 40
14.0
 40
15.0
 40
15.0
 40
15.0
 40
15.0
 10
1874.9591293172
 20
33.1214351902
 30
0.0
 10
1874.9591293172
 20
33.1214351902
 30
0.0
 10
1874.7374646368
 20
33.1214351902
 30
0.0
 10
1874.7374646368
 20
33.1214351902
 30
0.0
 10
1874.7374646368
 20
33.1214351902
 30
0.0
 10
1874.7374646368
 20
32.9241091347
 30
0.0
 10
1874.7374646368
 20
32.9241091347
 30
0.0
 10
1874.7374646368
 20
32.9241091347
 30
0.0
 10
1874.7327539352
 20
32.9241091347
 30
0.0
 10
1874.7327539352
 20
32.9241091347
 30
0.0
 10
1874.6414186655
 20
33.0670004163
 30
0.0
 10
1874.5034997911
 20
33.155456924
 30
0.0
 10
1874.3307740661
 20
33.155456924
 30
0.0
 10
1873.9984078983
 20
33.155456924
 30
0.0
 10
1873.7893050888
 20
32.8675807156
 30
0.0
 10
1873.7893050888
 20
32.551963709
 30
0.0
 10
1873.7893050888
 20
32.2222145977
 30
0.0
 10
1873.9863694387
 20
31.9291042765
 30
0.0
 10
1874.3412422919
 20
31.9291042765
 30
0.0
 10
1874.5034997911
 20
31.9291042765
 30
0.0
 10
1874.6435123106
 20
32.0175607841
 30
0.0
 10
1874.7327539352
 20
32.1484136061
 30
0.0
 10
1874.7327539352
 20
32.1484136061
 30
0.0
 10
1874.7374646368
 20
32.1484136061
 30
0.0
 10
1874.7374646368
 20
32.1484136061
 30
0.0
 10
1874.7374646368
 20
32.1484136061
 30
0.0
 10
1874.7374646368
 20
31.9291042765
 30
0.0
 10
1874.7374646368
 20
31.9291042765
 30
0.0
 10
1874.7374646368
 20
31.6925223744
 30
0.0
 10
1874.6809362177
 20
31.5056645446
 30
0.0
 10
1874.4077155255
 20
31.5056645446
 30
0.0
 10
1874.2054170627
 20
31.5056645446
 30
0.0
 10
1874.0627874868
 20
31.6239554956
 30
0.0
 10
1874.0627874868
 20
31.8301795431
 30
0.0
 10
1874.0627874868
 20
31.8301795431
 30
0.0
 10
1873.8411228063
 20
31.8301795431
 30
0.0
 10
1873.8411228063
 20
31.8301795431
 30
0.0
 10
1873.8460952136
 20
31.5056645446
 30
0.0
 10
1874.0771812972
 20
31.3088619004
 30
0.0
 10
1874.3975090053
 20
31.3088619004
 30
0.0
 10
1874.8455490678
 20
31.3088619004
 30
0.0
 10
1874.9591293172
 20
31.5941210522
 30
0.0
 10
1874.9591293172
 20
31.9908668084
 30
0.0
 10
1874.9591293172
 20
31.9908668084
 30
0.0
 10
1874.9591293172
 20
33.1214351902
 30
0.0
 10
1874.9591293172
 20
33.1214351902
 30
0.0
  0
SPLINE
  5
254
330
227
100
AcDbEntity
  8
0
  6
Continuous
 62
     7
100
AcDbSpline
 70
     3
 71
     3
 72
    44
 73
    40
 74
     0
 42
0.000000001
 43
0.0000001
 40
0.0
 40
0.0
 40
0.0
 40
0.0
 40
1.0
 40
1.0
 40
1.0
 40
2.0
 40
2.0
 40
2.0
 40
3.0
 40
3.0
 40
3.0
 40
4.0
 40
4.0
 40
4.0
 40
5.0
 40
5.0
 40
5.0
 40
6.0
 40
6.0
 40
6.0
 40
7.0
 40
7.0
 40
7.0
 40
8.0
 40
8.0
 40
8.0
 40
9.0
 40
9.0
 40
9.0
 40
10.0
 40
10.0
 40
10.0
 40
11.0
 40
11.0
 40
11.0
 40
12.0
 40
12.0
 40
12.0
 40
13.0
 40
13.0
 40
13.0
 40
13.0
 10
1876.5280546526
 20
34.106495234
 30
0.0
 10
1876.5280546526
 20
34.106495234
 30
0.0
 10
1876.5280546526
 20
31.9683601231
 30
0.0
 10
1876.5280546526
 20
31.9683601231
 30
0.0
 10
1876.5280546526
 20
31.9683601231
 30
0.0
 10
1876.7494576274
 20
31.9683601231
 30
0.0
 10
1876.7494576274
 20
31.9683601231
 30
0.0
 10
1876.7494576274
 20
31.9683601231
 30
0.0
 10
1876.7494576274
 20
32.4980523464
 30
0.0
 10
1876.7494576274
 20
32.4980523464
 30
0.0
 10
1876.7494576274
 20
32.7079402728
 30
0.0
 10
1876.7494576274
 20
32.9586542797
 30
0.0
 10
1877.0347167793
 20
32.9586542797
 30
0.0
 10
1877.2616155726
 20
32.9586542797
 30
0.0
 10
1877.2885712539
 20
32.8257078126
 30
0.0
 10
1877.2885712539
 20
32.6294285796
 30
0.0
 10
1877.2885712539
 20
32.6294285796
 30
0.0
 10
1877.2885712539
 20
31.9683601231
 30
0.0
 10
1877.2885712539
 20
31.9683601231
 30
0.0
 10
1877.2885712539
 20
31.9683601231
 30
0.0
 10
1877.51049764
 20
31.9683601231
 30
0.0
 10
1877.51049764
 20
31.9683601231
 30
0.0
 10
1877.51049764
 20
31.9683601231
 30
0.0
 10
1877.51049764
 20
32.655599144
 30
0.0
 10
1877.51049764
 20
32.655599144
 30
0.0
 10
1877.51049764
 20
32.9361475943
 30
0.0
 10
1877.4264901282
 20
33.1559803352
 30
0.0
 10
1877.1014517185
 20
33.1559803352
 30
0.0
 10
1876.9617009046
 20
33.1559803352
 30
0.0
 10
1876.8235203246
 20
33.0895071017
 30
0.0
 10
1876.754168329
 20
32.966505449
 30
0.0
 10
1876.754168329
 20
32.966505449
 30
0.0
 10
1876.7494576274
 20
32.966505449
 30
0.0
 10
1876.7494576274
 20
32.966505449
 30
0.0
 10
1876.7494576274
 20
32.966505449
 30
0.0
 10
1876.7494576274
 20
34.106495234
 30
0.0
 10
1876.7494576274
 20
34.106495234
 30
0.0
 10
1876.7494576274
 20
34.106495234
 30
0.0
 10
1876.5280546526
 20
34.106495234
 30
0.0
 10
1876.5280546526
 20
34.106495234
 30
0.0
  0
LWPOLYLINE
  5
255
330
227
100
AcDbEntity
  8
0
  6
Continuous
 62
     7
100
AcDbPolyline
 90
        2
 70
     0
 43
0.2
 10
1879.3502883168
 20
32.9141643202
 10
1879.5667188843
 20
32.9141643202
  0
LWPOLYLINE
  5
256
330
227
100
AcDbEntity
  8
0
  6
Continuous
 62
     7
100
AcDbPolyline
 90
        2
 70
     0
 43
0.2
 10
1879.5667188843
 20
32.9141643202
 10
1879.5667188843
 20
33.120911779
  0
LWPOLYLINE
  5
257
330
227
100
AcDbEntity
  8
0
  6
Continuous
 62
     7
100
AcDbPolyline
 90
        2
 70
     0
 43
0.2
 10
1879.5667188843
 20
33.120911779
 10
1879.3502883168
 20
33.120911779
  0
LWPOLYLINE
  5
258
330
227
100
AcDbEntity
  8
0
  6
Continuous
 62
     7
100
AcDbPolyline
 90
        2
 70
     0
 43
0.2
 10
1879.3502883168
 20
33.120911779
 10
1879.3502883168
 20
33.5616240833
  0
LWPOLYLINE
  5
259
330
227
100
AcDbEntity
  8
0
  6
Continuous
 62
     7
100
AcDbPolyline
 90
        2
 70
     0
 43
0.2
 10
1879.3502883168
 20
33.5616240833
 10
1879.1286236364
 20
33.5616240833
  0
LWPOLYLINE
  5
25A
330
227
100
AcDbEntity
  8
0
  6
Continuous
 62
     7
100
AcDbPolyline
 90
        2
 70
     0
 43
0.2
 10
1879.1286236364
 20
33.5616240833
 10
1879.1286236364
 20
33.120911779
  0
LWPOLYLINE
  5
25B
330
227
100
AcDbEntity
  8
0
  6
Continuous
 62
     7
100
AcDbPolyline
 90
        2
 70
     0
 43
0.2
 10
1879.1286236364
 20
33.120911779
 10
1879.0079773345
 20
33.120911779
  0
LWPOLYLINE
  5
25C
330
227
100
AcDbEntity
  8
0
  6
Continuous
 62
     7
100
AcDbPolyline
 90
        2
 70
     0
 43
0.2
 10
1879.0079773345
 20
33.120911779
 10
1879.0079773345
 20
32.9141643202
  0
LWPOLYLINE
  5
25D
330
227
100
AcDbEntity
  8
0
  6
Continuous
 62
     7
100
AcDbPolyline
 90
        2
 70
     0
 43
0.2
 10
1879.0079773345
 20
32.9141643202
 10
1879.1286236364
 20
32.9141643202
  0
LWPOLYLINE
  5
25E
330
227
100
AcDbEntity
  8
0
  6
Continuous
 62
     7
100
AcDbPolyline
 90
        2
 70
     0
 43
0.2
 10
1879.1286236364
 20
32.9141643202
 10
1879.1286236364
 20
31.9683601231
  0
LWPOLYLINE
  5
25F
330
227
100
AcDbEntity
  8
0
  6
Continuous
 62
     7
100
AcDbPolyline
 90
        2
 70
     0
 43
0.2
 10
1879.1286236364
 20
31.9683601231
 10
1879.3502883168
 20
31.9683601231
  0
LWPOLYLINE
  5
260
330
227
100
AcDbEntity
  8
0
  6
Continuous
 62
     7
100
AcDbPolyline
 90
        2
 70
     0
 43
0.2
 10
1879.3502883168
 20
31.9683601231
 10
1879.3502883168
 20
32.9141643202
  0
SPLINE
  5
261
330
227
100
AcDbEntity
  8
0
  6
Continuous
 62
     7
100
AcDbSpline
 70
     3
 71
     3
 72
    20
 73
    16
 74
     0
 42
0.000000001
 43
0.0000001
 40
0.0
 40
0.0
 40
0.0
 40
0.0
 40
1.0
 40
1.0
 40
1.0
 40
2.0
 40
2.0
 40
2.0
 40
3.0
 40
3.0
 40
3.0
 40
4.0
 40
4.0
 40
4.0
 40
5.0
 40
5.0
 40
5.0
 40
5.0
 10
1867.1322986241
 20
42.3292865665
 30
0.0
 10
1867.1322986241
 20
42.3292865665
 30
0.0
 10
1869.4486552785
 20
39.4997251442
 30
0.0
 10
1869.4486552785
 20
39.4997251442
 30
0.0
 10
1868.7970082251
 20
38.8475546795
 30
0.0
 10
1868.0201350211
 20
38.1116384088
 30
0.0
 10
1867.0489453765
 20
38.1116384088
 30
0.0
 10
1866.050407492
 20
38.1116384088
 30
0.0
 10
1865.1070894985
 20
39.0412168561
 30
0.0
 10
1865.1070894985
 20
40.0404090046
 30
0.0
 10
1865.1070894985
 20
41.0396011531
 30
0.0
 10
1866.2859425716
 20
41.7462063918
 30
0.0
 10
1867.0074650319
 20
42.2460641717
 30
0.0
 10
1867.0074650319
 20
42.2460641717
 30
0.0
 10
1867.1322986241
 20
42.3292865665
 30
0.0
 10
1867.1322986241
 20
42.3292865665
 30
0.0
  0
SPLINE
  5
262
330
227
100
AcDbEntity
  8
0
  6
Continuous
 62
     7
100
AcDbSpline
 70
     3
 71
     3
 72
    23
 73
    19
 74
     0
 42
0.000000001
 43
0.0000001
 40
0.0
 40
0.0
 40
0.0
 40
0.0
 40
1.0
 40
1.0
 40
1.0
 40
2.0
 40
2.0
 40
2.0
 40
3.0
 40
3.0
 40
3.0
 40
4.0
 40
4.0
 40
4.0
 40
5.0
 40
5.0
 40
5.0
 40
6.0
 40
6.0
 40
6.0
 40
6.0
 10
1867.4097066066
 20
43.9670404862
 30
0.0
 10
1867.4097066066
 20
43.9670404862
 30
0.0
 10
1867.0632083341
 20
44.410369847
 30
0.0
 10
1867.0632083341
 20
44.410369847
 30
0.0
 10
1866.7574052891
 20
44.798479317
 30
0.0
 10
1866.438516962
 20
45.1869813454
 30
0.0
 10
1866.438516962
 20
45.7139256595
 30
0.0
 10
1866.438516962
 20
46.3800973761
 30
0.0
 10
1866.9798550865
 20
46.8238192954
 30
0.0
 10
1867.6037613416
 20
46.8238192954
 30
0.0
 10
1868.2975430037
 20
46.8238192954
 30
0.0
 10
1868.8247490234
 20
46.4215777207
 30
0.0
 10
1868.8247490234
 20
45.6865774197
 30
0.0
 10
1868.8247490234
 20
44.9233129091
 30
0.0
 10
1868.1034882687
 20
44.4931996833
 30
0.0
 10
1867.5764131018
 20
44.0774802679
 30
0.0
 10
1867.5764131018
 20
44.0774802679
 30
0.0
 10
1867.4097066066
 20
43.9670404862
 30
0.0
 10
1867.4097066066
 20
43.9670404862
 30
0.0
  0
SPLINE
  5
263
330
227
100
AcDbEntity
  8
0
  6
Continuous
 62
     7
100
AcDbSpline
 70
     3
 71
     3
 72
    50
 73
    46
 74
     0
 42
0.000000001
 43
0.0000001
 40
0.0
 40
0.0
 40
0.0
 40
0.0
 40
1.0
 40
1.0
 40
1.0
 40
2.0
 40
2.0
 40
2.0
 40
3.0
 40
3.0
 40
3.0
 40
4.0
 40
4.0
 40
4.0
 40
5.0
 40
5.0
 40
5.0
 40
6.0
 40
6.0
 40
6.0
 40
7.0
 40
7.0
 40
7.0
 40
8.0
 40
8.0
 40
8.0
 40
9.0
 40
9.0
 40
9.0
 40
10.0
 40
10.0
 40
10.0
 40
11.0
 40
11.0
 40
11.0
 40
12.0
 40
12.0
 40
12.0
 40
13.0
 40
13.0
 40
13.0
 40
14.0
 40
14.0
 40
14.0
 40
15.0
 40
15.0
 40
15.0
 40
15.0
 10
1871.3632937696
 20
37.1684512681
 30
0.0
 10
1871.3632937696
 20
37.1684512681
 30
0.0
 10
1872.9725217741
 20
37.1684512681
 30
0.0
 10
1872.9725217741
 20
37.1684512681
 30
0.0
 10
1872.9725217741
 20
37.1684512681
 30
0.0
 10
1871.0994944805
 20
39.4855930395
 30
0.0
 10
1871.0994944805
 20
39.4855930395
 30
0.0
 10
1871.0994944805
 20
39.4855930395
 30
0.0
 10
1872.3758329059
 20
40.9830727341
 30
0.0
 10
1872.3758329059
 20
40.9830727341
 30
0.0
 10
1872.3758329059
 20
40.9830727341
 30
0.0
 10
1871.5436089582
 20
41.8440843026
 30
0.0
 10
1871.5436089582
 20
41.8440843026
 30
0.0
 10
1871.5436089582
 20
41.8440843026
 30
0.0
 10
1870.3230138349
 20
40.4287801802
 30
0.0
 10
1870.3230138349
 20
40.4287801802
 30
0.0
 10
1870.3230138349
 20
40.4287801802
 30
0.0
 10
1868.1450994661
 20
43.0641560146
 30
0.0
 10
1868.1450994661
 20
43.0641560146
 30
0.0
 10
1869.0186729055
 20
43.7021943745
 30
0.0
 10
1870.0453441467
 20
44.4931996833
 30
0.0
 10
1870.0453441467
 20
45.6720527564
 30
0.0
 10
1870.0453441467
 20
47.0457456815
 30
0.0
 10
1868.9074480069
 20
47.8502288309
 30
0.0
 10
1867.632156404
 20
47.8502288309
 30
0.0
 10
1866.2587251846
 20
47.8502288309
 30
0.0
 10
1865.2177909859
 20
47.0040036312
 30
0.0
 10
1865.2177909859
 20
45.5613512691
 30
0.0
 10
1865.2177909859
 20
44.6737765776
 30
0.0
 10
1865.7731303623
 20
43.8969033736
 30
0.0
 10
1866.3692958192
 20
43.2724737072
 30
0.0
 10
1866.3692958192
 20
43.2724737072
 30
0.0
 10
1865.7173870601
 20
42.8008801368
 30
0.0
 10
1865.7173870601
 20
42.8008801368
 30
0.0
 10
1864.7188491757
 20
42.0796193821
 30
0.0
 10
1863.8859709639
 20
41.3583586275
 30
0.0
 10
1863.8859709639
 20
40.0268003111
 30
0.0
 10
1863.8859709639
 20
38.2231250131
 30
0.0
 10
1865.3430171365
 20
36.946524882
 30
0.0
 10
1867.0905565739
 20
36.946524882
 30
0.0
 10
1868.3254146548
 20
36.946524882
 30
0.0
 10
1869.4347848794
 20
37.6547003545
 30
0.0
 10
1870.2256593354
 20
38.5832319792
 30
0.0
 10
1870.2256593354
 20
38.5832319792
 30
0.0
 10
1871.3632937696
 20
37.1684512681
 30
0.0
 10
1871.3632937696
 20
37.1684512681
 30
0.0
  0
LINE
  5
264
330
227
100
AcDbEntity
  8
0
  6
Continuous
 62
     7
100
AcDbLine
 10
1857.1661551445
 20
35.1423261727
 30
0.0
 11
1879.5800658722
 21
35.1423261727
 31
0.0
  0
LINE
  5
265
330
227
100
AcDbEntity
  8
0
  6
Continuous
 62
     7
100
AcDbLine
 10
1879.5800658722
 20
35.1423261727
 30
0.0
 11
1879.5800658722
 21
57.5562369004
 31
0.0
  0
LINE
  5
266
330
227
100
AcDbEntity
  8
0
  6
Continuous
 62
     7
100
AcDbLine
 10
1879.5800658722
 20
57.5562369004
 30
0.0
 11
1857.1661551445
 21
57.5562369004
 31
0.0
  0
LINE
  5
267
330
227
100
AcDbEntity
  8
0
  6
Continuous
 62
     7
100
AcDbLine
 10
1857.1661551445
 20
57.5562369004
 30
0.0
 11
1857.1661551445
 21
35.1423261727
 31
0.0
  0
ENDBLK
  5
268
330
227
100
AcDbEntity
  8
0
  6
ByBlock
 62
     0
100
AcDbBlockEnd
  0
BLOCK
  5
269
330
228
100
AcDbEntity
  8
0
100
AcDbBlockBegin
  2
PROIEZIONE_EU_BL0
 70
     0
 10
1869.5469980372
 20
70.0575494004
 30
0.0
  3
PROIEZIONE_EU_BL0
  1

  0
LWPOLYLINE
  5
26A
330
228
100
AcDbEntity
  8
DEFAULT_1
  6
CENTER
 62
     7
100
AcDbPolyline
 90
        2
 70
     0
 43
0.25
 10
1875.6736186988
 20
75.0572435322
 10
1875.6736596812
 20
65.0578552685
  0
LWPOLYLINE
  5
26B
330
228
100
AcDbEntity
  8
DEFAULT_1
  6
CENTER
 62
     7
100
AcDbPolyline
 90
        2
 70
     0
 43
0.25
 10
1881.6736485239
 20
70.0578205355
 10
1857.4203475505
 20
70.0575498751
  0
LWPOLYLINE
  5
26C
330
228
100
AcDbEntity
  8
0
  6
Continuous
 62
     7
100
AcDbPolyline
 90
        2
 70
     1
 43
0.25
 10
1872.126508523
 20
70.0390016461
 42
1.0
 10
1879.2328376217
 20
70.0390016461
 42
1.0
  0
LWPOLYLINE
  5
26D
330
228
100
AcDbEntity
  8
0
  6
Continuous
 62
     7
100
AcDbPolyline
 90
        2
 70
     1
 43
0.25
 10
1873.6762523514
 20
70.0568996908
 42
1.0
 10
1877.6880041015
 20
70.0568996908
 42
1.0
  0
LWPOLYLINE
  5
26E
330
228
100
AcDbEntity
  8
0
  6
Continuous
 62
     7
100
AcDbPolyline
 90
        2
 70
     0
 43
0.25
 10
1869.6736463179
 20
73.6327528956
 10
1869.6736459633
 20
66.5325499873
  0
LWPOLYLINE
  5
26F
330
228
100
AcDbEntity
  8
0
  6
Continuous
 62
     7
100
AcDbPolyline
 90
        2
 70
     0
 43
0.25
 10
1869.6736743997
 20
66.5325215509
 10
1859.6791171285
 20
68.0526149637
  0
LWPOLYLINE
  5
270
330
228
100
AcDbEntity
  8
0
  6
Continuous
 62
     7
100
AcDbPolyline
 90
        2
 70
     0
 43
0.25
 10
1859.6768071429
 20
68.0519374222
 10
1859.6741402388
 20
72.0575760336
  0
LWPOLYLINE
  5
271
330
228
100
AcDbEntity
  8
0
  6
Continuous
 62
     7
100
AcDbPolyline
 90
        2
 70
     0
 43
0.25
 10
1859.6741319628
 20
72.0575677576
 10
1869.6738752001
 20
73.6327249776
  0
ENDBLK
  5
272
330
228
100
AcDbEntity
  8
0
  6
ByBlock
 62
     0
100
AcDbBlockEnd
  0
ENDSEC
  0
SECTION
  2
ENTITIES
  0
LINE
  5
29D
330
1B
100
AcDbEntity
 67
     1
  8
0
  6
Continuous
 62
     7
100
AcDbLine
 10
0.0
 20
0.0
 30
0.0
 11
2000.0
 21
0.0
 31
0.0
  0
LINE
  5
29E
330
1B
100
AcDbEntity
 67
     1
  8
0
  6
Continuous
 62
     7
100
AcDbLine
 10
2000.0
 20
0.0
 30
0.0
 11
2000.0
 21
841.0
 31
0.0
  0
LINE
  5
29F
330
1B
100
AcDbEntity
 67
     1
  8
0
  6
Continuous
 62
     7
100
AcDbLine
 10
0.0
 20
841.0
 30
0.0
 11
2000.0
 21
841.0
 31
0.0
  0
LINE
  5
2A0
330
1B
100
AcDbEntity
 67
     1
  8
0
  6
Continuous
 62
     7
100
AcDbLine
 10
0.0
 20
0.0
 30
0.0
 11
0.0
 21
841.0
 31
0.0
  0
VIEWPORT
  5
2A1
330
1B
100
AcDbEntity
 67
     1
  8
0
100
AcDbViewport
 10
0.0
 20
0.0
 30
0.0
 40
2115.555555555555
 41
1496.0
 68
     1
 69
     1
 12
1000.0
 22
634.5679012345678
 13
0.0
 23
0.0
 14
1.0
 24
1.0
 15
0.0
 25
0.0
 16
0.0
 26
0.0
 36
1.0
 17
0.0
 27
0.0
 37
0.0
 42
50.0
 43
0.0
 44
0.0
 45
1496.0
 50
0.0
 51
0.0
 72
   100
 90
   557216
  1

281
     0
 71
     1
 74
     0
110
0.0
120
0.0
130
0.0
111
1.0
121
0.0
131
0.0
112
0.0
122
1.0
132
0.0
 79
     0
146
0.0
170
     0
 61
     5
348
62A
292
     1
282
     1
141
0.0
142
0.0
 63
   256
  0
LINE
  5
2A2
330
1B
100
AcDbEntity
 67
     1
  8
3_ALL_AXES
  6
Continuous
 62
     7
100
AcDbLine
 10
222.5715008504
 20
261.7531202574
 30
0.0
 11
222.5715008504
 21
264.5030721912
 31
0.0
  0
LINE
  5
2A3
330
1B
100
AcDbEntity
 67
     1
  8
3_ALL_AXES
  6
Continuous
 62
     7
100
AcDbLine
 10
222.5715008504
 20
261.7531202574
 30
0.0
 11
222.5715008504
 21
259.0031683236
 31
0.0
  0
LINE
  5
2A4
330
1B
100
AcDbEntity
 67
     1
  8
3_ALL_AXES
  6
Continuous
 62
     7
100
AcDbLine
 10
222.72222118
 20
264.5031202574
 30
0.0
 11
222.5715008504
 21
264.5031202574
 31
0.0
  0
LINE
  5
2A5
330
1B
100
AcDbEntity
 67
     1
  8
3_ALL_AXES
  6
Continuous
 62
     7
100
AcDbLine
 10
223.0715008504
 20
264.2100398148
 30
0.0
 11
222.72222118
 21
264.5031202574
 31
0.0
  0
LINE
  5
2A6
330
1B
100
AcDbEntity
 67
     1
  8
3_ALL_AXES
  6
Continuous
 62
     7
100
AcDbLine
 10
222.72222118
 20
259.0031202574
 30
0.0
 11
222.5715008504
 21
259.0031202574
 31
0.0
  0
LINE
  5
2A7
330
1B
100
AcDbEntity
 67
     1
  8
3_ALL_AXES
  6
Continuous
 62
     7
100
AcDbLine
 10
223.0715008504
 20
259.2962007
 30
0.0
 11
222.72222118
 21
259.0031202574
 31
0.0
  0
LINE
  5
2A8
330
1B
100
AcDbEntity
 67
     1
  8
3_ALL_AXES
  6
Continuous
 62
     7
100
AcDbLine
 10
222.72222118
 20
261.7531202574
 30
0.0
 11
222.72222118
 21
264.5031202574
 31
0.0
  0
LINE
  5
2A9
330
1B
100
AcDbEntity
 67
     1
  8
3_ALL_AXES
  6
Continuous
 62
     7
100
AcDbLine
 10
222.72222118
 20
261.7531202574
 30
0.0
 11
222.72222118
 21
259.0031202574
 31
0.0
  0
LINE
  5
2AA
330
1B
100
AcDbEntity
 67
     1
  8
3_ALL_AXES
  6
Continuous
 62
     7
100
AcDbLine
 10
222.5715008504
 20
281.4531202574
 30
0.0
 11
222.5715008504
 21
284.2030721912
 31
0.0
  0
LINE
  5
2AB
330
1B
100
AcDbEntity
 67
     1
  8
3_ALL_AXES
  6
Continuous
 62
     7
100
AcDbLine
 10
222.5715008504
 20
281.4531202574
 30
0.0
 11
222.5715008504
 21
278.7031683236
 31
0.0
  0
LINE
  5
2AC
330
1B
100
AcDbEntity
 67
     1
  8
3_ALL_AXES
  6
Continuous
 62
     7
100
AcDbLine
 10
222.72222118
 20
284.2031202574
 30
0.0
 11
222.5715008504
 21
284.2031202574
 31
0.0
  0
LINE
  5
2AD
330
1B
100
AcDbEntity
 67
     1
  8
3_ALL_AXES
  6
Continuous
 62
     7
100
AcDbLine
 10
223.0715008504
 20
283.9100398148
 30
0.0
 11
222.72222118
 21
284.2031202574
 31
0.0
  0
LINE
  5
2AE
330
1B
100
AcDbEntity
 67
     1
  8
3_ALL_AXES
  6
Continuous
 62
     7
100
AcDbLine
 10
222.72222118
 20
278.7031202574
 30
0.0
 11
222.5715008504
 21
278.7031202574
 31
0.0
  0
LINE
  5
2AF
330
1B
100
AcDbEntity
 67
     1
  8
3_ALL_AXES
  6
Continuous
 62
     7
100
AcDbLine
 10
223.0715008504
 20
278.9962007
 30
0.0
 11
222.72222118
 21
278.7031202574
 31
0.0
  0
LINE
  5
2B0
330
1B
100
AcDbEntity
 67
     1
  8
3_ALL_AXES
  6
Continuous
 62
     7
100
AcDbLine
 10
222.72222118
 20
281.4531202574
 30
0.0
 11
222.72222118
 21
284.2031202574
 31
0.0
  0
LINE
  5
2B1
330
1B
100
AcDbEntity
 67
     1
  8
3_ALL_AXES
  6
Continuous
 62
     7
100
AcDbLine
 10
222.72222118
 20
281.4531202574
 30
0.0
 11
222.72222118
 21
278.7031202574
 31
0.0
  0
LINE
  5
2B2
330
1B
100
AcDbEntity
 67
     1
  8
3_ALL_AXES
  6
Continuous
 62
     7
100
AcDbLine
 10
1737.9207805207
 20
264.5031202574
 30
0.0
 11
1738.0715008504
 21
264.5031202574
 31
0.0
  0
LINE
  5
2B3
330
1B
100
AcDbEntity
 67
     1
  8
3_ALL_AXES
  6
Continuous
 62
     7
100
AcDbLine
 10
1738.0715008504
 20
264.5030721912
 30
0.0
 11
1738.0715008504
 21
261.7531202574
 31
0.0
  0
LINE
  5
2B4
330
1B
100
AcDbEntity
 67
     1
  8
3_ALL_AXES
  6
Continuous
 62
     7
100
AcDbLine
 10
1737.5715008504
 20
264.2100398148
 30
0.0
 11
1737.9207805207
 21
264.5031202574
 31
0.0
  0
LINE
  5
2B5
330
1B
100
AcDbEntity
 67
     1
  8
3_ALL_AXES
  6
Continuous
 62
     7
100
AcDbLine
 10
1737.9207805207
 20
259.0031202574
 30
0.0
 11
1738.0715008504
 21
259.0031202574
 31
0.0
  0
LINE
  5
2B6
330
1B
100
AcDbEntity
 67
     1
  8
3_ALL_AXES
  6
Continuous
 62
     7
100
AcDbLine
 10
1738.0715008504
 20
259.0031683236
 30
0.0
 11
1738.0715008504
 21
261.7531202574
 31
0.0
  0
LINE
  5
2B7
330
1B
100
AcDbEntity
 67
     1
  8
3_ALL_AXES
  6
Continuous
 62
     7
100
AcDbLine
 10
1737.5715008504
 20
259.2962007
 30
0.0
 11
1737.9207805207
 21
259.0031202574
 31
0.0
  0
LINE
  5
2B8
330
1B
100
AcDbEntity
 67
     1
  8
3_ALL_AXES
  6
Continuous
 62
     7
100
AcDbLine
 10
1737.9207805207
 20
259.0031202574
 30
0.0
 11
1737.9207805207
 21
261.7531202574
 31
0.0
  0
LINE
  5
2B9
330
1B
100
AcDbEntity
 67
     1
  8
3_ALL_AXES
  6
Continuous
 62
     7
100
AcDbLine
 10
1737.9207805207
 20
264.5031202574
 30
0.0
 11
1737.9207805207
 21
261.7531202574
 31
0.0
  0
LINE
  5
2BA
330
1B
100
AcDbEntity
 67
     1
  8
3_ALL_AXES
  6
Continuous
 62
     7
100
AcDbLine
 10
1737.9207805207
 20
284.2031202574
 30
0.0
 11
1738.0715008504
 21
284.2031202574
 31
0.0
  0
LINE
  5
2BB
330
1B
100
AcDbEntity
 67
     1
  8
3_ALL_AXES
  6
Continuous
 62
     7
100
AcDbLine
 10
1738.0715008504
 20
284.2030721912
 30
0.0
 11
1738.0715008504
 21
281.4531202574
 31
0.0
  0
LINE
  5
2BC
330
1B
100
AcDbEntity
 67
     1
  8
3_ALL_AXES
  6
Continuous
 62
     7
100
AcDbLine
 10
1737.5715008504
 20
283.9100398148
 30
0.0
 11
1737.9207805207
 21
284.2031202574
 31
0.0
  0
LINE
  5
2BD
330
1B
100
AcDbEntity
 67
     1
  8
3_ALL_AXES
  6
Continuous
 62
     7
100
AcDbLine
 10
1737.9207805207
 20
278.7031202574
 30
0.0
 11
1738.0715008504
 21
278.7031202574
 31
0.0
  0
LINE
  5
2BE
330
1B
100
AcDbEntity
 67
     1
  8
3_ALL_AXES
  6
Continuous
 62
     7
100
AcDbLine
 10
1738.0715008504
 20
278.7031683236
 30
0.0
 11
1738.0715008504
 21
281.4531202574
 31
0.0
  0
LINE
  5
2BF
330
1B
100
AcDbEntity
 67
     1
  8
3_ALL_AXES
  6
Continuous
 62
     7
100
AcDbLine
 10
1737.5715008504
 20
278.9962007
 30
0.0
 11
1737.9207805207
 21
278.7031202574
 31
0.0
  0
LINE
  5
2C0
330
1B
100
AcDbEntity
 67
     1
  8
3_ALL_AXES
  6
Continuous
 62
     7
100
AcDbLine
 10
1737.9207805207
 20
278.7031202574
 30
0.0
 11
1737.9207805207
 21
281.4531202574
 31
0.0
  0
LINE
  5
2C1
330
1B
100
AcDbEntity
 67
     1
  8
3_ALL_AXES
  6
Continuous
 62
     7
100
AcDbLine
 10
1737.9207805207
 20
284.2031202574
 30
0.0
 11
1737.9207805207
 21
281.4531202574
 31
0.0
  0
LINE
  5
2C2
330
1B
100
AcDbEntity
 67
     1
  8
7_ALL_FEATURES
  6
Continuous
 62
     7
100
AcDbLine
 10
223.0715008504
 20
325.0531202574
 30
0.0
 11
224.5715008504
 21
325.0531202574
 31
0.0
  0
LINE
  5
2C3
330
1B
100
AcDbEntity
 67
     1
  8
7_ALL_FEATURES
  6
Continuous
 62
     7
100
AcDbLine
 10
223.0715008504
 20
250.0531202574
 30
0.0
 11
224.5715008504
 21
250.0531202574
 31
0.0
  0
LINE
  5
2C4
330
1B
100
AcDbEntity
 67
     1
  8
7_ALL_FEATURES
  6
Continuous
 62
     7
100
AcDbLine
 10
223.0715008504
 20
250.0531202574
 30
0.0
 11
223.0715008504
 21
251.0531202574
 31
0.0
  0
LINE
  5
2C5
330
1B
100
AcDbEntity
 67
     1
  8
7_ALL_FEATURES
  6
Continuous
 62
     7
100
AcDbLine
 10
223.0715008504
 20
318.5069518025
 30
0.0
 11
223.0715008504
 21
251.0531202574
 31
0.0
  0
LINE
  5
2C6
330
1B
100
AcDbEntity
 67
     1
  8
7_ALL_FEATURES
  6
Continuous
 62
     7
100
AcDbLine
 10
223.0715008504
 20
318.5069518025
 30
0.0
 11
223.0715008504
 21
320.2434335792
 31
0.0
  0
LINE
  5
2C7
330
1B
100
AcDbEntity
 67
     1
  8
7_ALL_FEATURES
  6
Continuous
 62
     7
100
AcDbLine
 10
223.0715008504
 20
324.2267684351
 30
0.0
 11
223.0715008504
 21
320.2434335792
 31
0.0
  0
LINE
  5
2C8
330
1B
100
AcDbEntity
 67
     1
  8
7_ALL_FEATURES
  6
Continuous
 62
     7
100
AcDbLine
 10
223.0715008504
 20
324.2267684351
 30
0.0
 11
223.0715008504
 21
325.0531202574
 31
0.0
  0
LINE
  5
2C9
330
1B
100
AcDbEntity
 67
     1
  8
7_ALL_FEATURES
  6
Continuous
 62
     7
100
AcDbLine
 10
223.0715008504
 20
325.0531202574
 30
0.0
 11
224.5715008504
 21
325.0531202574
 31
0.0
  0
LINE
  5
2CA
330
1B
100
AcDbEntity
 67
     1
  8
7_ALL_FEATURES
  6
Continuous
 62
     9
100
AcDbLine
 10
223.0715008504
 20
324.2267684351
 30
0.0
 11
224.5715008504
 21
324.2267684351
 31
0.0
  0
LINE
  5
2CB
330
1B
100
AcDbEntity
 67
     1
  8
7_ALL_FEATURES
  6
Continuous
 62
     9
100
AcDbLine
 10
223.0715008504
 20
251.0531202574
 30
0.0
 11
224.5715008504
 21
251.0531202574
 31
0.0
  0
LINE
  5
2CC
330
1B
100
AcDbEntity
 67
     1
  8
7_ALL_FEATURES
  6
Continuous
 62
     9
100
AcDbLine
 10
223.0715008504
 20
318.5069518025
 30
0.0
 11
224.5715008504
 21
318.5069518025
 31
0.0
  0
LINE
  5
2CD
330
1B
100
AcDbEntity
 67
     1
  8
7_ALL_FEATURES
  6
Continuous
 62
     9
100
AcDbLine
 10
223.0715008504
 20
320.2434335792
 30
0.0
 11
224.5715008504
 21
320.2434335792
 31
0.0
  0
LINE
  5
2CE
330
1B
100
AcDbEntity
 67
     1
  8
7_ALL_FEATURES
  6
Continuous
 62
     7
100
AcDbLine
 10
1737.5715008504
 20
250.0531202574
 30
0.0
 11
1736.0715008504
 21
250.0531202574
 31
0.0
  0
LINE
  5
2CF
330
1B
100
AcDbEntity
 67
     1
  8
7_ALL_FEATURES
  6
Continuous
 62
     7
100
AcDbLine
 10
1737.5715008504
 20
325.0531202574
 30
0.0
 11
1737.5715008504
 21
324.2267684351
 31
0.0
  0
LINE
  5
2D0
330
1B
100
AcDbEntity
 67
     1
  8
7_ALL_FEATURES
  6
Continuous
 62
     7
100
AcDbLine
 10
1737.5715008504
 20
325.0531202574
 30
0.0
 11
1736.0715008504
 21
325.0531202574
 31
0.0
  0
LINE
  5
2D1
330
1B
100
AcDbEntity
 67
     1
  8
7_ALL_FEATURES
  6
Continuous
 62
     7
100
AcDbLine
 10
1737.5715008504
 20
250.0531202574
 30
0.0
 11
1736.0715008504
 21
250.0531202574
 31
0.0
  0
LINE
  5
2D2
330
1B
100
AcDbEntity
 67
     1
  8
7_ALL_FEATURES
  6
Continuous
 62
     7
100
AcDbLine
 10
1737.5715008504
 20
320.2434335792
 30
0.0
 11
1737.5715008504
 21
324.2267684351
 31
0.0
  0
LINE
  5
2D3
330
1B
100
AcDbEntity
 67
     1
  8
7_ALL_FEATURES
  6
Continuous
 62
     7
100
AcDbLine
 10
1737.5715008504
 20
320.2434335792
 30
0.0
 11
1737.5715008504
 21
318.5069518025
 31
0.0
  0
LINE
  5
2D4
330
1B
100
AcDbEntity
 67
     1
  8
7_ALL_FEATURES
  6
Continuous
 62
     7
100
AcDbLine
 10
1737.5715008504
 20
251.0531202574
 30
0.0
 11
1737.5715008504
 21
318.5069518025
 31
0.0
  0
LINE
  5
2D5
330
1B
100
AcDbEntity
 67
     1
  8
7_ALL_FEATURES
  6
Continuous
 62
     7
100
AcDbLine
 10
1737.5715008504
 20
251.0531202574
 30
0.0
 11
1737.5715008504
 21
250.0531202574
 31
0.0
  0
LINE
  5
2D6
330
1B
100
AcDbEntity
 67
     1
  8
7_ALL_FEATURES
  6
Continuous
 62
     7
100
AcDbLine
 10
1737.5715008504
 20
325.0531202574
 30
0.0
 11
1736.0715008504
 21
325.0531202574
 31
0.0
  0
LINE
  5
2D7
330
1B
100
AcDbEntity
 67
     1
  8
7_ALL_FEATURES
  6
Continuous
 62
     9
100
AcDbLine
 10
1737.5715008504
 20
320.2434335792
 30
0.0
 11
1736.0715008504
 21
320.2434335792
 31
0.0
  0
LINE
  5
2D8
330
1B
100
AcDbEntity
 67
     1
  8
7_ALL_FEATURES
  6
Continuous
 62
     9
100
AcDbLine
 10
1737.5715008504
 20
324.2267684351
 30
0.0
 11
1736.0715008504
 21
324.2267684351
 31
0.0
  0
LINE
  5
2D9
330
1B
100
AcDbEntity
 67
     1
  8
7_ALL_FEATURES
  6
Continuous
 62
     9
100
AcDbLine
 10
1737.5715008504
 20
251.0531202574
 30
0.0
 11
1736.0715008504
 21
251.0531202574
 31
0.0
  0
LINE
  5
2DA
330
1B
100
AcDbEntity
 67
     1
  8
7_ALL_FEATURES
  6
Continuous
 62
     9
100
AcDbLine
 10
1737.5715008504
 20
318.5069518025
 30
0.0
 11
1736.0715008504
 21
318.5069518025
 31
0.0
  0
LINE
  5
2DB
330
1B
100
AcDbEntity
 67
     1
  8
7_ALL_FEATURES
  6
Continuous
 62
     7
100
AcDbLine
 10
1560.5715008504
 20
311.5531202574
 30
0.0
 11
1572.5715008504
 21
311.5531202574
 31
0.0
  0
LINE
  5
2DC
330
1B
100
AcDbEntity
 67
     1
  8
7_ALL_FEATURES
  6
Continuous
 62
     7
100
AcDbLine
 10
1673.5715008504
 20
311.5531202574
 30
0.0
 11
1685.5715008504
 21
311.5531202574
 31
0.0
  0
LINE
  5
2DD
330
1B
100
AcDbEntity
 67
     1
  8
7_ALL_FEATURES
  6
Continuous
 62
     7
100
AcDbLine
 10
1572.5715008504
 20
311.5531202574
 30
0.0
 11
1673.5715008504
 21
311.5531202574
 31
0.0
  0
LINE
  5
2DE
330
1B
100
AcDbEntity
 67
     1
  8
7_ALL_FEATURES
  6
Continuous
 62
     7
100
AcDbLine
 10
1560.5715008504
 20
310.9531202574
 30
0.0
 11
1560.5715008504
 21
311.5531202574
 31
0.0
  0
LINE
  5
2DF
330
1B
100
AcDbEntity
 67
     1
  8
7_ALL_FEATURES
  6
Continuous
 62
     7
100
AcDbLine
 10
1685.5715008504
 20
310.9531202574
 30
0.0
 11
1685.5715008504
 21
311.5531202574
 31
0.0
  0
LINE
  5
2E0
330
1B
100
AcDbEntity
 67
     1
  8
7_ALL_FEATURES
  6
Continuous
 62
     7
100
AcDbLine
 10
1572.5715008504
 20
310.9531202574
 30
0.0
 11
1572.5715008504
 21
311.5531202574
 31
0.0
  0
LINE
  5
2E1
330
1B
100
AcDbEntity
 67
     1
  8
7_ALL_FEATURES
  6
Continuous
 62
     7
100
AcDbLine
 10
1673.5715008504
 20
310.9531202574
 30
0.0
 11
1673.5715008504
 21
311.5531202574
 31
0.0
  0
LINE
  5
2E2
330
1B
100
AcDbEntity
 67
     1
  8
7_ALL_FEATURES
  6
Continuous
 62
     7
100
AcDbLine
 10
910.5715008504
 20
311.5531202574
 30
0.0
 11
922.5715008504
 21
311.5531202574
 31
0.0
  0
LINE
  5
2E3
330
1B
100
AcDbEntity
 67
     1
  8
7_ALL_FEATURES
  6
Continuous
 62
     7
100
AcDbLine
 10
1023.5715008504
 20
311.5531202574
 30
0.0
 11
1035.5715008504
 21
311.5531202574
 31
0.0
  0
LINE
  5
2E4
330
1B
100
AcDbEntity
 67
     1
  8
7_ALL_FEATURES
  6
Continuous
 62
     7
100
AcDbLine
 10
922.5715008504
 20
311.5531202574
 30
0.0
 11
1023.5715008504
 21
311.5531202574
 31
0.0
  0
LINE
  5
2E5
330
1B
100
AcDbEntity
 67
     1
  8
7_ALL_FEATURES
  6
Continuous
 62
     7
100
AcDbLine
 10
910.5715008504
 20
310.9531202574
 30
0.0
 11
910.5715008504
 21
311.5531202574
 31
0.0
  0
LINE
  5
2E6
330
1B
100
AcDbEntity
 67
     1
  8
7_ALL_FEATURES
  6
Continuous
 62
     7
100
AcDbLine
 10
1035.5715008504
 20
310.9531202574
 30
0.0
 11
1035.5715008504
 21
311.5531202574
 31
0.0
  0
LINE
  5
2E7
330
1B
100
AcDbEntity
 67
     1
  8
7_ALL_FEATURES
  6
Continuous
 62
     7
100
AcDbLine
 10
922.5715008504
 20
310.9531202574
 30
0.0
 11
922.5715008504
 21
311.5531202574
 31
0.0
  0
LINE
  5
2E8
330
1B
100
AcDbEntity
 67
     1
  8
7_ALL_FEATURES
  6
Continuous
 62
     7
100
AcDbLine
 10
1023.5715008504
 20
310.9531202574
 30
0.0
 11
1023.5715008504
 21
311.5531202574
 31
0.0
  0
LINE
  5
2E9
330
1B
100
AcDbEntity
 67
     1
  8
7_ALL_FEATURES
  6
Continuous
 62
     7
100
AcDbLine
 10
260.5715008504
 20
311.5531202574
 30
0.0
 11
272.5715008504
 21
311.5531202574
 31
0.0
  0
LINE
  5
2EA
330
1B
100
AcDbEntity
 67
     1
  8
7_ALL_FEATURES
  6
Continuous
 62
     7
100
AcDbLine
 10
373.5715008504
 20
311.5531202574
 30
0.0
 11
385.5715008504
 21
311.5531202574
 31
0.0
  0
LINE
  5
2EB
330
1B
100
AcDbEntity
 67
     1
  8
7_ALL_FEATURES
  6
Continuous
 62
     7
100
AcDbLine
 10
272.5715008504
 20
311.5531202574
 30
0.0
 11
373.5715008504
 21
311.5531202574
 31
0.0
  0
LINE
  5
2EC
330
1B
100
AcDbEntity
 67
     1
  8
7_ALL_FEATURES
  6
Continuous
 62
     7
100
AcDbLine
 10
260.5715008504
 20
310.9531202574
 30
0.0
 11
260.5715008504
 21
311.5531202574
 31
0.0
  0
LINE
  5
2ED
330
1B
100
AcDbEntity
 67
     1
  8
7_ALL_FEATURES
  6
Continuous
 62
     7
100
AcDbLine
 10
385.5715008504
 20
310.9531202574
 30
0.0
 11
385.5715008504
 21
311.5531202574
 31
0.0
  0
LINE
  5
2EE
330
1B
100
AcDbEntity
 67
     1
  8
7_ALL_FEATURES
  6
Continuous
 62
     7
100
AcDbLine
 10
272.5715008504
 20
310.9531202574
 30
0.0
 11
272.5715008504
 21
311.5531202574
 31
0.0
  0
LINE
  5
2EF
330
1B
100
AcDbEntity
 67
     1
  8
7_ALL_FEATURES
  6
Continuous
 62
     7
100
AcDbLine
 10
373.5715008504
 20
310.9531202574
 30
0.0
 11
373.5715008504
 21
311.5531202574
 31
0.0
  0
LINE
  5
2F0
330
1B
100
AcDbEntity
 67
     1
  8
7_ALL_FEATURES
  6
Continuous
 62
     7
100
AcDbLine
 10
1736.0715008504
 20
251.0531202574
 30
0.0
 11
1736.0715008504
 21
250.0531202574
 31
0.0
  0
LINE
  5
2F1
330
1B
100
AcDbEntity
 67
     1
  8
7_ALL_FEATURES
  6
Continuous
 62
     7
100
AcDbLine
 10
1736.0715008504
 20
251.0531202574
 30
0.0
 11
1736.0715008504
 21
252.9031202574
 31
0.0
  0
LINE
  5
2F2
330
1B
100
AcDbEntity
 67
     1
  8
7_ALL_FEATURES
  6
Continuous
 62
     7
100
AcDbLine
 10
1736.0715008504
 20
325.0531202574
 30
0.0
 11
1736.0715008504
 21
324.8052147107
 31
0.0
  0
LINE
  5
2F3
330
1B
100
AcDbEntity
 67
     1
  8
7_ALL_FEATURES
  6
Continuous
 62
     7
100
AcDbLine
 10
224.5715008504
 20
325.0531202574
 30
0.0
 11
1736.0715008504
 21
325.0531202574
 31
0.0
  0
LINE
  5
2F4
330
1B
100
AcDbEntity
 67
     1
  8
7_ALL_FEATURES
  6
Continuous
 62
     7
100
AcDbLine
 10
1736.0715008504
 20
258.2031202574
 30
0.0
 11
1736.0715008504
 21
262.138906695
 31
0.0
  0
LINE
  5
2F5
330
1B
100
AcDbEntity
 67
     1
  8
7_ALL_FEATURES
  6
Continuous
 62
     7
100
AcDbLine
 10
1736.0715008504
 20
280.7673338198
 30
0.0
 11
1736.0715008504
 21
280.0602270386
 31
0.0
  0
LINE
  5
2F6
330
1B
100
AcDbEntity
 67
     1
  8
7_ALL_FEATURES
  6
Continuous
 62
     7
100
AcDbLine
 10
1736.0715008504
 20
280.7673338198
 30
0.0
 11
1736.0715008504
 21
285.7031202574
 31
0.0
  0
LINE
  5
2F7
330
1B
100
AcDbEntity
 67
     1
  8
7_ALL_FEATURES
  6
Continuous
 62
     7
100
AcDbLine
 10
1736.0715008504
 20
291.0031202574
 30
0.0
 11
1736.0715008504
 21
293.688906695
 31
0.0
  0
LINE
  5
2F8
330
1B
100
AcDbEntity
 67
     1
  8
7_ALL_FEATURES
  6
Continuous
 62
     7
100
AcDbLine
 10
1736.0715008504
 20
316.4673338198
 30
0.0
 11
1736.0715008504
 21
315.7602270386
 31
0.0
  0
LINE
  5
2F9
330
1B
100
AcDbEntity
 67
     1
  8
7_ALL_FEATURES
  6
Continuous
 62
     7
100
AcDbLine
 10
1736.0715008504
 20
316.4673338198
 30
0.0
 11
1736.0715008504
 21
318.5069518025
 31
0.0
  0
LINE
  5
2FA
330
1B
100
AcDbEntity
 67
     1
  8
7_ALL_FEATURES
  6
Continuous
 62
     7
100
AcDbLine
 10
1736.0715008504
 20
318.5069518025
 30
0.0
 11
1736.0715008504
 21
318.9443951202
 31
0.0
  0
LINE
  5
2FB
330
1B
100
AcDbEntity
 67
     1
  8
7_ALL_FEATURES
  6
Continuous
 62
     7
100
AcDbLine
 10
1736.0715008504
 20
318.9443951202
 30
0.0
 11
1736.0715008504
 21
319.8126360085
 31
0.0
  0
LINE
  5
2FC
330
1B
100
AcDbEntity
 67
     1
  8
7_ALL_FEATURES
  6
Continuous
 62
     7
100
AcDbLine
 10
1736.0715008504
 20
319.8126360085
 30
0.0
 11
1736.0715008504
 21
320.2434335792
 31
0.0
  0
LINE
  5
2FD
330
1B
100
AcDbEntity
 67
     1
  8
7_ALL_FEATURES
  6
Continuous
 62
     7
100
AcDbLine
 10
1736.0715008504
 20
320.2434335792
 30
0.0
 11
1736.0715008504
 21
324.2267684351
 31
0.0
  0
LINE
  5
2FE
330
1B
100
AcDbEntity
 67
     1
  8
7_ALL_FEATURES
  6
Continuous
 62
     7
100
AcDbLine
 10
1736.0715008504
 20
324.2267684351
 30
0.0
 11
1736.0715008504
 21
324.8052147107
 31
0.0
  0
LINE
  5
2FF
330
1B
100
AcDbEntity
 67
     1
  8
7_ALL_FEATURES
  6
Continuous
 62
     7
100
AcDbLine
 10
224.5715008504
 20
324.8052147107
 30
0.0
 11
224.5715008504
 21
325.0531202574
 31
0.0
  0
LINE
  5
300
330
1B
100
AcDbEntity
 67
     1
  8
7_ALL_FEATURES
  6
Continuous
 62
     7
100
AcDbLine
 10
224.5715008504
 20
319.8126360085
 30
0.0
 11
224.5715008504
 21
320.2434335792
 31
0.0
  0
LINE
  5
301
330
1B
100
AcDbEntity
 67
     1
  8
7_ALL_FEATURES
  6
Continuous
 62
     7
100
AcDbLine
 10
224.5715008504
 20
320.2434335792
 30
0.0
 11
224.5715008504
 21
324.2267684351
 31
0.0
  0
LINE
  5
302
330
1B
100
AcDbEntity
 67
     1
  8
7_ALL_FEATURES
  6
Continuous
 62
     7
100
AcDbLine
 10
224.5715008504
 20
324.2267684351
 30
0.0
 11
224.5715008504
 21
324.8052147107
 31
0.0
  0
LINE
  5
303
330
1B
100
AcDbEntity
 67
     1
  8
7_ALL_FEATURES
  6
Continuous
 62
     7
100
AcDbLine
 10
224.5715008504
 20
319.8126360085
 30
0.0
 11
224.5715008504
 21
318.9443951202
 31
0.0
  0
LINE
  5
304
330
1B
100
AcDbEntity
 67
     1
  8
7_ALL_FEATURES
  6
Continuous
 62
     7
100
AcDbLine
 10
224.5715008504
 20
316.4673338198
 30
0.0
 11
224.5715008504
 21
318.5069518025
 31
0.0
  0
LINE
  5
305
330
1B
100
AcDbEntity
 67
     1
  8
7_ALL_FEATURES
  6
Continuous
 62
     7
100
AcDbLine
 10
224.5715008504
 20
318.5069518025
 30
0.0
 11
224.5715008504
 21
318.9443951202
 31
0.0
  0
LINE
  5
306
330
1B
100
AcDbEntity
 67
     1
  8
7_ALL_FEATURES
  6
Continuous
 62
     7
100
AcDbLine
 10
224.5715008504
 20
293.688906695
 30
0.0
 11
224.5715008504
 21
294.3960134762
 31
0.0
  0
LINE
  5
307
330
1B
100
AcDbEntity
 67
     1
  8
7_ALL_FEATURES
  6
Continuous
 62
     7
100
AcDbLine
 10
224.5715008504
 20
291.0031202574
 30
0.0
 11
224.5715008504
 21
293.688906695
 31
0.0
  0
LINE
  5
308
330
1B
100
AcDbEntity
 67
     1
  8
7_ALL_FEATURES
  6
Continuous
 62
     7
100
AcDbLine
 10
224.5715008504
 20
280.7673338198
 30
0.0
 11
224.5715008504
 21
285.7031202574
 31
0.0
  0
LINE
  5
309
330
1B
100
AcDbEntity
 67
     1
  8
7_ALL_FEATURES
  6
Continuous
 62
     7
100
AcDbLine
 10
224.5715008504
 20
262.138906695
 30
0.0
 11
224.5715008504
 21
262.8460134762
 31
0.0
  0
LINE
  5
30A
330
1B
100
AcDbEntity
 67
     1
  8
7_ALL_FEATURES
  6
Continuous
 62
     7
100
AcDbLine
 10
224.5715008504
 20
258.2031202574
 30
0.0
 11
224.5715008504
 21
262.138906695
 31
0.0
  0
LINE
  5
30B
330
1B
100
AcDbEntity
 67
     1
  8
7_ALL_FEATURES
  6
Continuous
 62
     7
100
AcDbLine
 10
224.5715008504
 20
251.0531202574
 30
0.0
 11
224.5715008504
 21
252.9031202574
 31
0.0
  0
LINE
  5
30C
330
1B
100
AcDbEntity
 67
     1
  8
7_ALL_FEATURES
  6
Continuous
 62
     7
100
AcDbLine
 10
224.5715008504
 20
250.0531202574
 30
0.0
 11
224.5715008504
 21
250.0683125044
 31
0.0
  0
LINE
  5
30D
330
1B
100
AcDbEntity
 67
     1
  8
7_ALL_FEATURES
  6
Continuous
 62
     7
100
AcDbLine
 10
224.5715008504
 20
250.0683125044
 30
0.0
 11
224.5715008504
 21
251.0531202574
 31
0.0
  0
LINE
  5
30E
330
1B
100
AcDbEntity
 67
     1
  8
02___PRT_ALL_AXES
  6
Continuous
 62
     7
100
AcDbLine
 10
1685.5715008504
 20
257.9031202574
 30
0.0
 11
1736.0715008504
 21
257.9031202574
 31
0.0
  0
LINE
  5
30F
330
1B
100
AcDbEntity
 67
     1
  8
02___PRT_ALL_AXES
  6
Continuous
 62
     7
100
AcDbLine
 10
224.5715008504
 20
257.9031202574
 30
0.0
 11
260.5715008504
 21
257.9031202574
 31
0.0
  0
LINE
  5
310
330
1B
100
AcDbEntity
 67
     1
  8
02___PRT_ALL_AXES
  6
Continuous
 62
     7
100
AcDbLine
 10
385.5715008504
 20
257.9031202574
 30
0.0
 11
910.5715008504
 21
257.9031202574
 31
0.0
  0
LINE
  5
311
330
1B
100
AcDbEntity
 67
     1
  8
02___PRT_ALL_AXES
  6
Continuous
 62
     7
100
AcDbLine
 10
1035.5715008504
 20
257.9031202574
 30
0.0
 11
1560.5715008504
 21
257.9031202574
 31
0.0
  0
LINE
  5
312
330
1B
100
AcDbEntity
 67
     1
  8
7_ALL_FEATURES
  6
Continuous
 62
     7
100
AcDbLine
 10
1736.0715008504
 20
253.2031202574
 30
0.0
 11
1685.5715008504
 21
253.2031202574
 31
0.0
  0
LINE
  5
313
330
1B
100
AcDbEntity
 67
     1
  8
7_ALL_FEATURES
  6
Continuous
 62
     7
100
AcDbLine
 10
1560.5715008504
 20
253.2031202574
 30
0.0
 11
1035.5715008504
 21
253.2031202574
 31
0.0
  0
LINE
  5
314
330
1B
100
AcDbEntity
 67
     1
  8
7_ALL_FEATURES
  6
Continuous
 62
     7
100
AcDbLine
 10
910.5715008504
 20
253.2031202574
 30
0.0
 11
385.5715008504
 21
253.2031202574
 31
0.0
  0
LINE
  5
315
330
1B
100
AcDbEntity
 67
     1
  8
7_ALL_FEATURES
  6
Continuous
 62
     7
100
AcDbLine
 10
260.5715008504
 20
253.2031202574
 30
0.0
 11
224.5715008504
 21
253.2031202574
 31
0.0
  0
LINE
  5
316
330
1B
100
AcDbEntity
 67
     1
  8
7_ALL_FEATURES
  6
Continuous
 62
     7
100
AcDbLine
 10
224.5715008504
 20
325.0531202574
 30
0.0
 11
1736.0715008504
 21
325.0531202574
 31
0.0
  0
LINE
  5
317
330
1B
100
AcDbEntity
 67
     1
  8
7_ALL_FEATURES
  6
Continuous
 62
     7
100
AcDbLine
 10
224.5715008504
 20
290.7031202574
 30
0.0
 11
260.5715008504
 21
290.7031202574
 31
0.0
  0
LINE
  5
318
330
1B
100
AcDbEntity
 67
     1
  8
7_ALL_FEATURES
  6
Continuous
 62
     7
100
AcDbLine
 10
283.0715008504
 20
290.7031202574
 30
0.0
 11
283.2715008504
 21
290.7031202574
 31
0.0
  0
LINE
  5
319
330
1B
100
AcDbEntity
 67
     1
  8
7_ALL_FEATURES
  6
Continuous
 62
     7
100
AcDbLine
 10
362.8715008504
 20
290.7031202574
 30
0.0
 11
363.0715008504
 21
290.7031202574
 31
0.0
  0
LINE
  5
31A
330
1B
100
AcDbEntity
 67
     1
  8
7_ALL_FEATURES
  6
Continuous
 62
     7
100
AcDbLine
 10
385.5715008504
 20
290.7031202574
 30
0.0
 11
910.5715008504
 21
290.7031202574
 31
0.0
  0
LINE
  5
31B
330
1B
100
AcDbEntity
 67
     1
  8
7_ALL_FEATURES
  6
Continuous
 62
     7
100
AcDbLine
 10
933.0715008504
 20
290.7031202574
 30
0.0
 11
933.2715008504
 21
290.7031202574
 31
0.0
  0
LINE
  5
31C
330
1B
100
AcDbEntity
 67
     1
  8
7_ALL_FEATURES
  6
Continuous
 62
     7
100
AcDbLine
 10
1012.8715008504
 20
290.7031202574
 30
0.0
 11
1013.0715008504
 21
290.7031202574
 31
0.0
  0
LINE
  5
31D
330
1B
100
AcDbEntity
 67
     1
  8
7_ALL_FEATURES
  6
Continuous
 62
     7
100
AcDbLine
 10
1035.5715008504
 20
290.7031202574
 30
0.0
 11
1560.5715008504
 21
290.7031202574
 31
0.0
  0
LINE
  5
31E
330
1B
100
AcDbEntity
 67
     1
  8
7_ALL_FEATURES
  6
Continuous
 62
     7
100
AcDbLine
 10
1583.0715008504
 20
290.7031202574
 30
0.0
 11
1583.2715008504
 21
290.7031202574
 31
0.0
  0
LINE
  5
31F
330
1B
100
AcDbEntity
 67
     1
  8
7_ALL_FEATURES
  6
Continuous
 62
     7
100
AcDbLine
 10
1662.8715008504
 20
290.7031202574
 30
0.0
 11
1663.0715008504
 21
290.7031202574
 31
0.0
  0
LINE
  5
320
330
1B
100
AcDbEntity
 67
     1
  8
7_ALL_FEATURES
  6
Continuous
 62
     7
100
AcDbLine
 10
1685.5715008504
 20
290.7031202574
 30
0.0
 11
1736.0715008504
 21
290.7031202574
 31
0.0
  0
LINE
  5
321
330
1B
100
AcDbEntity
 67
     1
  8
7_ALL_FEATURES
  6
Continuous
 62
     7
100
AcDbLine
 10
224.5715008504
 20
286.0031202574
 30
0.0
 11
260.5715008504
 21
286.0031202574
 31
0.0
  0
LINE
  5
322
330
1B
100
AcDbEntity
 67
     1
  8
7_ALL_FEATURES
  6
Continuous
 62
     7
100
AcDbLine
 10
283.0715008504
 20
286.0031202574
 30
0.0
 11
283.2715008504
 21
286.0031202574
 31
0.0
  0
LINE
  5
323
330
1B
100
AcDbEntity
 67
     1
  8
7_ALL_FEATURES
  6
Continuous
 62
     7
100
AcDbLine
 10
362.8715008504
 20
286.0031202574
 30
0.0
 11
363.0715008504
 21
286.0031202574
 31
0.0
  0
LINE
  5
324
330
1B
100
AcDbEntity
 67
     1
  8
7_ALL_FEATURES
  6
Continuous
 62
     7
100
AcDbLine
 10
385.5715008504
 20
286.0031202574
 30
0.0
 11
910.5715008504
 21
286.0031202574
 31
0.0
  0
LINE
  5
325
330
1B
100
AcDbEntity
 67
     1
  8
7_ALL_FEATURES
  6
Continuous
 62
     7
100
AcDbLine
 10
933.0715008504
 20
286.0031202574
 30
0.0
 11
933.2715008504
 21
286.0031202574
 31
0.0
  0
LINE
  5
326
330
1B
100
AcDbEntity
 67
     1
  8
7_ALL_FEATURES
  6
Continuous
 62
     7
100
AcDbLine
 10
1012.8715008504
 20
286.0031202574
 30
0.0
 11
1013.0715008504
 21
286.0031202574
 31
0.0
  0
LINE
  5
327
330
1B
100
AcDbEntity
 67
     1
  8
7_ALL_FEATURES
  6
Continuous
 62
     7
100
AcDbLine
 10
1035.5715008504
 20
286.0031202574
 30
0.0
 11
1560.5715008504
 21
286.0031202574
 31
0.0
  0
LINE
  5
328
330
1B
100
AcDbEntity
 67
     1
  8
7_ALL_FEATURES
  6
Continuous
 62
     7
100
AcDbLine
 10
1583.0715008504
 20
286.0031202574
 30
0.0
 11
1583.2715008504
 21
286.0031202574
 31
0.0
  0
LINE
  5
329
330
1B
100
AcDbEntity
 67
     1
  8
7_ALL_FEATURES
  6
Continuous
 62
     7
100
AcDbLine
 10
1662.8715008504
 20
286.0031202574
 30
0.0
 11
1663.0715008504
 21
286.0031202574
 31
0.0
  0
LINE
  5
32A
330
1B
100
AcDbEntity
 67
     1
  8
7_ALL_FEATURES
  6
Continuous
 62
     7
100
AcDbLine
 10
1685.5715008504
 20
286.0031202574
 30
0.0
 11
1736.0715008504
 21
286.0031202574
 31
0.0
  0
ARC
  5
32B
330
1B
100
AcDbEntity
 67
     1
  8
02___PRT_ALL_AXES
  6
Continuous
 62
     7
100
AcDbCircle
 10
1636.0715008504
 20
265.0531202574
 30
0.0
 40
10.5
100
AcDbArc
 50
5.4650774539
 51
6.5627845666
  0
ARC
  5
32C
330
1B
100
AcDbEntity
 67
     1
  8
02___PRT_ALL_AXES
  6
Continuous
 62
     7
100
AcDbCircle
 10
1636.0715008504
 20
265.0531202574
 30
0.0
 40
10.5
100
AcDbArc
 50
173.4372154334
 51
174.5349225461
  0
LINE
  5
32D
330
1B
100
AcDbEntity
 67
     1
  8
7_ALL_FEATURES
  6
Continuous
 62
     7
100
AcDbLine
 10
224.5715008504
 20
250.0531202574
 30
0.0
 11
260.5715008504
 21
250.0531202574
 31
0.0
  0
LINE
  5
32E
330
1B
100
AcDbEntity
 67
     1
  8
7_ALL_FEATURES
  6
Continuous
 62
     7
100
AcDbLine
 10
385.5715008504
 20
250.0531202574
 30
0.0
 11
910.5715008504
 21
250.0531202574
 31
0.0
  0
LINE
  5
32F
330
1B
100
AcDbEntity
 67
     1
  8
7_ALL_FEATURES
  6
Continuous
 62
     7
100
AcDbLine
 10
1035.5715008504
 20
250.0531202574
 30
0.0
 11
1560.5715008504
 21
250.0531202574
 31
0.0
  0
LINE
  5
330
330
1B
100
AcDbEntity
 67
     1
  8
7_ALL_FEATURES
  6
Continuous
 62
     7
100
AcDbLine
 10
1685.5715008504
 20
250.0531202574
 30
0.0
 11
1736.0715008504
 21
250.0531202574
 31
0.0
  0
LINE
  5
331
330
1B
100
AcDbEntity
 67
     1
  8
02___PRT_ALL_AXES
  6
Continuous
 62
     9
100
AcDbLine
 10
1560.5715008504
 20
263.2602270386
 30
0.0
 11
1035.5715008504
 21
263.2602270386
 31
0.0
  0
LINE
  5
332
330
1B
100
AcDbEntity
 67
     1
  8
02___PRT_ALL_AXES
  6
Continuous
 62
     9
100
AcDbLine
 10
910.5715008504
 20
263.2602270386
 30
0.0
 11
385.5715008504
 21
263.2602270386
 31
0.0
  0
LINE
  5
333
330
1B
100
AcDbEntity
 67
     1
  8
02___PRT_ALL_AXES
  6
Continuous
 62
     9
100
AcDbLine
 10
260.5715008504
 20
263.2602270386
 30
0.0
 11
224.5715008504
 21
263.2602270386
 31
0.0
  0
LINE
  5
334
330
1B
100
AcDbEntity
 67
     1
  8
02___PRT_ALL_AXES
  6
Continuous
 62
     9
100
AcDbLine
 10
1560.5715008504
 20
262.8460134762
 30
0.0
 11
1035.5715008504
 21
262.8460134762
 31
0.0
  0
LINE
  5
335
330
1B
100
AcDbEntity
 67
     1
  8
02___PRT_ALL_AXES
  6
Continuous
 62
     9
100
AcDbLine
 10
910.5715008504
 20
262.8460134762
 30
0.0
 11
385.5715008504
 21
262.8460134762
 31
0.0
  0
LINE
  5
336
330
1B
100
AcDbEntity
 67
     1
  8
02___PRT_ALL_AXES
  6
Continuous
 62
     9
100
AcDbLine
 10
260.5715008504
 20
262.8460134762
 30
0.0
 11
224.5715008504
 21
262.8460134762
 31
0.0
  0
LINE
  5
337
330
1B
100
AcDbEntity
 67
     1
  8
7_ALL_FEATURES
  6
Continuous
 62
     9
100
AcDbLine
 10
224.5715008504
 20
279.6460134762
 30
0.0
 11
260.5715008504
 21
279.6460134762
 31
0.0
  0
LINE
  5
338
330
1B
100
AcDbEntity
 67
     1
  8
7_ALL_FEATURES
  6
Continuous
 62
     9
100
AcDbLine
 10
283.0715008504
 20
279.6460134762
 30
0.0
 11
283.2715008504
 21
279.6460134762
 31
0.0
  0
LINE
  5
339
330
1B
100
AcDbEntity
 67
     1
  8
7_ALL_FEATURES
  6
Continuous
 62
     9
100
AcDbLine
 10
362.8715008504
 20
279.6460134762
 30
0.0
 11
363.0715008504
 21
279.6460134762
 31
0.0
  0
LINE
  5
33A
330
1B
100
AcDbEntity
 67
     1
  8
7_ALL_FEATURES
  6
Continuous
 62
     9
100
AcDbLine
 10
385.5715008504
 20
279.6460134762
 30
0.0
 11
910.5715008504
 21
279.6460134762
 31
0.0
  0
LINE
  5
33B
330
1B
100
AcDbEntity
 67
     1
  8
7_ALL_FEATURES
  6
Continuous
 62
     9
100
AcDbLine
 10
933.0715008504
 20
279.6460134762
 30
0.0
 11
933.2715008504
 21
279.6460134762
 31
0.0
  0
LINE
  5
33C
330
1B
100
AcDbEntity
 67
     1
  8
7_ALL_FEATURES
  6
Continuous
 62
     9
100
AcDbLine
 10
1012.8715008504
 20
279.6460134762
 30
0.0
 11
1013.0715008504
 21
279.6460134762
 31
0.0
  0
LINE
  5
33D
330
1B
100
AcDbEntity
 67
     1
  8
7_ALL_FEATURES
  6
Continuous
 62
     9
100
AcDbLine
 10
1035.5715008504
 20
279.6460134762
 30
0.0
 11
1560.5715008504
 21
279.6460134762
 31
0.0
  0
LINE
  5
33E
330
1B
100
AcDbEntity
 67
     1
  8
7_ALL_FEATURES
  6
Continuous
 62
     9
100
AcDbLine
 10
1583.0715008504
 20
279.6460134762
 30
0.0
 11
1583.2715008504
 21
279.6460134762
 31
0.0
  0
LINE
  5
33F
330
1B
100
AcDbEntity
 67
     1
  8
7_ALL_FEATURES
  6
Continuous
 62
     9
100
AcDbLine
 10
1662.8715008504
 20
279.6460134762
 30
0.0
 11
1663.0715008504
 21
279.6460134762
 31
0.0
  0
LINE
  5
340
330
1B
100
AcDbEntity
 67
     1
  8
7_ALL_FEATURES
  6
Continuous
 62
     9
100
AcDbLine
 10
1685.5715008504
 20
279.6460134762
 30
0.0
 11
1736.0715008504
 21
279.6460134762
 31
0.0
  0
LINE
  5
341
330
1B
100
AcDbEntity
 67
     1
  8
7_ALL_FEATURES
  6
Continuous
 62
     9
100
AcDbLine
 10
224.5715008504
 20
319.8126360085
 30
0.0
 11
1736.0715008504
 21
319.8126360085
 31
0.0
  0
LINE
  5
342
330
1B
100
AcDbEntity
 67
     1
  8
7_ALL_FEATURES
  6
Continuous
 62
     9
100
AcDbLine
 10
224.5715008504
 20
324.8052147107
 30
0.0
 11
1736.0715008504
 21
324.8052147107
 31
0.0
  0
LINE
  5
343
330
1B
100
AcDbEntity
 67
     1
  8
7_ALL_FEATURES
  6
Continuous
 62
     9
100
AcDbLine
 10
224.5715008504
 20
318.9443951202
 30
0.0
 11
1736.0715008504
 21
318.9443951202
 31
0.0
  0
LINE
  5
344
330
1B
100
AcDbEntity
 67
     1
  8
7_ALL_FEATURES
  6
Continuous
 62
     9
100
AcDbLine
 10
224.5715008504
 20
280.0602270386
 30
0.0
 11
260.5715008504
 21
280.0602270386
 31
0.0
  0
LINE
  5
345
330
1B
100
AcDbEntity
 67
     1
  8
7_ALL_FEATURES
  6
Continuous
 62
     9
100
AcDbLine
 10
283.0715008504
 20
280.0602270386
 30
0.0
 11
283.2715008504
 21
280.0602270386
 31
0.0
  0
LINE
  5
346
330
1B
100
AcDbEntity
 67
     1
  8
7_ALL_FEATURES
  6
Continuous
 62
     9
100
AcDbLine
 10
362.8715008504
 20
280.0602270386
 30
0.0
 11
363.0715008504
 21
280.0602270386
 31
0.0
  0
LINE
  5
347
330
1B
100
AcDbEntity
 67
     1
  8
7_ALL_FEATURES
  6
Continuous
 62
     9
100
AcDbLine
 10
385.5715008504
 20
280.0602270386
 30
0.0
 11
910.5715008504
 21
280.0602270386
 31
0.0
  0
LINE
  5
348
330
1B
100
AcDbEntity
 67
     1
  8
7_ALL_FEATURES
  6
Continuous
 62
     9
100
AcDbLine
 10
933.0715008504
 20
280.0602270386
 30
0.0
 11
933.2715008504
 21
280.0602270386
 31
0.0
  0
LINE
  5
349
330
1B
100
AcDbEntity
 67
     1
  8
7_ALL_FEATURES
  6
Continuous
 62
     9
100
AcDbLine
 10
1012.8715008504
 20
280.0602270386
 30
0.0
 11
1013.0715008504
 21
280.0602270386
 31
0.0
  0
LINE
  5
34A
330
1B
100
AcDbEntity
 67
     1
  8
7_ALL_FEATURES
  6
Continuous
 62
     9
100
AcDbLine
 10
1035.5715008504
 20
280.0602270386
 30
0.0
 11
1560.5715008504
 21
280.0602270386
 31
0.0
  0
LINE
  5
34B
330
1B
100
AcDbEntity
 67
     1
  8
7_ALL_FEATURES
  6
Continuous
 62
     9
100
AcDbLine
 10
1583.0715008504
 20
280.0602270386
 30
0.0
 11
1583.2715008504
 21
280.0602270386
 31
0.0
  0
LINE
  5
34C
330
1B
100
AcDbEntity
 67
     1
  8
7_ALL_FEATURES
  6
Continuous
 62
     9
100
AcDbLine
 10
1662.8715008504
 20
280.0602270386
 30
0.0
 11
1663.0715008504
 21
280.0602270386
 31
0.0
  0
LINE
  5
34D
330
1B
100
AcDbEntity
 67
     1
  8
7_ALL_FEATURES
  6
Continuous
 62
     9
100
AcDbLine
 10
1685.5715008504
 20
280.0602270386
 30
0.0
 11
1736.0715008504
 21
280.0602270386
 31
0.0
  0
LINE
  5
34E
330
1B
100
AcDbEntity
 67
     1
  8
7_ALL_FEATURES
  6
Continuous
 62
     9
100
AcDbLine
 10
1736.0715008504
 20
294.8102270386
 30
0.0
 11
1685.5715008504
 21
294.8102270386
 31
0.0
  0
LINE
  5
34F
330
1B
100
AcDbEntity
 67
     1
  8
7_ALL_FEATURES
  6
Continuous
 62
     9
100
AcDbLine
 10
1663.0715008504
 20
294.8102270386
 30
0.0
 11
1662.8715008504
 21
294.8102270386
 31
0.0
  0
LINE
  5
350
330
1B
100
AcDbEntity
 67
     1
  8
7_ALL_FEATURES
  6
Continuous
 62
     9
100
AcDbLine
 10
1583.2715008504
 20
294.8102270386
 30
0.0
 11
1583.0715008504
 21
294.8102270386
 31
0.0
  0
LINE
  5
351
330
1B
100
AcDbEntity
 67
     1
  8
7_ALL_FEATURES
  6
Continuous
 62
     9
100
AcDbLine
 10
1560.5715008504
 20
294.8102270386
 30
0.0
 11
1035.5715008504
 21
294.8102270386
 31
0.0
  0
LINE
  5
352
330
1B
100
AcDbEntity
 67
     1
  8
7_ALL_FEATURES
  6
Continuous
 62
     9
100
AcDbLine
 10
1013.0715008504
 20
294.8102270386
 30
0.0
 11
1012.8715008504
 21
294.8102270386
 31
0.0
  0
LINE
  5
353
330
1B
100
AcDbEntity
 67
     1
  8
7_ALL_FEATURES
  6
Continuous
 62
     9
100
AcDbLine
 10
933.2715008504
 20
294.8102270386
 30
0.0
 11
933.0715008504
 21
294.8102270386
 31
0.0
  0
LINE
  5
354
330
1B
100
AcDbEntity
 67
     1
  8
7_ALL_FEATURES
  6
Continuous
 62
     9
100
AcDbLine
 10
910.5715008504
 20
294.8102270386
 30
0.0
 11
385.5715008504
 21
294.8102270386
 31
0.0
  0
LINE
  5
355
330
1B
100
AcDbEntity
 67
     1
  8
7_ALL_FEATURES
  6
Continuous
 62
     9
100
AcDbLine
 10
363.0715008504
 20
294.8102270386
 30
0.0
 11
362.8715008504
 21
294.8102270386
 31
0.0
  0
LINE
  5
356
330
1B
100
AcDbEntity
 67
     1
  8
7_ALL_FEATURES
  6
Continuous
 62
     9
100
AcDbLine
 10
283.2715008504
 20
294.8102270386
 30
0.0
 11
283.0715008504
 21
294.8102270386
 31
0.0
  0
LINE
  5
357
330
1B
100
AcDbEntity
 67
     1
  8
7_ALL_FEATURES
  6
Continuous
 62
     9
100
AcDbLine
 10
260.5715008504
 20
294.8102270386
 30
0.0
 11
224.5715008504
 21
294.8102270386
 31
0.0
  0
LINE
  5
358
330
1B
100
AcDbEntity
 67
     1
  8
7_ALL_FEATURES
  6
Continuous
 62
     9
100
AcDbLine
 10
224.5715008504
 20
316.4673338198
 30
0.0
 11
1736.0715008504
 21
316.4673338198
 31
0.0
  0
LINE
  5
359
330
1B
100
AcDbEntity
 67
     1
  8
7_ALL_FEATURES
  6
Continuous
 62
     9
100
AcDbLine
 10
1736.0715008504
 20
295.5173338198
 30
0.0
 11
1685.5715008504
 21
295.5173338198
 31
0.0
  0
LINE
  5
35A
330
1B
100
AcDbEntity
 67
     1
  8
7_ALL_FEATURES
  6
Continuous
 62
     9
100
AcDbLine
 10
1663.0715008504
 20
295.5173338198
 30
0.0
 11
1662.8715008504
 21
295.5173338198
 31
0.0
  0
LINE
  5
35B
330
1B
100
AcDbEntity
 67
     1
  8
7_ALL_FEATURES
  6
Continuous
 62
     9
100
AcDbLine
 10
1583.2715008504
 20
295.5173338198
 30
0.0
 11
1583.0715008504
 21
295.5173338198
 31
0.0
  0
LINE
  5
35C
330
1B
100
AcDbEntity
 67
     1
  8
7_ALL_FEATURES
  6
Continuous
 62
     9
100
AcDbLine
 10
1560.5715008504
 20
295.5173338198
 30
0.0
 11
1035.5715008504
 21
295.5173338198
 31
0.0
  0
LINE
  5
35D
330
1B
100
AcDbEntity
 67
     1
  8
7_ALL_FEATURES
  6
Continuous
 62
     9
100
AcDbLine
 10
1013.0715008504
 20
295.5173338198
 30
0.0
 11
1012.8715008504
 21
295.5173338198
 31
0.0
  0
LINE
  5
35E
330
1B
100
AcDbEntity
 67
     1
  8
7_ALL_FEATURES
  6
Continuous
 62
     9
100
AcDbLine
 10
933.2715008504
 20
295.5173338198
 30
0.0
 11
933.0715008504
 21
295.5173338198
 31
0.0
  0
LINE
  5
35F
330
1B
100
AcDbEntity
 67
     1
  8
7_ALL_FEATURES
  6
Continuous
 62
     9
100
AcDbLine
 10
910.5715008504
 20
295.5173338198
 30
0.0
 11
385.5715008504
 21
295.5173338198
 31
0.0
  0
LINE
  5
360
330
1B
100
AcDbEntity
 67
     1
  8
7_ALL_FEATURES
  6
Continuous
 62
     9
100
AcDbLine
 10
363.0715008504
 20
295.5173338198
 30
0.0
 11
362.8715008504
 21
295.5173338198
 31
0.0
  0
LINE
  5
361
330
1B
100
AcDbEntity
 67
     1
  8
7_ALL_FEATURES
  6
Continuous
 62
     9
100
AcDbLine
 10
283.2715008504
 20
295.5173338198
 30
0.0
 11
283.0715008504
 21
295.5173338198
 31
0.0
  0
LINE
  5
362
330
1B
100
AcDbEntity
 67
     1
  8
7_ALL_FEATURES
  6
Continuous
 62
     9
100
AcDbLine
 10
260.5715008504
 20
295.5173338198
 30
0.0
 11
224.5715008504
 21
295.5173338198
 31
0.0
  0
LINE
  5
363
330
1B
100
AcDbEntity
 67
     1
  8
7_ALL_FEATURES
  6
Continuous
 62
     9
100
AcDbLine
 10
224.5715008504
 20
314.638906695
 30
0.0
 11
1736.0715008504
 21
314.638906695
 31
0.0
  0
LINE
  5
364
330
1B
100
AcDbEntity
 67
     1
  8
7_ALL_FEATURES
  6
Continuous
 62
     9
100
AcDbLine
 10
224.5715008504
 20
291.0031202574
 30
0.0
 11
260.5715008504
 21
291.0031202574
 31
0.0
  0
LINE
  5
365
330
1B
100
AcDbEntity
 67
     1
  8
7_ALL_FEATURES
  6
Continuous
 62
     9
100
AcDbLine
 10
283.0715008504
 20
291.0031202574
 30
0.0
 11
283.2715008504
 21
291.0031202574
 31
0.0
  0
LINE
  5
366
330
1B
100
AcDbEntity
 67
     1
  8
7_ALL_FEATURES
  6
Continuous
 62
     9
100
AcDbLine
 10
362.8715008504
 20
291.0031202574
 30
0.0
 11
363.0715008504
 21
291.0031202574
 31
0.0
  0
LINE
  5
367
330
1B
100
AcDbEntity
 67
     1
  8
7_ALL_FEATURES
  6
Continuous
 62
     9
100
AcDbLine
 10
385.5715008504
 20
291.0031202574
 30
0.0
 11
910.5715008504
 21
291.0031202574
 31
0.0
  0
LINE
  5
368
330
1B
100
AcDbEntity
 67
     1
  8
7_ALL_FEATURES
  6
Continuous
 62
     9
100
AcDbLine
 10
933.0715008504
 20
291.0031202574
 30
0.0
 11
933.2715008504
 21
291.0031202574
 31
0.0
  0
LINE
  5
369
330
1B
100
AcDbEntity
 67
     1
  8
7_ALL_FEATURES
  6
Continuous
 62
     9
100
AcDbLine
 10
1012.8715008504
 20
291.0031202574
 30
0.0
 11
1013.0715008504
 21
291.0031202574
 31
0.0
  0
LINE
  5
36A
330
1B
100
AcDbEntity
 67
     1
  8
7_ALL_FEATURES
  6
Continuous
 62
     9
100
AcDbLine
 10
1035.5715008504
 20
291.0031202574
 30
0.0
 11
1560.5715008504
 21
291.0031202574
 31
0.0
  0
LINE
  5
36B
330
1B
100
AcDbEntity
 67
     1
  8
7_ALL_FEATURES
  6
Continuous
 62
     9
100
AcDbLine
 10
1583.0715008504
 20
291.0031202574
 30
0.0
 11
1583.2715008504
 21
291.0031202574
 31
0.0
  0
LINE
  5
36C
330
1B
100
AcDbEntity
 67
     1
  8
7_ALL_FEATURES
  6
Continuous
 62
     9
100
AcDbLine
 10
1662.8715008504
 20
291.0031202574
 30
0.0
 11
1663.0715008504
 21
291.0031202574
 31
0.0
  0
LINE
  5
36D
330
1B
100
AcDbEntity
 67
     1
  8
7_ALL_FEATURES
  6
Continuous
 62
     9
100
AcDbLine
 10
1685.5715008504
 20
291.0031202574
 30
0.0
 11
1736.0715008504
 21
291.0031202574
 31
0.0
  0
LINE
  5
36E
330
1B
100
AcDbEntity
 67
     1
  8
7_ALL_FEATURES
  6
Continuous
 62
     9
100
AcDbLine
 10
1736.0715008504
 20
293.688906695
 30
0.0
 11
1685.5715008504
 21
293.688906695
 31
0.0
  0
LINE
  5
36F
330
1B
100
AcDbEntity
 67
     1
  8
7_ALL_FEATURES
  6
Continuous
 62
     9
100
AcDbLine
 10
1663.0715008504
 20
293.688906695
 30
0.0
 11
1662.8715008504
 21
293.688906695
 31
0.0
  0
LINE
  5
370
330
1B
100
AcDbEntity
 67
     1
  8
7_ALL_FEATURES
  6
Continuous
 62
     9
100
AcDbLine
 10
1583.2715008504
 20
293.688906695
 30
0.0
 11
1583.0715008504
 21
293.688906695
 31
0.0
  0
LINE
  5
371
330
1B
100
AcDbEntity
 67
     1
  8
7_ALL_FEATURES
  6
Continuous
 62
     9
100
AcDbLine
 10
1560.5715008504
 20
293.688906695
 30
0.0
 11
1035.5715008504
 21
293.688906695
 31
0.0
  0
LINE
  5
372
330
1B
100
AcDbEntity
 67
     1
  8
7_ALL_FEATURES
  6
Continuous
 62
     9
100
AcDbLine
 10
1013.0715008504
 20
293.688906695
 30
0.0
 11
1012.8715008504
 21
293.688906695
 31
0.0
  0
LINE
  5
373
330
1B
100
AcDbEntity
 67
     1
  8
7_ALL_FEATURES
  6
Continuous
 62
     9
100
AcDbLine
 10
933.2715008504
 20
293.688906695
 30
0.0
 11
933.0715008504
 21
293.688906695
 31
0.0
  0
LINE
  5
374
330
1B
100
AcDbEntity
 67
     1
  8
7_ALL_FEATURES
  6
Continuous
 62
     9
100
AcDbLine
 10
910.5715008504
 20
293.688906695
 30
0.0
 11
385.5715008504
 21
293.688906695
 31
0.0
  0
LINE
  5
375
330
1B
100
AcDbEntity
 67
     1
  8
7_ALL_FEATURES
  6
Continuous
 62
     9
100
AcDbLine
 10
363.0715008504
 20
293.688906695
 30
0.0
 11
362.8715008504
 21
293.688906695
 31
0.0
  0
LINE
  5
376
330
1B
100
AcDbEntity
 67
     1
  8
7_ALL_FEATURES
  6
Continuous
 62
     9
100
AcDbLine
 10
283.2715008504
 20
293.688906695
 30
0.0
 11
283.0715008504
 21
293.688906695
 31
0.0
  0
LINE
  5
377
330
1B
100
AcDbEntity
 67
     1
  8
7_ALL_FEATURES
  6
Continuous
 62
     9
100
AcDbLine
 10
260.5715008504
 20
293.688906695
 30
0.0
 11
224.5715008504
 21
293.688906695
 31
0.0
  0
LINE
  5
378
330
1B
100
AcDbEntity
 67
     1
  8
7_ALL_FEATURES
  6
Continuous
 62
     9
100
AcDbLine
 10
1736.0715008504
 20
294.3960134762
 30
0.0
 11
1685.5715008504
 21
294.3960134762
 31
0.0
  0
LINE
  5
379
330
1B
100
AcDbEntity
 67
     1
  8
7_ALL_FEATURES
  6
Continuous
 62
     9
100
AcDbLine
 10
1663.0715008504
 20
294.3960134762
 30
0.0
 11
1662.8715008504
 21
294.3960134762
 31
0.0
  0
LINE
  5
37A
330
1B
100
AcDbEntity
 67
     1
  8
7_ALL_FEATURES
  6
Continuous
 62
     9
100
AcDbLine
 10
1583.2715008504
 20
294.3960134762
 30
0.0
 11
1583.0715008504
 21
294.3960134762
 31
0.0
  0
LINE
  5
37B
330
1B
100
AcDbEntity
 67
     1
  8
7_ALL_FEATURES
  6
Continuous
 62
     9
100
AcDbLine
 10
1560.5715008504
 20
294.3960134762
 30
0.0
 11
1035.5715008504
 21
294.3960134762
 31
0.0
  0
LINE
  5
37C
330
1B
100
AcDbEntity
 67
     1
  8
7_ALL_FEATURES
  6
Continuous
 62
     9
100
AcDbLine
 10
1013.0715008504
 20
294.3960134762
 30
0.0
 11
1012.8715008504
 21
294.3960134762
 31
0.0
  0
LINE
  5
37D
330
1B
100
AcDbEntity
 67
     1
  8
7_ALL_FEATURES
  6
Continuous
 62
     9
100
AcDbLine
 10
933.2715008504
 20
294.3960134762
 30
0.0
 11
933.0715008504
 21
294.3960134762
 31
0.0
  0
LINE
  5
37E
330
1B
100
AcDbEntity
 67
     1
  8
7_ALL_FEATURES
  6
Continuous
 62
     9
100
AcDbLine
 10
910.5715008504
 20
294.3960134762
 30
0.0
 11
385.5715008504
 21
294.3960134762
 31
0.0
  0
LINE
  5
37F
330
1B
100
AcDbEntity
 67
     1
  8
7_ALL_FEATURES
  6
Continuous
 62
     9
100
AcDbLine
 10
363.0715008504
 20
294.3960134762
 30
0.0
 11
362.8715008504
 21
294.3960134762
 31
0.0
  0
LINE
  5
380
330
1B
100
AcDbEntity
 67
     1
  8
7_ALL_FEATURES
  6
Continuous
 62
     9
100
AcDbLine
 10
283.2715008504
 20
294.3960134762
 30
0.0
 11
283.0715008504
 21
294.3960134762
 31
0.0
  0
LINE
  5
381
330
1B
100
AcDbEntity
 67
     1
  8
7_ALL_FEATURES
  6
Continuous
 62
     9
100
AcDbLine
 10
260.5715008504
 20
294.3960134762
 30
0.0
 11
224.5715008504
 21
294.3960134762
 31
0.0
  0
LINE
  5
382
330
1B
100
AcDbEntity
 67
     1
  8
7_ALL_FEATURES
  6
Continuous
 62
     9
100
AcDbLine
 10
224.5715008504
 20
315.3460134762
 30
0.0
 11
1736.0715008504
 21
315.3460134762
 31
0.0
  0
LINE
  5
383
330
1B
100
AcDbEntity
 67
     1
  8
7_ALL_FEATURES
  6
Continuous
 62
     9
100
AcDbLine
 10
224.5715008504
 20
315.7602270386
 30
0.0
 11
1736.0715008504
 21
315.7602270386
 31
0.0
  0
LINE
  5
384
330
1B
100
AcDbEntity
 67
     1
  8
7_ALL_FEATURES
  6
Continuous
 62
     9
100
AcDbLine
 10
224.5715008504
 20
285.7031202574
 30
0.0
 11
260.5715008504
 21
285.7031202574
 31
0.0
  0
LINE
  5
385
330
1B
100
AcDbEntity
 67
     1
  8
7_ALL_FEATURES
  6
Continuous
 62
     9
100
AcDbLine
 10
283.0715008504
 20
285.7031202574
 30
0.0
 11
283.2715008504
 21
285.7031202574
 31
0.0
  0
LINE
  5
386
330
1B
100
AcDbEntity
 67
     1
  8
7_ALL_FEATURES
  6
Continuous
 62
     9
100
AcDbLine
 10
362.8715008504
 20
285.7031202574
 30
0.0
 11
363.0715008504
 21
285.7031202574
 31
0.0
  0
LINE
  5
387
330
1B
100
AcDbEntity
 67
     1
  8
7_ALL_FEATURES
  6
Continuous
 62
     9
100
AcDbLine
 10
385.5715008504
 20
285.7031202574
 30
0.0
 11
910.5715008504
 21
285.7031202574
 31
0.0
  0
LINE
  5
388
330
1B
100
AcDbEntity
 67
     1
  8
7_ALL_FEATURES
  6
Continuous
 62
     9
100
AcDbLine
 10
933.0715008504
 20
285.7031202574
 30
0.0
 11
933.2715008504
 21
285.7031202574
 31
0.0
  0
LINE
  5
389
330
1B
100
AcDbEntity
 67
     1
  8
7_ALL_FEATURES
  6
Continuous
 62
     9
100
AcDbLine
 10
1012.8715008504
 20
285.7031202574
 30
0.0
 11
1013.0715008504
 21
285.7031202574
 31
0.0
  0
LINE
  5
38A
330
1B
100
AcDbEntity
 67
     1
  8
7_ALL_FEATURES
  6
Continuous
 62
     9
100
AcDbLine
 10
1035.5715008504
 20
285.7031202574
 30
0.0
 11
1560.5715008504
 21
285.7031202574
 31
0.0
  0
LINE
  5
38B
330
1B
100
AcDbEntity
 67
     1
  8
7_ALL_FEATURES
  6
Continuous
 62
     9
100
AcDbLine
 10
1583.0715008504
 20
285.7031202574
 30
0.0
 11
1583.2715008504
 21
285.7031202574
 31
0.0
  0
LINE
  5
38C
330
1B
100
AcDbEntity
 67
     1
  8
7_ALL_FEATURES
  6
Continuous
 62
     9
100
AcDbLine
 10
1662.8715008504
 20
285.7031202574
 30
0.0
 11
1663.0715008504
 21
285.7031202574
 31
0.0
  0
LINE
  5
38D
330
1B
100
AcDbEntity
 67
     1
  8
7_ALL_FEATURES
  6
Continuous
 62
     9
100
AcDbLine
 10
1685.5715008504
 20
285.7031202574
 30
0.0
 11
1736.0715008504
 21
285.7031202574
 31
0.0
  0
LINE
  5
38E
330
1B
100
AcDbEntity
 67
     1
  8
7_ALL_FEATURES
  6
Continuous
 62
     9
100
AcDbLine
 10
224.5715008504
 20
280.7673338198
 30
0.0
 11
260.5715008504
 21
280.7673338198
 31
0.0
  0
LINE
  5
38F
330
1B
100
AcDbEntity
 67
     1
  8
7_ALL_FEATURES
  6
Continuous
 62
     9
100
AcDbLine
 10
283.0715008504
 20
280.7673338198
 30
0.0
 11
283.2715008504
 21
280.7673338198
 31
0.0
  0
LINE
  5
390
330
1B
100
AcDbEntity
 67
     1
  8
7_ALL_FEATURES
  6
Continuous
 62
     9
100
AcDbLine
 10
362.8715008504
 20
280.7673338198
 30
0.0
 11
363.0715008504
 21
280.7673338198
 31
0.0
  0
LINE
  5
391
330
1B
100
AcDbEntity
 67
     1
  8
7_ALL_FEATURES
  6
Continuous
 62
     9
100
AcDbLine
 10
385.5715008504
 20
280.7673338198
 30
0.0
 11
910.5715008504
 21
280.7673338198
 31
0.0
  0
LINE
  5
392
330
1B
100
AcDbEntity
 67
     1
  8
7_ALL_FEATURES
  6
Continuous
 62
     9
100
AcDbLine
 10
933.0715008504
 20
280.7673338198
 30
0.0
 11
933.2715008504
 21
280.7673338198
 31
0.0
  0
LINE
  5
393
330
1B
100
AcDbEntity
 67
     1
  8
7_ALL_FEATURES
  6
Continuous
 62
     9
100
AcDbLine
 10
1012.8715008504
 20
280.7673338198
 30
0.0
 11
1013.0715008504
 21
280.7673338198
 31
0.0
  0
LINE
  5
394
330
1B
100
AcDbEntity
 67
     1
  8
7_ALL_FEATURES
  6
Continuous
 62
     9
100
AcDbLine
 10
1035.5715008504
 20
280.7673338198
 30
0.0
 11
1560.5715008504
 21
280.7673338198
 31
0.0
  0
LINE
  5
395
330
1B
100
AcDbEntity
 67
     1
  8
7_ALL_FEATURES
  6
Continuous
 62
     9
100
AcDbLine
 10
1583.0715008504
 20
280.7673338198
 30
0.0
 11
1583.2715008504
 21
280.7673338198
 31
0.0
  0
LINE
  5
396
330
1B
100
AcDbEntity
 67
     1
  8
7_ALL_FEATURES
  6
Continuous
 62
     9
100
AcDbLine
 10
1662.8715008504
 20
280.7673338198
 30
0.0
 11
1663.0715008504
 21
280.7673338198
 31
0.0
  0
LINE
  5
397
330
1B
100
AcDbEntity
 67
     1
  8
7_ALL_FEATURES
  6
Continuous
 62
     9
100
AcDbLine
 10
1685.5715008504
 20
280.7673338198
 30
0.0
 11
1736.0715008504
 21
280.7673338198
 31
0.0
  0
LINE
  5
398
330
1B
100
AcDbEntity
 67
     1
  8
02___PRT_ALL_AXES
  6
Continuous
 62
     9
100
AcDbLine
 10
1736.0715008504
 20
263.9673338198
 30
0.0
 11
1685.5715008504
 21
263.9673338198
 31
0.0
  0
LINE
  5
399
330
1B
100
AcDbEntity
 67
     1
  8
7_ALL_FEATURES
  6
Continuous
 62
     9
100
AcDbLine
 10
224.5715008504
 20
278.938906695
 30
0.0
 11
260.5715008504
 21
278.938906695
 31
0.0
  0
LINE
  5
39A
330
1B
100
AcDbEntity
 67
     1
  8
7_ALL_FEATURES
  6
Continuous
 62
     9
100
AcDbLine
 10
283.0715008504
 20
278.938906695
 30
0.0
 11
283.2715008504
 21
278.938906695
 31
0.0
  0
LINE
  5
39B
330
1B
100
AcDbEntity
 67
     1
  8
7_ALL_FEATURES
  6
Continuous
 62
     9
100
AcDbLine
 10
362.8715008504
 20
278.938906695
 30
0.0
 11
363.0715008504
 21
278.938906695
 31
0.0
  0
LINE
  5
39C
330
1B
100
AcDbEntity
 67
     1
  8
7_ALL_FEATURES
  6
Continuous
 62
     9
100
AcDbLine
 10
385.5715008504
 20
278.938906695
 30
0.0
 11
910.5715008504
 21
278.938906695
 31
0.0
  0
LINE
  5
39D
330
1B
100
AcDbEntity
 67
     1
  8
7_ALL_FEATURES
  6
Continuous
 62
     9
100
AcDbLine
 10
933.0715008504
 20
278.938906695
 30
0.0
 11
933.2715008504
 21
278.938906695
 31
0.0
  0
LINE
  5
39E
330
1B
100
AcDbEntity
 67
     1
  8
7_ALL_FEATURES
  6
Continuous
 62
     9
100
AcDbLine
 10
1012.8715008504
 20
278.938906695
 30
0.0
 11
1013.0715008504
 21
278.938906695
 31
0.0
  0
LINE
  5
39F
330
1B
100
AcDbEntity
 67
     1
  8
7_ALL_FEATURES
  6
Continuous
 62
     9
100
AcDbLine
 10
1035.5715008504
 20
278.938906695
 30
0.0
 11
1560.5715008504
 21
278.938906695
 31
0.0
  0
LINE
  5
3A0
330
1B
100
AcDbEntity
 67
     1
  8
7_ALL_FEATURES
  6
Continuous
 62
     9
100
AcDbLine
 10
1583.0715008504
 20
278.938906695
 30
0.0
 11
1583.2715008504
 21
278.938906695
 31
0.0
  0
LINE
  5
3A1
330
1B
100
AcDbEntity
 67
     1
  8
7_ALL_FEATURES
  6
Continuous
 62
     9
100
AcDbLine
 10
1662.8715008504
 20
278.938906695
 30
0.0
 11
1663.0715008504
 21
278.938906695
 31
0.0
  0
LINE
  5
3A2
330
1B
100
AcDbEntity
 67
     1
  8
7_ALL_FEATURES
  6
Continuous
 62
     9
100
AcDbLine
 10
1685.5715008504
 20
278.938906695
 30
0.0
 11
1736.0715008504
 21
278.938906695
 31
0.0
  0
LINE
  5
3A3
330
1B
100
AcDbEntity
 67
     1
  8
02___PRT_ALL_AXES
  6
Continuous
 62
     9
100
AcDbLine
 10
1560.5715008504
 20
263.9673338198
 30
0.0
 11
1035.5715008504
 21
263.9673338198
 31
0.0
  0
LINE
  5
3A4
330
1B
100
AcDbEntity
 67
     1
  8
02___PRT_ALL_AXES
  6
Continuous
 62
     9
100
AcDbLine
 10
910.5715008504
 20
263.9673338198
 30
0.0
 11
385.5715008504
 21
263.9673338198
 31
0.0
  0
LINE
  5
3A5
330
1B
100
AcDbEntity
 67
     1
  8
02___PRT_ALL_AXES
  6
Continuous
 62
     9
100
AcDbLine
 10
260.5715008504
 20
263.9673338198
 30
0.0
 11
224.5715008504
 21
263.9673338198
 31
0.0
  0
LINE
  5
3A6
330
1B
100
AcDbEntity
 67
     1
  8
02___PRT_ALL_AXES
  6
Continuous
 62
     9
100
AcDbLine
 10
1685.5715008504
 20
258.2031202574
 30
0.0
 11
1736.0715008504
 21
258.2031202574
 31
0.0
  0
LINE
  5
3A7
330
1B
100
AcDbEntity
 67
     1
  8
02___PRT_ALL_AXES
  6
Continuous
 62
     9
100
AcDbLine
 10
1736.0715008504
 20
262.138906695
 30
0.0
 11
1685.5715008504
 21
262.138906695
 31
0.0
  0
LINE
  5
3A8
330
1B
100
AcDbEntity
 67
     1
  8
02___PRT_ALL_AXES
  6
Continuous
 62
     9
100
AcDbLine
 10
1736.0715008504
 20
262.8460134762
 30
0.0
 11
1685.5715008504
 21
262.8460134762
 31
0.0
  0
LINE
  5
3A9
330
1B
100
AcDbEntity
 67
     1
  8
02___PRT_ALL_AXES
  6
Continuous
 62
     9
100
AcDbLine
 10
1560.5715008504
 20
262.138906695
 30
0.0
 11
1035.5715008504
 21
262.138906695
 31
0.0
  0
LINE
  5
3AA
330
1B
100
AcDbEntity
 67
     1
  8
02___PRT_ALL_AXES
  6
Continuous
 62
     9
100
AcDbLine
 10
910.5715008504
 20
262.138906695
 30
0.0
 11
385.5715008504
 21
262.138906695
 31
0.0
  0
LINE
  5
3AB
330
1B
100
AcDbEntity
 67
     1
  8
02___PRT_ALL_AXES
  6
Continuous
 62
     9
100
AcDbLine
 10
260.5715008504
 20
262.138906695
 30
0.0
 11
224.5715008504
 21
262.138906695
 31
0.0
  0
LINE
  5
3AC
330
1B
100
AcDbEntity
 67
     1
  8
02___PRT_ALL_AXES
  6
Continuous
 62
     9
100
AcDbLine
 10
224.5715008504
 20
258.2031202574
 30
0.0
 11
260.5715008504
 21
258.2031202574
 31
0.0
  0
LINE
  5
3AD
330
1B
100
AcDbEntity
 67
     1
  8
02___PRT_ALL_AXES
  6
Continuous
 62
     9
100
AcDbLine
 10
385.5715008504
 20
258.2031202574
 30
0.0
 11
910.5715008504
 21
258.2031202574
 31
0.0
  0
LINE
  5
3AE
330
1B
100
AcDbEntity
 67
     1
  8
02___PRT_ALL_AXES
  6
Continuous
 62
     9
100
AcDbLine
 10
1035.5715008504
 20
258.2031202574
 30
0.0
 11
1560.5715008504
 21
258.2031202574
 31
0.0
  0
LINE
  5
3AF
330
1B
100
AcDbEntity
 67
     1
  8
7_ALL_FEATURES
  6
Continuous
 62
     9
100
AcDbLine
 10
224.5715008504
 20
251.0531202574
 30
0.0
 11
260.5715008504
 21
251.0531202574
 31
0.0
  0
LINE
  5
3B0
330
1B
100
AcDbEntity
 67
     1
  8
7_ALL_FEATURES
  6
Continuous
 62
     9
100
AcDbLine
 10
385.5715008504
 20
251.0531202574
 30
0.0
 11
910.5715008504
 21
251.0531202574
 31
0.0
  0
LINE
  5
3B1
330
1B
100
AcDbEntity
 67
     1
  8
7_ALL_FEATURES
  6
Continuous
 62
     9
100
AcDbLine
 10
1035.5715008504
 20
251.0531202574
 30
0.0
 11
1560.5715008504
 21
251.0531202574
 31
0.0
  0
LINE
  5
3B2
330
1B
100
AcDbEntity
 67
     1
  8
7_ALL_FEATURES
  6
Continuous
 62
     9
100
AcDbLine
 10
1685.5715008504
 20
251.0531202574
 30
0.0
 11
1736.0715008504
 21
251.0531202574
 31
0.0
  0
LINE
  5
3B3
330
1B
100
AcDbEntity
 67
     1
  8
7_ALL_FEATURES
  6
Continuous
 62
     9
100
AcDbLine
 10
1736.0715008504
 20
252.9031202574
 30
0.0
 11
1685.5715008504
 21
252.9031202574
 31
0.0
  0
LINE
  5
3B4
330
1B
100
AcDbEntity
 67
     1
  8
7_ALL_FEATURES
  6
Continuous
 62
     9
100
AcDbLine
 10
1560.5715008504
 20
252.9031202574
 30
0.0
 11
1035.5715008504
 21
252.9031202574
 31
0.0
  0
LINE
  5
3B5
330
1B
100
AcDbEntity
 67
     1
  8
7_ALL_FEATURES
  6
Continuous
 62
     9
100
AcDbLine
 10
910.5715008504
 20
252.9031202574
 30
0.0
 11
385.5715008504
 21
252.9031202574
 31
0.0
  0
LINE
  5
3B6
330
1B
100
AcDbEntity
 67
     1
  8
7_ALL_FEATURES
  6
Continuous
 62
     9
100
AcDbLine
 10
260.5715008504
 20
252.9031202574
 30
0.0
 11
224.5715008504
 21
252.9031202574
 31
0.0
  0
LINE
  5
3B7
330
1B
100
AcDbEntity
 67
     1
  8
02___PRT_ALL_AXES
  6
Continuous
 62
     9
100
AcDbLine
 10
1736.0715008504
 20
263.2602270386
 30
0.0
 11
1685.5715008504
 21
263.2602270386
 31
0.0
  0
LINE
  5
3B8
330
1B
100
AcDbEntity
 67
     1
  8
7_ALL_FEATURES
  6
Continuous
 62
     3
100
AcDbLine
 10
224.5715008504
 20
251.0531202574
 30
0.0
 11
224.5715008504
 21
250.8794720797
 31
0.0
  0
LINE
  5
3B9
330
1B
100
AcDbEntity
 67
     1
  8
7_ALL_FEATURES
  6
Continuous
 62
     3
100
AcDbLine
 10
224.5715008504
 20
250.8794720797
 30
0.0
 11
224.5715008504
 21
250.7111001141
 31
0.0
  0
LINE
  5
3BA
330
1B
100
AcDbEntity
 67
     1
  8
7_ALL_FEATURES
  6
Continuous
 62
     3
100
AcDbLine
 10
224.5715008504
 20
250.7111001141
 30
0.0
 11
224.5715008504
 21
250.5531202574
 31
0.0
  0
LINE
  5
3BB
330
1B
100
AcDbEntity
 67
     1
  8
7_ALL_FEATURES
  6
Continuous
 62
     3
100
AcDbLine
 10
224.5715008504
 20
250.5531202574
 30
0.0
 11
224.5715008504
 21
250.4103326477
 31
0.0
  0
LINE
  5
3BC
330
1B
100
AcDbEntity
 67
     1
  8
7_ALL_FEATURES
  6
Continuous
 62
     3
100
AcDbLine
 10
224.5715008504
 20
250.4103326477
 30
0.0
 11
224.5715008504
 21
250.2870758143
 31
0.0
  0
LINE
  5
3BD
330
1B
100
AcDbEntity
 67
     1
  8
7_ALL_FEATURES
  6
Continuous
 62
     3
100
AcDbLine
 10
224.5715008504
 20
250.2870758143
 30
0.0
 11
224.5715008504
 21
250.1870948536
 31
0.0
  0
LINE
  5
3BE
330
1B
100
AcDbEntity
 67
     1
  8
7_ALL_FEATURES
  6
Continuous
 62
     3
100
AcDbLine
 10
224.5715008504
 20
250.1870948536
 30
0.0
 11
224.5715008504
 21
250.1134276366
 31
0.0
  0
LINE
  5
3BF
330
1B
100
AcDbEntity
 67
     1
  8
7_ALL_FEATURES
  6
Continuous
 62
     3
100
AcDbLine
 10
224.5715008504
 20
250.1134276366
 30
0.0
 11
224.5715008504
 21
250.0683125044
 31
0.0
  0
LINE
  5
3C0
330
1B
100
AcDbEntity
 67
     1
  8
7_ALL_FEATURES
  6
Continuous
 62
     3
100
AcDbLine
 10
224.5715008504
 20
250.0683125044
 30
0.0
 11
224.5715008504
 21
250.0531202574
 31
0.0
  0
LINE
  5
3C1
330
1B
100
AcDbEntity
 67
     1
  8
7_ALL_FEATURES
  6
Continuous
 62
     3
100
AcDbLine
 10
224.5715008504
 20
318.5069518025
 30
0.0
 11
224.5715008504
 21
316.4673338198
 31
0.0
  0
LINE
  5
3C2
330
1B
100
AcDbEntity
 67
     1
  8
7_ALL_FEATURES
  6
Continuous
 62
     3
100
AcDbLine
 10
224.5715008504
 20
316.4673338198
 30
0.0
 11
224.5715008504
 21
315.7602270386
 31
0.0
  0
LINE
  5
3C3
330
1B
100
AcDbEntity
 67
     1
  8
7_ALL_FEATURES
  6
Continuous
 62
     3
100
AcDbLine
 10
224.5715008504
 20
315.7602270386
 30
0.0
 11
224.5715008504
 21
294.3960134762
 31
0.0
  0
LINE
  5
3C4
330
1B
100
AcDbEntity
 67
     1
  8
7_ALL_FEATURES
  6
Continuous
 62
     3
100
AcDbLine
 10
224.5715008504
 20
294.3960134762
 30
0.0
 11
224.5715008504
 21
293.688906695
 31
0.0
  0
LINE
  5
3C5
330
1B
100
AcDbEntity
 67
     1
  8
7_ALL_FEATURES
  6
Continuous
 62
     3
100
AcDbLine
 10
224.5715008504
 20
293.688906695
 30
0.0
 11
224.5715008504
 21
291.0031202574
 31
0.0
  0
LINE
  5
3C6
330
1B
100
AcDbEntity
 67
     1
  8
7_ALL_FEATURES
  6
Continuous
 62
     3
100
AcDbLine
 10
224.5715008504
 20
291.0031202574
 30
0.0
 11
224.5715008504
 21
290.7031202574
 31
0.0
  0
LINE
  5
3C7
330
1B
100
AcDbEntity
 67
     1
  8
7_ALL_FEATURES
  6
Continuous
 62
     3
100
AcDbLine
 10
224.5715008504
 20
290.7031202574
 30
0.0
 11
224.5715008504
 21
286.0031202574
 31
0.0
  0
LINE
  5
3C8
330
1B
100
AcDbEntity
 67
     1
  8
7_ALL_FEATURES
  6
Continuous
 62
     3
100
AcDbLine
 10
224.5715008504
 20
286.0031202574
 30
0.0
 11
224.5715008504
 21
285.7031202574
 31
0.0
  0
LINE
  5
3C9
330
1B
100
AcDbEntity
 67
     1
  8
7_ALL_FEATURES
  6
Continuous
 62
     3
100
AcDbLine
 10
224.5715008504
 20
285.7031202574
 30
0.0
 11
224.5715008504
 21
280.7673338198
 31
0.0
  0
LINE
  5
3CA
330
1B
100
AcDbEntity
 67
     1
  8
7_ALL_FEATURES
  6
Continuous
 62
     3
100
AcDbLine
 10
224.5715008504
 20
280.7673338198
 30
0.0
 11
224.5715008504
 21
280.0602270386
 31
0.0
  0
LINE
  5
3CB
330
1B
100
AcDbEntity
 67
     1
  8
7_ALL_FEATURES
  6
Continuous
 62
     3
100
AcDbLine
 10
224.5715008504
 20
280.0602270386
 30
0.0
 11
224.5715008504
 21
262.8460134762
 31
0.0
  0
LINE
  5
3CC
330
1B
100
AcDbEntity
 67
     1
  8
7_ALL_FEATURES
  6
Continuous
 62
     3
100
AcDbLine
 10
224.5715008504
 20
262.8460134762
 30
0.0
 11
224.5715008504
 21
262.138906695
 31
0.0
  0
LINE
  5
3CD
330
1B
100
AcDbEntity
 67
     1
  8
7_ALL_FEATURES
  6
Continuous
 62
     3
100
AcDbLine
 10
224.5715008504
 20
262.138906695
 30
0.0
 11
224.5715008504
 21
258.2031202574
 31
0.0
  0
LINE
  5
3CE
330
1B
100
AcDbEntity
 67
     1
  8
7_ALL_FEATURES
  6
Continuous
 62
     3
100
AcDbLine
 10
224.5715008504
 20
258.2031202574
 30
0.0
 11
224.5715008504
 21
257.9031202574
 31
0.0
  0
LINE
  5
3CF
330
1B
100
AcDbEntity
 67
     1
  8
7_ALL_FEATURES
  6
Continuous
 62
     3
100
AcDbLine
 10
224.5715008504
 20
257.9031202574
 30
0.0
 11
224.5715008504
 21
253.2031202574
 31
0.0
  0
LINE
  5
3D0
330
1B
100
AcDbEntity
 67
     1
  8
7_ALL_FEATURES
  6
Continuous
 62
     3
100
AcDbLine
 10
224.5715008504
 20
253.2031202574
 30
0.0
 11
224.5715008504
 21
252.9031202574
 31
0.0
  0
LINE
  5
3D1
330
1B
100
AcDbEntity
 67
     1
  8
7_ALL_FEATURES
  6
Continuous
 62
     3
100
AcDbLine
 10
224.5715008504
 20
252.9031202574
 30
0.0
 11
224.5715008504
 21
251.0531202574
 31
0.0
  0
LINE
  5
3D2
330
1B
100
AcDbEntity
 67
     1
  8
7_ALL_FEATURES
  6
Continuous
 62
     3
100
AcDbLine
 10
224.5715008504
 20
320.2434335792
 30
0.0
 11
224.5715008504
 21
319.9562297474
 31
0.0
  0
LINE
  5
3D3
330
1B
100
AcDbEntity
 67
     1
  8
7_ALL_FEATURES
  6
Continuous
 62
     3
100
AcDbLine
 10
224.5715008504
 20
318.7978399761
 30
0.0
 11
224.5715008504
 21
318.5069518025
 31
0.0
  0
LINE
  5
3D4
330
1B
100
AcDbEntity
 67
     1
  8
7_ALL_FEATURES
  6
Continuous
 62
     3
100
AcDbLine
 10
224.5715008504
 20
324.2267684351
 30
0.0
 11
224.5715008504
 21
320.2434335792
 31
0.0
  0
LINE
  5
3D5
330
1B
100
AcDbEntity
 67
     1
  8
7_ALL_FEATURES
  6
Continuous
 62
     3
100
AcDbLine
 10
1736.0715008504
 20
250.0531202574
 30
0.0
 11
1736.0715008504
 21
250.0683125044
 31
0.0
  0
LINE
  5
3D6
330
1B
100
AcDbEntity
 67
     1
  8
7_ALL_FEATURES
  6
Continuous
 62
     3
100
AcDbLine
 10
1736.0715008504
 20
250.0683125044
 30
0.0
 11
1736.0715008504
 21
250.1134276366
 31
0.0
  0
LINE
  5
3D7
330
1B
100
AcDbEntity
 67
     1
  8
7_ALL_FEATURES
  6
Continuous
 62
     3
100
AcDbLine
 10
1736.0715008504
 20
250.1134276366
 30
0.0
 11
1736.0715008504
 21
250.1870948536
 31
0.0
  0
LINE
  5
3D8
330
1B
100
AcDbEntity
 67
     1
  8
7_ALL_FEATURES
  6
Continuous
 62
     3
100
AcDbLine
 10
1736.0715008504
 20
250.1870948536
 30
0.0
 11
1736.0715008504
 21
250.2870758143
 31
0.0
  0
LINE
  5
3D9
330
1B
100
AcDbEntity
 67
     1
  8
7_ALL_FEATURES
  6
Continuous
 62
     3
100
AcDbLine
 10
1736.0715008504
 20
250.2870758143
 30
0.0
 11
1736.0715008504
 21
250.4103326477
 31
0.0
  0
LINE
  5
3DA
330
1B
100
AcDbEntity
 67
     1
  8
7_ALL_FEATURES
  6
Continuous
 62
     3
100
AcDbLine
 10
1736.0715008504
 20
250.4103326477
 30
0.0
 11
1736.0715008504
 21
250.5531202574
 31
0.0
  0
LINE
  5
3DB
330
1B
100
AcDbEntity
 67
     1
  8
7_ALL_FEATURES
  6
Continuous
 62
     3
100
AcDbLine
 10
1736.0715008504
 20
250.5531202574
 30
0.0
 11
1736.0715008504
 21
250.7111001141
 31
0.0
  0
LINE
  5
3DC
330
1B
100
AcDbEntity
 67
     1
  8
7_ALL_FEATURES
  6
Continuous
 62
     3
100
AcDbLine
 10
1736.0715008504
 20
250.7111001141
 30
0.0
 11
1736.0715008504
 21
250.8794720797
 31
0.0
  0
LINE
  5
3DD
330
1B
100
AcDbEntity
 67
     1
  8
7_ALL_FEATURES
  6
Continuous
 62
     3
100
AcDbLine
 10
1736.0715008504
 20
250.8794720797
 30
0.0
 11
1736.0715008504
 21
251.0531202574
 31
0.0
  0
LINE
  5
3DE
330
1B
100
AcDbEntity
 67
     1
  8
7_ALL_FEATURES
  6
Continuous
 62
     3
100
AcDbLine
 10
1736.0715008504
 20
320.2434335792
 30
0.0
 11
1736.0715008504
 21
324.2267684351
 31
0.0
  0
LINE
  5
3DF
330
1B
100
AcDbEntity
 67
     1
  8
7_ALL_FEATURES
  6
Continuous
 62
     3
100
AcDbLine
 10
1736.0715008504
 20
318.5069518025
 30
0.0
 11
1736.0715008504
 21
318.7978399761
 31
0.0
  0
LINE
  5
3E0
330
1B
100
AcDbEntity
 67
     1
  8
7_ALL_FEATURES
  6
Continuous
 62
     3
100
AcDbLine
 10
1736.0715008504
 20
319.9562297474
 30
0.0
 11
1736.0715008504
 21
320.2434335792
 31
0.0
  0
LINE
  5
3E1
330
1B
100
AcDbEntity
 67
     1
  8
7_ALL_FEATURES
  6
Continuous
 62
     3
100
AcDbLine
 10
1736.0715008504
 20
251.0531202574
 30
0.0
 11
1736.0715008504
 21
252.9031202574
 31
0.0
  0
LINE
  5
3E2
330
1B
100
AcDbEntity
 67
     1
  8
7_ALL_FEATURES
  6
Continuous
 62
     3
100
AcDbLine
 10
1736.0715008504
 20
252.9031202574
 30
0.0
 11
1736.0715008504
 21
253.2031202574
 31
0.0
  0
LINE
  5
3E3
330
1B
100
AcDbEntity
 67
     1
  8
7_ALL_FEATURES
  6
Continuous
 62
     3
100
AcDbLine
 10
1736.0715008504
 20
253.2031202574
 30
0.0
 11
1736.0715008504
 21
257.9031202574
 31
0.0
  0
LINE
  5
3E4
330
1B
100
AcDbEntity
 67
     1
  8
7_ALL_FEATURES
  6
Continuous
 62
     3
100
AcDbLine
 10
1736.0715008504
 20
257.9031202574
 30
0.0
 11
1736.0715008504
 21
258.2031202574
 31
0.0
  0
LINE
  5
3E5
330
1B
100
AcDbEntity
 67
     1
  8
7_ALL_FEATURES
  6
Continuous
 62
     3
100
AcDbLine
 10
1736.0715008504
 20
258.2031202574
 30
0.0
 11
1736.0715008504
 21
262.138906695
 31
0.0
  0
LINE
  5
3E6
330
1B
100
AcDbEntity
 67
     1
  8
7_ALL_FEATURES
  6
Continuous
 62
     3
100
AcDbLine
 10
1736.0715008504
 20
262.138906695
 30
0.0
 11
1736.0715008504
 21
262.8460134762
 31
0.0
  0
LINE
  5
3E7
330
1B
100
AcDbEntity
 67
     1
  8
7_ALL_FEATURES
  6
Continuous
 62
     3
100
AcDbLine
 10
1736.0715008504
 20
262.8460134762
 30
0.0
 11
1736.0715008504
 21
280.0602270386
 31
0.0
  0
LINE
  5
3E8
330
1B
100
AcDbEntity
 67
     1
  8
7_ALL_FEATURES
  6
Continuous
 62
     3
100
AcDbLine
 10
1736.0715008504
 20
280.0602270386
 30
0.0
 11
1736.0715008504
 21
280.7673338198
 31
0.0
  0
LINE
  5
3E9
330
1B
100
AcDbEntity
 67
     1
  8
7_ALL_FEATURES
  6
Continuous
 62
     3
100
AcDbLine
 10
1736.0715008504
 20
280.7673338198
 30
0.0
 11
1736.0715008504
 21
285.7031202574
 31
0.0
  0
LINE
  5
3EA
330
1B
100
AcDbEntity
 67
     1
  8
7_ALL_FEATURES
  6
Continuous
 62
     3
100
AcDbLine
 10
1736.0715008504
 20
285.7031202574
 30
0.0
 11
1736.0715008504
 21
286.0031202574
 31
0.0
  0
LINE
  5
3EB
330
1B
100
AcDbEntity
 67
     1
  8
7_ALL_FEATURES
  6
Continuous
 62
     3
100
AcDbLine
 10
1736.0715008504
 20
286.0031202574
 30
0.0
 11
1736.0715008504
 21
290.7031202574
 31
0.0
  0
LINE
  5
3EC
330
1B
100
AcDbEntity
 67
     1
  8
7_ALL_FEATURES
  6
Continuous
 62
     3
100
AcDbLine
 10
1736.0715008504
 20
290.7031202574
 30
0.0
 11
1736.0715008504
 21
291.0031202574
 31
0.0
  0
LINE
  5
3ED
330
1B
100
AcDbEntity
 67
     1
  8
7_ALL_FEATURES
  6
Continuous
 62
     3
100
AcDbLine
 10
1736.0715008504
 20
291.0031202574
 30
0.0
 11
1736.0715008504
 21
293.688906695
 31
0.0
  0
LINE
  5
3EE
330
1B
100
AcDbEntity
 67
     1
  8
7_ALL_FEATURES
  6
Continuous
 62
     3
100
AcDbLine
 10
1736.0715008504
 20
293.688906695
 30
0.0
 11
1736.0715008504
 21
294.3960134762
 31
0.0
  0
LINE
  5
3EF
330
1B
100
AcDbEntity
 67
     1
  8
7_ALL_FEATURES
  6
Continuous
 62
     3
100
AcDbLine
 10
1736.0715008504
 20
294.3960134762
 30
0.0
 11
1736.0715008504
 21
315.7602270386
 31
0.0
  0
LINE
  5
3F0
330
1B
100
AcDbEntity
 67
     1
  8
7_ALL_FEATURES
  6
Continuous
 62
     3
100
AcDbLine
 10
1736.0715008504
 20
315.7602270386
 30
0.0
 11
1736.0715008504
 21
316.4673338198
 31
0.0
  0
LINE
  5
3F1
330
1B
100
AcDbEntity
 67
     1
  8
7_ALL_FEATURES
  6
Continuous
 62
     3
100
AcDbLine
 10
1736.0715008504
 20
316.4673338198
 30
0.0
 11
1736.0715008504
 21
318.5069518025
 31
0.0
  0
LINE
  5
3F2
330
1B
100
AcDbEntity
 67
     1
  8
7_ALL_FEATURES
  6
Continuous
 62
     3
100
AcDbLine
 10
1685.5715008504
 20
250.6531202574
 30
0.0
 11
1685.5715008504
 21
310.3531202574
 31
0.0
  0
LINE
  5
3F3
330
1B
100
AcDbEntity
 67
     1
  8
7_ALL_FEATURES
  6
Continuous
 62
     3
100
AcDbLine
 10
1560.5715008504
 20
310.3531202574
 30
0.0
 11
1560.5715008504
 21
250.6531202574
 31
0.0
  0
LINE
  5
3F4
330
1B
100
AcDbEntity
 67
     1
  8
02___PRT_ALL_AXES
  6
Continuous
 62
     3
100
AcDbLine
 10
1663.0715008504
 20
296.0531202574
 30
0.0
 11
1663.0715008504
 21
276.0531202574
 31
0.0
  0
LINE
  5
3F5
330
1B
100
AcDbEntity
 67
     1
  8
02___PRT_ALL_AXES
  6
Continuous
 62
     3
100
AcDbLine
 10
1662.8715008504
 20
296.0531202574
 30
0.0
 11
1663.0715008504
 21
296.0531202574
 31
0.0
  0
LINE
  5
3F6
330
1B
100
AcDbEntity
 67
     1
  8
02___PRT_ALL_AXES
  6
Continuous
 62
     3
100
AcDbLine
 10
1662.8715008504
 20
276.0531202574
 30
0.0
 11
1662.8715008504
 21
296.0531202574
 31
0.0
  0
ARC
  5
3F7
330
1B
100
AcDbEntity
 67
     1
  8
02___PRT_ALL_AXES
  6
Continuous
 62
     3
100
AcDbCircle
 10
1653.0715008504
 20
276.0531202574
 30
0.0
 40
9.8
100
AcDbArc
 50
270.0
 51
360.0
  0
LINE
  5
3F8
330
1B
100
AcDbEntity
 67
     1
  8
02___PRT_ALL_AXES
  6
Continuous
 62
     3
100
AcDbLine
 10
1593.0715008504
 20
266.2531202574
 30
0.0
 11
1653.0715008504
 21
266.2531202574
 31
0.0
  0
ARC
  5
3F9
330
1B
100
AcDbEntity
 67
     1
  8
02___PRT_ALL_AXES
  6
Continuous
 62
     3
100
AcDbCircle
 10
1593.0715008504
 20
276.0531202574
 30
0.0
 40
9.8
100
AcDbArc
 50
180.0
 51
270.0
  0
LINE
  5
3FA
330
1B
100
AcDbEntity
 67
     1
  8
02___PRT_ALL_AXES
  6
Continuous
 62
     3
100
AcDbLine
 10
1583.2715008504
 20
296.0531202574
 30
0.0
 11
1583.2715008504
 21
276.0531202574
 31
0.0
  0
LINE
  5
3FB
330
1B
100
AcDbEntity
 67
     1
  8
02___PRT_ALL_AXES
  6
Continuous
 62
     3
100
AcDbLine
 10
1583.0715008504
 20
296.0531202574
 30
0.0
 11
1583.2715008504
 21
296.0531202574
 31
0.0
  0
LINE
  5
3FC
330
1B
100
AcDbEntity
 67
     1
  8
02___PRT_ALL_AXES
  6
Continuous
 62
     3
100
AcDbLine
 10
1583.0715008504
 20
276.0531202574
 30
0.0
 11
1583.0715008504
 21
296.0531202574
 31
0.0
  0
ARC
  5
3FD
330
1B
100
AcDbEntity
 67
     1
  8
02___PRT_ALL_AXES
  6
Continuous
 62
     3
100
AcDbCircle
 10
1593.0715008504
 20
276.0531202574
 30
0.0
 40
10.0
100
AcDbArc
 50
180.0
 51
270.0
  0
LINE
  5
3FE
330
1B
100
AcDbEntity
 67
     1
  8
02___PRT_ALL_AXES
  6
Continuous
 62
     3
100
AcDbLine
 10
1653.0715008504
 20
266.0531202574
 30
0.0
 11
1593.0715008504
 21
266.0531202574
 31
0.0
  0
ARC
  5
3FF
330
1B
100
AcDbEntity
 67
     1
  8
02___PRT_ALL_AXES
  6
Continuous
 62
     3
100
AcDbCircle
 10
1653.0715008504
 20
276.0531202574
 30
0.0
 40
10.0
100
AcDbArc
 50
270.0
 51
360.0
  0
LINE
  5
400
330
1B
100
AcDbEntity
 67
     1
  8
02___PRT_ALL_AXES
  6
Continuous
 62
     3
100
AcDbLine
 10
1661.2715008504
 20
296.1531202574
 30
0.0
 11
1661.2715008504
 21
295.9531202574
 31
0.0
  0
LINE
  5
401
330
1B
100
AcDbEntity
 67
     1
  8
02___PRT_ALL_AXES
  6
Continuous
 62
     3
100
AcDbLine
 10
1623.8715008504
 20
296.1531202574
 30
0.0
 11
1661.2715008504
 21
296.1531202574
 31
0.0
  0
LINE
  5
402
330
1B
100
AcDbEntity
 67
     1
  8
02___PRT_ALL_AXES
  6
Continuous
 62
     3
100
AcDbLine
 10
1623.8715008504
 20
295.9531202574
 30
0.0
 11
1623.8715008504
 21
296.1531202574
 31
0.0
  0
LINE
  5
403
330
1B
100
AcDbEntity
 67
     1
  8
02___PRT_ALL_AXES
  6
Continuous
 62
     3
100
AcDbLine
 10
1661.2715008504
 20
295.9531202574
 30
0.0
 11
1623.8715008504
 21
295.9531202574
 31
0.0
  0
LINE
  5
404
330
1B
100
AcDbEntity
 67
     1
  8
02___PRT_ALL_AXES
  6
Continuous
 62
     3
100
AcDbLine
 10
1584.8715008504
 20
296.1531202574
 30
0.0
 11
1622.2715008504
 21
296.1531202574
 31
0.0
  0
LINE
  5
405
330
1B
100
AcDbEntity
 67
     1
  8
02___PRT_ALL_AXES
  6
Continuous
 62
     3
100
AcDbLine
 10
1584.8715008504
 20
295.9531202574
 30
0.0
 11
1584.8715008504
 21
296.1531202574
 31
0.0
  0
LINE
  5
406
330
1B
100
AcDbEntity
 67
     1
  8
02___PRT_ALL_AXES
  6
Continuous
 62
     3
100
AcDbLine
 10
1622.2715008504
 20
295.9531202574
 30
0.0
 11
1584.8715008504
 21
295.9531202574
 31
0.0
  0
LINE
  5
407
330
1B
100
AcDbEntity
 67
     1
  8
02___PRT_ALL_AXES
  6
Continuous
 62
     3
100
AcDbLine
 10
1622.2715008504
 20
296.1531202574
 30
0.0
 11
1622.2715008504
 21
295.9531202574
 31
0.0
  0
LINE
  5
408
330
1B
100
AcDbEntity
 67
     1
  8
7_ALL_FEATURES
  6
Continuous
 62
     3
100
AcDbLine
 10
1685.5715008504
 20
250.6531202574
 30
0.0
 11
1685.5715008504
 21
249.9477779547
 31
0.0
  0
LINE
  5
409
330
1B
100
AcDbEntity
 67
     1
  8
7_ALL_FEATURES
  6
Continuous
 62
     3
100
AcDbLine
 10
1685.5715008504
 20
249.9477779547
 30
0.0
 11
1685.5715008504
 21
249.6822998642
 31
0.0
  0
LINE
  5
40A
330
1B
100
AcDbEntity
 67
     1
  8
7_ALL_FEATURES
  6
Continuous
 62
     3
100
AcDbLine
 10
1685.5715008504
 20
249.6822998642
 30
0.0
 11
1685.5715008504
 21
249.4531202574
 31
0.0
  0
LINE
  5
40B
330
1B
100
AcDbEntity
 67
     1
  8
7_ALL_FEATURES
  6
Continuous
 62
     3
100
AcDbLine
 10
1560.5715008504
 20
249.4531202574
 30
0.0
 11
1685.5715008504
 21
249.4531202574
 31
0.0
  0
LINE
  5
40C
330
1B
100
AcDbEntity
 67
     1
  8
7_ALL_FEATURES
  6
Continuous
 62
     3
100
AcDbLine
 10
1560.5715008504
 20
250.6531202574
 30
0.0
 11
1560.5715008504
 21
249.9477779547
 31
0.0
  0
LINE
  5
40D
330
1B
100
AcDbEntity
 67
     1
  8
7_ALL_FEATURES
  6
Continuous
 62
     3
100
AcDbLine
 10
1560.5715008504
 20
249.9477779547
 30
0.0
 11
1560.5715008504
 21
249.4531202574
 31
0.0
  0
LINE
  5
40E
330
1B
100
AcDbEntity
 67
     1
  8
7_ALL_FEATURES
  6
Continuous
 62
     3
100
AcDbLine
 10
1572.5715008504
 20
310.9531202574
 30
0.0
 11
1560.5715008504
 21
310.9531202574
 31
0.0
  0
LINE
  5
40F
330
1B
100
AcDbEntity
 67
     1
  8
7_ALL_FEATURES
  6
Continuous
 62
     3
100
AcDbLine
 10
1572.5715008504
 20
310.9531202574
 30
0.0
 11
1673.5715008504
 21
310.9531202574
 31
0.0
  0
LINE
  5
410
330
1B
100
AcDbEntity
 67
     1
  8
7_ALL_FEATURES
  6
Continuous
 62
     3
100
AcDbLine
 10
1685.5715008504
 20
310.9531202574
 30
0.0
 11
1673.5715008504
 21
310.9531202574
 31
0.0
  0
LINE
  5
411
330
1B
100
AcDbEntity
 67
     1
  8
7_ALL_FEATURES
  6
Continuous
 62
     3
100
AcDbLine
 10
1685.5715008504
 20
310.9531202574
 30
0.0
 11
1685.5715008504
 21
310.3531202574
 31
0.0
  0
LINE
  5
412
330
1B
100
AcDbEntity
 67
     1
  8
7_ALL_FEATURES
  6
Continuous
 62
     3
100
AcDbLine
 10
1560.5715008504
 20
310.9531202574
 30
0.0
 11
1560.5715008504
 21
310.3531202574
 31
0.0
  0
LINE
  5
413
330
1B
100
AcDbEntity
 67
     1
  8
7_ALL_FEATURES
  6
Continuous
 62
     3
100
AcDbLine
 10
1560.5715008504
 20
249.4531202574
 30
0.0
 11
1685.5715008504
 21
249.4531202574
 31
0.0
  0
LINE
  5
414
330
1B
100
AcDbEntity
 67
     1
  8
7_ALL_FEATURES
  6
Continuous
 62
     9
100
AcDbLine
 10
1685.5715008504
 20
310.3531202574
 30
0.0
 11
1560.5715008504
 21
310.3531202574
 31
0.0
  0
LINE
  5
415
330
1B
100
AcDbEntity
 67
     1
  8
7_ALL_FEATURES
  6
Continuous
 62
     9
100
AcDbLine
 10
1560.5715008504
 20
250.6531202574
 30
0.0
 11
1685.5715008504
 21
250.6531202574
 31
0.0
  0
LINE
  5
416
330
1B
100
AcDbEntity
 67
     1
  8
7_ALL_FEATURES
  6
Continuous
 62
     3
100
AcDbLine
 10
1035.5715008504
 20
250.6531202574
 30
0.0
 11
1035.5715008504
 21
310.3531202574
 31
0.0
  0
LINE
  5
417
330
1B
100
AcDbEntity
 67
     1
  8
7_ALL_FEATURES
  6
Continuous
 62
     3
100
AcDbLine
 10
910.5715008504
 20
310.3531202574
 30
0.0
 11
910.5715008504
 21
250.6531202574
 31
0.0
  0
LINE
  5
418
330
1B
100
AcDbEntity
 67
     1
  8
02___PRT_ALL_AXES
  6
Continuous
 62
     3
100
AcDbLine
 10
1013.0715008504
 20
296.0531202574
 30
0.0
 11
1013.0715008504
 21
276.0531202574
 31
0.0
  0
LINE
  5
419
330
1B
100
AcDbEntity
 67
     1
  8
02___PRT_ALL_AXES
  6
Continuous
 62
     3
100
AcDbLine
 10
1012.8715008504
 20
296.0531202574
 30
0.0
 11
1013.0715008504
 21
296.0531202574
 31
0.0
  0
LINE
  5
41A
330
1B
100
AcDbEntity
 67
     1
  8
02___PRT_ALL_AXES
  6
Continuous
 62
     3
100
AcDbLine
 10
1012.8715008504
 20
276.0531202574
 30
0.0
 11
1012.8715008504
 21
296.0531202574
 31
0.0
  0
ARC
  5
41B
330
1B
100
AcDbEntity
 67
     1
  8
02___PRT_ALL_AXES
  6
Continuous
 62
     3
100
AcDbCircle
 10
1003.0715008504
 20
276.0531202574
 30
0.0
 40
9.8
100
AcDbArc
 50
270.0
 51
360.0
  0
LINE
  5
41C
330
1B
100
AcDbEntity
 67
     1
  8
02___PRT_ALL_AXES
  6
Continuous
 62
     3
100
AcDbLine
 10
943.0715008504
 20
266.2531202574
 30
0.0
 11
1003.0715008504
 21
266.2531202574
 31
0.0
  0
ARC
  5
41D
330
1B
100
AcDbEntity
 67
     1
  8
02___PRT_ALL_AXES
  6
Continuous
 62
     3
100
AcDbCircle
 10
943.0715008504
 20
276.0531202574
 30
0.0
 40
9.8
100
AcDbArc
 50
180.0
 51
270.0
  0
LINE
  5
41E
330
1B
100
AcDbEntity
 67
     1
  8
02___PRT_ALL_AXES
  6
Continuous
 62
     3
100
AcDbLine
 10
933.2715008504
 20
296.0531202574
 30
0.0
 11
933.2715008504
 21
276.0531202574
 31
0.0
  0
LINE
  5
41F
330
1B
100
AcDbEntity
 67
     1
  8
02___PRT_ALL_AXES
  6
Continuous
 62
     3
100
AcDbLine
 10
933.0715008504
 20
296.0531202574
 30
0.0
 11
933.2715008504
 21
296.0531202574
 31
0.0
  0
LINE
  5
420
330
1B
100
AcDbEntity
 67
     1
  8
02___PRT_ALL_AXES
  6
Continuous
 62
     3
100
AcDbLine
 10
933.0715008504
 20
276.0531202574
 30
0.0
 11
933.0715008504
 21
296.0531202574
 31
0.0
  0
ARC
  5
421
330
1B
100
AcDbEntity
 67
     1
  8
02___PRT_ALL_AXES
  6
Continuous
 62
     3
100
AcDbCircle
 10
943.0715008504
 20
276.0531202574
 30
0.0
 40
10.0
100
AcDbArc
 50
180.0
 51
270.0
  0
LINE
  5
422
330
1B
100
AcDbEntity
 67
     1
  8
02___PRT_ALL_AXES
  6
Continuous
 62
     3
100
AcDbLine
 10
1003.0715008504
 20
266.0531202574
 30
0.0
 11
943.0715008504
 21
266.0531202574
 31
0.0
  0
ARC
  5
423
330
1B
100
AcDbEntity
 67
     1
  8
02___PRT_ALL_AXES
  6
Continuous
 62
     3
100
AcDbCircle
 10
1003.0715008504
 20
276.0531202574
 30
0.0
 40
10.0
100
AcDbArc
 50
270.0
 51
360.0
  0
LINE
  5
424
330
1B
100
AcDbEntity
 67
     1
  8
02___PRT_ALL_AXES
  6
Continuous
 62
     3
100
AcDbLine
 10
1011.2715008504
 20
296.1531202574
 30
0.0
 11
1011.2715008504
 21
295.9531202574
 31
0.0
  0
LINE
  5
425
330
1B
100
AcDbEntity
 67
     1
  8
02___PRT_ALL_AXES
  6
Continuous
 62
     3
100
AcDbLine
 10
973.8715008504
 20
296.1531202574
 30
0.0
 11
1011.2715008504
 21
296.1531202574
 31
0.0
  0
LINE
  5
426
330
1B
100
AcDbEntity
 67
     1
  8
02___PRT_ALL_AXES
  6
Continuous
 62
     3
100
AcDbLine
 10
973.8715008504
 20
295.9531202574
 30
0.0
 11
973.8715008504
 21
296.1531202574
 31
0.0
  0
LINE
  5
427
330
1B
100
AcDbEntity
 67
     1
  8
02___PRT_ALL_AXES
  6
Continuous
 62
     3
100
AcDbLine
 10
1011.2715008504
 20
295.9531202574
 30
0.0
 11
973.8715008504
 21
295.9531202574
 31
0.0
  0
LINE
  5
428
330
1B
100
AcDbEntity
 67
     1
  8
02___PRT_ALL_AXES
  6
Continuous
 62
     3
100
AcDbLine
 10
934.8715008504
 20
296.1531202574
 30
0.0
 11
972.2715008504
 21
296.1531202574
 31
0.0
  0
LINE
  5
429
330
1B
100
AcDbEntity
 67
     1
  8
02___PRT_ALL_AXES
  6
Continuous
 62
     3
100
AcDbLine
 10
934.8715008504
 20
295.9531202574
 30
0.0
 11
934.8715008504
 21
296.1531202574
 31
0.0
  0
LINE
  5
42A
330
1B
100
AcDbEntity
 67
     1
  8
02___PRT_ALL_AXES
  6
Continuous
 62
     3
100
AcDbLine
 10
972.2715008504
 20
295.9531202574
 30
0.0
 11
934.8715008504
 21
295.9531202574
 31
0.0
  0
LINE
  5
42B
330
1B
100
AcDbEntity
 67
     1
  8
02___PRT_ALL_AXES
  6
Continuous
 62
     3
100
AcDbLine
 10
972.2715008504
 20
296.1531202574
 30
0.0
 11
972.2715008504
 21
295.9531202574
 31
0.0
  0
LINE
  5
42C
330
1B
100
AcDbEntity
 67
     1
  8
7_ALL_FEATURES
  6
Continuous
 62
     3
100
AcDbLine
 10
1035.5715008504
 20
250.6531202574
 30
0.0
 11
1035.5715008504
 21
249.9477779547
 31
0.0
  0
LINE
  5
42D
330
1B
100
AcDbEntity
 67
     1
  8
7_ALL_FEATURES
  6
Continuous
 62
     3
100
AcDbLine
 10
1035.5715008504
 20
249.9477779547
 30
0.0
 11
1035.5715008504
 21
249.6822998642
 31
0.0
  0
LINE
  5
42E
330
1B
100
AcDbEntity
 67
     1
  8
7_ALL_FEATURES
  6
Continuous
 62
     3
100
AcDbLine
 10
1035.5715008504
 20
249.6822998642
 30
0.0
 11
1035.5715008504
 21
249.4531202574
 31
0.0
  0
LINE
  5
42F
330
1B
100
AcDbEntity
 67
     1
  8
7_ALL_FEATURES
  6
Continuous
 62
     3
100
AcDbLine
 10
910.5715008504
 20
249.4531202574
 30
0.0
 11
1035.5715008504
 21
249.4531202574
 31
0.0
  0
LINE
  5
430
330
1B
100
AcDbEntity
 67
     1
  8
7_ALL_FEATURES
  6
Continuous
 62
     3
100
AcDbLine
 10
910.5715008504
 20
250.6531202574
 30
0.0
 11
910.5715008504
 21
249.9477779547
 31
0.0
  0
LINE
  5
431
330
1B
100
AcDbEntity
 67
     1
  8
7_ALL_FEATURES
  6
Continuous
 62
     3
100
AcDbLine
 10
910.5715008504
 20
249.9477779547
 30
0.0
 11
910.5715008504
 21
249.4531202574
 31
0.0
  0
LINE
  5
432
330
1B
100
AcDbEntity
 67
     1
  8
7_ALL_FEATURES
  6
Continuous
 62
     3
100
AcDbLine
 10
922.5715008504
 20
310.9531202574
 30
0.0
 11
910.5715008504
 21
310.9531202574
 31
0.0
  0
LINE
  5
433
330
1B
100
AcDbEntity
 67
     1
  8
7_ALL_FEATURES
  6
Continuous
 62
     3
100
AcDbLine
 10
922.5715008504
 20
310.9531202574
 30
0.0
 11
1023.5715008504
 21
310.9531202574
 31
0.0
  0
LINE
  5
434
330
1B
100
AcDbEntity
 67
     1
  8
7_ALL_FEATURES
  6
Continuous
 62
     3
100
AcDbLine
 10
1035.5715008504
 20
310.9531202574
 30
0.0
 11
1023.5715008504
 21
310.9531202574
 31
0.0
  0
LINE
  5
435
330
1B
100
AcDbEntity
 67
     1
  8
7_ALL_FEATURES
  6
Continuous
 62
     3
100
AcDbLine
 10
1035.5715008504
 20
310.9531202574
 30
0.0
 11
1035.5715008504
 21
310.3531202574
 31
0.0
  0
LINE
  5
436
330
1B
100
AcDbEntity
 67
     1
  8
7_ALL_FEATURES
  6
Continuous
 62
     3
100
AcDbLine
 10
910.5715008504
 20
310.9531202574
 30
0.0
 11
910.5715008504
 21
310.3531202574
 31
0.0
  0
LINE
  5
437
330
1B
100
AcDbEntity
 67
     1
  8
7_ALL_FEATURES
  6
Continuous
 62
     3
100
AcDbLine
 10
910.5715008504
 20
249.4531202574
 30
0.0
 11
1035.5715008504
 21
249.4531202574
 31
0.0
  0
LINE
  5
438
330
1B
100
AcDbEntity
 67
     1
  8
7_ALL_FEATURES
  6
Continuous
 62
     9
100
AcDbLine
 10
1035.5715008504
 20
310.3531202574
 30
0.0
 11
910.5715008504
 21
310.3531202574
 31
0.0
  0
LINE
  5
439
330
1B
100
AcDbEntity
 67
     1
  8
7_ALL_FEATURES
  6
Continuous
 62
     9
100
AcDbLine
 10
910.5715008504
 20
250.6531202574
 30
0.0
 11
1035.5715008504
 21
250.6531202574
 31
0.0
  0
LINE
  5
43A
330
1B
100
AcDbEntity
 67
     1
  8
7_ALL_FEATURES
  6
Continuous
 62
     3
100
AcDbLine
 10
385.5715008504
 20
250.6531202574
 30
0.0
 11
385.5715008504
 21
310.3531202574
 31
0.0
  0
LINE
  5
43B
330
1B
100
AcDbEntity
 67
     1
  8
7_ALL_FEATURES
  6
Continuous
 62
     3
100
AcDbLine
 10
260.5715008504
 20
310.3531202574
 30
0.0
 11
260.5715008504
 21
250.6531202574
 31
0.0
  0
LINE
  5
43C
330
1B
100
AcDbEntity
 67
     1
  8
02___PRT_ALL_AXES
  6
Continuous
 62
     3
100
AcDbLine
 10
363.0715008504
 20
296.0531202574
 30
0.0
 11
363.0715008504
 21
276.0531202574
 31
0.0
  0
LINE
  5
43D
330
1B
100
AcDbEntity
 67
     1
  8
02___PRT_ALL_AXES
  6
Continuous
 62
     3
100
AcDbLine
 10
362.8715008504
 20
296.0531202574
 30
0.0
 11
363.0715008504
 21
296.0531202574
 31
0.0
  0
LINE
  5
43E
330
1B
100
AcDbEntity
 67
     1
  8
02___PRT_ALL_AXES
  6
Continuous
 62
     3
100
AcDbLine
 10
362.8715008504
 20
276.0531202574
 30
0.0
 11
362.8715008504
 21
296.0531202574
 31
0.0
  0
ARC
  5
43F
330
1B
100
AcDbEntity
 67
     1
  8
02___PRT_ALL_AXES
  6
Continuous
 62
     3
100
AcDbCircle
 10
353.0715008504
 20
276.0531202574
 30
0.0
 40
9.8
100
AcDbArc
 50
270.0
 51
360.0
  0
LINE
  5
440
330
1B
100
AcDbEntity
 67
     1
  8
02___PRT_ALL_AXES
  6
Continuous
 62
     3
100
AcDbLine
 10
293.0715008504
 20
266.2531202574
 30
0.0
 11
353.0715008504
 21
266.2531202574
 31
0.0
  0
ARC
  5
441
330
1B
100
AcDbEntity
 67
     1
  8
02___PRT_ALL_AXES
  6
Continuous
 62
     3
100
AcDbCircle
 10
293.0715008504
 20
276.0531202574
 30
0.0
 40
9.8
100
AcDbArc
 50
180.0
 51
270.0
  0
LINE
  5
442
330
1B
100
AcDbEntity
 67
     1
  8
02___PRT_ALL_AXES
  6
Continuous
 62
     3
100
AcDbLine
 10
283.2715008504
 20
296.0531202574
 30
0.0
 11
283.2715008504
 21
276.0531202574
 31
0.0
  0
LINE
  5
443
330
1B
100
AcDbEntity
 67
     1
  8
02___PRT_ALL_AXES
  6
Continuous
 62
     3
100
AcDbLine
 10
283.0715008504
 20
296.0531202574
 30
0.0
 11
283.2715008504
 21
296.0531202574
 31
0.0
  0
LINE
  5
444
330
1B
100
AcDbEntity
 67
     1
  8
02___PRT_ALL_AXES
  6
Continuous
 62
     3
100
AcDbLine
 10
283.0715008504
 20
276.0531202574
 30
0.0
 11
283.0715008504
 21
296.0531202574
 31
0.0
  0
ARC
  5
445
330
1B
100
AcDbEntity
 67
     1
  8
02___PRT_ALL_AXES
  6
Continuous
 62
     3
100
AcDbCircle
 10
293.0715008504
 20
276.0531202574
 30
0.0
 40
10.0
100
AcDbArc
 50
180.0
 51
270.0
  0
LINE
  5
446
330
1B
100
AcDbEntity
 67
     1
  8
02___PRT_ALL_AXES
  6
Continuous
 62
     3
100
AcDbLine
 10
353.0715008504
 20
266.0531202574
 30
0.0
 11
293.0715008504
 21
266.0531202574
 31
0.0
  0
ARC
  5
447
330
1B
100
AcDbEntity
 67
     1
  8
02___PRT_ALL_AXES
  6
Continuous
 62
     3
100
AcDbCircle
 10
353.0715008504
 20
276.0531202574
 30
0.0
 40
10.0
100
AcDbArc
 50
270.0
 51
360.0
  0
LINE
  5
448
330
1B
100
AcDbEntity
 67
     1
  8
02___PRT_ALL_AXES
  6
Continuous
 62
     3
100
AcDbLine
 10
361.2715008504
 20
296.1531202574
 30
0.0
 11
361.2715008504
 21
295.9531202574
 31
0.0
  0
LINE
  5
449
330
1B
100
AcDbEntity
 67
     1
  8
02___PRT_ALL_AXES
  6
Continuous
 62
     3
100
AcDbLine
 10
323.8715008504
 20
296.1531202574
 30
0.0
 11
361.2715008504
 21
296.1531202574
 31
0.0
  0
LINE
  5
44A
330
1B
100
AcDbEntity
 67
     1
  8
02___PRT_ALL_AXES
  6
Continuous
 62
     3
100
AcDbLine
 10
323.8715008504
 20
295.9531202574
 30
0.0
 11
323.8715008504
 21
296.1531202574
 31
0.0
  0
LINE
  5
44B
330
1B
100
AcDbEntity
 67
     1
  8
02___PRT_ALL_AXES
  6
Continuous
 62
     3
100
AcDbLine
 10
361.2715008504
 20
295.9531202574
 30
0.0
 11
323.8715008504
 21
295.9531202574
 31
0.0
  0
LINE
  5
44C
330
1B
100
AcDbEntity
 67
     1
  8
02___PRT_ALL_AXES
  6
Continuous
 62
     3
100
AcDbLine
 10
284.8715008504
 20
296.1531202574
 30
0.0
 11
322.2715008504
 21
296.1531202574
 31
0.0
  0
LINE
  5
44D
330
1B
100
AcDbEntity
 67
     1
  8
02___PRT_ALL_AXES
  6
Continuous
 62
     3
100
AcDbLine
 10
284.8715008504
 20
295.9531202574
 30
0.0
 11
284.8715008504
 21
296.1531202574
 31
0.0
  0
LINE
  5
44E
330
1B
100
AcDbEntity
 67
     1
  8
02___PRT_ALL_AXES
  6
Continuous
 62
     3
100
AcDbLine
 10
322.2715008504
 20
295.9531202574
 30
0.0
 11
284.8715008504
 21
295.9531202574
 31
0.0
  0
LINE
  5
44F
330
1B
100
AcDbEntity
 67
     1
  8
02___PRT_ALL_AXES
  6
Continuous
 62
     3
100
AcDbLine
 10
322.2715008504
 20
296.1531202574
 30
0.0
 11
322.2715008504
 21
295.9531202574
 31
0.0
  0
LINE
  5
450
330
1B
100
AcDbEntity
 67
     1
  8
7_ALL_FEATURES
  6
Continuous
 62
     3
100
AcDbLine
 10
385.5715008504
 20
250.6531202574
 30
0.0
 11
385.5715008504
 21
249.9477779547
 31
0.0
  0
LINE
  5
451
330
1B
100
AcDbEntity
 67
     1
  8
7_ALL_FEATURES
  6
Continuous
 62
     3
100
AcDbLine
 10
385.5715008504
 20
249.9477779547
 30
0.0
 11
385.5715008504
 21
249.6822998642
 31
0.0
  0
LINE
  5
452
330
1B
100
AcDbEntity
 67
     1
  8
7_ALL_FEATURES
  6
Continuous
 62
     3
100
AcDbLine
 10
385.5715008504
 20
249.6822998642
 30
0.0
 11
385.5715008504
 21
249.4531202574
 31
0.0
  0
LINE
  5
453
330
1B
100
AcDbEntity
 67
     1
  8
7_ALL_FEATURES
  6
Continuous
 62
     3
100
AcDbLine
 10
260.5715008504
 20
249.4531202574
 30
0.0
 11
385.5715008504
 21
249.4531202574
 31
0.0
  0
LINE
  5
454
330
1B
100
AcDbEntity
 67
     1
  8
7_ALL_FEATURES
  6
Continuous
 62
     3
100
AcDbLine
 10
260.5715008504
 20
250.6531202574
 30
0.0
 11
260.5715008504
 21
249.9477779547
 31
0.0
  0
LINE
  5
455
330
1B
100
AcDbEntity
 67
     1
  8
7_ALL_FEATURES
  6
Continuous
 62
     3
100
AcDbLine
 10
260.5715008504
 20
249.9477779547
 30
0.0
 11
260.5715008504
 21
249.4531202574
 31
0.0
  0
LINE
  5
456
330
1B
100
AcDbEntity
 67
     1
  8
7_ALL_FEATURES
  6
Continuous
 62
     3
100
AcDbLine
 10
272.5715008504
 20
310.9531202574
 30
0.0
 11
260.5715008504
 21
310.9531202574
 31
0.0
  0
LINE
  5
457
330
1B
100
AcDbEntity
 67
     1
  8
7_ALL_FEATURES
  6
Continuous
 62
     3
100
AcDbLine
 10
272.5715008504
 20
310.9531202574
 30
0.0
 11
373.5715008504
 21
310.9531202574
 31
0.0
  0
LINE
  5
458
330
1B
100
AcDbEntity
 67
     1
  8
7_ALL_FEATURES
  6
Continuous
 62
     3
100
AcDbLine
 10
385.5715008504
 20
310.9531202574
 30
0.0
 11
373.5715008504
 21
310.9531202574
 31
0.0
  0
LINE
  5
459
330
1B
100
AcDbEntity
 67
     1
  8
7_ALL_FEATURES
  6
Continuous
 62
     3
100
AcDbLine
 10
385.5715008504
 20
310.9531202574
 30
0.0
 11
385.5715008504
 21
310.3531202574
 31
0.0
  0
LINE
  5
45A
330
1B
100
AcDbEntity
 67
     1
  8
7_ALL_FEATURES
  6
Continuous
 62
     3
100
AcDbLine
 10
260.5715008504
 20
310.9531202574
 30
0.0
 11
260.5715008504
 21
310.3531202574
 31
0.0
  0
LINE
  5
45B
330
1B
100
AcDbEntity
 67
     1
  8
7_ALL_FEATURES
  6
Continuous
 62
     3
100
AcDbLine
 10
260.5715008504
 20
249.4531202574
 30
0.0
 11
385.5715008504
 21
249.4531202574
 31
0.0
  0
LINE
  5
45C
330
1B
100
AcDbEntity
 67
     1
  8
7_ALL_FEATURES
  6
Continuous
 62
     9
100
AcDbLine
 10
385.5715008504
 20
310.3531202574
 30
0.0
 11
260.5715008504
 21
310.3531202574
 31
0.0
  0
LINE
  5
45D
330
1B
100
AcDbEntity
 67
     1
  8
7_ALL_FEATURES
  6
Continuous
 62
     9
100
AcDbLine
 10
260.5715008504
 20
250.6531202574
 30
0.0
 11
385.5715008504
 21
250.6531202574
 31
0.0
  0
LINE
  5
45E
330
1B
100
AcDbEntity
 67
     1
  8
7_ALL_FEATURES
  6
Continuous
 62
     7
100
AcDbLine
 10
1737.5715008504
 20
108.2639376666
 30
0.0
 11
1736.0715008504
 21
108.2639376666
 31
0.0
  0
LINE
  5
45F
330
1B
100
AcDbEntity
 67
     1
  8
7_ALL_FEATURES
  6
Continuous
 62
     7
100
AcDbLine
 10
1737.5715008504
 20
82.6639376666
 30
0.0
 11
1736.0715008504
 21
82.6639376666
 31
0.0
  0
LINE
  5
460
330
1B
100
AcDbEntity
 67
     1
  8
7_ALL_FEATURES
  6
Continuous
 62
     7
100
AcDbLine
 10
1737.5715008504
 20
82.8158601365
 30
0.0
 11
1737.5715008504
 21
82.6639376666
 31
0.0
  0
LINE
  5
461
330
1B
100
AcDbEntity
 67
     1
  8
7_ALL_FEATURES
  6
Continuous
 62
     7
100
AcDbLine
 10
1737.5715008504
 20
82.8158601365
 30
0.0
 11
1737.5715008504
 21
83.5182295448
 31
0.0
  0
LINE
  5
462
330
1B
100
AcDbEntity
 67
     1
  8
7_ALL_FEATURES
  6
Continuous
 62
     7
100
AcDbLine
 10
1737.5715008504
 20
84.5030372978
 30
0.0
 11
1737.5715008504
 21
83.5182295448
 31
0.0
  0
LINE
  5
463
330
1B
100
AcDbEntity
 67
     1
  8
7_ALL_FEATURES
  6
Continuous
 62
     7
100
AcDbLine
 10
1737.5715008504
 20
84.5030372978
 30
0.0
 11
1737.5715008504
 21
106.4248380354
 31
0.0
  0
LINE
  5
464
330
1B
100
AcDbEntity
 67
     1
  8
7_ALL_FEATURES
  6
Continuous
 62
     7
100
AcDbLine
 10
1737.5715008504
 20
107.4096457884
 30
0.0
 11
1737.5715008504
 21
106.4248380354
 31
0.0
  0
LINE
  5
465
330
1B
100
AcDbEntity
 67
     1
  8
7_ALL_FEATURES
  6
Continuous
 62
     7
100
AcDbLine
 10
1737.5715008504
 20
107.4096457884
 30
0.0
 11
1737.5715008504
 21
108.1120151967
 31
0.0
  0
LINE
  5
466
330
1B
100
AcDbEntity
 67
     1
  8
7_ALL_FEATURES
  6
Continuous
 62
     7
100
AcDbLine
 10
1737.5715008504
 20
108.2639376666
 30
0.0
 11
1737.5715008504
 21
108.1120151967
 31
0.0
  0
LINE
  5
467
330
1B
100
AcDbEntity
 67
     1
  8
7_ALL_FEATURES
  6
Continuous
 62
     9
100
AcDbLine
 10
1737.5715008504
 20
82.8158601365
 30
0.0
 11
1736.0715008504
 21
82.8158601365
 31
0.0
  0
LINE
  5
468
330
1B
100
AcDbEntity
 67
     1
  8
7_ALL_FEATURES
  6
Continuous
 62
     9
100
AcDbLine
 10
1737.5715008504
 20
83.5182295448
 30
0.0
 11
1736.0715008504
 21
83.5182295448
 31
0.0
  0
LINE
  5
469
330
1B
100
AcDbEntity
 67
     1
  8
7_ALL_FEATURES
  6
Continuous
 62
     9
100
AcDbLine
 10
1737.5715008504
 20
108.1120151967
 30
0.0
 11
1736.0715008504
 21
108.1120151967
 31
0.0
  0
LINE
  5
46A
330
1B
100
AcDbEntity
 67
     1
  8
7_ALL_FEATURES
  6
Continuous
 62
     9
100
AcDbLine
 10
1737.5715008504
 20
107.4096457884
 30
0.0
 11
1736.0715008504
 21
107.4096457884
 31
0.0
  0
LINE
  5
46B
330
1B
100
AcDbEntity
 67
     1
  8
7_ALL_FEATURES
  6
Continuous
 62
     9
100
AcDbLine
 10
1737.5715008504
 20
106.4248380354
 30
0.0
 11
1736.0715008504
 21
106.4248380354
 31
0.0
  0
LINE
  5
46C
330
1B
100
AcDbEntity
 67
     1
  8
7_ALL_FEATURES
  6
Continuous
 62
     9
100
AcDbLine
 10
1737.5715008504
 20
84.5030372978
 30
0.0
 11
1736.0715008504
 21
84.5030372978
 31
0.0
  0
LINE
  5
46D
330
1B
100
AcDbEntity
 67
     1
  8
7_ALL_FEATURES
  6
Continuous
 62
     7
100
AcDbLine
 10
223.0715008504
 20
82.6639376666
 30
0.0
 11
224.5715008504
 21
82.6639376666
 31
0.0
  0
LINE
  5
46E
330
1B
100
AcDbEntity
 67
     1
  8
7_ALL_FEATURES
  6
Continuous
 62
     7
100
AcDbLine
 10
223.0715008504
 20
108.2639376666
 30
0.0
 11
224.5715008504
 21
108.2639376666
 31
0.0
  0
LINE
  5
46F
330
1B
100
AcDbEntity
 67
     1
  8
7_ALL_FEATURES
  6
Continuous
 62
     7
100
AcDbLine
 10
223.0715008504
 20
108.1120151967
 30
0.0
 11
223.0715008504
 21
108.2639376666
 31
0.0
  0
LINE
  5
470
330
1B
100
AcDbEntity
 67
     1
  8
7_ALL_FEATURES
  6
Continuous
 62
     7
100
AcDbLine
 10
223.0715008504
 20
108.1120151967
 30
0.0
 11
223.0715008504
 21
107.4096457884
 31
0.0
  0
LINE
  5
471
330
1B
100
AcDbEntity
 67
     1
  8
7_ALL_FEATURES
  6
Continuous
 62
     7
100
AcDbLine
 10
223.0715008504
 20
106.4248380354
 30
0.0
 11
223.0715008504
 21
107.4096457884
 31
0.0
  0
LINE
  5
472
330
1B
100
AcDbEntity
 67
     1
  8
7_ALL_FEATURES
  6
Continuous
 62
     7
100
AcDbLine
 10
223.0715008504
 20
106.4248380354
 30
0.0
 11
223.0715008504
 21
84.5030372978
 31
0.0
  0
LINE
  5
473
330
1B
100
AcDbEntity
 67
     1
  8
7_ALL_FEATURES
  6
Continuous
 62
     7
100
AcDbLine
 10
223.0715008504
 20
83.5182295448
 30
0.0
 11
223.0715008504
 21
84.5030372978
 31
0.0
  0
LINE
  5
474
330
1B
100
AcDbEntity
 67
     1
  8
7_ALL_FEATURES
  6
Continuous
 62
     7
100
AcDbLine
 10
223.0715008504
 20
83.5182295448
 30
0.0
 11
223.0715008504
 21
82.8158601365
 31
0.0
  0
LINE
  5
475
330
1B
100
AcDbEntity
 67
     1
  8
7_ALL_FEATURES
  6
Continuous
 62
     7
100
AcDbLine
 10
223.0715008504
 20
82.6639376666
 30
0.0
 11
223.0715008504
 21
82.8158601365
 31
0.0
  0
LINE
  5
476
330
1B
100
AcDbEntity
 67
     1
  8
7_ALL_FEATURES
  6
Continuous
 62
     9
100
AcDbLine
 10
223.0715008504
 20
108.1120151967
 30
0.0
 11
224.5715008504
 21
108.1120151967
 31
0.0
  0
LINE
  5
477
330
1B
100
AcDbEntity
 67
     1
  8
7_ALL_FEATURES
  6
Continuous
 62
     9
100
AcDbLine
 10
223.0715008504
 20
107.4096457884
 30
0.0
 11
224.5715008504
 21
107.4096457884
 31
0.0
  0
LINE
  5
478
330
1B
100
AcDbEntity
 67
     1
  8
7_ALL_FEATURES
  6
Continuous
 62
     9
100
AcDbLine
 10
223.0715008504
 20
82.8158601365
 30
0.0
 11
224.5715008504
 21
82.8158601365
 31
0.0
  0
LINE
  5
479
330
1B
100
AcDbEntity
 67
     1
  8
7_ALL_FEATURES
  6
Continuous
 62
     9
100
AcDbLine
 10
223.0715008504
 20
83.5182295448
 30
0.0
 11
224.5715008504
 21
83.5182295448
 31
0.0
  0
LINE
  5
47A
330
1B
100
AcDbEntity
 67
     1
  8
7_ALL_FEATURES
  6
Continuous
 62
     9
100
AcDbLine
 10
223.0715008504
 20
84.5030372978
 30
0.0
 11
224.5715008504
 21
84.5030372978
 31
0.0
  0
LINE
  5
47B
330
1B
100
AcDbEntity
 67
     1
  8
7_ALL_FEATURES
  6
Continuous
 62
     9
100
AcDbLine
 10
223.0715008504
 20
106.4248380354
 30
0.0
 11
224.5715008504
 21
106.4248380354
 31
0.0
  0
LINE
  5
47C
330
1B
100
AcDbEntity
 67
     1
  8
3_ALL_AXES
  6
Continuous
 62
     7
100
AcDbLine
 10
1738.0715008504
 20
87.8639376666
 30
0.0
 11
1737.9207805207
 21
87.8639376666
 31
0.0
  0
LINE
  5
47D
330
1B
100
AcDbEntity
 67
     1
  8
3_ALL_AXES
  6
Continuous
 62
     7
100
AcDbLine
 10
1738.0715008504
 20
82.3639376666
 30
0.0
 11
1737.9207805207
 21
82.3639376666
 31
0.0
  0
LINE
  5
47E
330
1B
100
AcDbEntity
 67
     1
  8
3_ALL_AXES
  6
Continuous
 62
     7
100
AcDbLine
 10
1737.9207805207
 20
87.8639376666
 30
0.0
 11
1737.5715008504
 21
87.570857224
 31
0.0
  0
LINE
  5
47F
330
1B
100
AcDbEntity
 67
     1
  8
3_ALL_AXES
  6
Continuous
 62
     7
100
AcDbLine
 10
1737.9207805207
 20
82.3639376666
 30
0.0
 11
1737.5680936335
 21
82.6598771036
 31
0.0
  0
LINE
  5
480
330
1B
100
AcDbEntity
 67
     1
  8
3_ALL_AXES
  6
Continuous
 62
     7
100
AcDbLine
 10
1737.5680936335
 20
82.6598771036
 30
0.0
 11
1737.563254443
 21
82.6639376666
 31
0.0
  0
LINE
  5
481
330
1B
100
AcDbEntity
 67
     1
  8
3_ALL_AXES
  6
Continuous
 62
     7
100
AcDbLine
 10
1737.9207805207
 20
87.8639376666
 30
0.0
 11
1738.0715008504
 21
87.8639376666
 31
0.0
  0
LINE
  5
482
330
1B
100
AcDbEntity
 67
     1
  8
3_ALL_AXES
  6
Continuous
 62
     7
100
AcDbLine
 10
1738.0715008504
 20
87.8639376666
 30
0.0
 11
1738.0715008504
 21
82.3639376666
 31
0.0
  0
LINE
  5
483
330
1B
100
AcDbEntity
 67
     1
  8
3_ALL_AXES
  6
Continuous
 62
     7
100
AcDbLine
 10
1737.5715008504
 20
87.570857224
 30
0.0
 11
1737.9207805207
 21
87.8639376666
 31
0.0
  0
LINE
  5
484
330
1B
100
AcDbEntity
 67
     1
  8
3_ALL_AXES
  6
Continuous
 62
     7
100
AcDbLine
 10
1737.9207805207
 20
82.3639376666
 30
0.0
 11
1738.0715008504
 21
82.3639376666
 31
0.0
  0
LINE
  5
485
330
1B
100
AcDbEntity
 67
     1
  8
3_ALL_AXES
  6
Continuous
 62
     7
100
AcDbLine
 10
1737.563254443
 20
82.6639376666
 30
0.0
 11
1737.5680936335
 21
82.6598771036
 31
0.0
  0
LINE
  5
486
330
1B
100
AcDbEntity
 67
     1
  8
3_ALL_AXES
  6
Continuous
 62
     7
100
AcDbLine
 10
1737.5680936335
 20
82.6598771036
 30
0.0
 11
1737.9207805207
 21
82.3639376666
 31
0.0
  0
LINE
  5
487
330
1B
100
AcDbEntity
 67
     1
  8
3_ALL_AXES
  6
Continuous
 62
     7
100
AcDbLine
 10
1737.9207805207
 20
87.8639376666
 30
0.0
 11
1737.9207805207
 21
82.3639376666
 31
0.0
  0
LINE
  5
488
330
1B
100
AcDbEntity
 67
     1
  8
3_ALL_AXES
  6
Continuous
 62
     7
100
AcDbLine
 10
222.5715008504
 20
82.3639376666
 30
0.0
 11
222.72222118
 21
82.3639376666
 31
0.0
  0
LINE
  5
489
330
1B
100
AcDbEntity
 67
     1
  8
3_ALL_AXES
  6
Continuous
 62
     7
100
AcDbLine
 10
222.5715008504
 20
87.8639376666
 30
0.0
 11
222.72222118
 21
87.8639376666
 31
0.0
  0
LINE
  5
48A
330
1B
100
AcDbEntity
 67
     1
  8
3_ALL_AXES
  6
Continuous
 62
     7
100
AcDbLine
 10
222.72222118
 20
82.3639376666
 30
0.0
 11
223.0749080673
 21
82.6598771036
 31
0.0
  0
LINE
  5
48B
330
1B
100
AcDbEntity
 67
     1
  8
3_ALL_AXES
  6
Continuous
 62
     7
100
AcDbLine
 10
223.0749080673
 20
82.6598771036
 30
0.0
 11
223.0797472578
 21
82.6639376666
 31
0.0
  0
LINE
  5
48C
330
1B
100
AcDbEntity
 67
     1
  8
3_ALL_AXES
  6
Continuous
 62
     7
100
AcDbLine
 10
222.72222118
 20
87.8639376666
 30
0.0
 11
223.0715008504
 21
87.570857224
 31
0.0
  0
LINE
  5
48D
330
1B
100
AcDbEntity
 67
     1
  8
3_ALL_AXES
  6
Continuous
 62
     7
100
AcDbLine
 10
222.72222118
 20
82.3639376666
 30
0.0
 11
222.5715008504
 21
82.3639376666
 31
0.0
  0
LINE
  5
48E
330
1B
100
AcDbEntity
 67
     1
  8
3_ALL_AXES
  6
Continuous
 62
     7
100
AcDbLine
 10
222.5715008504
 20
82.3639376666
 30
0.0
 11
222.5715008504
 21
87.8639376666
 31
0.0
  0
LINE
  5
48F
330
1B
100
AcDbEntity
 67
     1
  8
3_ALL_AXES
  6
Continuous
 62
     7
100
AcDbLine
 10
223.0797472578
 20
82.6639376666
 30
0.0
 11
223.0749080673
 21
82.6598771036
 31
0.0
  0
LINE
  5
490
330
1B
100
AcDbEntity
 67
     1
  8
3_ALL_AXES
  6
Continuous
 62
     7
100
AcDbLine
 10
223.0749080673
 20
82.6598771036
 30
0.0
 11
222.72222118
 21
82.3639376666
 31
0.0
  0
LINE
  5
491
330
1B
100
AcDbEntity
 67
     1
  8
3_ALL_AXES
  6
Continuous
 62
     7
100
AcDbLine
 10
222.72222118
 20
87.8639376666
 30
0.0
 11
222.5715008504
 21
87.8639376666
 31
0.0
  0
LINE
  5
492
330
1B
100
AcDbEntity
 67
     1
  8
3_ALL_AXES
  6
Continuous
 62
     7
100
AcDbLine
 10
223.0715008504
 20
87.570857224
 30
0.0
 11
222.72222118
 21
87.8639376666
 31
0.0
  0
LINE
  5
493
330
1B
100
AcDbEntity
 67
     1
  8
3_ALL_AXES
  6
Continuous
 62
     7
100
AcDbLine
 10
222.72222118
 20
82.3639376666
 30
0.0
 11
222.72222118
 21
87.8639376666
 31
0.0
  0
LINE
  5
494
330
1B
100
AcDbEntity
 67
     1
  8
3_ALL_AXES
  6
Continuous
 62
     7
100
AcDbLine
 10
1738.0715008504
 20
108.5639376666
 30
0.0
 11
1737.9207805207
 21
108.5639376666
 31
0.0
  0
LINE
  5
495
330
1B
100
AcDbEntity
 67
     1
  8
3_ALL_AXES
  6
Continuous
 62
     7
100
AcDbLine
 10
1738.0715008504
 20
103.0639376666
 30
0.0
 11
1737.9207805207
 21
103.0639376666
 31
0.0
  0
LINE
  5
496
330
1B
100
AcDbEntity
 67
     1
  8
3_ALL_AXES
  6
Continuous
 62
     7
100
AcDbLine
 10
1737.9207805207
 20
108.5639376666
 30
0.0
 11
1737.5680936335
 21
108.2679982296
 31
0.0
  0
LINE
  5
497
330
1B
100
AcDbEntity
 67
     1
  8
3_ALL_AXES
  6
Continuous
 62
     7
100
AcDbLine
 10
1737.5680936335
 20
108.2679982296
 30
0.0
 11
1737.563254443
 21
108.2639376666
 31
0.0
  0
LINE
  5
498
330
1B
100
AcDbEntity
 67
     1
  8
3_ALL_AXES
  6
Continuous
 62
     7
100
AcDbLine
 10
1737.9207805207
 20
103.0639376666
 30
0.0
 11
1737.5715008504
 21
103.3570181092
 31
0.0
  0
LINE
  5
499
330
1B
100
AcDbEntity
 67
     1
  8
3_ALL_AXES
  6
Continuous
 62
     7
100
AcDbLine
 10
1737.9207805207
 20
108.5639376666
 30
0.0
 11
1738.0715008504
 21
108.5639376666
 31
0.0
  0
LINE
  5
49A
330
1B
100
AcDbEntity
 67
     1
  8
3_ALL_AXES
  6
Continuous
 62
     7
100
AcDbLine
 10
1738.0715008504
 20
108.5639376666
 30
0.0
 11
1738.0715008504
 21
103.0639376666
 31
0.0
  0
LINE
  5
49B
330
1B
100
AcDbEntity
 67
     1
  8
3_ALL_AXES
  6
Continuous
 62
     7
100
AcDbLine
 10
1737.563254443
 20
108.2639376666
 30
0.0
 11
1737.5680936335
 21
108.2679982296
 31
0.0
  0
LINE
  5
49C
330
1B
100
AcDbEntity
 67
     1
  8
3_ALL_AXES
  6
Continuous
 62
     7
100
AcDbLine
 10
1737.5680936335
 20
108.2679982296
 30
0.0
 11
1737.9207805207
 21
108.5639376666
 31
0.0
  0
LINE
  5
49D
330
1B
100
AcDbEntity
 67
     1
  8
3_ALL_AXES
  6
Continuous
 62
     7
100
AcDbLine
 10
1737.9207805207
 20
103.0639376666
 30
0.0
 11
1738.0715008504
 21
103.0639376666
 31
0.0
  0
LINE
  5
49E
330
1B
100
AcDbEntity
 67
     1
  8
3_ALL_AXES
  6
Continuous
 62
     7
100
AcDbLine
 10
1737.5715008504
 20
103.3570181092
 30
0.0
 11
1737.9207805207
 21
103.0639376666
 31
0.0
  0
LINE
  5
49F
330
1B
100
AcDbEntity
 67
     1
  8
3_ALL_AXES
  6
Continuous
 62
     7
100
AcDbLine
 10
1737.9207805207
 20
108.5639376666
 30
0.0
 11
1737.9207805207
 21
103.0639376666
 31
0.0
  0
LINE
  5
4A0
330
1B
100
AcDbEntity
 67
     1
  8
3_ALL_AXES
  6
Continuous
 62
     7
100
AcDbLine
 10
222.5715008504
 20
103.0639376666
 30
0.0
 11
222.72222118
 21
103.0639376666
 31
0.0
  0
LINE
  5
4A1
330
1B
100
AcDbEntity
 67
     1
  8
3_ALL_AXES
  6
Continuous
 62
     7
100
AcDbLine
 10
222.5715008504
 20
108.5639376666
 30
0.0
 11
222.72222118
 21
108.5639376666
 31
0.0
  0
LINE
  5
4A2
330
1B
100
AcDbEntity
 67
     1
  8
3_ALL_AXES
  6
Continuous
 62
     7
100
AcDbLine
 10
222.72222118
 20
103.0639376666
 30
0.0
 11
223.0715008504
 21
103.3570181092
 31
0.0
  0
LINE
  5
4A3
330
1B
100
AcDbEntity
 67
     1
  8
3_ALL_AXES
  6
Continuous
 62
     7
100
AcDbLine
 10
222.72222118
 20
108.5639376666
 30
0.0
 11
223.0749080673
 21
108.2679982296
 31
0.0
  0
LINE
  5
4A4
330
1B
100
AcDbEntity
 67
     1
  8
3_ALL_AXES
  6
Continuous
 62
     7
100
AcDbLine
 10
223.0749080673
 20
108.2679982296
 30
0.0
 11
223.0797472578
 21
108.2639376666
 31
0.0
  0
LINE
  5
4A5
330
1B
100
AcDbEntity
 67
     1
  8
3_ALL_AXES
  6
Continuous
 62
     7
100
AcDbLine
 10
222.72222118
 20
103.0639376666
 30
0.0
 11
222.5715008504
 21
103.0639376666
 31
0.0
  0
LINE
  5
4A6
330
1B
100
AcDbEntity
 67
     1
  8
3_ALL_AXES
  6
Continuous
 62
     7
100
AcDbLine
 10
222.5715008504
 20
103.0639376666
 30
0.0
 11
222.5715008504
 21
108.5639376666
 31
0.0
  0
LINE
  5
4A7
330
1B
100
AcDbEntity
 67
     1
  8
3_ALL_AXES
  6
Continuous
 62
     7
100
AcDbLine
 10
223.0715008504
 20
103.3570181092
 30
0.0
 11
222.72222118
 21
103.0639376666
 31
0.0
  0
LINE
  5
4A8
330
1B
100
AcDbEntity
 67
     1
  8
3_ALL_AXES
  6
Continuous
 62
     7
100
AcDbLine
 10
222.72222118
 20
108.5639376666
 30
0.0
 11
222.5715008504
 21
108.5639376666
 31
0.0
  0
LINE
  5
4A9
330
1B
100
AcDbEntity
 67
     1
  8
3_ALL_AXES
  6
Continuous
 62
     7
100
AcDbLine
 10
223.0797472578
 20
108.2639376666
 30
0.0
 11
223.0749080673
 21
108.2679982296
 31
0.0
  0
LINE
  5
4AA
330
1B
100
AcDbEntity
 67
     1
  8
3_ALL_AXES
  6
Continuous
 62
     7
100
AcDbLine
 10
223.0749080673
 20
108.2679982296
 30
0.0
 11
222.72222118
 21
108.5639376666
 31
0.0
  0
LINE
  5
4AB
330
1B
100
AcDbEntity
 67
     1
  8
3_ALL_AXES
  6
Continuous
 62
     7
100
AcDbLine
 10
222.72222118
 20
103.0639376666
 30
0.0
 11
222.72222118
 21
108.5639376666
 31
0.0
  0
LINE
  5
4AC
330
1B
100
AcDbEntity
 67
     1
  8
7_ALL_FEATURES
  6
Continuous
 62
     7
100
AcDbLine
 10
922.5715008504
 20
131.6139376666
 30
0.0
 11
910.5715008504
 21
110.6139376666
 31
0.0
  0
LINE
  5
4AD
330
1B
100
AcDbEntity
 67
     1
  8
7_ALL_FEATURES
  6
Continuous
 62
     7
100
AcDbLine
 10
1023.5715008504
 20
131.6139376666
 30
0.0
 11
922.5715008504
 21
131.6139376666
 31
0.0
  0
LINE
  5
4AE
330
1B
100
AcDbEntity
 67
     1
  8
7_ALL_FEATURES
  6
Continuous
 62
     7
100
AcDbLine
 10
1035.5715008504
 20
110.6139376666
 30
0.0
 11
1023.5715008504
 21
131.6139376666
 31
0.0
  0
LINE
  5
4AF
330
1B
100
AcDbEntity
 67
     1
  8
7_ALL_FEATURES
  6
Continuous
 62
     7
100
AcDbLine
 10
1035.5715008504
 20
109.8139376666
 30
0.0
 11
1035.5715008504
 21
110.6139376666
 31
0.0
  0
LINE
  5
4B0
330
1B
100
AcDbEntity
 67
     1
  8
7_ALL_FEATURES
  6
Continuous
 62
     7
100
AcDbLine
 10
910.5715008504
 20
110.6139376666
 30
0.0
 11
910.5715008504
 21
109.8139376666
 31
0.0
  0
LINE
  5
4B1
330
1B
100
AcDbEntity
 67
     1
  8
7_ALL_FEATURES
  6
Continuous
 62
     7
100
AcDbLine
 10
1035.5715008504
 20
109.8139376666
 30
0.0
 11
1035.5715008504
 21
109.1085953639
 31
0.0
  0
LINE
  5
4B2
330
1B
100
AcDbEntity
 67
     1
  8
7_ALL_FEATURES
  6
Continuous
 62
     7
100
AcDbLine
 10
1035.5715008504
 20
109.1085953639
 30
0.0
 11
1035.5715008504
 21
108.6139376666
 31
0.0
  0
LINE
  5
4B3
330
1B
100
AcDbEntity
 67
     1
  8
7_ALL_FEATURES
  6
Continuous
 62
     7
100
AcDbLine
 10
910.5715008504
 20
108.6139376666
 30
0.0
 11
1035.5715008504
 21
108.6139376666
 31
0.0
  0
LINE
  5
4B4
330
1B
100
AcDbEntity
 67
     1
  8
7_ALL_FEATURES
  6
Continuous
 62
     7
100
AcDbLine
 10
910.5715008504
 20
109.8139376666
 30
0.0
 11
910.5715008504
 21
109.1085953639
 31
0.0
  0
LINE
  5
4B5
330
1B
100
AcDbEntity
 67
     1
  8
7_ALL_FEATURES
  6
Continuous
 62
     7
100
AcDbLine
 10
910.5715008504
 20
109.1085953639
 30
0.0
 11
910.5715008504
 21
108.6139376666
 31
0.0
  0
LINE
  5
4B6
330
1B
100
AcDbEntity
 67
     1
  8
7_ALL_FEATURES
  6
Continuous
 62
     7
100
AcDbLine
 10
910.5715008504
 20
80.3139376666
 30
0.0
 11
922.5715008504
 21
59.3139376666
 31
0.0
  0
LINE
  5
4B7
330
1B
100
AcDbEntity
 67
     1
  8
7_ALL_FEATURES
  6
Continuous
 62
     7
100
AcDbLine
 10
910.5715008504
 20
81.1139376666
 30
0.0
 11
910.5715008504
 21
80.3139376666
 31
0.0
  0
LINE
  5
4B8
330
1B
100
AcDbEntity
 67
     1
  8
7_ALL_FEATURES
  6
Continuous
 62
     7
100
AcDbLine
 10
1035.5715008504
 20
80.3139376666
 30
0.0
 11
1035.5715008504
 21
81.1139376666
 31
0.0
  0
LINE
  5
4B9
330
1B
100
AcDbEntity
 67
     1
  8
7_ALL_FEATURES
  6
Continuous
 62
     7
100
AcDbLine
 10
1023.5715008504
 20
59.3139376666
 30
0.0
 11
1035.5715008504
 21
80.3139376666
 31
0.0
  0
LINE
  5
4BA
330
1B
100
AcDbEntity
 67
     1
  8
7_ALL_FEATURES
  6
Continuous
 62
     7
100
AcDbLine
 10
922.5715008504
 20
59.3139376666
 30
0.0
 11
1023.5715008504
 21
59.3139376666
 31
0.0
  0
LINE
  5
4BB
330
1B
100
AcDbEntity
 67
     1
  8
7_ALL_FEATURES
  6
Continuous
 62
     7
100
AcDbLine
 10
910.5715008504
 20
81.1139376666
 30
0.0
 11
910.5715008504
 21
81.8192799694
 31
0.0
  0
LINE
  5
4BC
330
1B
100
AcDbEntity
 67
     1
  8
7_ALL_FEATURES
  6
Continuous
 62
     7
100
AcDbLine
 10
910.5715008504
 20
81.8192799694
 30
0.0
 11
910.5715008504
 21
82.3139376666
 31
0.0
  0
LINE
  5
4BD
330
1B
100
AcDbEntity
 67
     1
  8
7_ALL_FEATURES
  6
Continuous
 62
     7
100
AcDbLine
 10
1035.5715008504
 20
82.3139376666
 30
0.0
 11
910.5715008504
 21
82.3139376666
 31
0.0
  0
LINE
  5
4BE
330
1B
100
AcDbEntity
 67
     1
  8
7_ALL_FEATURES
  6
Continuous
 62
     7
100
AcDbLine
 10
1035.5715008504
 20
81.1139376666
 30
0.0
 11
1035.5715008504
 21
81.8192799694
 31
0.0
  0
LINE
  5
4BF
330
1B
100
AcDbEntity
 67
     1
  8
7_ALL_FEATURES
  6
Continuous
 62
     7
100
AcDbLine
 10
1035.5715008504
 20
81.8192799694
 30
0.0
 11
1035.5715008504
 21
82.3139376666
 31
0.0
  0
LINE
  5
4C0
330
1B
100
AcDbEntity
 67
     1
  8
7_ALL_FEATURES
  6
Continuous
 62
     7
100
AcDbLine
 10
1035.5715008504
 20
108.6139376666
 30
0.0
 11
1035.5715008504
 21
108.2639376666
 31
0.0
  0
LINE
  5
4C1
330
1B
100
AcDbEntity
 67
     1
  8
7_ALL_FEATURES
  6
Continuous
 62
     7
100
AcDbLine
 10
910.5715008504
 20
108.6139376666
 30
0.0
 11
910.5715008504
 21
108.2639376666
 31
0.0
  0
LINE
  5
4C2
330
1B
100
AcDbEntity
 67
     1
  8
7_ALL_FEATURES
  6
Continuous
 62
     7
100
AcDbLine
 10
910.5715008504
 20
82.3139376666
 30
0.0
 11
910.5715008504
 21
82.6639376666
 31
0.0
  0
LINE
  5
4C3
330
1B
100
AcDbEntity
 67
     1
  8
7_ALL_FEATURES
  6
Continuous
 62
     7
100
AcDbLine
 10
1035.5715008504
 20
82.3139376666
 30
0.0
 11
1035.5715008504
 21
82.6639376666
 31
0.0
  0
LINE
  5
4C4
330
1B
100
AcDbEntity
 67
     1
  8
7_ALL_FEATURES
  6
Continuous
 62
     9
100
AcDbLine
 10
910.5715008504
 20
109.8139376666
 30
0.0
 11
1035.5715008504
 21
109.8139376666
 31
0.0
  0
LINE
  5
4C5
330
1B
100
AcDbEntity
 67
     1
  8
7_ALL_FEATURES
  6
Continuous
 62
     9
100
AcDbLine
 10
1035.5715008504
 20
81.1139376666
 30
0.0
 11
910.5715008504
 21
81.1139376666
 31
0.0
  0
LINE
  5
4C6
330
1B
100
AcDbEntity
 67
     1
  8
7_ALL_FEATURES
  6
Continuous
 62
     7
100
AcDbLine
 10
1572.5715008504
 20
131.6139376666
 30
0.0
 11
1560.5715008504
 21
110.6139376666
 31
0.0
  0
LINE
  5
4C7
330
1B
100
AcDbEntity
 67
     1
  8
7_ALL_FEATURES
  6
Continuous
 62
     7
100
AcDbLine
 10
1673.5715008504
 20
131.6139376666
 30
0.0
 11
1572.5715008504
 21
131.6139376666
 31
0.0
  0
LINE
  5
4C8
330
1B
100
AcDbEntity
 67
     1
  8
7_ALL_FEATURES
  6
Continuous
 62
     7
100
AcDbLine
 10
1685.5715008504
 20
110.6139376666
 30
0.0
 11
1673.5715008504
 21
131.6139376666
 31
0.0
  0
LINE
  5
4C9
330
1B
100
AcDbEntity
 67
     1
  8
7_ALL_FEATURES
  6
Continuous
 62
     7
100
AcDbLine
 10
1685.5715008504
 20
109.8139376666
 30
0.0
 11
1685.5715008504
 21
110.6139376666
 31
0.0
  0
LINE
  5
4CA
330
1B
100
AcDbEntity
 67
     1
  8
7_ALL_FEATURES
  6
Continuous
 62
     7
100
AcDbLine
 10
1560.5715008504
 20
110.6139376666
 30
0.0
 11
1560.5715008504
 21
109.8139376666
 31
0.0
  0
LINE
  5
4CB
330
1B
100
AcDbEntity
 67
     1
  8
7_ALL_FEATURES
  6
Continuous
 62
     7
100
AcDbLine
 10
1685.5715008504
 20
109.8139376666
 30
0.0
 11
1685.5715008504
 21
109.1085953639
 31
0.0
  0
LINE
  5
4CC
330
1B
100
AcDbEntity
 67
     1
  8
7_ALL_FEATURES
  6
Continuous
 62
     7
100
AcDbLine
 10
1685.5715008504
 20
109.1085953639
 30
0.0
 11
1685.5715008504
 21
108.6139376666
 31
0.0
  0
LINE
  5
4CD
330
1B
100
AcDbEntity
 67
     1
  8
7_ALL_FEATURES
  6
Continuous
 62
     7
100
AcDbLine
 10
1560.5715008504
 20
108.6139376666
 30
0.0
 11
1685.5715008504
 21
108.6139376666
 31
0.0
  0
LINE
  5
4CE
330
1B
100
AcDbEntity
 67
     1
  8
7_ALL_FEATURES
  6
Continuous
 62
     7
100
AcDbLine
 10
1560.5715008504
 20
109.8139376666
 30
0.0
 11
1560.5715008504
 21
109.1085953639
 31
0.0
  0
LINE
  5
4CF
330
1B
100
AcDbEntity
 67
     1
  8
7_ALL_FEATURES
  6
Continuous
 62
     7
100
AcDbLine
 10
1560.5715008504
 20
109.1085953639
 30
0.0
 11
1560.5715008504
 21
108.6139376666
 31
0.0
  0
LINE
  5
4D0
330
1B
100
AcDbEntity
 67
     1
  8
7_ALL_FEATURES
  6
Continuous
 62
     7
100
AcDbLine
 10
1560.5715008504
 20
80.3139376666
 30
0.0
 11
1572.5715008504
 21
59.3139376666
 31
0.0
  0
LINE
  5
4D1
330
1B
100
AcDbEntity
 67
     1
  8
7_ALL_FEATURES
  6
Continuous
 62
     7
100
AcDbLine
 10
1560.5715008504
 20
81.1139376666
 30
0.0
 11
1560.5715008504
 21
80.3139376666
 31
0.0
  0
LINE
  5
4D2
330
1B
100
AcDbEntity
 67
     1
  8
7_ALL_FEATURES
  6
Continuous
 62
     7
100
AcDbLine
 10
1685.5715008504
 20
80.3139376666
 30
0.0
 11
1685.5715008504
 21
81.1139376666
 31
0.0
  0
LINE
  5
4D3
330
1B
100
AcDbEntity
 67
     1
  8
7_ALL_FEATURES
  6
Continuous
 62
     7
100
AcDbLine
 10
1673.5715008504
 20
59.3139376666
 30
0.0
 11
1685.5715008504
 21
80.3139376666
 31
0.0
  0
LINE
  5
4D4
330
1B
100
AcDbEntity
 67
     1
  8
7_ALL_FEATURES
  6
Continuous
 62
     7
100
AcDbLine
 10
1572.5715008504
 20
59.3139376666
 30
0.0
 11
1673.5715008504
 21
59.3139376666
 31
0.0
  0
LINE
  5
4D5
330
1B
100
AcDbEntity
 67
     1
  8
7_ALL_FEATURES
  6
Continuous
 62
     7
100
AcDbLine
 10
1560.5715008504
 20
81.1139376666
 30
0.0
 11
1560.5715008504
 21
81.8192799694
 31
0.0
  0
LINE
  5
4D6
330
1B
100
AcDbEntity
 67
     1
  8
7_ALL_FEATURES
  6
Continuous
 62
     7
100
AcDbLine
 10
1560.5715008504
 20
81.8192799694
 30
0.0
 11
1560.5715008504
 21
82.3139376666
 31
0.0
  0
LINE
  5
4D7
330
1B
100
AcDbEntity
 67
     1
  8
7_ALL_FEATURES
  6
Continuous
 62
     7
100
AcDbLine
 10
1685.5715008504
 20
82.3139376666
 30
0.0
 11
1560.5715008504
 21
82.3139376666
 31
0.0
  0
LINE
  5
4D8
330
1B
100
AcDbEntity
 67
     1
  8
7_ALL_FEATURES
  6
Continuous
 62
     7
100
AcDbLine
 10
1685.5715008504
 20
81.1139376666
 30
0.0
 11
1685.5715008504
 21
81.8192799694
 31
0.0
  0
LINE
  5
4D9
330
1B
100
AcDbEntity
 67
     1
  8
7_ALL_FEATURES
  6
Continuous
 62
     7
100
AcDbLine
 10
1685.5715008504
 20
81.8192799694
 30
0.0
 11
1685.5715008504
 21
82.3139376666
 31
0.0
  0
LINE
  5
4DA
330
1B
100
AcDbEntity
 67
     1
  8
7_ALL_FEATURES
  6
Continuous
 62
     7
100
AcDbLine
 10
1685.5715008504
 20
108.6139376666
 30
0.0
 11
1685.5715008504
 21
108.2639376666
 31
0.0
  0
LINE
  5
4DB
330
1B
100
AcDbEntity
 67
     1
  8
7_ALL_FEATURES
  6
Continuous
 62
     7
100
AcDbLine
 10
1560.5715008504
 20
108.6139376666
 30
0.0
 11
1560.5715008504
 21
108.2639376666
 31
0.0
  0
LINE
  5
4DC
330
1B
100
AcDbEntity
 67
     1
  8
7_ALL_FEATURES
  6
Continuous
 62
     7
100
AcDbLine
 10
1560.5715008504
 20
82.3139376666
 30
0.0
 11
1560.5715008504
 21
82.6639376666
 31
0.0
  0
LINE
  5
4DD
330
1B
100
AcDbEntity
 67
     1
  8
7_ALL_FEATURES
  6
Continuous
 62
     7
100
AcDbLine
 10
1685.5715008504
 20
82.3139376666
 30
0.0
 11
1685.5715008504
 21
82.6639376666
 31
0.0
  0
LINE
  5
4DE
330
1B
100
AcDbEntity
 67
     1
  8
7_ALL_FEATURES
  6
Continuous
 62
     9
100
AcDbLine
 10
1560.5715008504
 20
109.8139376666
 30
0.0
 11
1685.5715008504
 21
109.8139376666
 31
0.0
  0
LINE
  5
4DF
330
1B
100
AcDbEntity
 67
     1
  8
7_ALL_FEATURES
  6
Continuous
 62
     9
100
AcDbLine
 10
1685.5715008504
 20
81.1139376666
 30
0.0
 11
1560.5715008504
 21
81.1139376666
 31
0.0
  0
LINE
  5
4E0
330
1B
100
AcDbEntity
 67
     1
  8
7_ALL_FEATURES
  6
Continuous
 62
     7
100
AcDbLine
 10
272.5715008504
 20
131.6139376666
 30
0.0
 11
260.5715008504
 21
110.6139376666
 31
0.0
  0
LINE
  5
4E1
330
1B
100
AcDbEntity
 67
     1
  8
7_ALL_FEATURES
  6
Continuous
 62
     7
100
AcDbLine
 10
373.5715008504
 20
131.6139376666
 30
0.0
 11
272.5715008504
 21
131.6139376666
 31
0.0
  0
LINE
  5
4E2
330
1B
100
AcDbEntity
 67
     1
  8
7_ALL_FEATURES
  6
Continuous
 62
     7
100
AcDbLine
 10
385.5715008504
 20
110.6139376666
 30
0.0
 11
373.5715008504
 21
131.6139376666
 31
0.0
  0
LINE
  5
4E3
330
1B
100
AcDbEntity
 67
     1
  8
7_ALL_FEATURES
  6
Continuous
 62
     7
100
AcDbLine
 10
385.5715008504
 20
109.8139376666
 30
0.0
 11
385.5715008504
 21
110.6139376666
 31
0.0
  0
LINE
  5
4E4
330
1B
100
AcDbEntity
 67
     1
  8
7_ALL_FEATURES
  6
Continuous
 62
     7
100
AcDbLine
 10
260.5715008504
 20
110.6139376666
 30
0.0
 11
260.5715008504
 21
109.8139376666
 31
0.0
  0
LINE
  5
4E5
330
1B
100
AcDbEntity
 67
     1
  8
7_ALL_FEATURES
  6
Continuous
 62
     7
100
AcDbLine
 10
385.5715008504
 20
109.8139376666
 30
0.0
 11
385.5715008504
 21
109.1085953639
 31
0.0
  0
LINE
  5
4E6
330
1B
100
AcDbEntity
 67
     1
  8
7_ALL_FEATURES
  6
Continuous
 62
     7
100
AcDbLine
 10
385.5715008504
 20
109.1085953639
 30
0.0
 11
385.5715008504
 21
108.6139376666
 31
0.0
  0
LINE
  5
4E7
330
1B
100
AcDbEntity
 67
     1
  8
7_ALL_FEATURES
  6
Continuous
 62
     7
100
AcDbLine
 10
260.5715008504
 20
108.6139376666
 30
0.0
 11
385.5715008504
 21
108.6139376666
 31
0.0
  0
LINE
  5
4E8
330
1B
100
AcDbEntity
 67
     1
  8
7_ALL_FEATURES
  6
Continuous
 62
     7
100
AcDbLine
 10
260.5715008504
 20
109.8139376666
 30
0.0
 11
260.5715008504
 21
109.1085953639
 31
0.0
  0
LINE
  5
4E9
330
1B
100
AcDbEntity
 67
     1
  8
7_ALL_FEATURES
  6
Continuous
 62
     7
100
AcDbLine
 10
260.5715008504
 20
109.1085953639
 30
0.0
 11
260.5715008504
 21
108.6139376666
 31
0.0
  0
LINE
  5
4EA
330
1B
100
AcDbEntity
 67
     1
  8
7_ALL_FEATURES
  6
Continuous
 62
     7
100
AcDbLine
 10
260.5715008504
 20
80.3139376666
 30
0.0
 11
272.5715008504
 21
59.3139376666
 31
0.0
  0
LINE
  5
4EB
330
1B
100
AcDbEntity
 67
     1
  8
7_ALL_FEATURES
  6
Continuous
 62
     7
100
AcDbLine
 10
260.5715008504
 20
81.1139376666
 30
0.0
 11
260.5715008504
 21
80.3139376666
 31
0.0
  0
LINE
  5
4EC
330
1B
100
AcDbEntity
 67
     1
  8
7_ALL_FEATURES
  6
Continuous
 62
     7
100
AcDbLine
 10
385.5715008504
 20
80.3139376666
 30
0.0
 11
385.5715008504
 21
81.1139376666
 31
0.0
  0
LINE
  5
4ED
330
1B
100
AcDbEntity
 67
     1
  8
7_ALL_FEATURES
  6
Continuous
 62
     7
100
AcDbLine
 10
373.5715008504
 20
59.3139376666
 30
0.0
 11
385.5715008504
 21
80.3139376666
 31
0.0
  0
LINE
  5
4EE
330
1B
100
AcDbEntity
 67
     1
  8
7_ALL_FEATURES
  6
Continuous
 62
     7
100
AcDbLine
 10
272.5715008504
 20
59.3139376666
 30
0.0
 11
373.5715008504
 21
59.3139376666
 31
0.0
  0
LINE
  5
4EF
330
1B
100
AcDbEntity
 67
     1
  8
7_ALL_FEATURES
  6
Continuous
 62
     7
100
AcDbLine
 10
260.5715008504
 20
81.1139376666
 30
0.0
 11
260.5715008504
 21
81.8192799694
 31
0.0
  0
LINE
  5
4F0
330
1B
100
AcDbEntity
 67
     1
  8
7_ALL_FEATURES
  6
Continuous
 62
     7
100
AcDbLine
 10
260.5715008504
 20
81.8192799694
 30
0.0
 11
260.5715008504
 21
82.3139376666
 31
0.0
  0
LINE
  5
4F1
330
1B
100
AcDbEntity
 67
     1
  8
7_ALL_FEATURES
  6
Continuous
 62
     7
100
AcDbLine
 10
385.5715008504
 20
82.3139376666
 30
0.0
 11
260.5715008504
 21
82.3139376666
 31
0.0
  0
LINE
  5
4F2
330
1B
100
AcDbEntity
 67
     1
  8
7_ALL_FEATURES
  6
Continuous
 62
     7
100
AcDbLine
 10
385.5715008504
 20
81.1139376666
 30
0.0
 11
385.5715008504
 21
81.8192799694
 31
0.0
  0
LINE
  5
4F3
330
1B
100
AcDbEntity
 67
     1
  8
7_ALL_FEATURES
  6
Continuous
 62
     7
100
AcDbLine
 10
385.5715008504
 20
81.8192799694
 30
0.0
 11
385.5715008504
 21
82.3139376666
 31
0.0
  0
LINE
  5
4F4
330
1B
100
AcDbEntity
 67
     1
  8
7_ALL_FEATURES
  6
Continuous
 62
     7
100
AcDbLine
 10
385.5715008504
 20
108.6139376666
 30
0.0
 11
385.5715008504
 21
108.2639376666
 31
0.0
  0
LINE
  5
4F5
330
1B
100
AcDbEntity
 67
     1
  8
7_ALL_FEATURES
  6
Continuous
 62
     7
100
AcDbLine
 10
260.5715008504
 20
108.6139376666
 30
0.0
 11
260.5715008504
 21
108.2639376666
 31
0.0
  0
LINE
  5
4F6
330
1B
100
AcDbEntity
 67
     1
  8
7_ALL_FEATURES
  6
Continuous
 62
     7
100
AcDbLine
 10
260.5715008504
 20
82.3139376666
 30
0.0
 11
260.5715008504
 21
82.6639376666
 31
0.0
  0
LINE
  5
4F7
330
1B
100
AcDbEntity
 67
     1
  8
7_ALL_FEATURES
  6
Continuous
 62
     7
100
AcDbLine
 10
385.5715008504
 20
82.3139376666
 30
0.0
 11
385.5715008504
 21
82.6639376666
 31
0.0
  0
LINE
  5
4F8
330
1B
100
AcDbEntity
 67
     1
  8
7_ALL_FEATURES
  6
Continuous
 62
     9
100
AcDbLine
 10
260.5715008504
 20
109.8139376666
 30
0.0
 11
385.5715008504
 21
109.8139376666
 31
0.0
  0
LINE
  5
4F9
330
1B
100
AcDbEntity
 67
     1
  8
7_ALL_FEATURES
  6
Continuous
 62
     9
100
AcDbLine
 10
385.5715008504
 20
81.1139376666
 30
0.0
 11
260.5715008504
 21
81.1139376666
 31
0.0
  0
LINE
  5
4FA
330
1B
100
AcDbEntity
 67
     1
  8
7_ALL_FEATURES
  6
Continuous
 62
     7
100
AcDbLine
 10
1736.0715008504
 20
106.0639376666
 30
0.0
 11
1736.0715008504
 21
106.4248380354
 31
0.0
  0
LINE
  5
4FB
330
1B
100
AcDbEntity
 67
     1
  8
7_ALL_FEATURES
  6
Continuous
 62
     7
100
AcDbLine
 10
1736.0715008504
 20
106.4248380354
 30
0.0
 11
1736.0715008504
 21
107.0122077773
 31
0.0
  0
LINE
  5
4FC
330
1B
100
AcDbEntity
 67
     1
  8
7_ALL_FEATURES
  6
Continuous
 62
     7
100
AcDbLine
 10
1736.0715008504
 20
107.3076501032
 30
0.0
 11
1736.0715008504
 21
107.2528447351
 31
0.0
  0
LINE
  5
4FD
330
1B
100
AcDbEntity
 67
     1
  8
7_ALL_FEATURES
  6
Continuous
 62
     7
100
AcDbLine
 10
1736.0715008504
 20
107.2528447351
 30
0.0
 11
1736.0715008504
 21
107.0122077773
 31
0.0
  0
LINE
  5
4FE
330
1B
100
AcDbEntity
 67
     1
  8
7_ALL_FEATURES
  6
Continuous
 62
     7
100
AcDbLine
 10
1736.0715008504
 20
107.3076501032
 30
0.0
 11
1736.0715008504
 21
107.4096457884
 31
0.0
  0
LINE
  5
4FF
330
1B
100
AcDbEntity
 67
     1
  8
7_ALL_FEATURES
  6
Continuous
 62
     7
100
AcDbLine
 10
1736.0715008504
 20
107.4096457884
 30
0.0
 11
1736.0715008504
 21
108.1120151967
 31
0.0
  0
LINE
  5
500
330
1B
100
AcDbEntity
 67
     1
  8
7_ALL_FEATURES
  6
Continuous
 62
     7
100
AcDbLine
 10
1736.0715008504
 20
108.1120151967
 30
0.0
 11
1736.0715008504
 21
108.1879764317
 31
0.0
  0
LINE
  5
501
330
1B
100
AcDbEntity
 67
     1
  8
7_ALL_FEATURES
  6
Continuous
 62
     7
100
AcDbLine
 10
1736.0715008504
 20
108.2639376666
 30
0.0
 11
1736.0715008504
 21
108.1879764317
 31
0.0
  0
LINE
  5
502
330
1B
100
AcDbEntity
 67
     1
  8
7_ALL_FEATURES
  6
Continuous
 62
     7
100
AcDbLine
 10
1736.0715008504
 20
82.6639376666
 30
0.0
 11
1736.0715008504
 21
82.7398989015
 31
0.0
  0
LINE
  5
503
330
1B
100
AcDbEntity
 67
     1
  8
7_ALL_FEATURES
  6
Continuous
 62
     7
100
AcDbLine
 10
1736.0715008504
 20
82.7398989015
 30
0.0
 11
1736.0715008504
 21
82.8158601365
 31
0.0
  0
LINE
  5
504
330
1B
100
AcDbEntity
 67
     1
  8
7_ALL_FEATURES
  6
Continuous
 62
     7
100
AcDbLine
 10
1736.0715008504
 20
82.8158601365
 30
0.0
 11
1736.0715008504
 21
83.5182295448
 31
0.0
  0
LINE
  5
505
330
1B
100
AcDbEntity
 67
     1
  8
7_ALL_FEATURES
  6
Continuous
 62
     7
100
AcDbLine
 10
1736.0715008504
 20
83.5182295448
 30
0.0
 11
1736.0715008504
 21
83.6202252301
 31
0.0
  0
LINE
  5
506
330
1B
100
AcDbEntity
 67
     1
  8
7_ALL_FEATURES
  6
Continuous
 62
     7
100
AcDbLine
 10
1736.0715008504
 20
83.915667556
 30
0.0
 11
1736.0715008504
 21
83.6750305981
 31
0.0
  0
LINE
  5
507
330
1B
100
AcDbEntity
 67
     1
  8
7_ALL_FEATURES
  6
Continuous
 62
     7
100
AcDbLine
 10
1736.0715008504
 20
83.6750305981
 30
0.0
 11
1736.0715008504
 21
83.6202252301
 31
0.0
  0
LINE
  5
508
330
1B
100
AcDbEntity
 67
     1
  8
7_ALL_FEATURES
  6
Continuous
 62
     7
100
AcDbLine
 10
1736.0715008504
 20
83.915667556
 30
0.0
 11
1736.0715008504
 21
84.5030372978
 31
0.0
  0
LINE
  5
509
330
1B
100
AcDbEntity
 67
     1
  8
7_ALL_FEATURES
  6
Continuous
 62
     7
100
AcDbLine
 10
1736.0715008504
 20
84.5030372978
 30
0.0
 11
1736.0715008504
 21
84.8639376666
 31
0.0
  0
LINE
  5
50A
330
1B
100
AcDbEntity
 67
     1
  8
7_ALL_FEATURES
  6
Continuous
 62
     7
100
AcDbLine
 10
224.5715008504
 20
85.1639376666
 30
0.0
 11
1736.0715008504
 21
85.1639376666
 31
0.0
  0
LINE
  5
50B
330
1B
100
AcDbEntity
 67
     1
  8
7_ALL_FEATURES
  6
Continuous
 62
     7
100
AcDbLine
 10
224.5715008504
 20
105.7639376666
 30
0.0
 11
1736.0715008504
 21
105.7639376666
 31
0.0
  0
LINE
  5
50C
330
1B
100
AcDbEntity
 67
     1
  8
7_ALL_FEATURES
  6
Continuous
 62
     7
100
AcDbLine
 10
224.5715008504
 20
83.915667556
 30
0.0
 11
224.5715008504
 21
84.5030372978
 31
0.0
  0
LINE
  5
50D
330
1B
100
AcDbEntity
 67
     1
  8
7_ALL_FEATURES
  6
Continuous
 62
     7
100
AcDbLine
 10
224.5715008504
 20
84.5030372978
 30
0.0
 11
224.5715008504
 21
84.8639376666
 31
0.0
  0
LINE
  5
50E
330
1B
100
AcDbEntity
 67
     1
  8
7_ALL_FEATURES
  6
Continuous
 62
     7
100
AcDbLine
 10
224.5715008504
 20
83.6202252301
 30
0.0
 11
224.5715008504
 21
83.6750305981
 31
0.0
  0
LINE
  5
50F
330
1B
100
AcDbEntity
 67
     1
  8
7_ALL_FEATURES
  6
Continuous
 62
     7
100
AcDbLine
 10
224.5715008504
 20
83.6750305981
 30
0.0
 11
224.5715008504
 21
83.915667556
 31
0.0
  0
LINE
  5
510
330
1B
100
AcDbEntity
 67
     1
  8
7_ALL_FEATURES
  6
Continuous
 62
     7
100
AcDbLine
 10
224.5715008504
 20
82.7398989015
 30
0.0
 11
224.5715008504
 21
82.8158601365
 31
0.0
  0
LINE
  5
511
330
1B
100
AcDbEntity
 67
     1
  8
7_ALL_FEATURES
  6
Continuous
 62
     7
100
AcDbLine
 10
224.5715008504
 20
82.8158601365
 30
0.0
 11
224.5715008504
 21
83.5182295448
 31
0.0
  0
LINE
  5
512
330
1B
100
AcDbEntity
 67
     1
  8
7_ALL_FEATURES
  6
Continuous
 62
     7
100
AcDbLine
 10
224.5715008504
 20
83.5182295448
 30
0.0
 11
224.5715008504
 21
83.6202252301
 31
0.0
  0
LINE
  5
513
330
1B
100
AcDbEntity
 67
     1
  8
7_ALL_FEATURES
  6
Continuous
 62
     7
100
AcDbLine
 10
224.5715008504
 20
82.7398989015
 30
0.0
 11
224.5715008504
 21
82.664880759
 31
0.0
  0
LINE
  5
514
330
1B
100
AcDbEntity
 67
     1
  8
7_ALL_FEATURES
  6
Continuous
 62
     7
100
AcDbLine
 10
224.5715008504
 20
82.664880759
 30
0.0
 11
224.5715008504
 21
82.6639376666
 31
0.0
  0
ARC
  5
515
330
1B
100
AcDbEntity
 67
     1
  8
02___PRT_ALL_AXES
  6
Continuous
 62
     7
100
AcDbCircle
 10
1726.0715008504
 20
95.4639376666
 30
0.0
 40
5.0
100
AcDbArc
 50
270.0
 51
90.0
  0
ARC
  5
516
330
1B
100
AcDbEntity
 67
     1
  8
02___PRT_ALL_AXES
  6
Continuous
 62
     7
100
AcDbCircle
 10
1726.0715008504
 20
95.4639376666
 30
0.0
 40
5.0
100
AcDbArc
 50
90.0
 51
270.0
  0
LINE
  5
517
330
1B
100
AcDbEntity
 67
     1
  8
7_ALL_FEATURES
  6
Continuous
 62
     7
100
AcDbLine
 10
224.5715008504
 20
108.1879764317
 30
0.0
 11
224.5715008504
 21
108.2629945742
 31
0.0
  0
LINE
  5
518
330
1B
100
AcDbEntity
 67
     1
  8
7_ALL_FEATURES
  6
Continuous
 62
     7
100
AcDbLine
 10
224.5715008504
 20
108.2629945742
 30
0.0
 11
224.5715008504
 21
108.2639376666
 31
0.0
  0
LINE
  5
519
330
1B
100
AcDbEntity
 67
     1
  8
7_ALL_FEATURES
  6
Continuous
 62
     7
100
AcDbLine
 10
224.5715008504
 20
107.3076501032
 30
0.0
 11
224.5715008504
 21
107.4096457884
 31
0.0
  0
LINE
  5
51A
330
1B
100
AcDbEntity
 67
     1
  8
7_ALL_FEATURES
  6
Continuous
 62
     7
100
AcDbLine
 10
224.5715008504
 20
107.4096457884
 30
0.0
 11
224.5715008504
 21
108.1120151967
 31
0.0
  0
LINE
  5
51B
330
1B
100
AcDbEntity
 67
     1
  8
7_ALL_FEATURES
  6
Continuous
 62
     7
100
AcDbLine
 10
224.5715008504
 20
108.1120151967
 30
0.0
 11
224.5715008504
 21
108.1879764317
 31
0.0
  0
LINE
  5
51C
330
1B
100
AcDbEntity
 67
     1
  8
7_ALL_FEATURES
  6
Continuous
 62
     7
100
AcDbLine
 10
224.5715008504
 20
107.0122077773
 30
0.0
 11
224.5715008504
 21
107.2528447351
 31
0.0
  0
LINE
  5
51D
330
1B
100
AcDbEntity
 67
     1
  8
7_ALL_FEATURES
  6
Continuous
 62
     7
100
AcDbLine
 10
224.5715008504
 20
107.2528447351
 30
0.0
 11
224.5715008504
 21
107.3076501032
 31
0.0
  0
LINE
  5
51E
330
1B
100
AcDbEntity
 67
     1
  8
7_ALL_FEATURES
  6
Continuous
 62
     7
100
AcDbLine
 10
224.5715008504
 20
106.0639376666
 30
0.0
 11
224.5715008504
 21
106.4248380354
 31
0.0
  0
LINE
  5
51F
330
1B
100
AcDbEntity
 67
     1
  8
7_ALL_FEATURES
  6
Continuous
 62
     7
100
AcDbLine
 10
224.5715008504
 20
106.4248380354
 30
0.0
 11
224.5715008504
 21
107.0122077773
 31
0.0
  0
LINE
  5
520
330
1B
100
AcDbEntity
 67
     1
  8
7_ALL_FEATURES
  6
Continuous
 62
     7
100
AcDbLine
 10
224.5715008504
 20
85.1639376666
 30
0.0
 11
1736.0715008504
 21
85.1639376666
 31
0.0
  0
LINE
  5
521
330
1B
100
AcDbEntity
 67
     1
  8
7_ALL_FEATURES
  6
Continuous
 62
     7
100
AcDbLine
 10
224.5715008504
 20
105.7639376666
 30
0.0
 11
1736.0715008504
 21
105.7639376666
 31
0.0
  0
LINE
  5
522
330
1B
100
AcDbEntity
 67
     1
  8
7_ALL_FEATURES
  6
Continuous
 62
     7
100
AcDbLine
 10
224.5715008504
 20
108.2639376666
 30
0.0
 11
1736.0715008504
 21
108.2639376666
 31
0.0
  0
LINE
  5
523
330
1B
100
AcDbEntity
 67
     1
  8
7_ALL_FEATURES
  6
Continuous
 62
     7
100
AcDbLine
 10
224.5715008504
 20
82.6639376666
 30
0.0
 11
1736.0715008504
 21
82.6639376666
 31
0.0
  0
LINE
  5
524
330
1B
100
AcDbEntity
 67
     1
  8
7_ALL_FEATURES
  6
Continuous
 62
     9
100
AcDbLine
 10
224.5715008504
 20
83.6202252301
 30
0.0
 11
1736.0715008504
 21
83.6202252301
 31
0.0
  0
LINE
  5
525
330
1B
100
AcDbEntity
 67
     1
  8
7_ALL_FEATURES
  6
Continuous
 62
     9
100
AcDbLine
 10
224.5715008504
 20
82.7398989015
 30
0.0
 11
1736.0715008504
 21
82.7398989015
 31
0.0
  0
LINE
  5
526
330
1B
100
AcDbEntity
 67
     1
  8
7_ALL_FEATURES
  6
Continuous
 62
     9
100
AcDbLine
 10
224.5715008504
 20
84.8639376666
 30
0.0
 11
1736.0715008504
 21
84.8639376666
 31
0.0
  0
LINE
  5
527
330
1B
100
AcDbEntity
 67
     1
  8
7_ALL_FEATURES
  6
Continuous
 62
     9
100
AcDbLine
 10
224.5715008504
 20
83.915667556
 30
0.0
 11
1736.0715008504
 21
83.915667556
 31
0.0
  0
LINE
  5
528
330
1B
100
AcDbEntity
 67
     1
  8
7_ALL_FEATURES
  6
Continuous
 62
     9
100
AcDbLine
 10
1721.2730106467
 20
94.062013878
 30
0.0
 11
1730.869991054
 21
94.062013878
 31
0.0
  0
LINE
  5
529
330
1B
100
AcDbEntity
 67
     1
  8
7_ALL_FEATURES
  6
Continuous
 62
     9
100
AcDbLine
 10
1721.0887630257
 20
95.062013878
 30
0.0
 11
1731.054238675
 21
95.062013878
 31
0.0
  0
LINE
  5
52A
330
1B
100
AcDbEntity
 67
     1
  8
7_ALL_FEATURES
  6
Continuous
 62
     9
100
AcDbLine
 10
1721.0887630257
 20
95.8658614553
 30
0.0
 11
1731.054238675
 21
95.8658614553
 31
0.0
  0
LINE
  5
52B
330
1B
100
AcDbEntity
 67
     1
  8
7_ALL_FEATURES
  6
Continuous
 62
     7
100
AcDbLine
 10
1731.0703786468
 20
95.4639376666
 30
0.0
 11
1721.0726230539
 21
95.4639376666
 31
0.0
  0
LINE
  5
52C
330
1B
100
AcDbEntity
 67
     1
  8
7_ALL_FEATURES
  6
Continuous
 62
     9
100
AcDbLine
 10
1721.2730106467
 20
96.8658614553
 30
0.0
 11
1730.869991054
 21
96.8658614553
 31
0.0
  0
LINE
  5
52D
330
1B
100
AcDbEntity
 67
     1
  8
7_ALL_FEATURES
  6
Continuous
 62
     7
100
AcDbLine
 10
1736.0715008504
 20
87.0495783127
 30
0.0
 11
224.5715008504
 21
87.0495783127
 31
0.0
  0
LINE
  5
52E
330
1B
100
AcDbEntity
 67
     1
  8
7_ALL_FEATURES
  6
Continuous
 62
     7
100
AcDbLine
 10
1736.0715008504
 20
85.6639376666
 30
0.0
 11
224.5715008504
 21
85.6639376666
 31
0.0
  0
LINE
  5
52F
330
1B
100
AcDbEntity
 67
     1
  8
7_ALL_FEATURES
  6
Continuous
 62
     9
100
AcDbLine
 10
224.5715008504
 20
106.0639376666
 30
0.0
 11
1736.0715008504
 21
106.0639376666
 31
0.0
  0
LINE
  5
530
330
1B
100
AcDbEntity
 67
     1
  8
7_ALL_FEATURES
  6
Continuous
 62
     9
100
AcDbLine
 10
224.5715008504
 20
107.0122077773
 30
0.0
 11
1736.0715008504
 21
107.0122077773
 31
0.0
  0
LINE
  5
531
330
1B
100
AcDbEntity
 67
     1
  8
7_ALL_FEATURES
  6
Continuous
 62
     9
100
AcDbLine
 10
224.5715008504
 20
107.3076501032
 30
0.0
 11
1736.0715008504
 21
107.3076501032
 31
0.0
  0
LINE
  5
532
330
1B
100
AcDbEntity
 67
     1
  8
7_ALL_FEATURES
  6
Continuous
 62
     9
100
AcDbLine
 10
224.5715008504
 20
108.1879764317
 30
0.0
 11
1736.0715008504
 21
108.1879764317
 31
0.0
  0
LINE
  5
533
330
1B
100
AcDbEntity
 67
     1
  8
7_ALL_FEATURES
  6
Continuous
 62
     7
100
AcDbLine
 10
1736.0715008504
 20
105.2639376666
 30
0.0
 11
224.5715008504
 21
105.2639376666
 31
0.0
  0
LINE
  5
534
330
1B
100
AcDbEntity
 67
     1
  8
7_ALL_FEATURES
  6
Continuous
 62
     7
100
AcDbLine
 10
1736.0715008504
 20
103.8782970206
 30
0.0
 11
224.5715008504
 21
103.8782970206
 31
0.0
  0
LINE
  5
535
330
1B
100
AcDbEntity
 67
     1
  8
7_ALL_FEATURES
  6
Continuous
 62
     3
100
AcDbLine
 10
1736.0715008504
 20
107.4096457884
 30
0.0
 11
1736.0715008504
 21
108.1120151967
 31
0.0
  0
LINE
  5
536
330
1B
100
AcDbEntity
 67
     1
  8
7_ALL_FEATURES
  6
Continuous
 62
     3
100
AcDbLine
 10
1736.0715008504
 20
107.4041686216
 30
0.0
 11
1736.0715008504
 21
107.4096457884
 31
0.0
  0
LINE
  5
537
330
1B
100
AcDbEntity
 67
     1
  8
7_ALL_FEATURES
  6
Continuous
 62
     3
100
AcDbLine
 10
1736.0715008504
 20
84.5030372978
 30
0.0
 11
1736.0715008504
 21
84.8639376666
 31
0.0
  0
LINE
  5
538
330
1B
100
AcDbEntity
 67
     1
  8
7_ALL_FEATURES
  6
Continuous
 62
     3
100
AcDbLine
 10
1736.0715008504
 20
84.8639376666
 30
0.0
 11
1736.0715008504
 21
85.1639376666
 31
0.0
  0
LINE
  5
539
330
1B
100
AcDbEntity
 67
     1
  8
7_ALL_FEATURES
  6
Continuous
 62
     3
100
AcDbLine
 10
1736.0715008504
 20
85.1639376666
 30
0.0
 11
1736.0715008504
 21
105.7639376666
 31
0.0
  0
LINE
  5
53A
330
1B
100
AcDbEntity
 67
     1
  8
7_ALL_FEATURES
  6
Continuous
 62
     3
100
AcDbLine
 10
1736.0715008504
 20
105.7639376666
 30
0.0
 11
1736.0715008504
 21
106.0639376666
 31
0.0
  0
LINE
  5
53B
330
1B
100
AcDbEntity
 67
     1
  8
7_ALL_FEATURES
  6
Continuous
 62
     3
100
AcDbLine
 10
1736.0715008504
 20
106.0639376666
 30
0.0
 11
1736.0715008504
 21
106.4248380354
 31
0.0
  0
LINE
  5
53C
330
1B
100
AcDbEntity
 67
     1
  8
7_ALL_FEATURES
  6
Continuous
 62
     3
100
AcDbLine
 10
1736.0715008504
 20
82.8158601365
 30
0.0
 11
1736.0715008504
 21
83.5182295448
 31
0.0
  0
LINE
  5
53D
330
1B
100
AcDbEntity
 67
     1
  8
7_ALL_FEATURES
  6
Continuous
 62
     3
100
AcDbLine
 10
1736.0715008504
 20
82.7916394735
 30
0.0
 11
1736.0715008504
 21
82.8158601365
 31
0.0
  0
LINE
  5
53E
330
1B
100
AcDbEntity
 67
     1
  8
7_ALL_FEATURES
  6
Continuous
 62
     3
100
AcDbLine
 10
224.5715008504
 20
83.5182295448
 30
0.0
 11
224.5715008504
 21
82.8158601365
 31
0.0
  0
LINE
  5
53F
330
1B
100
AcDbEntity
 67
     1
  8
7_ALL_FEATURES
  6
Continuous
 62
     3
100
AcDbLine
 10
224.5715008504
 20
83.5237067116
 30
0.0
 11
224.5715008504
 21
83.5182295448
 31
0.0
  0
LINE
  5
540
330
1B
100
AcDbEntity
 67
     1
  8
7_ALL_FEATURES
  6
Continuous
 62
     3
100
AcDbLine
 10
224.5715008504
 20
106.4248380354
 30
0.0
 11
224.5715008504
 21
106.0639376666
 31
0.0
  0
LINE
  5
541
330
1B
100
AcDbEntity
 67
     1
  8
7_ALL_FEATURES
  6
Continuous
 62
     3
100
AcDbLine
 10
224.5715008504
 20
106.0639376666
 30
0.0
 11
224.5715008504
 21
105.7639376666
 31
0.0
  0
LINE
  5
542
330
1B
100
AcDbEntity
 67
     1
  8
7_ALL_FEATURES
  6
Continuous
 62
     3
100
AcDbLine
 10
224.5715008504
 20
105.7639376666
 30
0.0
 11
224.5715008504
 21
85.1639376666
 31
0.0
  0
LINE
  5
543
330
1B
100
AcDbEntity
 67
     1
  8
7_ALL_FEATURES
  6
Continuous
 62
     3
100
AcDbLine
 10
224.5715008504
 20
85.1639376666
 30
0.0
 11
224.5715008504
 21
84.8639376666
 31
0.0
  0
LINE
  5
544
330
1B
100
AcDbEntity
 67
     1
  8
7_ALL_FEATURES
  6
Continuous
 62
     3
100
AcDbLine
 10
224.5715008504
 20
84.8639376666
 30
0.0
 11
224.5715008504
 21
84.5030372978
 31
0.0
  0
LINE
  5
545
330
1B
100
AcDbEntity
 67
     1
  8
7_ALL_FEATURES
  6
Continuous
 62
     3
100
AcDbLine
 10
224.5715008504
 20
108.1120151967
 30
0.0
 11
224.5715008504
 21
107.4096457884
 31
0.0
  0
LINE
  5
546
330
1B
100
AcDbEntity
 67
     1
  8
7_ALL_FEATURES
  6
Continuous
 62
     3
100
AcDbLine
 10
224.5715008504
 20
108.1362358598
 30
0.0
 11
224.5715008504
 21
108.1120151967
 31
0.0
  0
LINE
  5
547
330
1B
100
AcDbEntity
 67
     1
  8
7_ALL_FEATURES
  6
Continuous
 62
     7
100
AcDbLine
 10
1907.6592898601
 20
280.2031202574
 30
0.0
 11
1907.6592898601
 21
281.0781202574
 31
0.0
  0
LINE
  5
548
330
1B
100
AcDbEntity
 67
     1
  8
7_ALL_FEATURES
  6
Continuous
 62
     7
100
AcDbLine
 10
1907.6592898601
 20
281.0781202574
 30
0.0
 11
1908.5342898601
 21
281.0781202574
 31
0.0
  0
LINE
  5
549
330
1B
100
AcDbEntity
 67
     1
  8
7_ALL_FEATURES
  6
Continuous
 62
     7
100
AcDbLine
 10
1908.5342898601
 20
281.8281202574
 30
0.0
 11
1907.6592898601
 21
281.8281202574
 31
0.0
  0
LINE
  5
54A
330
1B
100
AcDbEntity
 67
     1
  8
7_ALL_FEATURES
  6
Continuous
 62
     7
100
AcDbLine
 10
1907.6592898601
 20
281.8281202574
 30
0.0
 11
1907.6592898601
 21
282.7031202574
 31
0.0
  0
LINE
  5
54B
330
1B
100
AcDbEntity
 67
     1
  8
7_ALL_FEATURES
  6
Continuous
 62
     7
100
AcDbLine
 10
1906.9092898601
 20
282.7031202574
 30
0.0
 11
1906.9092898601
 21
281.8281202574
 31
0.0
  0
LINE
  5
54C
330
1B
100
AcDbEntity
 67
     1
  8
7_ALL_FEATURES
  6
Continuous
 62
     7
100
AcDbLine
 10
1906.9092898601
 20
281.8281202574
 30
0.0
 11
1906.0342898601
 21
281.8281202574
 31
0.0
  0
LINE
  5
54D
330
1B
100
AcDbEntity
 67
     1
  8
7_ALL_FEATURES
  6
Continuous
 62
     7
100
AcDbLine
 10
1906.0342898601
 20
281.0781202574
 30
0.0
 11
1906.9092898601
 21
281.0781202574
 31
0.0
  0
LINE
  5
54E
330
1B
100
AcDbEntity
 67
     1
  8
7_ALL_FEATURES
  6
Continuous
 62
     7
100
AcDbLine
 10
1906.9092898601
 20
281.0781202574
 30
0.0
 11
1906.9092898601
 21
280.2031202574
 31
0.0
  0
ARC
  5
54F
330
1B
100
AcDbEntity
 67
     1
  8
3_ALL_AXES
  6
Continuous
 62
     7
100
AcDbCircle
 10
1907.2842898601
 20
281.4531202574
 30
0.0
 40
2.75
100
AcDbArc
 50
0.0
 51
180.0
  0
ARC
  5
550
330
1B
100
AcDbEntity
 67
     1
  8
3_ALL_AXES
  6
Continuous
 62
     7
100
AcDbCircle
 10
1907.2842898601
 20
281.4531202574
 30
0.0
 40
2.75
100
AcDbArc
 50
180.0
 51
360.0
  0
LINE
  5
551
330
1B
100
AcDbEntity
 67
     1
  8
7_ALL_FEATURES
  6
Continuous
 62
     7
100
AcDbLine
 10
1906.0342898601
 20
281.0781202574
 30
0.0
 11
1906.0342898601
 21
281.8281202574
 31
0.0
  0
LINE
  5
552
330
1B
100
AcDbEntity
 67
     1
  8
7_ALL_FEATURES
  6
Continuous
 62
     7
100
AcDbLine
 10
1907.6592898601
 20
280.2031202574
 30
0.0
 11
1906.9092898601
 21
280.2031202574
 31
0.0
  0
LINE
  5
553
330
1B
100
AcDbEntity
 67
     1
  8
7_ALL_FEATURES
  6
Continuous
 62
     7
100
AcDbLine
 10
1908.5342898601
 20
281.8281202574
 30
0.0
 11
1908.5342898601
 21
281.0781202574
 31
0.0
  0
LINE
  5
554
330
1B
100
AcDbEntity
 67
     1
  8
7_ALL_FEATURES
  6
Continuous
 62
     7
100
AcDbLine
 10
1906.9092898601
 20
282.7031202574
 30
0.0
 11
1907.6592898601
 21
282.7031202574
 31
0.0
  0
LINE
  5
555
330
1B
100
AcDbEntity
 67
     1
  8
7_ALL_FEATURES
  6
Continuous
 62
     7
100
AcDbLine
 10
1907.6592898601
 20
260.5031202574
 30
0.0
 11
1907.6592898601
 21
261.3781202574
 31
0.0
  0
LINE
  5
556
330
1B
100
AcDbEntity
 67
     1
  8
7_ALL_FEATURES
  6
Continuous
 62
     7
100
AcDbLine
 10
1907.6592898601
 20
261.3781202574
 30
0.0
 11
1908.5342898601
 21
261.3781202574
 31
0.0
  0
LINE
  5
557
330
1B
100
AcDbEntity
 67
     1
  8
7_ALL_FEATURES
  6
Continuous
 62
     7
100
AcDbLine
 10
1908.5342898601
 20
262.1281202574
 30
0.0
 11
1907.6592898601
 21
262.1281202574
 31
0.0
  0
LINE
  5
558
330
1B
100
AcDbEntity
 67
     1
  8
7_ALL_FEATURES
  6
Continuous
 62
     7
100
AcDbLine
 10
1907.6592898601
 20
262.1281202574
 30
0.0
 11
1907.6592898601
 21
263.0031202574
 31
0.0
  0
LINE
  5
559
330
1B
100
AcDbEntity
 67
     1
  8
7_ALL_FEATURES
  6
Continuous
 62
     7
100
AcDbLine
 10
1906.9092898601
 20
263.0031202574
 30
0.0
 11
1906.9092898601
 21
262.1281202574
 31
0.0
  0
LINE
  5
55A
330
1B
100
AcDbEntity
 67
     1
  8
7_ALL_FEATURES
  6
Continuous
 62
     7
100
AcDbLine
 10
1906.9092898601
 20
262.1281202574
 30
0.0
 11
1906.0342898601
 21
262.1281202574
 31
0.0
  0
LINE
  5
55B
330
1B
100
AcDbEntity
 67
     1
  8
7_ALL_FEATURES
  6
Continuous
 62
     7
100
AcDbLine
 10
1906.0342898601
 20
261.3781202574
 30
0.0
 11
1906.9092898601
 21
261.3781202574
 31
0.0
  0
LINE
  5
55C
330
1B
100
AcDbEntity
 67
     1
  8
7_ALL_FEATURES
  6
Continuous
 62
     7
100
AcDbLine
 10
1906.9092898601
 20
261.3781202574
 30
0.0
 11
1906.9092898601
 21
260.5031202574
 31
0.0
  0
ARC
  5
55D
330
1B
100
AcDbEntity
 67
     1
  8
3_ALL_AXES
  6
Continuous
 62
     7
100
AcDbCircle
 10
1907.2842898601
 20
261.7531202574
 30
0.0
 40
2.75
100
AcDbArc
 50
0.0
 51
180.0
  0
ARC
  5
55E
330
1B
100
AcDbEntity
 67
     1
  8
3_ALL_AXES
  6
Continuous
 62
     7
100
AcDbCircle
 10
1907.2842898601
 20
261.7531202574
 30
0.0
 40
2.75
100
AcDbArc
 50
180.0
 51
360.0
  0
LINE
  5
55F
330
1B
100
AcDbEntity
 67
     1
  8
7_ALL_FEATURES
  6
Continuous
 62
     7
100
AcDbLine
 10
1906.0342898601
 20
261.3781202574
 30
0.0
 11
1906.0342898601
 21
262.1281202574
 31
0.0
  0
LINE
  5
560
330
1B
100
AcDbEntity
 67
     1
  8
7_ALL_FEATURES
  6
Continuous
 62
     7
100
AcDbLine
 10
1907.6592898601
 20
260.5031202574
 30
0.0
 11
1906.9092898601
 21
260.5031202574
 31
0.0
  0
LINE
  5
561
330
1B
100
AcDbEntity
 67
     1
  8
7_ALL_FEATURES
  6
Continuous
 62
     7
100
AcDbLine
 10
1908.5342898601
 20
262.1281202574
 30
0.0
 11
1908.5342898601
 21
261.3781202574
 31
0.0
  0
LINE
  5
562
330
1B
100
AcDbEntity
 67
     1
  8
7_ALL_FEATURES
  6
Continuous
 62
     7
100
AcDbLine
 10
1906.9092898601
 20
263.0031202574
 30
0.0
 11
1907.6592898601
 21
263.0031202574
 31
0.0
  0
LINE
  5
563
330
1B
100
AcDbEntity
 67
     1
  8
7_ALL_FEATURES
  6
Continuous
 62
     7
100
AcDbLine
 10
1886.9592898601
 20
260.5031202574
 30
0.0
 11
1886.9592898601
 21
261.3781202574
 31
0.0
  0
LINE
  5
564
330
1B
100
AcDbEntity
 67
     1
  8
7_ALL_FEATURES
  6
Continuous
 62
     7
100
AcDbLine
 10
1886.9592898601
 20
261.3781202574
 30
0.0
 11
1887.8342898601
 21
261.3781202574
 31
0.0
  0
LINE
  5
565
330
1B
100
AcDbEntity
 67
     1
  8
7_ALL_FEATURES
  6
Continuous
 62
     7
100
AcDbLine
 10
1887.8342898601
 20
262.1281202574
 30
0.0
 11
1886.9592898601
 21
262.1281202574
 31
0.0
  0
LINE
  5
566
330
1B
100
AcDbEntity
 67
     1
  8
7_ALL_FEATURES
  6
Continuous
 62
     7
100
AcDbLine
 10
1886.9592898601
 20
262.1281202574
 30
0.0
 11
1886.9592898601
 21
263.0031202574
 31
0.0
  0
LINE
  5
567
330
1B
100
AcDbEntity
 67
     1
  8
7_ALL_FEATURES
  6
Continuous
 62
     7
100
AcDbLine
 10
1886.2092898601
 20
263.0031202574
 30
0.0
 11
1886.2092898601
 21
262.1281202574
 31
0.0
  0
LINE
  5
568
330
1B
100
AcDbEntity
 67
     1
  8
7_ALL_FEATURES
  6
Continuous
 62
     7
100
AcDbLine
 10
1886.2092898601
 20
262.1281202574
 30
0.0
 11
1885.3342898601
 21
262.1281202574
 31
0.0
  0
LINE
  5
569
330
1B
100
AcDbEntity
 67
     1
  8
7_ALL_FEATURES
  6
Continuous
 62
     7
100
AcDbLine
 10
1885.3342898601
 20
261.3781202574
 30
0.0
 11
1886.2092898601
 21
261.3781202574
 31
0.0
  0
LINE
  5
56A
330
1B
100
AcDbEntity
 67
     1
  8
7_ALL_FEATURES
  6
Continuous
 62
     7
100
AcDbLine
 10
1886.2092898601
 20
261.3781202574
 30
0.0
 11
1886.2092898601
 21
260.5031202574
 31
0.0
  0
ARC
  5
56B
330
1B
100
AcDbEntity
 67
     1
  8
3_ALL_AXES
  6
Continuous
 62
     7
100
AcDbCircle
 10
1886.5842898601
 20
261.7531202574
 30
0.0
 40
2.75
100
AcDbArc
 50
0.0
 51
180.0
  0
ARC
  5
56C
330
1B
100
AcDbEntity
 67
     1
  8
3_ALL_AXES
  6
Continuous
 62
     7
100
AcDbCircle
 10
1886.5842898601
 20
261.7531202574
 30
0.0
 40
2.75
100
AcDbArc
 50
180.0
 51
360.0
  0
LINE
  5
56D
330
1B
100
AcDbEntity
 67
     1
  8
7_ALL_FEATURES
  6
Continuous
 62
     7
100
AcDbLine
 10
1885.3342898601
 20
261.3781202574
 30
0.0
 11
1885.3342898601
 21
262.1281202574
 31
0.0
  0
LINE
  5
56E
330
1B
100
AcDbEntity
 67
     1
  8
7_ALL_FEATURES
  6
Continuous
 62
     7
100
AcDbLine
 10
1886.9592898601
 20
260.5031202574
 30
0.0
 11
1886.2092898601
 21
260.5031202574
 31
0.0
  0
LINE
  5
56F
330
1B
100
AcDbEntity
 67
     1
  8
7_ALL_FEATURES
  6
Continuous
 62
     7
100
AcDbLine
 10
1887.8342898601
 20
262.1281202574
 30
0.0
 11
1887.8342898601
 21
261.3781202574
 31
0.0
  0
LINE
  5
570
330
1B
100
AcDbEntity
 67
     1
  8
7_ALL_FEATURES
  6
Continuous
 62
     7
100
AcDbLine
 10
1886.2092898601
 20
263.0031202574
 30
0.0
 11
1886.9592898601
 21
263.0031202574
 31
0.0
  0
LINE
  5
571
330
1B
100
AcDbEntity
 67
     1
  8
7_ALL_FEATURES
  6
Continuous
 62
     7
100
AcDbLine
 10
1886.9592898601
 20
280.2031202574
 30
0.0
 11
1886.9592898601
 21
281.0781202574
 31
0.0
  0
LINE
  5
572
330
1B
100
AcDbEntity
 67
     1
  8
7_ALL_FEATURES
  6
Continuous
 62
     7
100
AcDbLine
 10
1886.9592898601
 20
281.0781202574
 30
0.0
 11
1887.8342898601
 21
281.0781202574
 31
0.0
  0
LINE
  5
573
330
1B
100
AcDbEntity
 67
     1
  8
7_ALL_FEATURES
  6
Continuous
 62
     7
100
AcDbLine
 10
1887.8342898601
 20
281.8281202574
 30
0.0
 11
1886.9592898601
 21
281.8281202574
 31
0.0
  0
LINE
  5
574
330
1B
100
AcDbEntity
 67
     1
  8
7_ALL_FEATURES
  6
Continuous
 62
     7
100
AcDbLine
 10
1886.9592898601
 20
281.8281202574
 30
0.0
 11
1886.9592898601
 21
282.7031202574
 31
0.0
  0
LINE
  5
575
330
1B
100
AcDbEntity
 67
     1
  8
7_ALL_FEATURES
  6
Continuous
 62
     7
100
AcDbLine
 10
1886.2092898601
 20
282.7031202574
 30
0.0
 11
1886.2092898601
 21
281.8281202574
 31
0.0
  0
LINE
  5
576
330
1B
100
AcDbEntity
 67
     1
  8
7_ALL_FEATURES
  6
Continuous
 62
     7
100
AcDbLine
 10
1886.2092898601
 20
281.8281202574
 30
0.0
 11
1885.3342898601
 21
281.8281202574
 31
0.0
  0
LINE
  5
577
330
1B
100
AcDbEntity
 67
     1
  8
7_ALL_FEATURES
  6
Continuous
 62
     7
100
AcDbLine
 10
1885.3342898601
 20
281.0781202574
 30
0.0
 11
1886.2092898601
 21
281.0781202574
 31
0.0
  0
LINE
  5
578
330
1B
100
AcDbEntity
 67
     1
  8
7_ALL_FEATURES
  6
Continuous
 62
     7
100
AcDbLine
 10
1886.2092898601
 20
281.0781202574
 30
0.0
 11
1886.2092898601
 21
280.2031202574
 31
0.0
  0
ARC
  5
579
330
1B
100
AcDbEntity
 67
     1
  8
3_ALL_AXES
  6
Continuous
 62
     7
100
AcDbCircle
 10
1886.5842898601
 20
281.4531202574
 30
0.0
 40
2.75
100
AcDbArc
 50
0.0
 51
180.0
  0
ARC
  5
57A
330
1B
100
AcDbEntity
 67
     1
  8
3_ALL_AXES
  6
Continuous
 62
     7
100
AcDbCircle
 10
1886.5842898601
 20
281.4531202574
 30
0.0
 40
2.75
100
AcDbArc
 50
180.0
 51
360.0
  0
LINE
  5
57B
330
1B
100
AcDbEntity
 67
     1
  8
7_ALL_FEATURES
  6
Continuous
 62
     7
100
AcDbLine
 10
1885.3342898601
 20
281.0781202574
 30
0.0
 11
1885.3342898601
 21
281.8281202574
 31
0.0
  0
LINE
  5
57C
330
1B
100
AcDbEntity
 67
     1
  8
7_ALL_FEATURES
  6
Continuous
 62
     7
100
AcDbLine
 10
1886.9592898601
 20
280.2031202574
 30
0.0
 11
1886.2092898601
 21
280.2031202574
 31
0.0
  0
LINE
  5
57D
330
1B
100
AcDbEntity
 67
     1
  8
7_ALL_FEATURES
  6
Continuous
 62
     7
100
AcDbLine
 10
1887.8342898601
 20
281.8281202574
 30
0.0
 11
1887.8342898601
 21
281.0781202574
 31
0.0
  0
LINE
  5
57E
330
1B
100
AcDbEntity
 67
     1
  8
7_ALL_FEATURES
  6
Continuous
 62
     7
100
AcDbLine
 10
1886.2092898601
 20
282.7031202574
 30
0.0
 11
1886.9592898601
 21
282.7031202574
 31
0.0
  0
LINE
  5
57F
330
1B
100
AcDbEntity
 67
     1
  8
7_ALL_FEATURES
  6
Continuous
 62
     7
100
AcDbLine
 10
1908.7342898601
 20
250.0531202574
 30
0.0
 11
1899.1703578376
 21
250.0531202574
 31
0.0
  0
ARC
  5
580
330
1B
100
AcDbEntity
 67
     1
  8
7_ALL_FEATURES
  6
Continuous
 62
     7
100
AcDbCircle
 10
1908.7342898601
 20
251.0531202574
 30
0.0
 40
1.0
100
AcDbArc
 50
270.0
 51
360.0
  0
LINE
  5
581
330
1B
100
AcDbEntity
 67
     1
  8
7_ALL_FEATURES
  6
Continuous
 62
     7
100
AcDbLine
 10
1909.7342898601
 20
318.5069518025
 30
0.0
 11
1909.7342898601
 21
282.699799889
 31
0.0
  0
LINE
  5
582
330
1B
100
AcDbEntity
 67
     1
  8
7_ALL_FEATURES
  6
Continuous
 62
     7
100
AcDbLine
 10
1909.7342898601
 20
280.2064406258
 30
0.0
 11
1909.7342898601
 21
262.999799889
 31
0.0
  0
LINE
  5
583
330
1B
100
AcDbEntity
 67
     1
  8
7_ALL_FEATURES
  6
Continuous
 62
     7
100
AcDbLine
 10
1909.7342898601
 20
260.5064406258
 30
0.0
 11
1909.7342898601
 21
251.0531202574
 31
0.0
  0
ARC
  5
584
330
1B
100
AcDbEntity
 67
     1
  8
7_ALL_FEATURES
  6
Continuous
 62
     7
100
AcDbCircle
 10
1899.7342898601
 20
318.5069518025
 30
0.0
 40
10.0
100
AcDbArc
 50
0.0
 51
10.0
  0
LINE
  5
585
330
1B
100
AcDbEntity
 67
     1
  8
7_ALL_FEATURES
  6
Continuous
 62
     7
100
AcDbLine
 10
1908.8799979819
 20
324.2267684351
 30
0.0
 11
1909.5823673902
 21
320.2434335792
 31
0.0
  0
ARC
  5
586
330
1B
100
AcDbEntity
 67
     1
  8
7_ALL_FEATURES
  6
Continuous
 62
     7
100
AcDbCircle
 10
1907.8951902289
 20
324.0531202574
 30
0.0
 40
1.0
100
AcDbArc
 50
10.0
 51
90.0
  0
LINE
  5
587
330
1B
100
AcDbEntity
 67
     1
  8
7_ALL_FEATURES
  6
Continuous
 62
     7
100
AcDbLine
 10
1885.9733894913
 20
325.0531202574
 30
0.0
 11
1907.8951902289
 21
325.0531202574
 31
0.0
  0
ARC
  5
588
330
1B
100
AcDbEntity
 67
     1
  8
7_ALL_FEATURES
  6
Continuous
 62
     7
100
AcDbCircle
 10
1885.9733894913
 20
324.0531202574
 30
0.0
 40
1.0
100
AcDbArc
 50
90.0
 51
170.0
  0
LINE
  5
589
330
1B
100
AcDbEntity
 67
     1
  8
7_ALL_FEATURES
  6
Continuous
 62
     7
100
AcDbLine
 10
1884.28621233
 20
320.2434335792
 30
0.0
 11
1884.9885817382
 21
324.2267684351
 31
0.0
  0
ARC
  5
58A
330
1B
100
AcDbEntity
 67
     1
  8
7_ALL_FEATURES
  6
Continuous
 62
     7
100
AcDbCircle
 10
1894.1342898601
 20
318.5069518025
 30
0.0
 40
10.0
100
AcDbArc
 50
170.0
 51
180.0
  0
LINE
  5
58B
330
1B
100
AcDbEntity
 67
     1
  8
7_ALL_FEATURES
  6
Continuous
 62
     7
100
AcDbLine
 10
1884.1342898601
 20
251.0531202574
 30
0.0
 11
1884.1342898601
 21
260.5064406258
 31
0.0
  0
LINE
  5
58C
330
1B
100
AcDbEntity
 67
     1
  8
7_ALL_FEATURES
  6
Continuous
 62
     7
100
AcDbLine
 10
1884.1342898601
 20
262.999799889
 30
0.0
 11
1884.1342898601
 21
280.2064406258
 31
0.0
  0
LINE
  5
58D
330
1B
100
AcDbEntity
 67
     1
  8
7_ALL_FEATURES
  6
Continuous
 62
     7
100
AcDbLine
 10
1884.1342898601
 20
282.699799889
 30
0.0
 11
1884.1342898601
 21
318.5069518025
 31
0.0
  0
ARC
  5
58E
330
1B
100
AcDbEntity
 67
     1
  8
7_ALL_FEATURES
  6
Continuous
 62
     7
100
AcDbCircle
 10
1885.1342898601
 20
251.0531202574
 30
0.0
 40
1.0
100
AcDbArc
 50
180.0
 51
270.0
  0
LINE
  5
58F
330
1B
100
AcDbEntity
 67
     1
  8
7_ALL_FEATURES
  6
Continuous
 62
     7
100
AcDbLine
 10
1894.6982218826
 20
250.0531202574
 30
0.0
 11
1885.1342898601
 21
250.0531202574
 31
0.0
  0
ARC
  5
590
330
1B
100
AcDbEntity
 67
     1
  8
7_ALL_FEATURES
  6
Continuous
 62
     7
100
AcDbCircle
 10
1894.6982218826
 20
251.0531202574
 30
0.0
 40
1.0
100
AcDbArc
 50
270.0
 51
318.1896851042
  0
ARC
  5
591
330
1B
100
AcDbEntity
 67
     1
  8
7_ALL_FEATURES
  6
Continuous
 62
     7
100
AcDbCircle
 10
1896.9342898601
 20
249.0531202574
 30
0.0
 40
2.0
100
AcDbArc
 50
41.81031489579999
 51
138.1896851042
  0
ARC
  5
592
330
1B
100
AcDbEntity
 67
     1
  8
7_ALL_FEATURES
  6
Continuous
 62
     7
100
AcDbCircle
 10
1899.1703578376
 20
251.0531202574
 30
0.0
 40
1.0
100
AcDbArc
 50
221.8103148957
 51
270.0
  0
ARC
  5
593
330
1B
100
AcDbEntity
 67
     1
  8
02___PRT_ALL_AXES
  6
Continuous
 62
     7
100
AcDbCircle
 10
1896.9342898601
 20
272.0531202574
 30
0.0
 40
9.5
100
AcDbArc
 50
182.0
 51
358.0
  0
LINE
  5
594
330
1B
100
AcDbEntity
 67
     1
  8
02___PRT_ALL_AXES
  6
Continuous
 62
     7
100
AcDbLine
 10
1906.9281981303
 20
271.7041252904
 30
0.0
 11
1906.4285027168
 21
271.7215750387
 31
0.0
  0
ARC
  5
595
330
1B
100
AcDbEntity
 67
     1
  8
02___PRT_ALL_AXES
  6
Continuous
 62
     7
100
AcDbCircle
 10
1896.9342898601
 20
272.0531202574
 30
0.0
 40
10.0
100
AcDbArc
 50
182.0
 51
358.0
  0
LINE
  5
596
330
1B
100
AcDbEntity
 67
     1
  8
02___PRT_ALL_AXES
  6
Continuous
 62
     7
100
AcDbLine
 10
1887.4400770034
 20
271.7215750387
 30
0.0
 11
1886.9403815899
 21
271.7041252904
 31
0.0
  0
LINE
  5
597
330
1B
100
AcDbEntity
 67
     1
  8
02___PRT_ALL_AXES
  6
Continuous
 62
     7
100
AcDbLine
 10
1886.9403815899
 20
272.4021152244
 30
0.0
 11
1887.4400770034
 21
272.3846654761
 31
0.0
  0
ARC
  5
598
330
1B
100
AcDbEntity
 67
     1
  8
02___PRT_ALL_AXES
  6
Continuous
 62
     7
100
AcDbCircle
 10
1896.9342898601
 20
272.0531202574
 30
0.0
 40
10.0
100
AcDbArc
 50
2.0
 51
178.0
  0
LINE
  5
599
330
1B
100
AcDbEntity
 67
     1
  8
02___PRT_ALL_AXES
  6
Continuous
 62
     7
100
AcDbLine
 10
1906.4285027168
 20
272.3846654761
 30
0.0
 11
1906.9281981303
 21
272.4021152244
 31
0.0
  0
ARC
  5
59A
330
1B
100
AcDbEntity
 67
     1
  8
02___PRT_ALL_AXES
  6
Continuous
 62
     7
100
AcDbCircle
 10
1896.9342898601
 20
272.0531202574
 30
0.0
 40
9.5
100
AcDbArc
 50
2.0
 51
178.0
  0
LINE
  5
59B
330
1B
100
AcDbEntity
 67
     1
  8
7_ALL_FEATURES
  6
Continuous
 62
     7
100
AcDbLine
 10
1885.9733894913
 20
325.0531202574
 30
0.0
 11
1885.3860197494
 21
325.0531202574
 31
0.0
  0
ARC
  5
59C
330
1B
100
AcDbEntity
 67
     1
  8
7_ALL_FEATURES
  6
Continuous
 62
     7
100
AcDbCircle
 10
1885.3860197494
 20
324.7531202574
 30
0.0
 40
0.3
100
AcDbArc
 50
90.0
 51
170.0
  0
LINE
  5
59D
330
1B
100
AcDbEntity
 67
     1
  8
7_ALL_FEATURES
  6
Continuous
 62
     7
100
AcDbLine
 10
1885.0905774235
 20
324.8052147107
 30
0.0
 11
1884.9885817382
 21
324.2267684351
 31
0.0
  0
LINE
  5
59E
330
1B
100
AcDbEntity
 67
     1
  8
7_ALL_FEATURES
  6
Continuous
 62
     7
100
AcDbLine
 10
1884.28621233
 20
320.2434335792
 30
0.0
 11
1884.210251095
 21
319.8126360085
 31
0.0
  0
ARC
  5
59F
330
1B
100
AcDbEntity
 67
     1
  8
7_ALL_FEATURES
  6
Continuous
 62
     7
100
AcDbCircle
 10
1889.1342898601
 20
318.9443951202
 30
0.0
 40
5.0
100
AcDbArc
 50
170.0
 51
180.0
  0
LINE
  5
5A0
330
1B
100
AcDbEntity
 67
     1
  8
7_ALL_FEATURES
  6
Continuous
 62
     7
100
AcDbLine
 10
1884.1342898601
 20
318.9443951202
 30
0.0
 11
1884.1342898601
 21
318.5069518025
 31
0.0
  0
LINE
  5
5A1
330
1B
100
AcDbEntity
 67
     1
  8
7_ALL_FEATURES
  6
Continuous
 62
     7
100
AcDbLine
 10
1908.4825599707
 20
325.0531202574
 30
0.0
 11
1907.8951902289
 21
325.0531202574
 31
0.0
  0
ARC
  5
5A2
330
1B
100
AcDbEntity
 67
     1
  8
7_ALL_FEATURES
  6
Continuous
 62
     7
100
AcDbCircle
 10
1908.4825599707
 20
324.7531202574
 30
0.0
 40
0.3
100
AcDbArc
 50
10.0
 51
90.0
  0
LINE
  5
5A3
330
1B
100
AcDbEntity
 67
     1
  8
7_ALL_FEATURES
  6
Continuous
 62
     7
100
AcDbLine
 10
1909.6583286251
 20
319.8126360085
 30
0.0
 11
1909.5823673902
 21
320.2434335792
 31
0.0
  0
LINE
  5
5A4
330
1B
100
AcDbEntity
 67
     1
  8
7_ALL_FEATURES
  6
Continuous
 62
     7
100
AcDbLine
 10
1908.8799979819
 20
324.2267684351
 30
0.0
 11
1908.7780022966
 21
324.8052147107
 31
0.0
  0
ARC
  5
5A5
330
1B
100
AcDbEntity
 67
     1
  8
7_ALL_FEATURES
  6
Continuous
 62
     7
100
AcDbCircle
 10
1904.7342898601
 20
318.9443951202
 30
0.0
 40
5.0
100
AcDbArc
 50
0.0
 51
10.0
  0
LINE
  5
5A6
330
1B
100
AcDbEntity
 67
     1
  8
7_ALL_FEATURES
  6
Continuous
 62
     7
100
AcDbLine
 10
1909.7342898601
 20
318.5069518025
 30
0.0
 11
1909.7342898601
 21
318.9443951202
 31
0.0
  0
LINE
  5
5A7
330
1B
100
AcDbEntity
 67
     1
  8
7_ALL_FEATURES
  6
Continuous
 62
     7
100
AcDbLine
 10
1894.6982218826
 20
250.0531202574
 30
0.0
 11
1899.1703578376
 21
250.0531202574
 31
0.0
  0
LINE
  5
5A8
330
1B
100
AcDbEntity
 67
     1
  8
7_ALL_FEATURES
  6
Continuous
 62
     7
100
AcDbLine
 10
1910.0842898601
 20
310.3531202574
 30
0.0
 11
1910.0842898601
 21
250.6531202574
 31
0.0
  0
ARC
  5
5A9
330
1B
100
AcDbEntity
 67
     1
  8
7_ALL_FEATURES
  6
Continuous
 62
     7
100
AcDbCircle
 10
1884.3842898601
 20
250.6531202574
 30
0.0
 40
0.6
100
AcDbArc
 50
180.0
 51
270.0
  0
LINE
  5
5AA
330
1B
100
AcDbEntity
 67
     1
  8
7_ALL_FEATURES
  6
Continuous
 62
     7
100
AcDbLine
 10
1860.7842898601
 20
311.5531202574
 30
0.0
 11
1881.7842898601
 21
311.5531202574
 31
0.0
  0
LINE
  5
5AB
330
1B
100
AcDbEntity
 67
     1
  8
7_ALL_FEATURES
  6
Continuous
 62
     7
100
AcDbLine
 10
1883.7842898601
 20
250.6531202574
 30
0.0
 11
1883.7842898601
 21
310.3531202574
 31
0.0
  0
LINE
  5
5AC
330
1B
100
AcDbEntity
 67
     1
  8
7_ALL_FEATURES
  6
Continuous
 62
     7
100
AcDbLine
 10
1881.7842898601
 20
311.5531202574
 30
0.0
 11
1882.5842898601
 21
311.5531202574
 31
0.0
  0
ARC
  5
5AD
330
1B
100
AcDbEntity
 67
     1
  8
7_ALL_FEATURES
  6
Continuous
 62
     7
100
AcDbCircle
 10
1882.5842898601
 20
310.3531202574
 30
0.0
 40
1.2
100
AcDbArc
 50
0.0
 51
90.0
  0
LINE
  5
5AE
330
1B
100
AcDbEntity
 67
     1
  8
7_ALL_FEATURES
  6
Continuous
 62
     7
100
AcDbLine
 10
1860.7842898601
 20
310.9531202574
 30
0.0
 11
1860.7842898601
 21
311.5531202574
 31
0.0
  0
LINE
  5
5AF
330
1B
100
AcDbEntity
 67
     1
  8
7_ALL_FEATURES
  6
Continuous
 62
     7
100
AcDbLine
 10
1933.0842898601
 20
310.9531202574
 30
0.0
 11
1933.0842898601
 21
311.5531202574
 31
0.0
  0
ARC
  5
5B0
330
1B
100
AcDbEntity
 67
     1
  8
7_ALL_FEATURES
  6
Continuous
 62
     7
100
AcDbCircle
 10
1911.2842898601
 20
310.3531202574
 30
0.0
 40
1.2
100
AcDbArc
 50
90.0
 51
180.0
  0
LINE
  5
5B1
330
1B
100
AcDbEntity
 67
     1
  8
7_ALL_FEATURES
  6
Continuous
 62
     7
100
AcDbLine
 10
1911.2842898601
 20
311.5531202574
 30
0.0
 11
1912.0842898601
 21
311.5531202574
 31
0.0
  0
LINE
  5
5B2
330
1B
100
AcDbEntity
 67
     1
  8
7_ALL_FEATURES
  6
Continuous
 62
     7
100
AcDbLine
 10
1912.0842898601
 20
311.5531202574
 30
0.0
 11
1933.0842898601
 21
311.5531202574
 31
0.0
  0
ARC
  5
5B3
330
1B
100
AcDbEntity
 67
     1
  8
7_ALL_FEATURES
  6
Continuous
 62
     7
100
AcDbCircle
 10
1909.4842898601
 20
250.6531202574
 30
0.0
 40
0.6
100
AcDbArc
 50
270.0
 51
360.0
  0
LINE
  5
5B4
330
1B
100
AcDbEntity
 67
     1
  8
7_ALL_FEATURES
  6
Continuous
 62
     7
100
AcDbLine
 10
1909.4842898601
 20
250.0531202574
 30
0.0
 11
1908.7342898601
 21
250.0531202574
 31
0.0
  0
LINE
  5
5B5
330
1B
100
AcDbEntity
 67
     1
  8
7_ALL_FEATURES
  6
Continuous
 62
     7
100
AcDbLine
 10
1885.1342898601
 20
250.0531202574
 30
0.0
 11
1884.3842898601
 21
250.0531202574
 31
0.0
  0
LINE
  5
5B6
330
1B
100
AcDbEntity
 67
     1
  8
7_ALL_FEATURES
  6
Continuous
 62
     7
100
AcDbLine
 10
1881.7842898601
 20
310.9531202574
 30
0.0
 11
1881.7842898601
 21
311.5531202574
 31
0.0
  0
LINE
  5
5B7
330
1B
100
AcDbEntity
 67
     1
  8
7_ALL_FEATURES
  6
Continuous
 62
     9
100
AcDbLine
 10
1882.5842898601
 20
311.5531202574
 30
0.0
 11
1882.5842898601
 21
310.9531202574
 31
0.0
  0
LINE
  5
5B8
330
1B
100
AcDbEntity
 67
     1
  8
7_ALL_FEATURES
  6
Continuous
 62
     9
100
AcDbLine
 10
1883.1842898601
 20
250.6531202574
 30
0.0
 11
1883.7842898601
 21
250.6531202574
 31
0.0
  0
LINE
  5
5B9
330
1B
100
AcDbEntity
 67
     1
  8
7_ALL_FEATURES
  6
Continuous
 62
     9
100
AcDbLine
 10
1884.3842898601
 20
249.4531202574
 30
0.0
 11
1884.3842898601
 21
250.0531202574
 31
0.0
  0
LINE
  5
5BA
330
1B
100
AcDbEntity
 67
     1
  8
7_ALL_FEATURES
  6
Continuous
 62
     9
100
AcDbLine
 10
1911.2842898601
 20
311.5531202574
 30
0.0
 11
1911.2842898601
 21
310.9531202574
 31
0.0
  0
LINE
  5
5BB
330
1B
100
AcDbEntity
 67
     1
  8
7_ALL_FEATURES
  6
Continuous
 62
     9
100
AcDbLine
 10
1909.4842898601
 20
249.4531202574
 30
0.0
 11
1909.4842898601
 21
250.0531202574
 31
0.0
  0
LINE
  5
5BC
330
1B
100
AcDbEntity
 67
     1
  8
7_ALL_FEATURES
  6
Continuous
 62
     9
100
AcDbLine
 10
1883.7842898601
 20
310.3531202574
 30
0.0
 11
1883.1842898601
 21
310.3531202574
 31
0.0
  0
LINE
  5
5BD
330
1B
100
AcDbEntity
 67
     1
  8
7_ALL_FEATURES
  6
Continuous
 62
     9
100
AcDbLine
 10
1910.0842898601
 20
310.3531202574
 30
0.0
 11
1910.6842898601
 21
310.3531202574
 31
0.0
  0
LINE
  5
5BE
330
1B
100
AcDbEntity
 67
     1
  8
7_ALL_FEATURES
  6
Continuous
 62
     9
100
AcDbLine
 10
1910.6842898601
 20
250.6531202574
 30
0.0
 11
1910.0842898601
 21
250.6531202574
 31
0.0
  0
LINE
  5
5BF
330
1B
100
AcDbEntity
 67
     1
  8
7_ALL_FEATURES
  6
Continuous
 62
     7
100
AcDbLine
 10
1912.0842898601
 20
310.9531202574
 30
0.0
 11
1912.0842898601
 21
311.5531202574
 31
0.0
  0
LINE
  5
5C0
330
1B
100
AcDbEntity
 67
     1
  8
7_ALL_FEATURES
  6
Continuous
 62
     3
100
AcDbLine
 10
1883.1842898601
 20
250.6531202574
 30
0.0
 11
1883.1842898601
 21
310.3531202574
 31
0.0
  0
ARC
  5
5C1
330
1B
100
AcDbEntity
 67
     1
  8
7_ALL_FEATURES
  6
Continuous
 62
     3
100
AcDbCircle
 10
1884.3842898601
 20
250.6531202574
 30
0.0
 40
1.2
100
AcDbArc
 50
180.0
 51
270.0
  0
ARC
  5
5C2
330
1B
100
AcDbEntity
 67
     1
  8
7_ALL_FEATURES
  6
Continuous
 62
     3
100
AcDbCircle
 10
1911.2842898601
 20
310.3531202574
 30
0.0
 40
0.6
100
AcDbArc
 50
90.0
 51
180.0
  0
LINE
  5
5C3
330
1B
100
AcDbEntity
 67
     1
  8
7_ALL_FEATURES
  6
Continuous
 62
     3
100
AcDbLine
 10
1911.2842898601
 20
310.9531202574
 30
0.0
 11
1912.0842898601
 21
310.9531202574
 31
0.0
  0
LINE
  5
5C4
330
1B
100
AcDbEntity
 67
     1
  8
7_ALL_FEATURES
  6
Continuous
 62
     3
100
AcDbLine
 10
1933.0842898601
 20
310.9531202574
 30
0.0
 11
1912.0842898601
 21
310.9531202574
 31
0.0
  0
LINE
  5
5C5
330
1B
100
AcDbEntity
 67
     1
  8
7_ALL_FEATURES
  6
Continuous
 62
     3
100
AcDbLine
 10
1881.7842898601
 20
310.9531202574
 30
0.0
 11
1860.7842898601
 21
310.9531202574
 31
0.0
  0
LINE
  5
5C6
330
1B
100
AcDbEntity
 67
     1
  8
7_ALL_FEATURES
  6
Continuous
 62
     3
100
AcDbLine
 10
1881.7842898601
 20
310.9531202574
 30
0.0
 11
1882.5842898601
 21
310.9531202574
 31
0.0
  0
ARC
  5
5C7
330
1B
100
AcDbEntity
 67
     1
  8
7_ALL_FEATURES
  6
Continuous
 62
     3
100
AcDbCircle
 10
1882.5842898601
 20
310.3531202574
 30
0.0
 40
0.6
100
AcDbArc
 50
0.0
 51
90.0
  0
LINE
  5
5C8
330
1B
100
AcDbEntity
 67
     1
  8
7_ALL_FEATURES
  6
Continuous
 62
     3
100
AcDbLine
 10
1909.4842898601
 20
249.4531202574
 30
0.0
 11
1884.3842898601
 21
249.4531202574
 31
0.0
  0
ARC
  5
5C9
330
1B
100
AcDbEntity
 67
     1
  8
7_ALL_FEATURES
  6
Continuous
 62
     3
100
AcDbCircle
 10
1909.4842898601
 20
250.6531202574
 30
0.0
 40
1.2
100
AcDbArc
 50
270.0
 51
360.0
  0
LINE
  5
5CA
330
1B
100
AcDbEntity
 67
     1
  8
7_ALL_FEATURES
  6
Continuous
 62
     3
100
AcDbLine
 10
1910.6842898601
 20
310.3531202574
 30
0.0
 11
1910.6842898601
 21
250.6531202574
 31
0.0
  0
DIMENSION
  5
5CB
330
1B
100
AcDbEntity
 67
     1
  8
0
  6
Continuous
 62
     2
100
AcDbDimension
280
     0
  2
*D1
 10
223.0715008504
 20
347.2024908991
 30
0.0
 11
979.8929138184
 21
347.2024908991
 31
0.0
 70
   160
 71
     5
 42
-1.0
 73
     0
 74
     0
 75
     0
  3
DIMSTYLE_1
100
AcDbAlignedDimension
 13
1737.5715008504
 23
325.0531202574
 33
0.0
 14
223.0715008504
 24
325.0531202574
 34
0.0
 50
180.0
100
AcDbRotatedDimension
  0
DIMENSION
  5
5CC
330
1B
100
AcDbEntity
 67
     1
  8
0
  6
Continuous
 62
     2
100
AcDbDimension
280
     0
  2
*D2
 10
1751.4513323058
 20
108.2639376666
 30
0.0
 11
1751.4513323058
 21
95.0353453161
 31
0.0
 70
   160
 71
     5
 42
-1.0
 73
     0
 74
     0
 75
     0
  3
DIMSTYLE_2
100
AcDbAlignedDimension
 13
1740.4739036415
 23
82.6639376666
 33
0.0
 14
1739.7425983993
 24
108.2639376666
 34
0.0
 50
90.0
100
AcDbRotatedDimension
  0
DIMENSION
  5
5CD
330
1B
100
AcDbEntity
 67
     1
  8
0
  6
Continuous
 62
     2
100
AcDbDimension
280
     0
  2
*D3
 10
1942.8158768025
 20
250.0531202574
 30
0.0
 11
1942.8158768025
 21
287.1245725564
 31
0.0
 70
   160
 71
     5
 42
-1.0
 73
     0
 74
     0
 75
     0
  3
DIMSTYLE_3
100
AcDbAlignedDimension
 13
1938.4858703056
 23
325.0531202574
 33
0.0
 14
1938.2834728275
 24
250.0531202574
 34
0.0
 50
270.0
100
AcDbRotatedDimension
  0
DIMENSION
  5
5CE
330
1B
100
AcDbEntity
 67
     1
  8
0
  6
Continuous
 62
     2
100
AcDbDimension
280
     0
  2
*D4
 10
1759.8158145189
 20
131.6139376666
 30
0.0
 11
1759.8158145189
 21
95.0353824948
 31
0.0
 70
   160
 71
     5
 42
-1.0
 73
     0
 74
     0
 75
     0
  3
DIMSTYLE_3
100
AcDbAlignedDimension
 13
1700.470394831
 23
59.3139376666
 33
0.0
 14
1703.000696526
 24
131.6139376666
 34
0.0
 50
90.0
100
AcDbRotatedDimension
  0
LINE
  5
5CF
330
1B
100
AcDbEntity
 67
     1
  8
0
  6
Continuous
 62
     2
100
AcDbLine
 10
1854.5469980372
 20
78.4325494004
 30
0.0
 11
1984.5469980372
 21
78.4325494004
 31
0.0
  0
LINE
  5
5D0
330
1B
100
AcDbEntity
 67
     1
  8
0
  6
Continuous
 62
     2
100
AcDbLine
 10
1854.5469980372
 20
78.4325494004
 30
0.0
 11
1854.5469980372
 21
12.4325494004
 31
0.0
  0
LINE
  5
5D1
330
1B
100
AcDbEntity
 67
     1
  8
0
  6
Continuous
 62
     2
100
AcDbLine
 10
1884.5469980372
 20
70.4325494004
 30
0.0
 11
1984.5469980372
 21
70.4325494004
 31
0.0
  0
LINE
  5
5D2
330
1B
100
AcDbEntity
 67
     1
  8
0
  6
Continuous
 62
     2
100
AcDbLine
 10
1854.5469980372
 20
62.4325494004
 30
0.0
 11
1984.5469980372
 21
62.4325494004
 31
0.0
  0
LINE
  5
5D3
330
1B
100
AcDbEntity
 67
     1
  8
0
  6
Continuous
 62
     2
100
AcDbLine
 10
1884.5469980372
 20
56.4325494004
 30
0.0
 11
1984.5469980372
 21
56.4325494004
 31
0.0
  0
LINE
  5
5D4
330
1B
100
AcDbEntity
 67
     1
  8
0
  6
Continuous
 62
     2
100
AcDbLine
 10
1884.5469980372
 20
50.4325494004
 30
0.0
 11
1984.5469980372
 21
50.4325494004
 31
0.0
  0
LINE
  5
5D5
330
1B
100
AcDbEntity
 67
     1
  8
0
  6
Continuous
 62
     2
100
AcDbLine
 10
1884.5469980372
 20
44.4325494004
 30
0.0
 11
1984.5469980372
 21
44.4325494004
 31
0.0
  0
LINE
  5
5D6
330
1B
100
AcDbEntity
 67
     1
  8
0
  6
Continuous
 62
     2
100
AcDbLine
 10
1884.5469980372
 20
38.4325494004
 30
0.0
 11
1984.5469980372
 21
38.4325494004
 31
0.0
  0
LINE
  5
5D7
330
1B
100
AcDbEntity
 67
     1
  8
0
  6
Continuous
 62
     2
100
AcDbLine
 10
1884.5469980372
 20
32.4325494004
 30
0.0
 11
1984.5469980372
 21
32.4325494004
 31
0.0
  0
LINE
  5
5D8
330
1B
100
AcDbEntity
 67
     1
  8
0
  6
Continuous
 62
     2
100
AcDbLine
 10
1854.5469980372
 20
26.4325494004
 30
0.0
 11
1984.5469980372
 21
26.4325494004
 31
0.0
  0
LINE
  5
5D9
330
1B
100
AcDbEntity
 67
     1
  8
0
  6
Continuous
 62
     2
100
AcDbLine
 10
1854.5469980372
 20
20.4325494004
 30
0.0
 11
1984.5469980372
 21
20.4325494004
 31
0.0
  0
LINE
  5
5DA
330
1B
100
AcDbEntity
 67
     1
  8
0
  6
Continuous
 62
     2
100
AcDbLine
 10
1854.5469980372
 20
16.4325494004
 30
0.0
 11
1984.5469980372
 21
16.4325494004
 31
0.0
  0
LINE
  5
5DB
330
1B
100
AcDbEntity
 67
     1
  8
0
  6
Continuous
 62
     2
100
AcDbLine
 10
1854.5469980372
 20
12.4325494004
 30
0.0
 11
1984.5469980372
 21
12.4325494004
 31
0.0
  0
LINE
  5
5DC
330
1B
100
AcDbEntity
 67
     1
  8
0
  6
Continuous
 62
     2
100
AcDbLine
 10
1884.5469980372
 20
78.4325494004
 30
0.0
 11
1884.5469980372
 21
20.4325494004
 31
0.0
  0
LINE
  5
5DD
330
1B
100
AcDbEntity
 67
     1
  8
0
  6
Continuous
 62
     2
100
AcDbLine
 10
1904.5469980372
 20
62.4325494004
 30
0.0
 11
1904.5469980372
 21
56.4325494004
 31
0.0
  0
LINE
  5
5DE
330
1B
100
AcDbEntity
 67
     1
  8
0
  6
Continuous
 62
     2
100
AcDbLine
 10
1934.5469980372
 20
32.4325494004
 30
0.0
 11
1934.5469980372
 21
20.4325494004
 31
0.0
  0
LINE
  5
5DF
330
1B
100
AcDbEntity
 67
     1
  8
0
  6
Continuous
 62
     2
100
AcDbLine
 10
1944.5469980372
 20
62.4325494004
 30
0.0
 11
1944.5469980372
 21
56.4325494004
 31
0.0
  0
LINE
  5
5E0
330
1B
100
AcDbEntity
 67
     1
  8
0
  6
Continuous
 62
     2
100
AcDbLine
 10
1944.5469980372
 20
50.4325494004
 30
0.0
 11
1944.5469980372
 21
44.4325494004
 31
0.0
  0
LINE
  5
5E1
330
1B
100
AcDbEntity
 67
     1
  8
0
  6
Continuous
 62
     2
100
AcDbLine
 10
1964.5469980372
 20
62.4325494004
 30
0.0
 11
1964.5469980372
 21
56.4325494004
 31
0.0
  0
LINE
  5
5E2
330
1B
100
AcDbEntity
 67
     1
  8
0
  6
Continuous
 62
     2
100
AcDbLine
 10
1974.5469980372
 20
50.4325494004
 30
0.0
 11
1974.5469980372
 21
44.4325494004
 31
0.0
  0
LINE
  5
5E3
330
1B
100
AcDbEntity
 67
     1
  8
0
  6
Continuous
 62
     2
100
AcDbLine
 10
1984.5469980372
 20
78.4325494004
 30
0.0
 11
1984.5469980372
 21
12.4325494004
 31
0.0
  0
INSERT
  5
5E4
330
1B
100
AcDbEntity
 67
     1
  8
0
  6
Continuous
 62
     2
100
AcDbBlockReference
  2
PROIEZIONE_EU_BL0
 10
1869.5469980372
 20
70.0575494004
 30
0.0
  0
MTEXT
  5
5E5
330
1B
100
AcDbEntity
 67
     1
  8
9_SOLID
  6
Continuous
 62
     2
100
AcDbMText
 10
1886.0344980372
 20
76.8075494004
 30
0.0
 40
1.9
 41
142.3642857143
 46
0.0
 71
     1
 72
     1
  1
EN: Chamfer/radii unlisted 0.3x45°. Remove sharp edges.\PGen. tol.: hole H11, shaft h11, lenght Js12. UNI EN 22768 Medium Grande.
 73
     1
 44
1.0
  0
MTEXT
  5
5E6
330
1B
100
AcDbEntity
 67
     1
  8
9_SOLID
  6
Continuous
 62
     2
100
AcDbMText
 10
1886.0344980372
 20
68.8075494004
 30
0.0
 40
1.9
 41
148.2678571429
 46
0.0
 71
     1
 72
     1
  1
IT: Sm./rac. non quotati 0.3x45°. Eliminare spigoli taglienti.\PToll. gen.: foro H11, albero h11, lunghezza Js12. UNI EN 22768 Grado Medio.
 73
     1
 44
1.0
  0
INSERT
  5
5E7
330
1B
100
AcDbEntity
 67
     1
  8
0
  6
Continuous
 62
     2
100
AcDbBlockReference
  2
LOGO2_BL1
 10
1868.373045082
 20
44.4325494004
 30
0.0
  0
MTEXT
  5
5E8
330
1B
100
AcDbEntity
 67
     1
  8
9_SOLID
  6
Continuous
 62
     2
100
AcDbMText
 10
1886.0344980372
 20
60.6825494004
 30
0.0
 40
3.0
 41
22.0714285714
 46
0.0
 71
     1
 72
     1
  1
Pj: 570
 73
     1
 44
1.0
  0
MTEXT
  5
5E9
330
1B
100
AcDbEntity
 67
     1
  8
0
  6
Continuous
 62
     2
100
AcDbMText
 10
1906.0344980372
 20
60.6825494004
 30
0.0
 40
3.0
 41
41.5714285714
 46
0.0
 71
     1
 72
     1
  1
% Check:  %
 73
     1
 44
1.0
  0
MTEXT
  5
5EA
330
1B
100
AcDbEntity
 67
     1
  8
9_SOLID
  6
Continuous
 62
     2
100
AcDbMText
 10
1946.0344980372
 20
60.6825494004
 30
0.0
 40
3.0
 41
19.5
 46
0.0
 71
     1
 72
     1
  1
Rev:00
 73
     1
 44
1.0
  0
MTEXT
  5
5EB
330
1B
100
AcDbEntity
 67
     1
  8
9_SOLID
  6
Continuous
 62
     2
100
AcDbMText
 10
1966.0344980372
 20
60.9325494004
 30
0.0
 40
3.0
 41
19.7142857143
 46
0.0
 71
     1
 72
     1
  1
Ver: A
 73
     1
 44
1.0
  0
MTEXT
  5
5EC
330
1B
100
AcDbEntity
 67
     1
  8
9_SOLID
  6
Continuous
 62
     2
100
AcDbMText
 10
1886.0344980372
 20
54.6825494004
 30
0.0
 40
3.0
 41
74.0357142857
 46
0.0
 71
     1
 72
     1
  1
Neutral code: 570_C_352
 73
     1
 44
1.0
  0
MTEXT
  5
5ED
330
1B
100
AcDbEntity
 67
     1
  8
0
  6
Continuous
 62
     2
100
AcDbMText
 10
1886.0344980372
 20
48.6825494004
 30
0.0
 40
3.0
 41
22.9285714286
 46
0.0
 71
     1
 72
     1
  1
Code:  
 73
     1
 44
1.0
  0
MTEXT
  5
5EE
330
1B
100
AcDbEntity
 67
     1
  8
9_SOLID
  6
Continuous
 62
     2
100
AcDbMText
 10
1946.0344980372
 20
48.9325494004
 30
0.0
 40
3.0
 41
27.8571428571
 46
0.0
 71
     1
 72
     1
  1
Scale: 1:1
 73
     1
 44
1.0
  0
MTEXT
  5
5EF
330
1B
100
AcDbEntity
 67
     1
  8
9_SOLID
  6
Continuous
 62
     2
100
AcDbMText
 10
1979.5469980372
 20
48.9325494004
 30
0.0
 40
3.0
 41
37.7142857143
 46
0.0
 71
     2
 72
     1
  1
2000 by 841
 73
     1
 44
1.0
  0
MTEXT
  5
5F0
330
1B
100
AcDbEntity
 67
     1
  8
9_SOLID
  6
Continuous
 62
     2
100
AcDbMText
 10
1886.0344980372
 20
42.6825494004
 30
0.0
 40
2.5
 41
136.3392857143
 46
0.0
 71
     1
 72
     1
  1
It descr.: CASS. RIO1.3 mm.1514,5 ALL PER CARTONGE
 73
     1
 44
1.0
  0
MTEXT
  5
5F1
330
1B
100
AcDbEntity
 67
     1
  8
0
  6
Continuous
 62
     2
100
AcDbMText
 10
1886.0344980372
 20
36.9325494004
 30
0.0
 40
3.0
 41
37.5
 46
0.0
 71
     1
 72
     1
  1
En descr.:  
 73
     1
 44
1.0
  0
MTEXT
  5
5F2
330
1B
100
AcDbEntity
 67
     1
  8
9_SOLID
  6
Continuous
 62
     2
100
AcDbMText
 10
1886.0344980372
 20
30.9325494004
 30
0.0
 40
3.0
 41
31.2857142857
 46
0.0
 71
     1
 72
     1
  1
Des.: A.F.
 73
     1
 44
1.0
  0
MTEXT
  5
5F3
330
1B
100
AcDbEntity
 67
     1
  8
9_SOLID
  6
Continuous
 62
     2
100
AcDbMText
 10
1936.0344980372
 20
30.9325494004
 30
0.0
 40
3.0
 41
22.2857142857
 46
0.0
 71
     1
 72
     1
  1
Check: 
 73
     1
 44
1.0
  0
MTEXT
  5
5F4
330
1B
100
AcDbEntity
 67
     1
  8
9_SOLID
  6
Continuous
 62
     2
100
AcDbMText
 10
1856.0344980372
 20
24.9325494004
 30
0.0
 40
3.0
 41
42.5357142857
 46
0.0
 71
     1
 72
     1
  1
Date: 12.12.18
 73
     1
 44
1.0
  0
MTEXT
  5
5F5
330
1B
100
AcDbEntity
 67
     1
  8
0
  6
Continuous
 62
     2
100
AcDbMText
 10
1886.0344980372
 20
24.9325494004
 30
0.0
 40
3.0
 41
21.75
 46
0.0
 71
     1
 72
     1
  1
Mat.:  
 73
     1
 44
1.0
  0
MTEXT
  5
5F6
330
1B
100
AcDbEntity
 67
     1
  8
9_SOLID
  6
Continuous
 62
     2
100
AcDbMText
 10
1936.0344980372
 20
24.4325494004
 30
0.0
 40
2.0
 41
42.3571428571
 46
0.0
 71
     1
 72
     1
  1
Disegno per catalogo
 73
     1
 44
1.0
  0
MTEXT
  5
5F7
330
1B
100
AcDbEntity
 67
     1
  8
9_SOLID
  6
Continuous
 62
     2
100
AcDbMText
 10
1856.0344980372
 20
19.3325494004
 30
0.0
 40
1.8
 41
176.2071428571
 46
0.0
 71
     1
 72
     1
  1
It: A norma di legge si diffida da qualsiasi riproduzione senza nostra autorizzazione esplicita.
 73
     1
 44
1.0
  0
MTEXT
  5
5F8
330
1B
100
AcDbEntity
 67
     1
  8
9_SOLID
  6
Continuous
 62
     2
100
AcDbMText
 10
1856.0344980372
 20
15.3325494004
 30
0.0
 40
1.8
 41
158.1428571429
 46
0.0
 71
     1
 72
     1
  1
En: According to the law, beware of any reproduction made without our authorization.
 73
     1
 44
1.0
  0
ENDSEC
  0
SECTION
  2
OBJECTS
  0
DICTIONARY
  5
5F9
330
0
100
AcDbDictionary
281
     1
  3
ACAD_DETAILVIEWSTYLE
350
64F
  3
ACAD_GROUP
350
5FA
  3
ACAD_LAYOUT
350
622
  3
ACAD_MATERIAL
350
63E
  3
ACAD_MLEADERSTYLE
350
644
  3
ACAD_MLINESTYLE
350
5FB
  3
ACAD_PLOTSETTINGS
350
5FD
  3
ACAD_PLOTSTYLENAME
350
5FE
  3
ACAD_SCALELIST
350
600
  3
ACAD_SECTIONVIEWSTYLE
350
650
  3
ACAD_TABLESTYLE
350
642
  3
ACAD_VISUALSTYLE
350
625
  3
ACDB_RECOMPOSE_DATA
350
64B
  3
AcDbVariableDictionary
350
647
  3
APPDATA
350
646
  0
DICTIONARY
  5
64F
102
{ACAD_REACTORS
330
5F9
102
}
330
5F9
100
AcDbDictionary
281
     1
  0
DICTIONARY
  5
5FA
102
{ACAD_REACTORS
330
5F9
102
}
330
5F9
100
AcDbDictionary
281
     1
  0
DICTIONARY
  5
622
102
{ACAD_REACTORS
330
5F9
102
}
330
5F9
100
AcDbDictionary
281
     1
  3
Foglio 1
350
624
  3
Model
350
623
  0
DICTIONARY
  5
63E
102
{ACAD_REACTORS
330
5F9
102
}
330
5F9
100
AcDbDictionary
281
     1
  3
ByBlock
350
640
  3
ByLayer
350
63F
  3
Global
350
641
  0
DICTIONARY
  5
644
102
{ACAD_REACTORS
330
5F9
102
}
330
5F9
100
AcDbDictionary
281
     1
  3
Standard
350
645
  0
DICTIONARY
  5
5FB
102
{ACAD_REACTORS
330
5F9
102
}
330
5F9
100
AcDbDictionary
281
     1
  3
STANDARD
350
5FC
  0
DICTIONARY
  5
5FD
102
{ACAD_REACTORS
330
5F9
102
}
330
5F9
100
AcDbDictionary
281
     1
  0
ACDBDICTIONARYWDFLT
  5
5FE
102
{ACAD_REACTORS
330
5F9
102
}
330
5F9
100
AcDbDictionary
281
     1
  3
Normal
350
5FF
100
AcDbDictionaryWithDefault
340
5FF
  0
DICTIONARY
  5
600
102
{ACAD_REACTORS
330
5F9
102
}
330
5F9
100
AcDbDictionary
281
     1
  3
A0
350
601
  3
A1
350
602
  3
A2
350
603
  3
A3
350
604
  3
A4
350
605
  3
A5
350
606
  3
A6
350
607
  3
A7
350
608
  3
A8
350
609
  3
A9
350
60A
  3
B0
350
60B
  3
B1
350
60C
  3
B2
350
60D
  3
B3
350
60E
  3
B4
350
60F
  3
B5
350
610
  3
B6
350
611
  3
B7
350
612
  3
B8
350
613
  3
B9
350
614
  3
C0
350
615
  3
C1
350
616
  3
C2
350
617
  3
C3
350
618
  3
C4
350
619
  3
C5
350
61A
  3
C6
350
61B
  3
C7
350
61C
  3
C8
350
61D
  3
C9
350
61E
  3
D0
350
61F
  3
D1
350
620
  3
D2
350
621
  0
DICTIONARY
  5
650
102
{ACAD_REACTORS
330
5F9
102
}
330
5F9
100
AcDbDictionary
281
     1
  0
DICTIONARY
  5
642
102
{ACAD_REACTORS
330
5F9
102
}
330
5F9
100
AcDbDictionary
281
     1
  3
Standard
350
643
  0
DICTIONARY
  5
625
102
{ACAD_REACTORS
330
5F9
102
}
330
5F9
100
AcDbDictionary
281
     1
  3
2dWireframe
350
62A
  3
Basic
350
62D
  3
Brighten
350
631
  3
ColorChange
350
635
  3
Conceptual
350
62F
  3
Dim
350
630
  3
EdgeColorOff
350
638
  3
Facepattern
350
634
  3
Flat
350
626
  3
FlatWithEdges
350
627
  3
Gouraud
350
628
  3
GouraudWithEdges
350
629
  3
Hidden
350
62C
  3
JitterOff
350
636
  3
Linepattern
350
633
  3
OverhangOff
350
637
  3
Realistic
350
62E
  3
Shaded
350
63D
  3
Shaded with edges
350
63C
  3
Shades of Gray
350
639
  3
Sketchy
350
63A
  3
Thicken
350
632
  3
Wireframe
350
62B
  3
X-Ray
350
63B
  0
XRECORD
  5
64B
102
{ACAD_REACTORS
330
5F9
102
}
330
5F9
100
AcDbXrecord
280
     1
 90
        1
330
643
  0
DICTIONARY
  5
647
102
{ACAD_REACTORS
330
5F9
102
}
330
5F9
100
AcDbDictionary
281
     1
  3
CANNOSCALE
350
648
  3
CMLEADERSTYLE
350
64D
  3
CTABLESTYLE
350
64C
  3
MSLTSCALE
350
64E
  0
DICTIONARY
  5
646
102
{ACAD_REACTORS
330
5F9
102
}
330
5F9
100
AcDbDictionary
281
     1
  0
LAYOUT
  5
624
102
{ACAD_REACTORS
330
622
102
}
330
622
100
AcDbPlotSettings
  1

  2
none_device
  4
ISO_A3_(420.00_x_297.00_MM)
  6

 40
7.5
 41
20.0
 42
7.5
 43
20.0
 44
420.0
 45
297.0
 46
0.0
 47
0.0
 48
0.0
 49
0.0
140
0.0
141
0.0
142
1.0
143
4.938271604938271
 70
   688
 72
     1
 73
     0
 74
     1
  7

 75
     0
 76
     0
 77
     2
 78
   300
147
0.2025
148
0.0
149
0.0
100
AcDbLayout
  1
Foglio 1
 70
     1
 71
     1
 10
0.0
 20
0.0
 11
412.5
 21
277.0
 12
0.0
 22
0.0
 32
0.0
 14
0.0
 24
0.0
 34
0.0
 15
2000.0
 25
841.0
 35
0.0
146
0.0
 13
0.0
 23
0.0
 33
0.0
 16
1.0
 26
0.0
 36
0.0
 17
0.0
 27
1.0
 37
0.0
 76
     0
330
1B
331
2A1
  0
LAYOUT
  5
623
102
{ACAD_REACTORS
330
622
102
}
330
622
100
AcDbPlotSettings
  1

  2
none_device
  4
Letter_(8.50_x_11.00_Inches)
  6

 40
6.35
 41
6.35
 42
6.35
 43
6.35
 44
215.9
 45
279.4
 46
0.0
 47
0.0
 48
0.0
 49
0.0
140
0.0
141
0.0
142
1.0
143
250.000000001525
 70
  1712
 72
     0
 73
     0
 74
     0
  7

 75
     0
 76
     0
 77
     2
 78
   300
147
0.0039999999999756
148
0.0000001549424042
149
0.0
100
AcDbLayout
  1
Model
 70
     1
 71
     0
 10
0.0
 20
0.0
 11
2000.0
 21
841.0
 12
0.0
 22
0.0
 32
0.0
 14
0.0
 24
0.0
 34
0.0
 15
2000.0
 25
841.0
 35
0.0
146
0.0
 13
0.0
 23
0.0
 33
0.0
 16
1.0
 26
0.0
 36
0.0
 17
0.0
 27
1.0
 37
0.0
 76
     0
330
1F
331
1F4
  0
MATERIAL
  5
640
102
{ACAD_REACTORS
330
63E
102
}
330
63E
100
AcDbMaterial
  1
ByBlock
 72
     1
 94
      127
  0
MATERIAL
  5
63F
102
{ACAD_REACTORS
330
63E
102
}
330
63E
100
AcDbMaterial
  1
ByLayer
 72
     1
 94
      127
  0
MATERIAL
  5
641
102
{ACAD_REACTORS
330
63E
102
}
330
63E
100
AcDbMaterial
  1
Global
 72
     1
 94
      127
  0
MLEADERSTYLE
  5
645
102
{ACAD_REACTORS
330
644
102
}
330
644
100
AcDbMLeaderStyle
179
     2
170
     2
171
     1
172
     0
 90
        2
 40
0.0
 41
0.0
173
     1
 91
-1056964608
340
14
 92
       -2
290
     1
 42
2.0
291
     1
 43
8.0
  3
Standard
341
0
 44
4.0
300

342
11
174
     1
178
     1
175
     1
176
     0
 93
-1056964608
 45
4.0
292
     0
297
     0
 46
4.0
343
0
 94
-1056964608
 47
1.0
 49
1.0
140
1.0
293
     1
141
0.0
294
     1
177
     0
142
1.0
295
     0
296
     0
143
3.75
271
     0
272
     9
273
     9
298
     0
  0
MLINESTYLE
  5
5FC
102
{ACAD_REACTORS
330
5FB
102
}
330
5FB
100
AcDbMlineStyle
  2
STANDARD
 70
     0
  3

 62
   256
 51
90.0
 52
90.0
 71
     2
 49
0.5
 62
   256
  6
BYLAYER
 49
-0.5
 62
   256
  6
BYLAYER
  0
ACDBPLACEHOLDER
  5
5FF
102
{ACAD_REACTORS
330
5FE
102
}
330
5FE
  0
SCALE
  5
601
102
{ACAD_REACTORS
330
600
102
}
330
600
100
AcDbScale
 70
     0
300
1:1
140
1.0
141
1.0
290
     1
  0
SCALE
  5
602
102
{ACAD_REACTORS
330
600
102
}
330
600
100
AcDbScale
 70
     0
300
1:2
140
1.0
141
2.0
290
     0
  0
SCALE
  5
603
102
{ACAD_REACTORS
330
600
102
}
330
600
100
AcDbScale
 70
     0
300
1:4
140
1.0
141
4.0
290
     0
  0
SCALE
  5
604
102
{ACAD_REACTORS
330
600
102
}
330
600
100
AcDbScale
 70
     0
300
1:5
140
1.0
141
5.0
290
     0
  0
SCALE
  5
605
102
{ACAD_REACTORS
330
600
102
}
330
600
100
AcDbScale
 70
     0
300
1:8
140
1.0
141
8.0
290
     0
  0
SCALE
  5
606
102
{ACAD_REACTORS
330
600
102
}
330
600
100
AcDbScale
 70
     0
300
1:10
140
1.0
141
10.0
290
     0
  0
SCALE
  5
607
102
{ACAD_REACTORS
330
600
102
}
330
600
100
AcDbScale
 70
     0
300
1:16
140
1.0
141
16.0
290
     0
  0
SCALE
  5
608
102
{ACAD_REACTORS
330
600
102
}
330
600
100
AcDbScale
 70
     0
300
1:20
140
1.0
141
20.0
290
     0
  0
SCALE
  5
609
102
{ACAD_REACTORS
330
600
102
}
330
600
100
AcDbScale
 70
     0
300
1:30
140
1.0
141
30.0
290
     0
  0
SCALE
  5
60A
102
{ACAD_REACTORS
330
600
102
}
330
600
100
AcDbScale
 70
     0
300
1:40
140
1.0
141
40.0
290
     0
  0
SCALE
  5
60B
102
{ACAD_REACTORS
330
600
102
}
330
600
100
AcDbScale
 70
     0
300
1:50
140
1.0
141
50.0
290
     0
  0
SCALE
  5
60C
102
{ACAD_REACTORS
330
600
102
}
330
600
100
AcDbScale
 70
     0
300
1:100
140
1.0
141
100.0
290
     0
  0
SCALE
  5
60D
102
{ACAD_REACTORS
330
600
102
}
330
600
100
AcDbScale
 70
     0
300
2:1
140
2.0
141
1.0
290
     0
  0
SCALE
  5
60E
102
{ACAD_REACTORS
330
600
102
}
330
600
100
AcDbScale
 70
     0
300
4:1
140
4.0
141
1.0
290
     0
  0
SCALE
  5
60F
102
{ACAD_REACTORS
330
600
102
}
330
600
100
AcDbScale
 70
     0
300
8:1
140
8.0
141
1.0
290
     0
  0
SCALE
  5
610
102
{ACAD_REACTORS
330
600
102
}
330
600
100
AcDbScale
 70
     0
300
10:1
140
10.0
141
1.0
290
     0
  0
SCALE
  5
611
102
{ACAD_REACTORS
330
600
102
}
330
600
100
AcDbScale
 70
     0
300
100:1
140
100.0
141
1.0
290
     0
  0
SCALE
  5
612
102
{ACAD_REACTORS
330
600
102
}
330
600
100
AcDbScale
 70
     0
300
1/128" = 1'-0"
140
0.0078125
141
12.0
290
     0
  0
SCALE
  5
613
102
{ACAD_REACTORS
330
600
102
}
330
600
100
AcDbScale
 70
     0
300
1/64" = 1'-0"
140
0.015625
141
12.0
290
     0
  0
SCALE
  5
614
102
{ACAD_REACTORS
330
600
102
}
330
600
100
AcDbScale
 70
     0
300
1/32" = 1'-0"
140
0.03125
141
12.0
290
     0
  0
SCALE
  5
615
102
{ACAD_REACTORS
330
600
102
}
330
600
100
AcDbScale
 70
     0
300
1/16" = 1'-0"
140
0.0625
141
12.0
290
     0
  0
SCALE
  5
616
102
{ACAD_REACTORS
330
600
102
}
330
600
100
AcDbScale
 70
     0
300
3/32" = 1'-0"
140
0.09375
141
12.0
290
     0
  0
SCALE
  5
617
102
{ACAD_REACTORS
330
600
102
}
330
600
100
AcDbScale
 70
     0
300
1/8" = 1'-0"
140
0.125
141
12.0
290
     0
  0
SCALE
  5
618
102
{ACAD_REACTORS
330
600
102
}
330
600
100
AcDbScale
 70
     0
300
3/16" = 1'-0"
140
0.1875
141
12.0
290
     0
  0
SCALE
  5
619
102
{ACAD_REACTORS
330
600
102
}
330
600
100
AcDbScale
 70
     0
300
1/4" = 1'-0"
140
0.25
141
12.0
290
     0
  0
SCALE
  5
61A
102
{ACAD_REACTORS
330
600
102
}
330
600
100
AcDbScale
 70
     0
300
3/8" = 1'-0"
140
0.375
141
12.0
290
     0
  0
SCALE
  5
61B
102
{ACAD_REACTORS
330
600
102
}
330
600
100
AcDbScale
 70
     0
300
1/2" = 1'-0"
140
0.5
141
12.0
290
     0
  0
SCALE
  5
61C
102
{ACAD_REACTORS
330
600
102
}
330
600
100
AcDbScale
 70
     0
300
3/4" = 1'-0"
140
0.75
141
12.0
290
     0
  0
SCALE
  5
61D
102
{ACAD_REACTORS
330
600
102
}
330
600
100
AcDbScale
 70
     0
300
1" = 1'-0"
140
1.0
141
12.0
290
     0
  0
SCALE
  5
61E
102
{ACAD_REACTORS
330
600
102
}
330
600
100
AcDbScale
 70
     0
300
1-1/2" = 1'-0"
140
1.5
141
12.0
290
     0
  0
SCALE
  5
61F
102
{ACAD_REACTORS
330
600
102
}
330
600
100
AcDbScale
 70
     0
300
3" = 1'-0"
140
3.0
141
12.0
290
     0
  0
SCALE
  5
620
102
{ACAD_REACTORS
330
600
102
}
330
600
100
AcDbScale
 70
     0
300
6" = 1'-0"
140
6.0
141
12.0
290
     0
  0
SCALE
  5
621
102
{ACAD_REACTORS
330
600
102
}
330
600
100
AcDbScale
 70
     0
300
1'-0" = 1'-0"
140
12.0
141
12.0
290
     0
  0
TABLESTYLE
  5
643
102
{ACAD_REACTORS
330
642
102
}
102
{ACAD_XDICTIONARY
360
649
102
}
330
642
100
AcDbTableStyle
  3
Standard
 70
     0
 71
     0
 40
0.06
 41
0.06
280
     0
281
     0
  7
STANDARD
140
4.5
170
     2
 62
     0
 63
   257
283
     0
 90
        4
 91
        0
  1

274
    -2
284
     1
 64
     0
275
    -2
285
     1
 65
     0
276
    -2
286
     1
 66
     0
277
    -2
287
     1
 67
     0
278
    -2
288
     1
 68
     0
279
    -2
289
     1
 69
     0
  7
STANDARD
140
6.0
170
     5
 62
     0
 63
   257
283
     0
 90
        4
 91
        0
  1

274
    -2
284
     1
 64
     0
275
    -2
285
     1
 65
     0
276
    -2
286
     1
 66
     0
277
    -2
287
     1
 67
     0
278
    -2
288
     1
 68
     0
279
    -2
289
     1
 69
     0
  7
STANDARD
140
4.5
170
     5
 62
     0
 63
   257
283
     0
 90
        4
 91
        0
  1

274
    -2
284
     1
 64
     0
275
    -2
285
     1
 65
     0
276
    -2
286
     1
 66
     0
277
    -2
287
     1
 67
     0
278
    -2
288
     1
 68
     0
279
    -2
289
     1
 69
     0
  0
VISUALSTYLE
  5
62A
102
{ACAD_REACTORS
330
625
102
}
330
625
100
AcDbVisualStyle
  2
2dWireframe
 70
     4
177
     3
291
     0
 70
    58
 90
        0
176
     1
 90
        2
176
     1
 90
        0
176
     1
 90
        0
176
     1
 40
0.6
176
     1
 40
30.0
176
     1
 62
     7
420
 16777215
176
     1
 90
        1
176
     1
 90
        4
176
     1
 62
     7
176
     1
 62
   257
176
     1
 90
        1
176
     1
 90
        1
176
     1
 40
1.0
176
     1
 90
        0
176
     1
 62
   257
176
     1
 40
1.0
176
     1
 90
        1
176
     1
 90
        6
176
     1
 90
        2
176
     1
 62
     7
176
     1
 90
        5
176
     1
 90
        0
176
     1
 90
        0
176
     1
290
     0
176
     1
 90
        1
176
     1
 40
0.0
176
     1
 90
        0
176
     1
290
     1
176
     1
290
     1
176
     1
290
     0
176
     1
290
     0
176
     1
290
     0
176
     1
290
     0
176
     1
290
     0
176
     1
290
     0
176
     1
290
     0
176
     1
 90
       50
176
     1
 40
0.0
176
     1
 40
1.0
176
     1
 90
        0
176
     1
 62
    18
420
        0
176
     1
 90
       50
176
     1
 90
        3
176
     1
 62
     5
420
      255
176
     1
290
     0
176
     1
 90
       50
176
     1
 90
       50
176
     1
 90
       50
176
     1
290
     0
176
     1
 90
       50
176
     1
 62
   256
176
     0
 40
1.0
176
     0
 90
        2
176
     1
  1
strokes_ogs.tif
176
     1
290
     0
176
     1
 40
1.0
176
     1
 40
1.0
176
     1
  0
VISUALSTYLE
  5
62D
102
{ACAD_REACTORS
330
625
102
}
330
625
100
AcDbVisualStyle
  2
Basic
 70
     7
177
     3
291
     1
 70
    58
 90
        1
176
     1
 90
        0
176
     1
 90
        1
176
     1
 90
        0
176
     1
 40
0.6
176
     1
 40
30.0
176
     1
 62
     7
420
 16777215
176
     1
 90
        0
176
     1
 90
        4
176
     1
 62
     7
176
     1
 62
   257
176
     1
 90
        1
176
     1
 90
        1
176
     1
 40
1.0
176
     1
 90
        8
176
     1
 62
     7
176
     1
 40
1.0
176
     1
 90
        1
176
     1
 90
        6
176
     1
 90
        2
176
     1
 62
     7
176
     1
 90
        5
176
     1
 90
        0
176
     1
 90
        0
176
     1
290
     0
176
     1
 90
        1
176
     1
 40
0.0
176
     1
 90
        0
176
     1
290
     0
176
     1
290
     1
176
     1
290
     1
176
     1
290
     0
176
     1
290
     0
176
     1
290
     0
176
     1
290
     0
176
     1
290
     0
176
     1
290
     0
176
     1
 90
       50
176
     1
 40
0.0
176
     1
 40
1.0
176
     1
 90
        0
176
     1
 62
    18
420
        0
176
     1
 90
       50
176
     1
 90
        3
176
     1
 62
     5
420
      255
176
     1
290
     0
176
     1
 90
       50
176
     1
 90
       50
176
     1
 90
       50
176
     1
290
     0
176
     1
 90
       50
176
     1
 62
   256
176
     0
 40
1.0
176
     0
 90
        2
176
     1
  1
strokes_ogs.tif
176
     1
290
     0
176
     1
 40
1.0
176
     1
 40
1.0
176
     1
  0
VISUALSTYLE
  5
631
102
{ACAD_REACTORS
330
625
102
}
330
625
100
AcDbVisualStyle
  2
Brighten
 70
    12
177
     3
291
     1
 70
    58
 90
        2
176
     1
 90
        2
176
     1
 90
        0
176
     1
 90
        0
176
     1
 40
0.6
176
     1
 40
30.0
176
     1
 62
     7
420
 16777215
176
     1
 90
        1
176
     1
 90
        4
176
     1
 62
     7
176
     1
 62
   257
176
     1
 90
        1
176
     1
 90
        1
176
     1
 40
1.0
176
     1
 90
        8
176
     1
 62
     7
176
     1
 40
1.0
176
     1
 90
        1
176
     1
 90
        6
176
     1
 90
        2
176
     1
 62
     7
176
     1
 90
        5
176
     1
 90
        0
176
     1
 90
        0
176
     1
290
     0
176
     1
 90
        1
176
     1
 40
50.0
176
     1
 90
        0
176
     1
290
     0
176
     1
290
     1
176
     1
290
     1
176
     1
290
     0
176
     1
290
     0
176
     1
290
     0
176
     1
290
     0
176
     1
290
     0
176
     1
290
     0
176
     1
 90
       50
176
     1
 40
0.0
176
     1
 40
1.0
176
     1
 90
        0
176
     1
 62
    18
420
        0
176
     1
 90
       50
176
     1
 90
        3
176
     1
 62
     5
420
      255
176
     1
290
     0
176
     1
 90
       50
176
     1
 90
       50
176
     1
 90
       50
176
     1
290
     0
176
     1
 90
       50
176
     1
 62
   256
176
     0
 40
1.0
176
     0
 90
        2
176
     1
  1
strokes_ogs.tif
176
     1
290
     0
176
     1
 40
1.0
176
     1
 40
1.0
176
     1
  0
VISUALSTYLE
  5
635
102
{ACAD_REACTORS
330
625
102
}
330
625
100
AcDbVisualStyle
  2
ColorChange
 70
    16
177
     3
291
     1
 70
    58
 90
        2
176
     1
 90
        2
176
     1
 90
        3
176
     1
 90
        0
176
     1
 40
0.6
176
     1
 40
30.0
176
     1
 62
     8
420
  8421504
176
     1
 90
        1
176
     1
 90
        4
176
     1
 62
     7
176
     1
 62
   257
176
     1
 90
        1
176
     1
 90
        1
176
     1
 40
1.0
176
     1
 90
        8
176
     1
 62
     8
420
  8421504
176
     1
 40
1.0
176
     1
 90
        1
176
     1
 90
        6
176
     1
 90
        2
176
     1
 62
     7
176
     1
 90
        5
176
     1
 90
        0
176
     1
 90
        0
176
     1
290
     0
176
     1
 90
        1
176
     1
 40
0.0
176
     1
 90
        0
176
     1
290
     0
176
     1
290
     1
176
     1
290
     1
176
     1
290
     0
176
     1
290
     0
176
     1
290
     0
176
     1
290
     0
176
     1
290
     0
176
     1
290
     0
176
     1
 90
       50
176
     1
 40
0.0
176
     1
 40
1.0
176
     1
 90
        0
176
     1
 62
    18
420
        0
176
     1
 90
       50
176
     1
 90
        3
176
     1
 62
     5
420
      255
176
     1
290
     0
176
     1
 90
       50
176
     1
 90
       50
176
     1
 90
       50
176
     1
290
     0
176
     1
 90
       50
176
     1
 62
   256
176
     0
 40
1.0
176
     0
 90
        2
176
     1
  1
strokes_ogs.tif
176
     1
290
     0
176
     1
 40
1.0
176
     1
 40
1.0
176
     1
  0
VISUALSTYLE
  5
62F
102
{ACAD_REACTORS
330
625
102
}
330
625
100
AcDbVisualStyle
  2
Conceptual
 70
     9
177
     3
291
     0
 70
    58
 90
        3
176
     1
 90
        2
176
     1
 90
        0
176
     1
 90
        0
176
     1
 40
0.6
176
     1
 40
30.0
176
     1
 62
     7
420
 16777215
176
     1
 90
        2
176
     1
 90
        2
176
     1
 62
     7
176
     1
 62
   257
176
     1
 90
        1
176
     1
 90
        1
176
     1
 40
179.0
176
     1
 90
        8
176
     1
 62
     7
176
     1
 40
1.0
176
     1
 90
        1
176
     1
 90
        6
176
     1
 90
        2
176
     1
 62
     7
176
     1
 90
        3
176
     1
 90
        0
176
     1
 90
        0
176
     1
290
     0
176
     1
 90
        1
176
     1
 40
0.0
176
     1
 90
        0
176
     1
290
     0
176
     1
290
     1
176
     1
290
     1
176
     1
290
     0
176
     1
290
     0
176
     1
290
     0
176
     1
290
     0
176
     1
290
     0
176
     1
290
     0
176
     1
 90
       50
176
     1
 40
0.0
176
     1
 40
1.0
176
     1
 90
        0
176
     1
 62
    18
420
        0
176
     1
 90
       50
176
     1
 90
        3
176
     1
 62
     5
420
      255
176
     1
290
     0
176
     1
 90
       50
176
     1
 90
       50
176
     1
 90
       50
176
     1
290
     0
176
     1
 90
       50
176
     1
 62
   256
176
     0
 40
1.0
176
     0
 90
        2
176
     1
  1
strokes_ogs.tif
176
     1
290
     0
176
     1
 40
1.0
176
     1
 40
1.0
176
     1
  0
VISUALSTYLE
  5
630
102
{ACAD_REACTORS
330
625
102
}
330
625
100
AcDbVisualStyle
  2
Dim
 70
    11
177
     3
291
     1
 70
    58
 90
        2
176
     1
 90
        2
176
     1
 90
        0
176
     1
 90
        0
176
     1
 40
0.6
176
     1
 40
30.0
176
     1
 62
     7
420
 16777215
176
     1
 90
        1
176
     1
 90
        4
176
     1
 62
     7
176
     1
 62
   257
176
     1
 90
        1
176
     1
 90
        1
176
     1
 40
1.0
176
     1
 90
        8
176
     1
 62
     7
176
     1
 40
1.0
176
     1
 90
        1
176
     1
 90
        6
176
     1
 90
        2
176
     1
 62
     7
176
     1
 90
        5
176
     1
 90
        0
176
     1
 90
        0
176
     1
290
     0
176
     1
 90
        1
176
     1
 40
-50.0
176
     1
 90
        0
176
     1
290
     0
176
     1
290
     1
176
     1
290
     1
176
     1
290
     0
176
     1
290
     0
176
     1
290
     0
176
     1
290
     0
176
     1
290
     0
176
     1
290
     0
176
     1
 90
       50
176
     1
 40
0.0
176
     1
 40
1.0
176
     1
 90
        0
176
     1
 62
    18
420
        0
176
     1
 90
       50
176
     1
 90
        3
176
     1
 62
     5
420
      255
176
     1
290
     0
176
     1
 90
       50
176
     1
 90
       50
176
     1
 90
       50
176
     1
290
     0
176
     1
 90
       50
176
     1
 62
   256
176
     0
 40
1.0
176
     0
 90
        2
176
     1
  1
strokes_ogs.tif
176
     1
290
     0
176
     1
 40
1.0
176
     1
 40
1.0
176
     1
  0
VISUALSTYLE
  5
638
102
{ACAD_REACTORS
330
625
102
}
330
625
100
AcDbVisualStyle
  2
EdgeColorOff
 70
    22
177
     3
291
     1
 70
    58
 90
        2
176
     0
 90
        2
176
     0
 90
        0
176
     0
 90
        0
176
     0
 40
0.6
176
     0
 40
30.0
176
     0
 62
     7
420
 16777215
176
     0
 90
        1
176
     0
 90
        4
176
     0
 62
     7
176
     0
 62
   257
176
     0
 90
        1
176
     0
 90
        1
176
     0
 40
1.0
176
     0
 90
        8
176
     2
 62
     7
176
     0
 40
1.0
176
     0
 90
        1
176
     0
 90
        6
176
     0
 90
        2
176
     0
 62
     7
176
     0
 90
        5
176
     0
 90
        0
176
     0
 90
        0
176
     0
290
     0
176
     0
 90
        1
176
     0
 40
0.0
176
     0
 90
        0
176
     0
290
     0
176
     0
290
     1
176
     0
290
     1
176
     0
290
     0
176
     0
290
     0
176
     0
290
     0
176
     0
290
     0
176
     0
290
     0
176
     0
290
     0
176
     0
 90
       50
176
     0
 40
0.0
176
     0
 40
1.0
176
     0
 90
        0
176
     0
 62
    18
420
        0
176
     0
 90
       50
176
     0
 90
        3
176
     0
 62
     5
420
      255
176
     0
290
     0
176
     0
 90
       50
176
     0
 90
       50
176
     0
 90
       50
176
     0
290
     0
176
     0
 90
       50
176
     0
 62
   256
176
     0
 40
1.0
176
     0
 90
        2
176
     0
  1
strokes_ogs.tif
176
     0
290
     0
176
     0
 40
1.0
176
     0
 40
1.0
176
     0
  0
VISUALSTYLE
  5
634
102
{ACAD_REACTORS
330
625
102
}
330
625
100
AcDbVisualStyle
  2
Facepattern
 70
    15
177
     3
291
     1
 70
    58
 90
        2
176
     1
 90
        2
176
     1
 90
        0
176
     1
 90
        0
176
     1
 40
0.6
176
     1
 40
30.0
176
     1
 62
     7
420
 16777215
176
     1
 90
        1
176
     1
 90
        4
176
     1
 62
     7
176
     1
 62
   257
176
     1
 90
        1
176
     1
 90
        1
176
     1
 40
1.0
176
     1
 90
        8
176
     1
 62
     7
176
     1
 40
1.0
176
     1
 90
        1
176
     1
 90
        6
176
     1
 90
        2
176
     1
 62
     7
176
     1
 90
        5
176
     1
 90
        0
176
     1
 90
        0
176
     1
290
     0
176
     1
 90
        1
176
     1
 40
0.0
176
     1
 90
        0
176
     1
290
     0
176
     1
290
     1
176
     1
290
     1
176
     1
290
     0
176
     1
290
     0
176
     1
290
     0
176
     1
290
     0
176
     1
290
     0
176
     1
290
     0
176
     1
 90
       50
176
     1
 40
0.0
176
     1
 40
1.0
176
     1
 90
        0
176
     1
 62
    18
420
        0
176
     1
 90
       50
176
     1
 90
        3
176
     1
 62
     5
420
      255
176
     1
290
     0
176
     1
 90
       50
176
     1
 90
       50
176
     1
 90
       50
176
     1
290
     0
176
     1
 90
       50
176
     1
 62
   256
176
     0
 40
1.0
176
     0
 90
        2
176
     1
  1
strokes_ogs.tif
176
     1
290
     0
176
     1
 40
1.0
176
     1
 40
1.0
176
     1
  0
VISUALSTYLE
  5
626
102
{ACAD_REACTORS
330
625
102
}
330
625
100
AcDbVisualStyle
  2
Flat
 70
     0
177
     3
291
     1
 70
    58
 90
        2
176
     1
 90
        1
176
     1
 90
        1
176
     1
 90
        2
176
     1
 40
0.6
176
     1
 40
30.0
176
     1
 62
     7
420
 16777215
176
     1
 90
        0
176
     1
 90
        0
176
     1
 62
     7
176
     1
 62
   257
176
     1
 90
        1
176
     1
 90
        1
176
     1
 40
1.0
176
     1
 90
        8
176
     1
 62
     7
176
     1
 40
1.0
176
     1
 90
        1
176
     1
 90
        6
176
     1
 90
        2
176
     1
 62
     7
176
     1
 90
        5
176
     1
 90
        0
176
     1
 90
        0
176
     1
290
     0
176
     1
 90
       13
176
     1
 40
0.0
176
     1
 90
        0
176
     1
290
     0
176
     1
290
     1
176
     1
290
     1
176
     1
290
     0
176
     1
290
     0
176
     1
290
     0
176
     1
290
     0
176
     1
290
     0
176
     1
290
     0
176
     1
 90
       50
176
     1
 40
0.0
176
     1
 40
1.0
176
     1
 90
        0
176
     1
 62
    18
420
        0
176
     1
 90
       50
176
     1
 90
        3
176
     1
 62
     5
420
      255
176
     1
290
     0
176
     1
 90
       50
176
     1
 90
       50
176
     1
 90
       50
176
     1
290
     0
176
     1
 90
       50
176
     1
 62
   256
176
     0
 40
1.0
176
     0
 90
        2
176
     1
  1
strokes_ogs.tif
176
     1
290
     0
176
     1
 40
1.0
176
     1
 40
1.0
176
     1
  0
VISUALSTYLE
  5
627
102
{ACAD_REACTORS
330
625
102
}
330
625
100
AcDbVisualStyle
  2
FlatWithEdges
 70
     1
177
     3
291
     1
 70
    58
 90
        2
176
     1
 90
        1
176
     1
 90
        1
176
     1
 90
        2
176
     1
 40
0.6
176
     1
 40
30.0
176
     1
 62
     7
420
 16777215
176
     1
 90
        1
176
     1
 90
        0
176
     1
 62
     7
176
     1
 62
   257
176
     1
 90
        1
176
     1
 90
        1
176
     1
 40
1.0
176
     1
 90
        0
176
     1
 62
   257
176
     1
 40
1.0
176
     1
 90
        1
176
     1
 90
        6
176
     1
 90
        2
176
     1
 62
     7
176
     1
 90
        5
176
     1
 90
        0
176
     1
 90
        0
176
     1
290
     0
176
     1
 90
       13
176
     1
 40
0.0
176
     1
 90
        0
176
     1
290
     0
176
     1
290
     1
176
     1
290
     1
176
     1
290
     0
176
     1
290
     0
176
     1
290
     0
176
     1
290
     0
176
     1
290
     0
176
     1
290
     0
176
     1
 90
       50
176
     1
 40
0.0
176
     1
 40
1.0
176
     1
 90
        0
176
     1
 62
    18
420
        0
176
     1
 90
       50
176
     1
 90
        3
176
     1
 62
     5
420
      255
176
     1
290
     0
176
     1
 90
       50
176
     1
 90
       50
176
     1
 90
       50
176
     1
290
     0
176
     1
 90
       50
176
     1
 62
   256
176
     0
 40
1.0
176
     0
 90
        2
176
     1
  1
strokes_ogs.tif
176
     1
290
     0
176
     1
 40
1.0
176
     1
 40
1.0
176
     1
  0
VISUALSTYLE
  5
628
102
{ACAD_REACTORS
330
625
102
}
330
625
100
AcDbVisualStyle
  2
Gouraud
 70
     2
177
     3
291
     1
 70
    58
 90
        2
176
     1
 90
        2
176
     1
 90
        1
176
     1
 90
        2
176
     1
 40
0.6
176
     1
 40
30.0
176
     1
 62
     7
420
 16777215
176
     1
 90
        0
176
     1
 90
        0
176
     1
 62
     7
176
     1
 62
   257
176
     1
 90
        1
176
     1
 90
        1
176
     1
 40
1.0
176
     1
 90
        0
176
     1
 62
     7
176
     1
 40
1.0
176
     1
 90
        1
176
     1
 90
        6
176
     1
 90
        2
176
     1
 62
     7
176
     1
 90
        5
176
     1
 90
        0
176
     1
 90
        0
176
     1
290
     0
176
     1
 90
       13
176
     1
 40
0.0
176
     1
 90
        0
176
     1
290
     0
176
     1
290
     1
176
     1
290
     1
176
     1
290
     0
176
     1
290
     0
176
     1
290
     0
176
     1
290
     0
176
     1
290
     0
176
     1
290
     0
176
     1
 90
       50
176
     1
 40
0.0
176
     1
 40
1.0
176
     1
 90
        0
176
     1
 62
    18
420
        0
176
     1
 90
       50
176
     1
 90
        3
176
     1
 62
     5
420
      255
176
     1
290
     0
176
     1
 90
       50
176
     1
 90
       50
176
     1
 90
       50
176
     1
290
     0
176
     1
 90
       50
176
     1
 62
   256
176
     0
 40
1.0
176
     0
 90
        2
176
     1
  1
strokes_ogs.tif
176
     1
290
     0
176
     1
 40
1.0
176
     1
 40
1.0
176
     1
  0
VISUALSTYLE
  5
629
102
{ACAD_REACTORS
330
625
102
}
330
625
100
AcDbVisualStyle
  2
GouraudWithEdges
 70
     3
177
     3
291
     1
 70
    58
 90
        2
176
     1
 90
        2
176
     1
 90
        1
176
     1
 90
        2
176
     1
 40
0.6
176
     1
 40
30.0
176
     1
 62
     7
420
 16777215
176
     1
 90
        1
176
     1
 90
        0
176
     1
 62
     7
176
     1
 62
   257
176
     1
 90
        1
176
     1
 90
        1
176
     1
 40
1.0
176
     1
 90
        0
176
     1
 62
   257
176
     1
 40
1.0
176
     1
 90
        1
176
     1
 90
        6
176
     1
 90
        2
176
     1
 62
     7
176
     1
 90
        5
176
     1
 90
        0
176
     1
 90
        0
176
     1
290
     0
176
     1
 90
       13
176
     1
 40
0.0
176
     1
 90
        0
176
     1
290
     0
176
     1
290
     1
176
     1
290
     1
176
     1
290
     0
176
     1
290
     0
176
     1
290
     0
176
     1
290
     0
176
     1
290
     0
176
     1
290
     0
176
     1
 90
       50
176
     1
 40
0.0
176
     1
 40
1.0
176
     1
 90
        0
176
     1
 62
    18
420
        0
176
     1
 90
       50
176
     1
 90
        3
176
     1
 62
     5
420
      255
176
     1
290
     0
176
     1
 90
       50
176
     1
 90
       50
176
     1
 90
       50
176
     1
290
     0
176
     1
 90
       50
176
     1
 62
   256
176
     0
 40
1.0
176
     0
 90
        2
176
     1
  1
strokes_ogs.tif
176
     1
290
     0
176
     1
 40
1.0
176
     1
 40
1.0
176
     1
  0
VISUALSTYLE
  5
62C
102
{ACAD_REACTORS
330
625
102
}
330
625
100
AcDbVisualStyle
  2
Hidden
 70
     6
177
     3
291
     0
 70
    58
 90
        1
176
     1
 90
        2
176
     1
 90
        2
176
     1
 90
        0
176
     1
 40
0.6
176
     1
 40
30.0
176
     1
 62
     7
420
 16777215
176
     1
 90
        2
176
     1
 90
        2
176
     1
 62
     7
176
     1
 62
   257
176
     1
 90
        2
176
     1
 90
        1
176
     1
 40
40.0
176
     1
 90
        0
176
     1
 62
   257
176
     1
 40
1.0
176
     1
 90
        1
176
     1
 90
        6
176
     1
 90
        2
176
     1
 62
     7
176
     1
 90
        3
176
     1
 90
        0
176
     1
 90
        0
176
     1
290
     0
176
     1
 90
        1
176
     1
 40
0.0
176
     1
 90
        0
176
     1
290
     0
176
     1
290
     1
176
     1
290
     1
176
     1
290
     0
176
     1
290
     0
176
     1
290
     0
176
     1
290
     0
176
     1
290
     0
176
     1
290
     0
176
     1
 90
       50
176
     1
 40
0.0
176
     1
 40
1.0
176
     1
 90
        0
176
     1
 62
    18
420
        0
176
     1
 90
       50
176
     1
 90
        3
176
     1
 62
     5
420
      255
176
     1
290
     0
176
     1
 90
       50
176
     1
 90
       50
176
     1
 90
       50
176
     1
290
     0
176
     1
 90
       50
176
     1
 62
   256
176
     0
 40
1.0
176
     0
 90
        2
176
     1
  1
strokes_ogs.tif
176
     1
290
     0
176
     1
 40
1.0
176
     1
 40
1.0
176
     1
  0
VISUALSTYLE
  5
636
102
{ACAD_REACTORS
330
625
102
}
330
625
100
AcDbVisualStyle
  2
JitterOff
 70
    20
177
     3
291
     1
 70
    58
 90
        2
176
     0
 90
        2
176
     0
 90
        0
176
     0
 90
        0
176
     0
 40
0.6
176
     0
 40
30.0
176
     0
 62
     7
420
 16777215
176
     0
 90
        1
176
     0
 90
        4
176
     0
 62
     7
176
     0
 62
   257
176
     0
 90
        1
176
     0
 90
        1
176
     0
 40
1.0
176
     0
 90
       10
176
     2
 62
     7
176
     0
 40
1.0
176
     0
 90
        1
176
     0
 90
        6
176
     0
 90
        2
176
     0
 62
     7
176
     0
 90
        5
176
     0
 90
        0
176
     0
 90
        0
176
     0
290
     0
176
     0
 90
        1
176
     0
 40
0.0
176
     0
 90
        0
176
     0
290
     0
176
     0
290
     1
176
     0
290
     1
176
     0
290
     0
176
     0
290
     0
176
     0
290
     0
176
     0
290
     0
176
     0
290
     0
176
     0
290
     0
176
     0
 90
       50
176
     0
 40
0.0
176
     0
 40
1.0
176
     0
 90
        0
176
     0
 62
    18
420
        0
176
     0
 90
       50
176
     0
 90
        3
176
     0
 62
     5
420
      255
176
     0
290
     0
176
     0
 90
       50
176
     0
 90
       50
176
     0
 90
       50
176
     0
290
     0
176
     0
 90
       50
176
     0
 62
   256
176
     0
 40
1.0
176
     0
 90
        2
176
     0
  1
strokes_ogs.tif
176
     0
290
     0
176
     0
 40
1.0
176
     0
 40
1.0
176
     0
  0
VISUALSTYLE
  5
633
102
{ACAD_REACTORS
330
625
102
}
330
625
100
AcDbVisualStyle
  2
Linepattern
 70
    14
177
     3
291
     1
 70
    58
 90
        2
176
     1
 90
        2
176
     1
 90
        0
176
     1
 90
        0
176
     1
 40
0.6
176
     1
 40
30.0
176
     1
 62
     7
420
 16777215
176
     1
 90
        1
176
     1
 90
        4
176
     1
 62
     7
176
     1
 62
   257
176
     1
 90
        7
176
     1
 90
        7
176
     1
 40
1.0
176
     1
 90
        8
176
     1
 62
     7
176
     1
 40
1.0
176
     1
 90
        1
176
     1
 90
        6
176
     1
 90
        2
176
     1
 62
     7
176
     1
 90
        5
176
     1
 90
        0
176
     1
 90
        0
176
     1
290
     0
176
     1
 90
        1
176
     1
 40
0.0
176
     1
 90
        0
176
     1
290
     0
176
     1
290
     1
176
     1
290
     1
176
     1
290
     0
176
     1
290
     0
176
     1
290
     0
176
     1
290
     0
176
     1
290
     0
176
     1
290
     0
176
     1
 90
       50
176
     1
 40
0.0
176
     1
 40
1.0
176
     1
 90
        0
176
     1
 62
    18
420
        0
176
     1
 90
       50
176
     1
 90
        3
176
     1
 62
     5
420
      255
176
     1
290
     0
176
     1
 90
       50
176
     1
 90
       50
176
     1
 90
       50
176
     1
290
     0
176
     1
 90
       50
176
     1
 62
   256
176
     0
 40
1.0
176
     0
 90
        2
176
     1
  1
strokes_ogs.tif
176
     1
290
     0
176
     1
 40
1.0
176
     1
 40
1.0
176
     1
  0
VISUALSTYLE
  5
637
102
{ACAD_REACTORS
330
625
102
}
330
625
100
AcDbVisualStyle
  2
OverhangOff
 70
    21
177
     3
291
     1
 70
    58
 90
        2
176
     0
 90
        2
176
     0
 90
        0
176
     0
 90
        0
176
     0
 40
0.6
176
     0
 40
30.0
176
     0
 62
     7
420
 16777215
176
     0
 90
        1
176
     0
 90
        4
176
     0
 62
     7
176
     0
 62
   257
176
     0
 90
        1
176
     0
 90
        1
176
     0
 40
1.0
176
     0
 90
        9
176
     2
 62
     7
176
     0
 40
1.0
176
     0
 90
        1
176
     0
 90
        6
176
     0
 90
        2
176
     0
 62
     7
176
     0
 90
        5
176
     0
 90
        0
176
     0
 90
        0
176
     0
290
     0
176
     0
 90
        1
176
     0
 40
0.0
176
     0
 90
        0
176
     0
290
     0
176
     0
290
     1
176
     0
290
     1
176
     0
290
     0
176
     0
290
     0
176
     0
290
     0
176
     0
290
     0
176
     0
290
     0
176
     0
290
     0
176
     0
 90
       50
176
     0
 40
0.0
176
     0
 40
1.0
176
     0
 90
        0
176
     0
 62
    18
420
        0
176
     0
 90
       50
176
     0
 90
        3
176
     0
 62
     5
420
      255
176
     0
290
     0
176
     0
 90
       50
176
     0
 90
       50
176
     0
 90
       50
176
     0
290
     0
176
     0
 90
       50
176
     0
 62
   256
176
     0
 40
1.0
176
     0
 90
        2
176
     0
  1
strokes_ogs.tif
176
     0
290
     0
176
     0
 40
1.0
176
     0
 40
1.0
176
     0
  0
VISUALSTYLE
  5
62E
102
{ACAD_REACTORS
330
625
102
}
330
625
100
AcDbVisualStyle
  2
Realistic
 70
     8
177
     3
291
     0
 70
    58
 90
        2
176
     1
 90
        3
176
     1
 90
        0
176
     1
 90
        2
176
     1
 40
0.6
176
     1
 40
30.0
176
     1
 62
     7
420
 16777215
176
     1
 90
        0
176
     1
 90
        0
176
     1
 62
     7
176
     1
 62
   257
176
     1
 90
        1
176
     1
 90
        1
176
     1
 40
1.0
176
     1
 90
        8
176
     1
 62
   257
176
     1
 40
1.0
176
     1
 90
        1
176
     1
 90
        6
176
     1
 90
        2
176
     1
 62
     7
176
     1
 90
        3
176
     1
 90
        0
176
     1
 90
        0
176
     1
290
     0
176
     1
 90
       13
176
     1
 40
0.0
176
     1
 90
        0
176
     1
290
     0
176
     1
290
     1
176
     1
290
     1
176
     1
290
     0
176
     1
290
     0
176
     1
290
     0
176
     1
290
     0
176
     1
290
     0
176
     1
290
     0
176
     1
 90
       50
176
     1
 40
0.0
176
     1
 40
1.0
176
     1
 90
        0
176
     1
 62
    18
420
        0
176
     1
 90
       50
176
     1
 90
        3
176
     1
 62
     5
420
      255
176
     1
290
     0
176
     1
 90
       50
176
     1
 90
       50
176
     1
 90
       50
176
     1
290
     0
176
     1
 90
       50
176
     1
 62
   256
176
     0
 40
1.0
176
     0
 90
        2
176
     1
  1
strokes_ogs.tif
176
     1
290
     0
176
     1
 40
1.0
176
     1
 40
1.0
176
     1
  0
VISUALSTYLE
  5
63D
102
{ACAD_REACTORS
330
625
102
}
330
625
100
AcDbVisualStyle
  2
Shaded
 70
    27
177
     3
291
     0
 70
    58
 90
        2
176
     1
 90
        2
176
     1
 90
        1
176
     1
 90
        2
176
     1
 40
0.6
176
     1
 40
30.0
176
     1
 62
     7
420
 16777215
176
     1
 90
        0
176
     1
 90
        4
176
     1
 62
     7
176
     1
 62
   257
176
     1
 90
        1
176
     1
 90
        1
176
     1
 40
1.0
176
     1
 90
        8
176
     1
 62
   257
176
     1
 40
1.0
176
     1
 90
        1
176
     1
 90
        6
176
     1
 90
        2
176
     1
 62
     8
420
  7895160
176
     1
 90
        3
176
     1
 90
        0
176
     1
 90
        0
176
     1
290
     0
176
     1
 90
        5
176
     1
 40
0.0
176
     1
 90
        0
176
     1
290
     0
176
     1
290
     1
176
     1
290
     1
176
     1
290
     0
176
     1
290
     0
176
     1
290
     0
176
     1
290
     0
176
     1
290
     0
176
     1
290
     0
176
     1
 90
       50
176
     1
 40
0.0
176
     1
 40
1.0
176
     1
 90
        0
176
     1
 62
    18
420
        0
176
     1
 90
       50
176
     1
 90
        3
176
     1
 62
     5
420
      255
176
     1
290
     0
176
     1
 90
       50
176
     1
 90
       50
176
     1
 90
       50
176
     1
290
     0
176
     1
 90
       50
176
     1
 62
   256
176
     0
 40
1.0
176
     0
 90
        2
176
     1
  1
strokes_ogs.tif
176
     1
290
     0
176
     1
 40
1.0
176
     1
 40
1.0
176
     1
  0
VISUALSTYLE
  5
63C
102
{ACAD_REACTORS
330
625
102
}
330
625
100
AcDbVisualStyle
  2
Shaded with edges
 70
    26
177
     3
291
     0
 70
    58
 90
        2
176
     1
 90
        2
176
     1
 90
        1
176
     1
 90
        2
176
     1
 40
0.6
176
     1
 40
30.0
176
     1
 62
     7
420
 16777215
176
     1
 90
        1
176
     1
 90
       10
176
     1
 62
     7
176
     1
 62
   257
176
     1
 90
        2
176
     1
 90
        1
176
     1
 40
1.0
176
     1
 90
        8
176
     1
 62
   257
176
     1
 40
1.0
176
     1
 90
        1
176
     1
 90
        6
176
     1
 90
        2
176
     1
 62
     7
176
     1
 90
        3
176
     1
 90
        0
176
     1
 90
        0
176
     1
290
     0
176
     1
 90
        5
176
     1
 40
0.0
176
     1
 90
        0
176
     1
290
     0
176
     1
290
     1
176
     1
290
     1
176
     1
290
     0
176
     1
290
     0
176
     1
290
     0
176
     1
290
     0
176
     1
290
     0
176
     1
290
     0
176
     1
 90
       50
176
     1
 40
0.0
176
     1
 40
1.0
176
     1
 90
        0
176
     1
 62
    18
420
        0
176
     1
 90
       50
176
     1
 90
        3
176
     1
 62
     5
420
      255
176
     1
290
     0
176
     1
 90
       50
176
     1
 90
       50
176
     1
 90
       50
176
     1
290
     0
176
     1
 90
       50
176
     1
 62
   256
176
     0
 40
1.0
176
     0
 90
        2
176
     1
  1
strokes_ogs.tif
176
     1
290
     0
176
     1
 40
1.0
176
     1
 40
1.0
176
     1
  0
VISUALSTYLE
  5
639
102
{ACAD_REACTORS
330
625
102
}
330
625
100
AcDbVisualStyle
  2
Shades of Gray
 70
    23
177
     3
291
     0
 70
    58
 90
        2
176
     1
 90
        2
176
     1
 90
        3
176
     1
 90
        0
176
     1
 40
0.6
176
     1
 40
30.0
176
     1
 62
     7
420
 16777215
176
     1
 90
        2
176
     1
 90
        2
176
     1
 62
     7
176
     1
 62
     7
176
     1
 90
        1
176
     1
 90
        1
176
     1
 40
40.0
176
     1
 90
        8
176
     1
 62
     7
176
     1
 40
1.0
176
     1
 90
        1
176
     1
 90
        6
176
     1
 90
        2
176
     1
 62
     7
176
     1
 90
        3
176
     1
 90
        0
176
     1
 90
        0
176
     1
290
     0
176
     1
 90
        1
176
     1
 40
0.0
176
     1
 90
        0
176
     1
290
     0
176
     1
290
     1
176
     1
290
     1
176
     1
290
     0
176
     1
290
     0
176
     1
290
     0
176
     1
290
     0
176
     1
290
     0
176
     1
290
     0
176
     1
 90
       50
176
     1
 40
0.0
176
     1
 40
1.0
176
     1
 90
        0
176
     1
 62
    18
420
        0
176
     1
 90
       50
176
     1
 90
        3
176
     1
 62
     5
420
      255
176
     1
290
     0
176
     1
 90
       50
176
     1
 90
       50
176
     1
 90
       50
176
     1
290
     0
176
     1
 90
       50
176
     1
 62
   256
176
     0
 40
1.0
176
     0
 90
        2
176
     1
  1
strokes_ogs.tif
176
     1
290
     0
176
     1
 40
1.0
176
     1
 40
1.0
176
     1
  0
VISUALSTYLE
  5
63A
102
{ACAD_REACTORS
330
625
102
}
330
625
100
AcDbVisualStyle
  2
Sketchy
 70
    24
177
     3
291
     0
 70
    58
 90
        1
176
     1
 90
        2
176
     1
 90
        2
176
     1
 90
        0
176
     1
 40
0.6
176
     1
 40
30.0
176
     1
 62
     7
420
 16777215
176
     1
 90
        2
176
     1
 90
        2
176
     1
 62
     7
176
     1
 62
     7
176
     1
 90
        1
176
     1
 90
        1
176
     1
 40
40.0
176
     1
 90
       11
176
     1
 62
     7
176
     1
 40
1.0
176
     1
 90
        1
176
     1
 90
        6
176
     1
 90
        2
176
     1
 62
     7
176
     1
 90
        6
176
     1
 90
        0
176
     1
 90
        0
176
     1
290
     0
176
     1
 90
        1
176
     1
 40
0.0
176
     1
 90
        0
176
     1
290
     0
176
     1
290
     1
176
     1
290
     1
176
     1
290
     0
176
     1
290
     0
176
     1
290
     0
176
     1
290
     0
176
     1
290
     0
176
     1
290
     0
176
     1
 90
       50
176
     1
 40
0.0
176
     1
 40
1.0
176
     1
 90
        0
176
     1
 62
    18
420
        0
176
     1
 90
       50
176
     1
 90
        3
176
     1
 62
     5
420
      255
176
     1
290
     0
176
     1
 90
       50
176
     1
 90
       50
176
     1
 90
       50
176
     1
290
     0
176
     1
 90
       50
176
     1
 62
   256
176
     0
 40
1.0
176
     0
 90
        2
176
     1
  1
strokes_ogs.tif
176
     1
290
     0
176
     1
 40
1.0
176
     1
 40
1.0
176
     1
  0
VISUALSTYLE
  5
632
102
{ACAD_REACTORS
330
625
102
}
330
625
100
AcDbVisualStyle
  2
Thicken
 70
    13
177
     3
291
     1
 70
    58
 90
        2
176
     1
 90
        2
176
     1
 90
        0
176
     1
 90
        0
176
     1
 40
0.6
176
     1
 40
30.0
176
     1
 62
     7
420
 16777215
176
     1
 90
        1
176
     1
 90
        4
176
     1
 62
     7
176
     1
 62
   257
176
     1
 90
        1
176
     1
 90
        1
176
     1
 40
1.0
176
     1
 90
       12
176
     1
 62
     7
176
     1
 40
1.0
176
     1
 90
        1
176
     1
 90
        6
176
     1
 90
        2
176
     1
 62
     7
176
     1
 90
        5
176
     1
 90
        0
176
     1
 90
        0
176
     1
290
     0
176
     1
 90
        1
176
     1
 40
0.0
176
     1
 90
        0
176
     1
290
     0
176
     1
290
     1
176
     1
290
     1
176
     1
290
     0
176
     1
290
     0
176
     1
290
     0
176
     1
290
     0
176
     1
290
     0
176
     1
290
     0
176
     1
 90
       50
176
     1
 40
0.0
176
     1
 40
1.0
176
     1
 90
        0
176
     1
 62
    18
420
        0
176
     1
 90
       50
176
     1
 90
        3
176
     1
 62
     5
420
      255
176
     1
290
     0
176
     1
 90
       50
176
     1
 90
       50
176
     1
 90
       50
176
     1
290
     0
176
     1
 90
       50
176
     1
 62
   256
176
     0
 40
1.0
176
     0
 90
        2
176
     1
  1
strokes_ogs.tif
176
     1
290
     0
176
     1
 40
1.0
176
     1
 40
1.0
176
     1
  0
VISUALSTYLE
  5
62B
102
{ACAD_REACTORS
330
625
102
}
330
625
100
AcDbVisualStyle
  2
Wireframe
 70
     5
177
     3
291
     0
 70
    58
 90
        0
176
     1
 90
        2
176
     1
 90
        0
176
     1
 90
        0
176
     1
 40
0.6
176
     1
 40
30.0
176
     1
 62
     7
420
 16777215
176
     1
 90
        1
176
     1
 90
        4
176
     1
 62
     7
176
     1
 62
   257
176
     1
 90
        1
176
     1
 90
        1
176
     1
 40
1.0
176
     1
 90
        0
176
     1
 62
   257
176
     1
 40
1.0
176
     1
 90
        1
176
     1
 90
        6
176
     1
 90
        2
176
     1
 62
     7
176
     1
 90
        3
176
     1
 90
        0
176
     1
 90
        0
176
     1
290
     0
176
     1
 90
        1
176
     1
 40
0.0
176
     1
 90
        0
176
     1
290
     0
176
     1
290
     1
176
     1
290
     1
176
     1
290
     0
176
     1
290
     0
176
     1
290
     0
176
     1
290
     0
176
     1
290
     0
176
     1
290
     0
176
     1
 90
       50
176
     1
 40
0.0
176
     1
 40
1.0
176
     1
 90
        0
176
     1
 62
    18
420
        0
176
     1
 90
       50
176
     1
 90
        3
176
     1
 62
     5
420
      255
176
     1
290
     0
176
     1
 90
       50
176
     1
 90
       50
176
     1
 90
       50
176
     1
290
     0
176
     1
 90
       50
176
     1
 62
   256
176
     0
 40
1.0
176
     0
 90
        2
176
     1
  1
strokes_ogs.tif
176
     1
290
     0
176
     1
 40
1.0
176
     1
 40
1.0
176
     1
  0
VISUALSTYLE
  5
63B
102
{ACAD_REACTORS
330
625
102
}
330
625
100
AcDbVisualStyle
  2
X-Ray
 70
    25
177
     3
291
     0
 70
    58
 90
        2
176
     1
 90
        2
176
     1
 90
        1
176
     1
 90
        1
176
     1
 40
0.5
176
     1
 40
30.0
176
     1
 62
     7
420
 16777215
176
     1
 90
        1
176
     1
 90
        0
176
     1
 62
     7
176
     1
 62
   257
176
     1
 90
        1
176
     1
 90
        1
176
     1
 40
1.0
176
     1
 90
        8
176
     1
 62
     7
176
     1
 40
1.0
176
     1
 90
        1
176
     1
 90
        6
176
     1
 90
        2
176
     1
 62
     7
176
     1
 90
        3
176
     1
 90
        0
176
     1
 90
        0
176
     1
290
     0
176
     1
 90
       13
176
     1
 40
0.0
176
     1
 90
        0
176
     1
290
     0
176
     1
290
     1
176
     1
290
     1
176
     1
290
     0
176
     1
290
     0
176
     1
290
     0
176
     1
290
     0
176
     1
290
     0
176
     1
290
     0
176
     1
 90
       50
176
     1
 40
0.0
176
     1
 40
1.0
176
     1
 90
        0
176
     1
 62
    18
420
        0
176
     1
 90
       50
176
     1
 90
        3
176
     1
 62
     5
420
      255
176
     1
290
     0
176
     1
 90
       50
176
     1
 90
       50
176
     1
 90
       50
176
     1
290
     0
176
     1
 90
       50
176
     1
 62
   256
176
     0
 40
1.0
176
     0
 90
        2
176
     1
  1
strokes_ogs.tif
176
     1
290
     0
176
     1
 40
1.0
176
     1
 40
1.0
176
     1
  0
DICTIONARYVAR
  5
648
102
{ACAD_REACTORS
330
647
102
}
330
647
100
DictionaryVariables
280
     0
  1
1:1
  0
DICTIONARYVAR
  5
64D
102
{ACAD_REACTORS
330
647
102
}
330
647
100
DictionaryVariables
280
     0
  1
Standard
  0
DICTIONARYVAR
  5
64C
102
{ACAD_REACTORS
330
647
102
}
330
647
100
DictionaryVariables
280
     0
  1
Standard
  0
DICTIONARYVAR
  5
64E
102
{ACAD_REACTORS
330
647
102
}
330
647
100
DictionaryVariables
280
     0
  1
0
  0
DICTIONARY
  5
649
330
643
100
AcDbDictionary
280
     1
281
     1
  3
ACAD_ROUNDTRIP_2008_TABLESTYLE_CELLSTYLEMAP
360
64A
  0
CELLSTYLEMAP
  5
64A
102
{ACAD_REACTORS
330
649
102
}
330
649
100
AcDbCellStyleMap
 90
        3
300
CELLSTYLE
  1
TABLEFORMAT_BEGIN
 90
        5
170
     1
 91
        0
 92
    32768
 62
   257
 93
        1
300
CONTENTFORMAT
  1
CONTENTFORMAT_BEGIN
 90
        0
 91
        0
 92
        4
 93
        0
300

 40
0.0
140
1.0
 94
        5
 62
     0
340
11
144
6.0
309
CONTENTFORMAT_END
171
     1
301
MARGIN
  1
CELLMARGIN_BEGIN
 40
1.5
 40
1.5
 40
1.5
 40
1.5
 40
1.5
 40
1.5
309
CELLMARGIN_END
 94
        6
 95
        1
302
GRIDFORMAT
  1
GRIDFORMAT_BEGIN
 90
        0
 91
        1
 62
     0
 92
       -2
340
14
 93
        0
 40
0.045
309
GRIDFORMAT_END
 95
        2
302
GRIDFORMAT
  1
GRIDFORMAT_BEGIN
 90
        0
 91
        1
 62
     0
 92
       -2
340
14
 93
        0
 40
0.045
309
GRIDFORMAT_END
 95
        4
302
GRIDFORMAT
  1
GRIDFORMAT_BEGIN
 90
        0
 91
        1
 62
     0
 92
       -2
340
14
 93
        0
 40
0.045
309
GRIDFORMAT_END
 95
        8
302
GRIDFORMAT
  1
GRIDFORMAT_BEGIN
 90
        0
 91
        1
 62
     0
 92
       -2
340
14
 93
        0
 40
0.045
309
GRIDFORMAT_END
 95
       16
302
GRIDFORMAT
  1
GRIDFORMAT_BEGIN
 90
        0
 91
        1
 62
     0
 92
       -2
340
14
 93
        0
 40
0.045
309
GRIDFORMAT_END
 95
       32
302
GRIDFORMAT
  1
GRIDFORMAT_BEGIN
 90
        0
 91
        1
 62
     0
 92
       -2
340
14
 93
        0
 40
0.045
309
GRIDFORMAT_END
309
TABLEFORMAT_END
  1
CELLSTYLE_BEGIN
 90
        1
 91
        1
300
_TITLE
309
CELLSTYLE_END
300
CELLSTYLE
  1
TABLEFORMAT_BEGIN
 90
        5
170
     1
 91
        0
 92
        0
 62
   257
 93
        1
300
CONTENTFORMAT
  1
CONTENTFORMAT_BEGIN
 90
        0
 91
        0
 92
        4
 93
        0
300

 40
0.0
140
1.0
 94
        5
 62
     0
340
11
144
4.5
309
CONTENTFORMAT_END
171
     1
301
MARGIN
  1
CELLMARGIN_BEGIN
 40
1.5
 40
1.5
 40
1.5
 40
1.5
 40
1.5
 40
1.5
309
CELLMARGIN_END
 94
        6
 95
        1
302
GRIDFORMAT
  1
GRIDFORMAT_BEGIN
 90
        0
 91
        1
 62
     0
 92
       -2
340
14
 93
        0
 40
0.045
309
GRIDFORMAT_END
 95
        2
302
GRIDFORMAT
  1
GRIDFORMAT_BEGIN
 90
        0
 91
        1
 62
     0
 92
       -2
340
14
 93
        0
 40
0.045
309
GRIDFORMAT_END
 95
        4
302
GRIDFORMAT
  1
GRIDFORMAT_BEGIN
 90
        0
 91
        1
 62
     0
 92
       -2
340
14
 93
        0
 40
0.045
309
GRIDFORMAT_END
 95
        8
302
GRIDFORMAT
  1
GRIDFORMAT_BEGIN
 90
        0
 91
        1
 62
     0
 92
       -2
340
14
 93
        0
 40
0.045
309
GRIDFORMAT_END
 95
       16
302
GRIDFORMAT
  1
GRIDFORMAT_BEGIN
 90
        0
 91
        1
 62
     0
 92
       -2
340
14
 93
        0
 40
0.045
309
GRIDFORMAT_END
 95
       32
302
GRIDFORMAT
  1
GRIDFORMAT_BEGIN
 90
        0
 91
        1
 62
     0
 92
       -2
340
14
 93
        0
 40
0.045
309
GRIDFORMAT_END
309
TABLEFORMAT_END
  1
CELLSTYLE_BEGIN
 90
        2
 91
        1
300
_HEADER
309
CELLSTYLE_END
300
CELLSTYLE
  1
TABLEFORMAT_BEGIN
 90
        5
170
     1
 91
        0
 92
        0
 62
   257
 93
        1
300
CONTENTFORMAT
  1
CONTENTFORMAT_BEGIN
 90
        0
 91
        0
 92
        4
 93
        0
300

 40
0.0
140
1.0
 94
        2
 62
     0
340
11
144
4.5
309
CONTENTFORMAT_END
171
     1
301
MARGIN
  1
CELLMARGIN_BEGIN
 40
1.5
 40
1.5
 40
1.5
 40
1.5
 40
1.5
 40
1.5
309
CELLMARGIN_END
 94
        6
 95
        1
302
GRIDFORMAT
  1
GRIDFORMAT_BEGIN
 90
        0
 91
        1
 62
     0
 92
       -2
340
14
 93
        0
 40
0.045
309
GRIDFORMAT_END
 95
        2
302
GRIDFORMAT
  1
GRIDFORMAT_BEGIN
 90
        0
 91
        1
 62
     0
 92
       -2
340
14
 93
        0
 40
0.045
309
GRIDFORMAT_END
 95
        4
302
GRIDFORMAT
  1
GRIDFORMAT_BEGIN
 90
        0
 91
        1
 62
     0
 92
       -2
340
14
 93
        0
 40
0.045
309
GRIDFORMAT_END
 95
        8
302
GRIDFORMAT
  1
GRIDFORMAT_BEGIN
 90
        0
 91
        1
 62
     0
 92
       -2
340
14
 93
        0
 40
0.045
309
GRIDFORMAT_END
 95
       16
302
GRIDFORMAT
  1
GRIDFORMAT_BEGIN
 90
        0
 91
        1
 62
     0
 92
       -2
340
14
 93
        0
 40
0.045
309
GRIDFORMAT_END
 95
       32
302
GRIDFORMAT
  1
GRIDFORMAT_BEGIN
 90
        0
 91
        1
 62
     0
 92
       -2
340
14
 93
        0
 40
0.045
309
GRIDFORMAT_END
309
TABLEFORMAT_END
  1
CELLSTYLE_BEGIN
 90
        3
 91
        2
300
_DATA
309
CELLSTYLE_END
  0
ENDSEC
  0
EOF
