  0
SECTION
  2
HEADER
  9
$ACADVER
  1
AC1027
  9
$ACADMAINTVER
 70
   105
  9
$DWGCODEPAGE
  3
ANSI_1252
  9
$REQUIREDVERSIONS
160
                 0
  9
$LASTSAVEDBY
  1
andrea.zolin
  9
$INSBASE
 10
0.0
 20
0.0
 30
0.0
  9
$EXTMIN
 10
0.0
 20
0.0
 30
0.0
  9
$EXTMAX
 10
3200.0
 20
2500.0
 30
0.0
  9
$LIMMIN
 10
0.0
 20
0.0
  9
$LIMMAX
 10
3200.0
 20
2500.0
  9
$ORTHOMODE
 70
     0
  9
$REGENMODE
 70
     1
  9
$FILLMODE
 70
     1
  9
$QTEXTMODE
 70
     0
  9
$MIRRTEXT
 70
     1
  9
$LTSCALE
 40
176.0
  9
$ATTMODE
 70
     1
  9
$TEXTSIZE
 40
0.2
  9
$TRACEWID
 40
0.05
  9
$TEXTSTYLE
  7
STANDARD
  9
$CLAYER
  8
0
  9
$CELTYPE
  6
BYLAYER
  9
$CECOLOR
 62
   256
  9
$CELTSCALE
 40
1.0
  9
$DISPSILH
 70
     0
  9
$DIMSCALE
 40
1.0
  9
$DIMASZ
 40
2.5
  9
$DIMEXO
 40
0.75
  9
$DIMDLI
 40
121.6
  9
$DIMRND
 40
0.0
  9
$DIMDLE
 40
0.0
  9
$DIMEXE
 40
0.75
  9
$DIMTP
 40
0.01
  9
$DIMTM
 40
0.01
  9
$DIMTXT
 40
3.0
  9
$DIMCEN
 40
28.8
  9
$DIMTSZ
 40
0.0
  9
$DIMTOL
 70
     1
  9
$DIMLIM
 70
     0
  9
$DIMTIH
 70
     1
  9
$DIMTOH
 70
     1
  9
$DIMSE1
 70
     0
  9
$DIMSE2
 70
     0
  9
$DIMTAD
 70
     0
  9
$DIMZIN
 70
     0
  9
$DIMBLK
  1
CLOSED
  9
$DIMASO
 70
     1
  9
$DIMSHO
 70
     1
  9
$DIMPOST
  1

  9
$DIMAPOST
  1

  9
$DIMALT
 70
     0
  9
$DIMALTD
 70
     2
  9
$DIMALTF
 40
25.4
  9
$DIMLFAC
 40
1.0
  9
$DIMTOFL
 70
     0
  9
$DIMTVP
 40
0.0
  9
$DIMTIX
 70
     0
  9
$DIMSOXD
 70
     0
  9
$DIMSAH
 70
     0
  9
$DIMBLK1
  1

  9
$DIMBLK2
  1

  9
$DIMSTYLE
  2
STANDARD
  9
$DIMCLRD
 70
     0
  9
$DIMCLRE
 70
     0
  9
$DIMCLRT
 70
     0
  9
$DIMTFAC
 40
1.0
  9
$DIMGAP
 40
0.625
  9
$DIMJUST
 70
     0
  9
$DIMSD1
 70
     0
  9
$DIMSD2
 70
     0
  9
$DIMTOLJ
 70
     1
  9
$DIMTZIN
 70
     0
  9
$DIMALTZ
 70
     0
  9
$DIMALTTZ
 70
     0
  9
$DIMUPT
 70
     0
  9
$DIMDEC
 70
     4
  9
$DIMTDEC
 70
     4
  9
$DIMALTU
 70
     2
  9
$DIMALTTD
 70
     2
  9
$DIMTXSTY
  7
STANDARD
  9
$DIMAUNIT
 70
     0
  9
$DIMADEC
 70
     0
  9
$DIMALTRND
 40
0.0
  9
$DIMAZIN
 70
     0
  9
$DIMDSEP
 70
    46
  9
$DIMATFIT
 70
     3
  9
$DIMFRAC
 70
     0
  9
$DIMLDRBLK
  1

  9
$DIMLUNIT
 70
     2
  9
$DIMLWD
 70
    -2
  9
$DIMLWE
 70
    -2
  9
$DIMTMOVE
 70
     2
  9
$DIMFXL
 40
1.0
  9
$DIMFXLON
 70
     0
  9
$DIMJOGANG
 40
0.7853981633974483
  9
$DIMTFILL
 70
     0
  9
$DIMTFILLCLR
 70
     0
  9
$DIMARCSYM
 70
     0
  9
$DIMLTYPE
  6

  9
$DIMLTEX1
  6

  9
$DIMLTEX2
  6

  9
$DIMTXTDIRECTION
 70
     0
  9
$LUNITS
 70
     2
  9
$LUPREC
 70
     4
  9
$SKETCHINC
 40
0.1
  9
$FILLETRAD
 40
0.5
  9
$AUNITS
 70
     0
  9
$AUPREC
 70
     0
  9
$MENU
  1
.
  9
$ELEVATION
 40
0.0
  9
$PELEVATION
 40
0.0
  9
$THICKNESS
 40
0.0
  9
$LIMCHECK
 70
     0
  9
$CHAMFERA
 40
0.0
  9
$CHAMFERB
 40
0.0
  9
$CHAMFERC
 40
0.0
  9
$CHAMFERD
 40
0.0
  9
$SKPOLY
 70
     0
  9
$TDCREATE
 40
2447893.041666667
  9
$TDUCREATE
 40
0.0
  9
$TDUPDATE
 40
2458466.5643789
  9
$TDUUPDATE
 40
2458466.522712234
  9
$TDINDWG
 40
0.0002602546
  9
$TDUSRTIMER
 40
0.0002602546
  9
$USRTIMER
 70
     1
  9
$ANGBASE
 50
0.0
  9
$ANGDIR
 70
     0
  9
$PDMODE
 70
     3
  9
$PDSIZE
 40
0.3125
  9
$PLINEWID
 40
0.0
  9
$SPLFRAME
 70
     0
  9
$SPLINETYPE
 70
     6
  9
$SPLINESEGS
 70
     8
  9
$HANDSEED
  5
5CD
  9
$SURFTAB1
 70
     6
  9
$SURFTAB2
 70
     6
  9
$SURFTYPE
 70
     6
  9
$SURFU
 70
     6
  9
$SURFV
 70
     6
  9
$UCSBASE
  2

  9
$UCSNAME
  2

  9
$UCSORG
 10
0.0
 20
0.0
 30
0.0
  9
$UCSXDIR
 10
1.0
 20
0.0
 30
0.0
  9
$UCSYDIR
 10
0.0
 20
1.0
 30
0.0
  9
$UCSORTHOREF
  2

  9
$UCSORTHOVIEW
 70
     0
  9
$UCSORGTOP
 10
0.0
 20
0.0
 30
0.0
  9
$UCSORGBOTTOM
 10
0.0
 20
0.0
 30
0.0
  9
$UCSORGLEFT
 10
0.0
 20
0.0
 30
0.0
  9
$UCSORGRIGHT
 10
0.0
 20
0.0
 30
0.0
  9
$UCSORGFRONT
 10
0.0
 20
0.0
 30
0.0
  9
$UCSORGBACK
 10
0.0
 20
0.0
 30
0.0
  9
$PUCSBASE
  2

  9
$PUCSNAME
  2

  9
$PUCSORG
 10
0.0
 20
0.0
 30
0.0
  9
$PUCSXDIR
 10
1.0
 20
0.0
 30
0.0
  9
$PUCSYDIR
 10
0.0
 20
1.0
 30
0.0
  9
$PUCSORTHOREF
  2

  9
$PUCSORTHOVIEW
 70
     0
  9
$PUCSORGTOP
 10
0.0
 20
0.0
 30
0.0
  9
$PUCSORGBOTTOM
 10
0.0
 20
0.0
 30
0.0
  9
$PUCSORGLEFT
 10
0.0
 20
0.0
 30
0.0
  9
$PUCSORGRIGHT
 10
0.0
 20
0.0
 30
0.0
  9
$PUCSORGFRONT
 10
0.0
 20
0.0
 30
0.0
  9
$PUCSORGBACK
 10
0.0
 20
0.0
 30
0.0
  9
$USERI1
 70
     0
  9
$USERI2
 70
     0
  9
$USERI3
 70
     0
  9
$USERI4
 70
     0
  9
$USERI5
 70
     0
  9
$USERR1
 40
0.0
  9
$USERR2
 40
0.0
  9
$USERR3
 40
0.0
  9
$USERR4
 40
0.0
  9
$USERR5
 40
0.0
  9
$WORLDVIEW
 70
     1
  9
$SHADEDGE
 70
     3
  9
$SHADEDIF
 70
    70
  9
$TILEMODE
 70
     0
  9
$MAXACTVP
 70
    64
  9
$PINSBASE
 10
0.0
 20
0.0
 30
0.0
  9
$PLIMCHECK
 70
     0
  9
$PEXTMIN
 10
0.0
 20
0.0
 30
0.0
  9
$PEXTMAX
 10
3205.90843249
 20
2500.0
 30
0.0
  9
$PLIMMIN
 10
-72.95719844357977
 20
-194.5525291828794
  9
$PLIMMAX
 10
4012.645914396887
 20
2694.552529182879
  9
$UNITMODE
 70
     0
  9
$VISRETAIN
 70
     1
  9
$PLINEGEN
 70
     0
  9
$PSLTSCALE
 70
     1
  9
$TREEDEPTH
 70
  3020
  9
$CMLSTYLE
  2
STANDARD
  9
$CMLJUST
 70
     0
  9
$CMLSCALE
 40
1.0
  9
$PROXYGRAPHICS
 70
     1
  9
$MEASUREMENT
 70
     1
  9
$CELWEIGHT
370
    -1
  9
$ENDCAPS
280
     0
  9
$JOINSTYLE
280
     0
  9
$LWDISPLAY
290
     0
  9
$INSUNITS
 70
     0
  9
$HYPERLINKBASE
  1

  9
$STYLESHEET
  1

  9
$XEDIT
290
     1
  9
$CEPSNTYPE
380
     0
  9
$PSTYLEMODE
290
     1
  9
$FINGERPRINTGUID
  2
{40E596AF-3EFD-45D1-A884-5E6C2C848DC6}
  9
$VERSIONGUID
  2
{FAEB1C32-E019-11D5-929B-00C0DF256EC4}
  9
$EXTNAMES
290
     1
  9
$PSVPSCALE
 40
0.0
  9
$OLESTARTUP
290
     0
  9
$SORTENTS
280
   127
  9
$INDEXCTL
280
     0
  9
$HIDETEXT
280
     1
  9
$XCLIPFRAME
280
     2
  9
$HALOGAP
280
     0
  9
$OBSCOLOR
 70
   257
  9
$OBSLTYPE
280
     0
  9
$INTERSECTIONDISPLAY
280
     0
  9
$INTERSECTIONCOLOR
 70
   257
  9
$DIMASSOC
280
     2
  9
$PROJECTNAME
  1

  9
$CAMERADISPLAY
290
     0
  9
$LENSLENGTH
 40
50.0
  9
$CAMERAHEIGHT
 40
0.0
  9
$STEPSPERSEC
 40
2.0
  9
$STEPSIZE
 40
6.0
  9
$3DDWFPREC
 40
2.0
  9
$PSOLWIDTH
 40
0.25
  9
$PSOLHEIGHT
 40
4.0
  9
$LOFTANG1
 40
1.570796326794897
  9
$LOFTANG2
 40
1.570796326794897
  9
$LOFTMAG1
 40
0.0
  9
$LOFTMAG2
 40
0.0
  9
$LOFTPARAM
 70
     7
  9
$LOFTNORMALS
280
     1
  9
$LATITUDE
 40
37.795
  9
$LONGITUDE
 40
-122.394
  9
$NORTHDIRECTION
 40
0.0
  9
$TIMEZONE
 70
 -8000
  9
$LIGHTGLYPHDISPLAY
280
     1
  9
$TILEMODELIGHTSYNCH
280
     1
  9
$SOLIDHIST
280
     0
  9
$SHOWHIST
280
     1
  9
$DWFFRAME
280
     2
  9
$DGNFRAME
280
     2
  9
$REALWORLDSCALE
290
     1
  9
$INTERFERECOLOR
 62
   256
  9
$CSHADOW
280
     0
  9
$SHADOWPLANELOCATION
 40
0.0
  0
ENDSEC
  0
SECTION
  2
CLASSES
  0
CLASS
  1
ACDBDICTIONARYWDFLT
  2
AcDbDictionaryWithDefault
  3
ObjectDBX Classes
 90
        0
 91
        4
280
     0
281
     0
  0
CLASS
  1
SCALE
  2
AcDbScale
  3
ObjectDBX Classes
 90
     1153
 91
        4
280
     0
281
     0
  0
CLASS
  1
VISUALSTYLE
  2
AcDbVisualStyle
  3
ObjectDBX Classes
 90
     4095
 91
        4
280
     0
281
     0
  0
CLASS
  1
MATERIAL
  2
AcDbMaterial
  3
ObjectDBX Classes
 90
     1153
 91
        4
280
     0
281
     0
  0
CLASS
  1
TABLESTYLE
  2
AcDbTableStyle
  3
ObjectDBX Classes
 90
     4095
 91
        4
280
     0
281
     0
  0
CLASS
  1
MLEADERSTYLE
  2
AcDbMLeaderStyle
  3
ACDB_MLEADERSTYLE_CLASS
 90
     4095
 91
        4
280
     0
281
     0
  0
CLASS
  1
DICTIONARYVAR
  2
AcDbDictionaryVar
  3
ObjectDBX Classes
 90
        0
 91
        4
280
     0
281
     0
  0
CLASS
  1
CELLSTYLEMAP
  2
AcDbCellStyleMap
  3
ObjectDBX Classes
 90
     1152
 91
        4
280
     0
281
     0
  0
ENDSEC
  0
SECTION
  2
TABLES
  0
TABLE
  2
VPORT
  5
8
330
0
100
AcDbSymbolTable
 70
     1
  0
VPORT
  5
1F4
330
8
100
AcDbSymbolTableRecord
100
AcDbViewportTableRecord
  2
*ACTIVE
 70
     0
 10
0.0
 20
0.0
 11
1.0
 21
1.0
 12
1600.0
 22
1250.0
 13
0.0
 23
0.0
 14
1.0
 24
1.0
 15
0.0
 25
0.0
 16
0.0
 26
0.0
 36
1.0
 17
0.0
 27
0.0
 37
0.0
 40
2500.0
 41
1.28
 42
50.0
 43
0.0
 44
0.0
 50
0.0
 51
0.0
 71
     0
 72
   100
 73
     1
 74
     1
 75
     0
 76
     0
 77
     0
 78
     0
281
     0
 65
     1
110
0.0
120
0.0
130
0.0
111
1.0
121
0.0
131
0.0
112
0.0
122
1.0
132
0.0
 79
     0
146
0.0
348
5A6
 60
     3
 61
     5
292
     1
282
     1
141
0.0
142
0.0
 63
   256
  0
ENDTAB
  0
TABLE
  2
LTYPE
  5
5
330
0
100
AcDbSymbolTable
 70
     6
  0
LTYPE
  5
14
330
5
100
AcDbSymbolTableRecord
100
AcDbLinetypeTableRecord
  2
BYBLOCK
 70
     0
  3

 72
    65
 73
     0
 40
0.0
  0
LTYPE
  5
15
330
5
100
AcDbSymbolTableRecord
100
AcDbLinetypeTableRecord
  2
BYLAYER
 70
     0
  3

 72
    65
 73
     0
 40
0.0
  0
LTYPE
  5
16
330
5
100
AcDbSymbolTableRecord
100
AcDbLinetypeTableRecord
  2
CONTINUOUS
 70
     0
  3
Solid line
 72
    65
 73
     0
 40
0.0
  0
LTYPE
  5
1F5
330
5
100
AcDbSymbolTableRecord
100
AcDbLinetypeTableRecord
  2
CENTER
 70
     0
  3
____ _ ____ _ ____ _ ____ _ ____ _ ____ _ ____
 72
    65
 73
     4
 40
0.6
 49
0.375
 74
     0
 49
-0.075
 74
     0
 49
0.075
 74
     0
 49
-0.075
 74
     0
  0
LTYPE
  5
1F6
330
5
100
AcDbSymbolTableRecord
100
AcDbLinetypeTableRecord
  2
HIDDEN
 70
     0
  3
- - - - - - - - - - - - - - - - - - - -
 72
    65
 73
     2
 40
0.2
 49
0.1
 74
     0
 49
-0.1
 74
     0
  0
LTYPE
  5
1F7
330
5
100
AcDbSymbolTableRecord
100
AcDbLinetypeTableRecord
  2
PHANTOM
 70
     0
  3
_____ _ _ _____ _ _ _____ _ _ _____
 72
    65
 73
     6
 40
0.8
 49
0.45
 74
     0
 49
-0.05
 74
     0
 49
0.1
 74
     0
 49
-0.05
 74
     0
 49
0.1
 74
     0
 49
-0.05
 74
     0
  0
LTYPE
  5
1F8
330
5
100
AcDbSymbolTableRecord
100
AcDbLinetypeTableRecord
  2
DOT
 70
     0
  3
. . . . . . . . . . . . . . . . . . . .
 72
    65
 73
     2
 40
0.2
 49
0.1
 74
     0
 49
-0.1
 74
     0
  0
LTYPE
  5
1F9
330
5
100
AcDbSymbolTableRecord
100
AcDbLinetypeTableRecord
  2
DASHED
 70
     0
  3
- - - - - - - - - - - - - - - - - - - -
 72
    65
 73
     2
 40
0.2
 49
0.1
 74
     0
 49
-0.1
 74
     0
  0
ENDTAB
  0
TABLE
  2
LAYER
  5
2
330
0
100
AcDbSymbolTable
 70
    40
  0
LAYER
  5
10
330
2
100
AcDbSymbolTableRecord
100
AcDbLayerTableRecord
  2
0
 70
     0
 62
     7
  6
CONTINUOUS
370
    -3
390
57B
347
5BD
348
0
  0
LAYER
  5
1FA
330
2
100
AcDbSymbolTableRecord
100
AcDbLayerTableRecord
  2
DEFAULT_1
 70
     0
 62
     7
  6
CENTER
370
    -3
390
57B
347
5BD
348
0
  0
LAYER
  5
1FB
330
2
100
AcDbSymbolTableRecord
100
AcDbLayerTableRecord
  2
DEFAULT_2
 70
     0
 62
     8
  6
HIDDEN
370
    -3
390
57B
347
5BD
348
0
  0
LAYER
  5
1FC
330
2
100
AcDbSymbolTableRecord
100
AcDbLayerTableRecord
  2
DEFAULT_3
 70
     0
 62
     7
  6
PHANTOM
370
    -3
390
57B
347
5BD
348
0
  0
LAYER
  5
1FD
330
2
100
AcDbSymbolTableRecord
100
AcDbLayerTableRecord
  2
01_ALL_DTM_PLN
 70
     0
 62
     7
  6
CONTINUOUS
370
    -3
390
57B
347
5BD
348
0
  0
LAYER
  5
1FE
330
2
100
AcDbSymbolTableRecord
100
AcDbLayerTableRecord
  2
01__ASM_ALL_DTM_PLN
 70
     0
 62
     7
  6
CONTINUOUS
370
    -3
390
57B
347
5BD
348
0
  0
LAYER
  5
1FF
330
2
100
AcDbSymbolTableRecord
100
AcDbLayerTableRecord
  2
01__ASM_DEF_DTM_PLN
 70
     0
 62
     7
  6
CONTINUOUS
370
    -3
390
57B
347
5BD
348
0
  0
LAYER
  5
200
330
2
100
AcDbSymbolTableRecord
100
AcDbLayerTableRecord
  2
01___PRT_ALL_DTM_PLN
 70
     0
 62
     7
  6
CONTINUOUS
370
    -3
390
57B
347
5BD
348
0
  0
LAYER
  5
201
330
2
100
AcDbSymbolTableRecord
100
AcDbLayerTableRecord
  2
01___PRT_DEF_DTM_PLN
 70
     0
 62
     7
  6
CONTINUOUS
370
    -3
390
57B
347
5BD
348
0
  0
LAYER
  5
202
330
2
100
AcDbSymbolTableRecord
100
AcDbLayerTableRecord
  2
02_ALL_AXES
 70
     0
 62
     7
  6
CONTINUOUS
370
    -3
390
57B
347
5BD
348
0
  0
LAYER
  5
203
330
2
100
AcDbSymbolTableRecord
100
AcDbLayerTableRecord
  2
02__ASM_ALL_AXES
 70
     0
 62
     7
  6
CONTINUOUS
370
    -3
390
57B
347
5BD
348
0
  0
LAYER
  5
204
330
2
100
AcDbSymbolTableRecord
100
AcDbLayerTableRecord
  2
02___PRT_ALL_AXES
 70
     0
 62
     7
  6
CONTINUOUS
370
    -3
390
57B
347
5BD
348
0
  0
LAYER
  5
205
330
2
100
AcDbSymbolTableRecord
100
AcDbLayerTableRecord
  2
03_ALL_CURVES
 70
     0
 62
     7
  6
CONTINUOUS
370
    -3
390
57B
347
5BD
348
0
  0
LAYER
  5
206
330
2
100
AcDbSymbolTableRecord
100
AcDbLayerTableRecord
  2
03__ASM_ALL_CURVES
 70
     0
 62
     7
  6
CONTINUOUS
370
    -3
390
57B
347
5BD
348
0
  0
LAYER
  5
207
330
2
100
AcDbSymbolTableRecord
100
AcDbLayerTableRecord
  2
03___PRT_ALL_CURVES
 70
     0
 62
     7
  6
CONTINUOUS
370
    -3
390
57B
347
5BD
348
0
  0
LAYER
  5
208
330
2
100
AcDbSymbolTableRecord
100
AcDbLayerTableRecord
  2
04_ALL_DTM_PNT
 70
     0
 62
     7
  6
CONTINUOUS
370
    -3
390
57B
347
5BD
348
0
  0
LAYER
  5
209
330
2
100
AcDbSymbolTableRecord
100
AcDbLayerTableRecord
  2
04__ASM_ALL_DTM_PNT
 70
     0
 62
     7
  6
CONTINUOUS
370
    -3
390
57B
347
5BD
348
0
  0
LAYER
  5
20A
330
2
100
AcDbSymbolTableRecord
100
AcDbLayerTableRecord
  2
04___PRT_ALL_DTM_PNT
 70
     0
 62
     7
  6
CONTINUOUS
370
    -3
390
57B
347
5BD
348
0
  0
LAYER
  5
20B
330
2
100
AcDbSymbolTableRecord
100
AcDbLayerTableRecord
  2
05_ALL_DTM_CSYS
 70
     0
 62
     7
  6
CONTINUOUS
370
    -3
390
57B
347
5BD
348
0
  0
LAYER
  5
20C
330
2
100
AcDbSymbolTableRecord
100
AcDbLayerTableRecord
  2
05__ASM_ALL_DTM_CSYS
 70
     0
 62
     7
  6
CONTINUOUS
370
    -3
390
57B
347
5BD
348
0
  0
LAYER
  5
20D
330
2
100
AcDbSymbolTableRecord
100
AcDbLayerTableRecord
  2
05__ASM_DEF_DTM_CSYS
 70
     0
 62
     7
  6
CONTINUOUS
370
    -3
390
57B
347
5BD
348
0
  0
LAYER
  5
20E
330
2
100
AcDbSymbolTableRecord
100
AcDbLayerTableRecord
  2
05___PRT_ALL_DTM_CSYS
 70
     0
 62
     7
  6
CONTINUOUS
370
    -3
390
57B
347
5BD
348
0
  0
LAYER
  5
20F
330
2
100
AcDbSymbolTableRecord
100
AcDbLayerTableRecord
  2
05___PRT_DEF_DTM_CSYS
 70
     0
 62
     7
  6
CONTINUOUS
370
    -3
390
57B
347
5BD
348
0
  0
LAYER
  5
210
330
2
100
AcDbSymbolTableRecord
100
AcDbLayerTableRecord
  2
06_ALL_SURFS
 70
     0
 62
     7
  6
CONTINUOUS
370
    -3
390
57B
347
5BD
348
0
  0
LAYER
  5
211
330
2
100
AcDbSymbolTableRecord
100
AcDbLayerTableRecord
  2
06__ASM_ALL_SURFS
 70
     0
 62
     7
  6
CONTINUOUS
370
    -3
390
57B
347
5BD
348
0
  0
LAYER
  5
212
330
2
100
AcDbSymbolTableRecord
100
AcDbLayerTableRecord
  2
06___PRT_ALL_SURFS
 70
     0
 62
     7
  6
CONTINUOUS
370
    -3
390
57B
347
5BD
348
0
  0
LAYER
  5
213
330
2
100
AcDbSymbolTableRecord
100
AcDbLayerTableRecord
  2
07__ASM_ALL_SKELETONS
 70
     0
 62
     7
  6
CONTINUOUS
370
    -3
390
57B
347
5BD
348
0
  0
LAYER
  5
214
330
2
100
AcDbSymbolTableRecord
100
AcDbLayerTableRecord
  2
1_ALL_PLANES
 70
     0
 62
     7
  6
CONTINUOUS
370
    -3
390
57B
347
5BD
348
0
  0
LAYER
  5
215
330
2
100
AcDbSymbolTableRecord
100
AcDbLayerTableRecord
  2
2_ALL_CSYS
 70
     0
 62
     7
  6
CONTINUOUS
370
    -3
390
57B
347
5BD
348
0
  0
LAYER
  5
216
330
2
100
AcDbSymbolTableRecord
100
AcDbLayerTableRecord
  2
3_ALL_AXES
 70
     0
 62
     7
  6
CONTINUOUS
370
    -3
390
57B
347
5BD
348
0
  0
LAYER
  5
217
330
2
100
AcDbSymbolTableRecord
100
AcDbLayerTableRecord
  2
4_ALL_POINTS
 70
     0
 62
     7
  6
CONTINUOUS
370
    -3
390
57B
347
5BD
348
0
  0
LAYER
  5
218
330
2
100
AcDbSymbolTableRecord
100
AcDbLayerTableRecord
  2
5_ALL_CURVES
 70
     0
 62
     7
  6
CONTINUOUS
370
    -3
390
57B
347
5BD
348
0
  0
LAYER
  5
219
330
2
100
AcDbSymbolTableRecord
100
AcDbLayerTableRecord
  2
5__COSTRUZIONE
 70
     0
 62
     7
  6
CONTINUOUS
370
    -3
390
57B
347
5BD
348
0
  0
LAYER
  5
21A
330
2
100
AcDbSymbolTableRecord
100
AcDbLayerTableRecord
  2
6_ALL_SURFS
 70
     0
 62
     7
  6
CONTINUOUS
370
    -3
390
57B
347
5BD
348
0
  0
LAYER
  5
21B
330
2
100
AcDbSymbolTableRecord
100
AcDbLayerTableRecord
  2
7_ALL_FEATURES
 70
     0
 62
     7
  6
CONTINUOUS
370
    -3
390
57B
347
5BD
348
0
  0
LAYER
  5
21C
330
2
100
AcDbSymbolTableRecord
100
AcDbLayerTableRecord
  2
9_SOLID
 70
     0
 62
     7
  6
CONTINUOUS
370
    -3
390
57B
347
5BD
348
0
  0
LAYER
  5
21D
330
2
100
AcDbSymbolTableRecord
100
AcDbLayerTableRecord
  2
INTFCLR_2
 70
     0
 62
     7
  6
CONTINUOUS
370
    -3
390
57B
347
5BD
348
0
  0
LAYER
  5
21E
330
2
100
AcDbSymbolTableRecord
100
AcDbLayerTableRecord
  2
INTFCLR_4
 70
     0
 62
     7
  6
CONTINUOUS
370
    -3
390
57B
347
5BD
348
0
  0
LAYER
  5
21F
330
2
100
AcDbSymbolTableRecord
100
AcDbLayerTableRecord
  2
INTF_RED
 70
     0
 62
     7
  6
CONTINUOUS
370
    -3
390
57B
347
5BD
348
0
  0
LAYER
  5
220
330
2
100
AcDbSymbolTableRecord
100
AcDbLayerTableRecord
  2
XXX_SOLIDO
 70
     0
 62
     7
  6
CONTINUOUS
370
    -3
390
57B
347
5BD
348
0
  0
ENDTAB
  0
TABLE
  2
STYLE
  5
3
330
0
100
AcDbSymbolTable
 70
     4
  0
STYLE
  5
11
330
3
100
AcDbSymbolTableRecord
100
AcDbTextStyleTableRecord
  2
STANDARD
 70
     0
 40
0.0
 41
1.0
 50
0.0
 71
     0
 42
0.2
  3
arial.ttf
  4

  0
STYLE
  5
221
330
3
100
AcDbSymbolTableRecord
100
AcDbTextStyleTableRecord
  2
TEXTSTYLE_1
 70
     0
 40
0.0
 41
0.8
 50
0.0
 71
     0
 42
0.2
  3
gdt
  4

  0
STYLE
  5
222
330
3
100
AcDbSymbolTableRecord
100
AcDbTextStyleTableRecord
  2
TEXTSTYLE_2
 70
     0
 40
0.0
 41
2.0
 50
0.0
 71
     0
 42
0.2
  3
txt
  4

  0
STYLE
  5
223
330
3
100
AcDbSymbolTableRecord
100
AcDbTextStyleTableRecord
  2
TEXTSTYLE_3
 70
     0
 40
0.0
 41
0.85
 50
0.0
 71
     0
 42
0.2
  3
txt
  4

  0
ENDTAB
  0
TABLE
  2
VIEW
  5
6
330
0
100
AcDbSymbolTable
 70
     0
  0
ENDTAB
  0
TABLE
  2
UCS
  5
7
330
0
100
AcDbSymbolTable
 70
     0
  0
ENDTAB
  0
TABLE
  2
APPID
  5
9
330
0
100
AcDbSymbolTable
 70
     1
  0
APPID
  5
224
330
9
100
AcDbSymbolTableRecord
100
AcDbRegAppTableRecord
  2
ACAD
 70
     0
  0
ENDTAB
  0
TABLE
  2
DIMSTYLE
  5
A
330
0
100
AcDbSymbolTable
 70
     3
100
AcDbDimStyleTable
  0
DIMSTYLE
105
22D
330
A
100
AcDbSymbolTableRecord
100
AcDbDimStyleTableRecord
  2
STANDARD
 70
     0
 41
2.5
 42
0.75
 44
0.75
 47
0.01
 48
0.01
 71
     1
 73
     0
 74
     0
 77
     1
 78
     8
 79
     2
140
3.0
147
0.625
171
     1
178
     0
179
     2
271
     2
272
     2
284
     8
340
11
341
225
342
225
343
225
344
225
  0
DIMSTYLE
105
22E
330
A
100
AcDbSymbolTableRecord
100
AcDbDimStyleTableRecord
  2
DIMSTYLE_1
 70
     0
 41
2.5
 42
0.75
 44
0.75
 47
1.2
 48
1.2
 73
     0
 74
     0
 77
     1
 78
     8
 79
     2
140
3.0
147
0.75
171
     1
178
     0
179
     2
271
     2
272
     2
284
     8
340
11
341
225
342
225
343
225
344
225
  0
DIMSTYLE
105
22F
330
A
100
AcDbSymbolTableRecord
100
AcDbDimStyleTableRecord
  2
DIMSTYLE_2
 70
     0
 41
2.5
 42
0.75
 44
0.75
 47
0.3
 48
0.3
 73
     0
 74
     0
 77
     1
 78
     8
 79
     2
140
3.0
147
0.75
171
     1
178
     0
179
     2
271
     2
272
     2
284
     8
340
11
341
225
342
225
343
225
344
225
  0
ENDTAB
  0
TABLE
  2
BLOCK_RECORD
  5
1
330
0
100
AcDbSymbolTable
 70
     8
  0
BLOCK_RECORD
  5
1F
330
1
100
AcDbSymbolTableRecord
100
AcDbBlockTableRecord
  2
*MODEL_SPACE
340
59F
 70
     0
280
     1
281
     0
  0
BLOCK_RECORD
  5
1B
330
1
100
AcDbSymbolTableRecord
100
AcDbBlockTableRecord
  2
*PAPER_SPACE
340
5A0
 70
     0
280
     1
281
     0
  0
BLOCK_RECORD
  5
225
330
1
100
AcDbSymbolTableRecord
100
AcDbBlockTableRecord
  2
_CLOSED
340
0
102
{BLKREFS
331
282
331
283
331
28B
331
28C
331
294
331
295
331
29D
331
29E
331
2A6
331
2A7
102
}
 70
     0
280
     1
281
     0
  0
BLOCK_RECORD
  5
226
330
1
100
AcDbSymbolTableRecord
100
AcDbBlockTableRecord
  2
*D1
340
0
 70
     0
280
     1
281
     0
  0
BLOCK_RECORD
  5
227
330
1
100
AcDbSymbolTableRecord
100
AcDbBlockTableRecord
  2
*D2
340
0
 70
     0
280
     1
281
     0
  0
BLOCK_RECORD
  5
228
330
1
100
AcDbSymbolTableRecord
100
AcDbBlockTableRecord
  2
*D3
340
0
 70
     0
280
     1
281
     0
  0
BLOCK_RECORD
  5
229
330
1
100
AcDbSymbolTableRecord
100
AcDbBlockTableRecord
  2
*D4
340
0
 70
     0
280
     1
281
     0
  0
BLOCK_RECORD
  5
22A
330
1
100
AcDbSymbolTableRecord
100
AcDbBlockTableRecord
  2
*D5
340
0
 70
     0
280
     1
281
     0
  0
BLOCK_RECORD
  5
22B
330
1
100
AcDbSymbolTableRecord
100
AcDbBlockTableRecord
  2
LOGO2_BL1
340
0
102
{BLKREFS
331
563
102
}
 70
     0
280
     1
281
     0
  0
BLOCK_RECORD
  5
22C
330
1
100
AcDbSymbolTableRecord
100
AcDbBlockTableRecord
  2
PROIEZIONE_EU_BL0
340
0
102
{BLKREFS
331
560
102
}
 70
     0
280
     1
281
     0
  0
ENDTAB
  0
ENDSEC
  0
SECTION
  2
BLOCKS
  0
BLOCK
  5
20
330
1F
100
AcDbEntity
  8
0
100
AcDbBlockBegin
  2
*MODEL_SPACE
 70
     0
 10
0.0
 20
0.0
 30
0.0
  3
*MODEL_SPACE
  1

  0
ENDBLK
  5
21
330
1F
100
AcDbEntity
  8
0
100
AcDbBlockEnd
  0
BLOCK
  5
1C
330
1B
100
AcDbEntity
 67
     1
  8
0
100
AcDbBlockBegin
  2
*PAPER_SPACE
 70
     0
 10
0.0
 20
0.0
 30
0.0
  3
*PAPER_SPACE
  1

  0
ENDBLK
  5
1D
330
1B
100
AcDbEntity
 67
     1
  8
0
100
AcDbBlockEnd
  0
BLOCK
  5
276
330
225
100
AcDbEntity
  8
0
100
AcDbBlockBegin
  2
_CLOSED
 70
     0
 10
0.0
 20
0.0
 30
0.0
  3
_CLOSED
  1

  0
LINE
  5
277
330
225
100
AcDbEntity
  8
0
  6
ByBlock
 62
     0
100
AcDbLine
 10
0.0
 20
0.0
 30
0.0
 11
-1.0
 21
0.2
 31
0.0
  0
LINE
  5
278
330
225
100
AcDbEntity
  8
0
  6
ByBlock
 62
     0
100
AcDbLine
 10
-1.0
 20
0.2
 30
0.0
 11
-1.0
 21
-0.2
 31
0.0
  0
LINE
  5
279
330
225
100
AcDbEntity
  8
0
  6
ByBlock
 62
     0
100
AcDbLine
 10
-1.0
 20
-0.2
 30
0.0
 11
0.0
 21
0.0
 31
0.0
  0
LINE
  5
27A
330
225
100
AcDbEntity
  8
0
  6
ByBlock
 62
     0
100
AcDbLine
 10
-1.0
 20
0.0
 30
0.0
 11
0.0
 21
0.0
 31
0.0
  0
ENDBLK
  5
27B
330
225
100
AcDbEntity
  8
0
  6
ByBlock
 62
     0
100
AcDbBlockEnd
  0
BLOCK
  5
27C
330
226
100
AcDbEntity
  8
0
100
AcDbBlockBegin
  2
*D1
 70
     1
 10
0.0
 20
0.0
 30
0.0
  3
*D1
  1

  0
MTEXT
  5
27D
330
226
100
AcDbEntity
  8
0
  6
Continuous
 62
     2
100
AcDbMText
 10
1840.7823320095
 20
776.1137961203
 30
0.0
 40
3.0
 41
9.3234200743
 46
0.0
 71
     2
 72
     1
  1
1522
 73
     1
 44
1.0
  0
LINE
  5
27E
330
226
100
AcDbEntity
  8
0
  6
Continuous
 62
     2
100
AcDbLine
 10
1079.7823320095
 20
746.0913855494
 30
0.0
 11
1079.7823320095
 21
773.1137961203
 31
0.0
  0
LINE
  5
27F
330
226
100
AcDbEntity
  8
0
  6
Continuous
 62
     2
100
AcDbLine
 10
2601.7823320095
 20
746.0913855494
 30
0.0
 11
2601.7823320095
 21
773.1137961203
 31
0.0
  0
LINE
  5
280
330
226
100
AcDbEntity
  8
0
  6
Continuous
 62
     2
100
AcDbLine
 10
1079.7823320095
 20
772.3637961203
 30
0.0
 11
1840.7823320095
 21
772.3637961203
 31
0.0
  0
LINE
  5
281
330
226
100
AcDbEntity
  8
0
  6
Continuous
 62
     2
100
AcDbLine
 10
2601.7823320095
 20
772.3637961203
 30
0.0
 11
1840.7823320095
 21
772.3637961203
 31
0.0
  0
INSERT
  5
282
330
226
100
AcDbEntity
  8
0
  6
Continuous
 62
     2
100
AcDbBlockReference
  2
_CLOSED
 10
1079.7823320095
 20
772.3637961203
 30
0.0
 41
2.5
 42
2.5
 43
2.5
 50
180.0
  0
INSERT
  5
283
330
226
100
AcDbEntity
  8
0
  6
Continuous
 62
     2
100
AcDbBlockReference
  2
_CLOSED
 10
2601.7823320095
 20
772.3637961203
 30
0.0
 41
2.5
 42
2.5
 43
2.5
  0
ENDBLK
  5
284
330
226
100
AcDbEntity
  8
0
  6
ByBlock
 62
     0
100
AcDbBlockEnd
  0
BLOCK
  5
285
330
227
100
AcDbEntity
  8
0
100
AcDbBlockBegin
  2
*D2
 70
     1
 10
0.0
 20
0.0
 30
0.0
  3
*D2
  1

  0
MTEXT
  5
286
330
227
100
AcDbEntity
  8
0
  6
Continuous
 62
     2
100
AcDbMText
 10
2821.3566563338
 20
649.2136561086
 30
0.0
 40
3.0
 41
8.1524163569
 46
0.0
 71
     2
 72
     1
  1
42,4
 73
     1
 44
1.0
  0
LINE
  5
287
330
227
100
AcDbEntity
  8
0
  6
Continuous
 62
     2
100
AcDbLine
 10
2800.1566563338
 20
668.2797771051
 30
0.0
 11
2800.1566563338
 21
644.7136561086
 31
0.0
  0
LINE
  5
288
330
227
100
AcDbEntity
  8
0
  6
Continuous
 62
     2
100
AcDbLine
 10
2842.5566563338
 20
668.2797771051
 30
0.0
 11
2842.5566563338
 21
644.7136561086
 31
0.0
  0
LINE
  5
289
330
227
100
AcDbEntity
  8
0
  6
Continuous
 62
     2
100
AcDbLine
 10
2800.1566563338
 20
645.4636561086
 30
0.0
 11
2821.3566563338
 21
645.4636561086
 31
0.0
  0
LINE
  5
28A
330
227
100
AcDbEntity
  8
0
  6
Continuous
 62
     2
100
AcDbLine
 10
2842.5566563338
 20
645.4636561086
 30
0.0
 11
2821.3566563338
 21
645.4636561086
 31
0.0
  0
INSERT
  5
28B
330
227
100
AcDbEntity
  8
0
  6
Continuous
 62
     2
100
AcDbBlockReference
  2
_CLOSED
 10
2800.1566563338
 20
645.4636561086
 30
0.0
 41
2.5
 42
2.5
 43
2.5
 50
180.0
  0
INSERT
  5
28C
330
227
100
AcDbEntity
  8
0
  6
Continuous
 62
     2
100
AcDbBlockReference
  2
_CLOSED
 10
2842.5566563338
 20
645.4636561086
 30
0.0
 41
2.5
 42
2.5
 43
2.5
  0
ENDBLK
  5
28D
330
227
100
AcDbEntity
  8
0
  6
ByBlock
 62
     0
100
AcDbBlockEnd
  0
BLOCK
  5
28E
330
228
100
AcDbEntity
  8
0
100
AcDbBlockBegin
  2
*D3
 70
     1
 10
0.0
 20
0.0
 30
0.0
  3
*D3
  1

  0
MTEXT
  5
28F
330
228
100
AcDbEntity
  8
0
  6
Continuous
 62
     2
100
AcDbMText
 10
2875.2979586388
 20
704.5913855494
 30
0.0
 40
3.0
 41
8.1524163569
 46
0.0
 71
     2
 72
     1
  1
83,5
 11
0.0
 21
1.0
 31
0.0
 73
     1
 44
1.0
  0
LINE
  5
290
330
228
100
AcDbEntity
  8
0
  6
Continuous
 62
     2
100
AcDbLine
 10
2842.1066563338
 20
662.8413855494
 30
0.0
 11
2879.7979586388
 21
662.8413855494
 31
0.0
  0
LINE
  5
291
330
228
100
AcDbEntity
  8
0
  6
Continuous
 62
     2
100
AcDbLine
 10
2842.1066563338
 20
746.3413855494
 30
0.0
 11
2879.7979586388
 21
746.3413855494
 31
0.0
  0
LINE
  5
292
330
228
100
AcDbEntity
  8
0
  6
Continuous
 62
     2
100
AcDbLine
 10
2879.0479586388
 20
662.8413855494
 30
0.0
 11
2879.0479586388
 21
704.5913855494
 31
0.0
  0
LINE
  5
293
330
228
100
AcDbEntity
  8
0
  6
Continuous
 62
     2
100
AcDbLine
 10
2879.0479586388
 20
746.3413855494
 30
0.0
 11
2879.0479586388
 21
704.5913855494
 31
0.0
  0
INSERT
  5
294
330
228
100
AcDbEntity
  8
0
  6
Continuous
 62
     2
100
AcDbBlockReference
  2
_CLOSED
 10
2879.0479586388
 20
662.8413855494
 30
0.0
 41
2.5
 42
2.5
 43
2.5
 50
270.0
  0
INSERT
  5
295
330
228
100
AcDbEntity
  8
0
  6
Continuous
 62
     2
100
AcDbBlockReference
  2
_CLOSED
 10
2879.0479586388
 20
746.3413855494
 30
0.0
 41
2.5
 42
2.5
 43
2.5
 50
90.0
  0
ENDBLK
  5
296
330
228
100
AcDbEntity
  8
0
  6
ByBlock
 62
     0
100
AcDbBlockEnd
  0
BLOCK
  5
297
330
229
100
AcDbEntity
  8
0
100
AcDbBlockBegin
  2
*D4
 70
     1
 10
0.0
 20
0.0
 30
0.0
  3
*D4
  1

  0
MTEXT
  5
298
330
229
100
AcDbEntity
  8
0
  6
Continuous
 62
     2
100
AcDbMText
 10
2755.9726123133
 20
711.6413855494
 30
0.0
 40
3.0
 41
8.1524163569
 46
0.0
 71
     2
 72
     1
  1
70,6
 11
0.0
 21
1.0
 31
0.0
 73
     1
 44
1.0
  0
LINE
  5
299
330
229
100
AcDbEntity
  8
0
  6
Continuous
 62
     2
100
AcDbLine
 10
2774.0566563338
 20
676.3413855494
 30
0.0
 11
2758.9726123133
 21
676.3413855494
 31
0.0
  0
LINE
  5
29A
330
229
100
AcDbEntity
  8
0
  6
Continuous
 62
     2
100
AcDbLine
 10
2799.6566563338
 20
746.9413855494
 30
0.0
 11
2758.9726123133
 21
746.9413855494
 31
0.0
  0
LINE
  5
29B
330
229
100
AcDbEntity
  8
0
  6
Continuous
 62
     2
100
AcDbLine
 10
2759.7226123133
 20
676.3413855494
 30
0.0
 11
2759.7226123133
 21
711.6413855494
 31
0.0
  0
LINE
  5
29C
330
229
100
AcDbEntity
  8
0
  6
Continuous
 62
     2
100
AcDbLine
 10
2759.7226123133
 20
746.9413855494
 30
0.0
 11
2759.7226123133
 21
711.6413855494
 31
0.0
  0
INSERT
  5
29D
330
229
100
AcDbEntity
  8
0
  6
Continuous
 62
     2
100
AcDbBlockReference
  2
_CLOSED
 10
2759.7226123133
 20
676.3413855494
 30
0.0
 41
2.5
 42
2.5
 43
2.5
 50
270.0
  0
INSERT
  5
29E
330
229
100
AcDbEntity
  8
0
  6
Continuous
 62
     2
100
AcDbBlockReference
  2
_CLOSED
 10
2759.7226123133
 20
746.9413855494
 30
0.0
 41
2.5
 42
2.5
 43
2.5
 50
90.0
  0
ENDBLK
  5
29F
330
229
100
AcDbEntity
  8
0
  6
ByBlock
 62
     0
100
AcDbBlockEnd
  0
BLOCK
  5
2A0
330
22A
100
AcDbEntity
  8
0
100
AcDbBlockBegin
  2
*D5
 70
     1
 10
0.0
 20
0.0
 30
0.0
  3
*D5
  1

  0
MTEXT
  5
2A1
330
22A
100
AcDbEntity
  8
0
  6
Continuous
 62
     2
100
AcDbMText
 10
2648.8783464263
 20
400.5373314954
 30
0.0
 40
3.0
 41
8.1524163569
 46
0.0
 71
     2
 72
     1
  1
93,1
 11
0.0
 21
1.0
 31
0.0
 73
     1
 44
1.0
  0
LINE
  5
2A2
330
22A
100
AcDbEntity
  8
0
  6
Continuous
 62
     2
100
AcDbLine
 10
2503.0323320095
 20
353.9873314954
 30
0.0
 11
2653.3783464263
 21
353.9873314954
 31
0.0
  0
LINE
  5
2A3
330
22A
100
AcDbEntity
  8
0
  6
Continuous
 62
     2
100
AcDbLine
 10
2503.0323320095
 20
447.0873314954
 30
0.0
 11
2653.3783464263
 21
447.0873314954
 31
0.0
  0
LINE
  5
2A4
330
22A
100
AcDbEntity
  8
0
  6
Continuous
 62
     2
100
AcDbLine
 10
2652.6283464263
 20
353.9873314954
 30
0.0
 11
2652.6283464263
 21
400.5373314954
 31
0.0
  0
LINE
  5
2A5
330
22A
100
AcDbEntity
  8
0
  6
Continuous
 62
     2
100
AcDbLine
 10
2652.6283464263
 20
447.0873314954
 30
0.0
 11
2652.6283464263
 21
400.5373314954
 31
0.0
  0
INSERT
  5
2A6
330
22A
100
AcDbEntity
  8
0
  6
Continuous
 62
     2
100
AcDbBlockReference
  2
_CLOSED
 10
2652.6283464263
 20
353.9873314954
 30
0.0
 41
2.5
 42
2.5
 43
2.5
 50
270.0
  0
INSERT
  5
2A7
330
22A
100
AcDbEntity
  8
0
  6
Continuous
 62
     2
100
AcDbBlockReference
  2
_CLOSED
 10
2652.6283464263
 20
447.0873314954
 30
0.0
 41
2.5
 42
2.5
 43
2.5
 50
90.0
  0
ENDBLK
  5
2A8
330
22A
100
AcDbEntity
  8
0
  6
ByBlock
 62
     0
100
AcDbBlockEnd
  0
BLOCK
  5
230
330
22B
100
AcDbEntity
  8
0
100
AcDbBlockBegin
  2
LOGO2_BL1
 70
     0
 10
3080.7094795348
 20
35.0016383976
 30
0.0
  3
LOGO2_BL1
  1

  0
LINE
  5
231
330
22B
100
AcDbEntity
  8
0
  6
Continuous
 62
     7
100
AcDbLine
 10
3072.452404763
 20
38.1971297364
 30
0.0
 11
3071.1480638336
 21
38.1971297364
 31
0.0
  0
LINE
  5
232
330
22B
100
AcDbEntity
  8
0
  6
Continuous
 62
     7
100
AcDbLine
 10
3071.1480638336
 20
38.1971297364
 30
0.0
 11
3071.1480638336
 21
27.7380636766
 31
0.0
  0
LINE
  5
233
330
22B
100
AcDbEntity
  8
0
  6
Continuous
 62
     7
100
AcDbLine
 10
3071.1480638336
 20
27.7380636766
 30
0.0
 11
3075.6291187219
 21
27.7380636766
 31
0.0
  0
LINE
  5
234
330
22B
100
AcDbEntity
  8
0
  6
Continuous
 62
     7
100
AcDbLine
 10
3075.6291187219
 20
27.7380636766
 30
0.0
 11
3075.6291187219
 21
28.9309180016
 31
0.0
  0
LINE
  5
235
330
22B
100
AcDbEntity
  8
0
  6
Continuous
 62
     7
100
AcDbLine
 10
3075.6291187219
 20
28.9309180016
 30
0.0
 11
3072.452404763
 21
28.9309180016
 31
0.0
  0
LINE
  5
236
330
22B
100
AcDbEntity
  8
0
  6
Continuous
 62
     7
100
AcDbLine
 10
3072.452404763
 20
28.9309180016
 30
0.0
 11
3072.452404763
 21
38.1971297364
 31
0.0
  0
LINE
  5
237
330
22B
100
AcDbEntity
  8
0
  6
Continuous
 62
     7
100
AcDbLine
 10
3087.3887309793
 20
38.1971297364
 30
0.0
 11
3086.0849134612
 21
38.1971297364
 31
0.0
  0
LINE
  5
238
330
22B
100
AcDbEntity
  8
0
  6
Continuous
 62
     7
100
AcDbLine
 10
3086.0849134612
 20
38.1971297364
 30
0.0
 11
3086.0849134612
 21
27.7380636766
 31
0.0
  0
LINE
  5
239
330
22B
100
AcDbEntity
  8
0
  6
Continuous
 62
     7
100
AcDbLine
 10
3086.0849134612
 20
27.7380636766
 30
0.0
 11
3090.5660992023
 21
27.7380636766
 31
0.0
  0
LINE
  5
23A
330
22B
100
AcDbEntity
  8
0
  6
Continuous
 62
     7
100
AcDbLine
 10
3090.5660992023
 20
27.7380636766
 30
0.0
 11
3090.5660992023
 21
28.9309180016
 31
0.0
  0
LINE
  5
23B
330
22B
100
AcDbEntity
  8
0
  6
Continuous
 62
     7
100
AcDbLine
 10
3090.5660992023
 20
28.9309180016
 30
0.0
 11
3087.3887309793
 21
28.9309180016
 31
0.0
  0
LINE
  5
23C
330
22B
100
AcDbEntity
  8
0
  6
Continuous
 62
     7
100
AcDbLine
 10
3087.3887309793
 20
28.9309180016
 30
0.0
 11
3087.3887309793
 21
38.1971297364
 31
0.0
  0
LWPOLYLINE
  5
23D
330
22B
100
AcDbEntity
  8
0
  6
Continuous
 62
     7
100
AcDbPolyline
 90
        2
 70
     0
 43
0.2
 10
3069.5024587446
 20
24.3945123697
 10
3069.5024587446
 20
22.5374491203
  0
LWPOLYLINE
  5
23E
330
22B
100
AcDbEntity
  8
0
  6
Continuous
 62
     7
100
AcDbPolyline
 90
        2
 70
     0
 43
0.2
 10
3069.5024587446
 20
22.5374491203
 10
3070.2981747549
 20
22.5374491203
  0
LWPOLYLINE
  5
23F
330
22B
100
AcDbEntity
  8
0
  6
Continuous
 62
     7
100
AcDbPolyline
 90
        2
 70
     0
 43
0.2
 10
3070.2981747549
 20
22.5374491203
 10
3070.2981747549
 20
22.7494306919
  0
LWPOLYLINE
  5
240
330
22B
100
AcDbEntity
  8
0
  6
Continuous
 62
     7
100
AcDbPolyline
 90
        2
 70
     0
 43
0.2
 10
3070.2981747549
 20
22.7494306919
 10
3069.7340682394
 20
22.7494306919
  0
LWPOLYLINE
  5
241
330
22B
100
AcDbEntity
  8
0
  6
Continuous
 62
     7
100
AcDbPolyline
 90
        2
 70
     0
 43
0.2
 10
3069.7340682394
 20
22.7494306919
 10
3069.7340682394
 20
24.3945123697
  0
LWPOLYLINE
  5
242
330
22B
100
AcDbEntity
  8
0
  6
Continuous
 62
     7
100
AcDbPolyline
 90
        2
 70
     0
 43
0.2
 10
3069.7340682394
 20
24.3945123697
 10
3069.5024587446
 20
24.3945123697
  0
SPLINE
  5
243
330
22B
100
AcDbEntity
  8
0
  6
Continuous
 62
     7
100
AcDbSpline
 70
     3
 71
     3
 72
    35
 73
    31
 74
     0
 42
0.000000001
 43
0.0000001
 40
0.0
 40
0.0
 40
0.0
 40
0.0
 40
1.0
 40
1.0
 40
1.0
 40
2.0
 40
2.0
 40
2.0
 40
3.0
 40
3.0
 40
3.0
 40
4.0
 40
4.0
 40
4.0
 40
5.0
 40
5.0
 40
5.0
 40
6.0
 40
6.0
 40
6.0
 40
7.0
 40
7.0
 40
7.0
 40
8.0
 40
8.0
 40
8.0
 40
9.0
 40
9.0
 40
9.0
 40
10.0
 40
10.0
 40
10.0
 40
10.0
 10
3071.6964680105
 20
23.6900007762
 30
0.0
 10
3071.6964680105
 20
23.6900007762
 30
0.0
 10
3071.6964680105
 20
23.027885497
 30
0.0
 10
3071.6964680105
 20
23.027885497
 30
0.0
 10
3071.6964680105
 20
22.7127919017
 30
0.0
 10
3071.8443316993
 20
22.4981932737
 30
0.0
 10
3072.1844181836
 20
22.4981932737
 30
0.0
 10
3072.5239812566
 20
22.4981932737
 30
0.0
 10
3072.6721066511
 20
22.7127919017
 30
0.0
 10
3072.6721066511
 20
23.027885497
 30
0.0
 10
3072.6721066511
 20
23.027885497
 30
0.0
 10
3072.6721066511
 20
23.6900007762
 30
0.0
 10
3072.6721066511
 20
23.6900007762
 30
0.0
 10
3072.6721066511
 20
23.6900007762
 30
0.0
 10
3072.4500494122
 20
23.6900007762
 30
0.0
 10
3072.4500494122
 20
23.6900007762
 30
0.0
 10
3072.4500494122
 20
23.6900007762
 30
0.0
 10
3072.4500494122
 20
23.0530092388
 30
0.0
 10
3072.4500494122
 20
23.0530092388
 30
0.0
 10
3072.4500494122
 20
22.8671982316
 30
0.0
 10
3072.4033349548
 20
22.7044173211
 30
0.0
 10
3072.1844181836
 20
22.7044173211
 30
0.0
 10
3071.9649780012
 20
22.7044173211
 30
0.0
 10
3071.9182635437
 20
22.8671982316
 30
0.0
 10
3071.9182635437
 20
23.0530092388
 30
0.0
 10
3071.9182635437
 20
23.0530092388
 30
0.0
 10
3071.9182635437
 20
23.6900007762
 30
0.0
 10
3071.9182635437
 20
23.6900007762
 30
0.0
 10
3071.9182635437
 20
23.6900007762
 30
0.0
 10
3071.6964680105
 20
23.6900007762
 30
0.0
 10
3071.6964680105
 20
23.6900007762
 30
0.0
  0
SPLINE
  5
244
330
22B
100
AcDbEntity
  8
0
  6
Continuous
 62
     7
100
AcDbSpline
 70
     3
 71
     3
 72
    35
 73
    31
 74
     0
 42
0.000000001
 43
0.0000001
 40
0.0
 40
0.0
 40
0.0
 40
0.0
 40
1.0
 40
1.0
 40
1.0
 40
2.0
 40
2.0
 40
2.0
 40
3.0
 40
3.0
 40
3.0
 40
4.0
 40
4.0
 40
4.0
 40
5.0
 40
5.0
 40
5.0
 40
6.0
 40
6.0
 40
6.0
 40
7.0
 40
7.0
 40
7.0
 40
8.0
 40
8.0
 40
8.0
 40
9.0
 40
9.0
 40
9.0
 40
10.0
 40
10.0
 40
10.0
 40
10.0
 10
3075.0952392083
 20
23.6486512844
 30
0.0
 10
3075.0067827006
 20
23.6999455907
 30
0.0
 10
3074.893333304
 20
23.7250693325
 30
0.0
 10
3074.789697869
 20
23.7250693325
 30
0.0
 10
3074.4348250158
 20
23.7250693325
 30
0.0
 10
3074.1593798256
 20
23.4612700434
 30
0.0
 10
3074.1593798256
 20
23.1037801338
 30
0.0
 10
3074.1593798256
 20
22.7588520951
 30
0.0
 10
3074.4378346307
 20
22.498716685
 30
0.0
 10
3074.7773977037
 20
22.498716685
 30
0.0
 10
3074.893333304
 20
22.498716685
 30
0.0
 10
3074.9940899769
 20
22.5206999591
 30
0.0
 10
3075.0952392083
 20
22.5746113217
 30
0.0
 10
3075.0952392083
 20
22.5746113217
 30
0.0
 10
3075.0952392083
 20
22.8572534172
 30
0.0
 10
3075.0952392083
 20
22.8572534172
 30
0.0
 10
3075.0113625494
 20
22.7640862079
 30
0.0
 10
3074.9078579672
 20
22.7049407324
 30
0.0
 10
3074.7797530545
 20
22.7049407324
 30
0.0
 10
3074.5460499145
 20
22.7049407324
 30
0.0
 10
3074.3807828003
 20
22.8771430461
 30
0.0
 10
3074.3807828003
 20
23.1137249482
 30
0.0
 10
3074.3807828003
 20
23.3257065198
 30
0.0
 10
3074.5485361181
 20
23.5177984625
 30
0.0
 10
3074.7653592441
 20
23.5177984625
 30
0.0
 10
3074.8981748584
 20
23.5177984625
 30
0.0
 10
3075.0067827006
 20
23.4638870998
 30
0.0
 10
3075.0952392083
 20
23.3628687213
 30
0.0
 10
3075.0952392083
 20
23.3628687213
 30
0.0
 10
3075.0952392083
 20
23.6486512844
 30
0.0
 10
3075.0952392083
 20
23.6486512844
 30
0.0
  0
SPLINE
  5
245
330
22B
100
AcDbEntity
  8
0
  6
Continuous
 62
     7
100
AcDbSpline
 70
     3
 71
     3
 72
    32
 73
    28
 74
     0
 42
0.000000001
 43
0.0000001
 40
0.0
 40
0.0
 40
0.0
 40
0.0
 40
1.0
 40
1.0
 40
1.0
 40
2.0
 40
2.0
 40
2.0
 40
3.0
 40
3.0
 40
3.0
 40
4.0
 40
4.0
 40
4.0
 40
5.0
 40
5.0
 40
5.0
 40
6.0
 40
6.0
 40
6.0
 40
7.0
 40
7.0
 40
7.0
 40
8.0
 40
8.0
 40
8.0
 40
9.0
 40
9.0
 40
9.0
 40
9.0
 10
3077.6271104605
 20
23.0770861581
 30
0.0
 10
3077.6271104605
 20
23.0770861581
 30
0.0
 10
3077.6271104605
 20
23.1111078918
 30
0.0
 10
3077.6271104605
 20
23.1111078918
 30
0.0
 10
3077.6271104605
 20
23.4534188741
 30
0.0
 10
3077.4542538827
 20
23.7250693325
 30
0.0
 10
3077.0876042755
 20
23.7250693325
 30
0.0
 10
3076.7159822612
 20
23.7250693325
 30
0.0
 10
3076.5262456693
 20
23.4586529869
 30
0.0
 10
3076.5262456693
 20
23.1037801338
 30
0.0
 10
3076.5262456693
 20
22.7640862079
 30
0.0
 10
3076.740320886
 20
22.4981932737
 30
0.0
 10
3077.09244583
 20
22.4981932737
 30
0.0
 10
3077.3164658612
 20
22.4981932737
 30
0.0
 10
3077.5186334711
 20
22.6138671683
 30
0.0
 10
3077.6271104605
 20
22.813286869
 30
0.0
 10
3077.6271104605
 20
22.813286869
 30
0.0
 10
3077.4394675138
 20
22.9200627717
 30
0.0
 10
3077.4394675138
 20
22.9200627717
 30
0.0
 10
3077.3559834134
 20
22.7813587804
 30
0.0
 10
3077.2647789965
 20
22.6955193292
 30
0.0
 10
3077.0951937392
 20
22.6955193292
 30
0.0
 10
3076.8832121676
 20
22.6955193292
 30
0.0
 10
3076.7502657005
 20
22.8802835138
 30
0.0
 10
3076.7479103497
 20
23.0770861581
 30
0.0
 10
3076.7479103497
 20
23.0770861581
 30
0.0
 10
3077.6271104605
 20
23.0770861581
 30
0.0
 10
3077.6271104605
 20
23.0770861581
 30
0.0
  0
SPLINE
  5
246
330
22B
100
AcDbEntity
  8
0
  6
Continuous
 62
     7
100
AcDbSpline
 70
     3
 71
     3
 72
    14
 73
    10
 74
     0
 42
0.000000001
 43
0.0000001
 40
0.0
 40
0.0
 40
0.0
 40
0.0
 40
1.0
 40
1.0
 40
1.0
 40
2.0
 40
2.0
 40
2.0
 40
3.0
 40
3.0
 40
3.0
 40
3.0
 10
3076.7599488093
 20
23.2445777702
 30
0.0
 10
3076.7875587548
 20
23.4094523259
 30
0.0
 10
3076.9154019618
 20
23.5324539785
 30
0.0
 10
3077.0876042755
 20
23.5324539785
 30
0.0
 10
3077.2647789965
 20
23.5324539785
 30
0.0
 10
3077.3782283931
 20
23.4167800839
 30
0.0
 10
3077.4054457801
 20
23.2445777702
 30
0.0
 10
3077.4054457801
 20
23.2445777702
 30
0.0
 10
3076.7599488093
 20
23.2445777702
 30
0.0
 10
3076.7599488093
 20
23.2445777702
 30
0.0
  0
SPLINE
  5
247
330
22B
100
AcDbEntity
  8
0
  6
Continuous
 62
     7
100
AcDbSpline
 70
     3
 71
     3
 72
    20
 73
    16
 74
     0
 42
0.000000001
 43
0.0000001
 40
0.0
 40
0.0
 40
0.0
 40
0.0
 40
1.0
 40
1.0
 40
1.0
 40
2.0
 40
2.0
 40
2.0
 40
3.0
 40
3.0
 40
3.0
 40
4.0
 40
4.0
 40
4.0
 40
5.0
 40
5.0
 40
5.0
 40
5.0
 10
3079.6511419107
 20
23.4539422854
 30
0.0
 10
3079.6511419107
 20
23.4539422854
 30
0.0
 10
3080.0622814773
 20
22.951467449
 30
0.0
 10
3080.0622814773
 20
22.951467449
 30
0.0
 10
3079.9462150242
 20
22.8357935544
 30
0.0
 10
3079.8084270027
 20
22.7054641437
 30
0.0
 10
3079.6364863946
 20
22.7054641437
 30
0.0
 10
3079.4590499681
 20
22.7054641437
 30
0.0
 10
3079.2915583559
 20
22.8698152881
 30
0.0
 10
3079.2915583559
 20
23.0467283034
 30
0.0
 10
3079.2915583559
 20
23.2246881413
 30
0.0
 10
3079.5013154296
 20
23.3508302616
 30
0.0
 10
3079.628896931
 20
23.438763358
 30
0.0
 10
3079.628896931
 20
23.438763358
 30
0.0
 10
3079.6511419107
 20
23.4539422854
 30
0.0
 10
3079.6511419107
 20
23.4539422854
 30
0.0
  0
SPLINE
  5
248
330
22B
100
AcDbEntity
  8
0
  6
Continuous
 62
     7
100
AcDbSpline
 70
     3
 71
     3
 72
    23
 73
    19
 74
     0
 42
0.000000001
 43
0.0000001
 40
0.0
 40
0.0
 40
0.0
 40
0.0
 40
1.0
 40
1.0
 40
1.0
 40
2.0
 40
2.0
 40
2.0
 40
3.0
 40
3.0
 40
3.0
 40
4.0
 40
4.0
 40
4.0
 40
5.0
 40
5.0
 40
5.0
 40
6.0
 40
6.0
 40
6.0
 40
6.0
 10
3079.7004734246
 20
23.7449589614
 30
0.0
 10
3079.7004734246
 20
23.7449589614
 30
0.0
 10
3079.6388417454
 20
23.8234706546
 30
0.0
 10
3079.6388417454
 20
23.8234706546
 30
0.0
 10
3079.5849303828
 20
23.8920375333
 30
0.0
 10
3079.5281402581
 20
23.9611278233
 30
0.0
 10
3079.5281402581
 20
24.0548184438
 30
0.0
 10
3079.5281402581
 20
24.1736328062
 30
0.0
 10
3079.6240553766
 20
24.2510976768
 30
0.0
 10
3079.7350185696
 20
24.2510976768
 30
0.0
 10
3079.8582819279
 20
24.2510976768
 30
0.0
 10
3079.9515799899
 20
24.1799137416
 30
0.0
 10
3079.9515799899
 20
24.0495843309
 30
0.0
 10
3079.9515799899
 20
23.9145442187
 30
0.0
 10
3079.8234750772
 20
23.8381261706
 30
0.0
 10
3079.7299153095
 20
23.7643251791
 30
0.0
 10
3079.7299153095
 20
23.7643251791
 30
0.0
 10
3079.7004734246
 20
23.7449589614
 30
0.0
 10
3079.7004734246
 20
23.7449589614
 30
0.0
  0
SPLINE
  5
249
330
22B
100
AcDbEntity
  8
0
  6
Continuous
 62
     7
100
AcDbSpline
 70
     3
 71
     3
 72
    50
 73
    46
 74
     0
 42
0.000000001
 43
0.0000001
 40
0.0
 40
0.0
 40
0.0
 40
0.0
 40
1.0
 40
1.0
 40
1.0
 40
2.0
 40
2.0
 40
2.0
 40
3.0
 40
3.0
 40
3.0
 40
4.0
 40
4.0
 40
4.0
 40
5.0
 40
5.0
 40
5.0
 40
6.0
 40
6.0
 40
6.0
 40
7.0
 40
7.0
 40
7.0
 40
8.0
 40
8.0
 40
8.0
 40
9.0
 40
9.0
 40
9.0
 40
10.0
 40
10.0
 40
10.0
 40
11.0
 40
11.0
 40
11.0
 40
12.0
 40
12.0
 40
12.0
 40
13.0
 40
13.0
 40
13.0
 40
14.0
 40
14.0
 40
14.0
 40
15.0
 40
15.0
 40
15.0
 40
15.0
 10
3080.4026296673
 20
22.5379725316
 30
0.0
 10
3080.4026296673
 20
22.5379725316
 30
0.0
 10
3080.688019672
 20
22.5379725316
 30
0.0
 10
3080.688019672
 20
22.5379725316
 30
0.0
 10
3080.688019672
 20
22.5379725316
 30
0.0
 10
3080.3556535042
 20
22.9488503926
 30
0.0
 10
3080.3556535042
 20
22.9488503926
 30
0.0
 10
3080.3556535042
 20
22.9488503926
 30
0.0
 10
3080.582159739
 20
23.2147433268
 30
0.0
 10
3080.582159739
 20
23.2147433268
 30
0.0
 10
3080.582159739
 20
23.2147433268
 30
0.0
 10
3080.4339034917
 20
23.3675794229
 30
0.0
 10
3080.4339034917
 20
23.3675794229
 30
0.0
 10
3080.4339034917
 20
23.3675794229
 30
0.0
 10
3080.2179963355
 20
23.1163420047
 30
0.0
 10
3080.2179963355
 20
23.1163420047
 30
0.0
 10
3080.2179963355
 20
23.1163420047
 30
0.0
 10
3079.8309336881
 20
23.584271696
 30
0.0
 10
3079.8309336881
 20
23.584271696
 30
0.0
 10
3079.9863868406
 20
23.6983753568
 30
0.0
 10
3080.1686648216
 20
23.8381261706
 30
0.0
 10
3080.1686648216
 20
24.0474906858
 30
0.0
 10
3080.1686648216
 20
24.2914003459
 30
0.0
 10
3079.9666280645
 20
24.4348150388
 30
0.0
 10
3079.7401218296
 20
24.4348150388
 30
0.0
 10
3079.4959504639
 20
24.4348150388
 30
0.0
 10
3079.3115788377
 20
24.2840725879
 30
0.0
 10
3079.3115788377
 20
24.0276010569
 30
0.0
 10
3079.3115788377
 20
23.8700542592
 30
0.0
 10
3079.4102418655
 20
23.7323970905
 30
0.0
 10
3079.5155783872
 20
23.6214338975
 30
0.0
 10
3079.5155783872
 20
23.6214338975
 30
0.0
 10
3079.4000353454
 20
23.5376880914
 30
0.0
 10
3079.4000353454
 20
23.5376880914
 30
0.0
 10
3079.2223372131
 20
23.4094523259
 30
0.0
 10
3079.0749969356
 20
23.2817399716
 30
0.0
 10
3079.0749969356
 20
23.0446346582
 30
0.0
 10
3079.0749969356
 20
22.7243069501
 30
0.0
 10
3079.3335621118
 20
22.4981932737
 30
0.0
 10
3079.6439450055
 20
22.4981932737
 30
0.0
 10
3079.8628617767
 20
22.4981932737
 30
0.0
 10
3080.0600569794
 20
22.6232885715
 30
0.0
 10
3080.2003312045
 20
22.7892099498
 30
0.0
 10
3080.2003312045
 20
22.7892099498
 30
0.0
 10
3080.4026296673
 20
22.5379725316
 30
0.0
 10
3080.4026296673
 20
22.5379725316
 30
0.0
  0
LWPOLYLINE
  5
24A
330
22B
100
AcDbEntity
  8
0
  6
Continuous
 62
     7
100
AcDbPolyline
 90
        2
 70
     0
 43
0.2
 10
3082.338073757
 20
24.3945123697
 10
3082.1067259678
 20
24.3945123697
  0
LWPOLYLINE
  5
24B
330
22B
100
AcDbEntity
  8
0
  6
Continuous
 62
     7
100
AcDbPolyline
 90
        2
 70
     0
 43
0.2
 10
3082.1067259678
 20
24.3945123697
 10
3082.1067259678
 20
22.5374491203
  0
LWPOLYLINE
  5
24C
330
22B
100
AcDbEntity
  8
0
  6
Continuous
 62
     7
100
AcDbPolyline
 90
        2
 70
     0
 43
0.2
 10
3082.1067259678
 20
22.5374491203
 10
3082.9020494197
 20
22.5374491203
  0
LWPOLYLINE
  5
24D
330
22B
100
AcDbEntity
  8
0
  6
Continuous
 62
     7
100
AcDbPolyline
 90
        2
 70
     0
 43
0.2
 10
3082.9020494197
 20
22.5374491203
 10
3082.9020494197
 20
22.7494306919
  0
LWPOLYLINE
  5
24E
330
22B
100
AcDbEntity
  8
0
  6
Continuous
 62
     7
100
AcDbPolyline
 90
        2
 70
     0
 43
0.2
 10
3082.9020494197
 20
22.7494306919
 10
3082.338073757
 20
22.7494306919
  0
LWPOLYLINE
  5
24F
330
22B
100
AcDbEntity
  8
0
  6
Continuous
 62
     7
100
AcDbPolyline
 90
        2
 70
     0
 43
0.2
 10
3082.338073757
 20
22.7494306919
 10
3082.338073757
 20
24.3945123697
  0
LWPOLYLINE
  5
250
330
22B
100
AcDbEntity
  8
0
  6
Continuous
 62
     7
100
AcDbPolyline
 90
        2
 70
     0
 43
0.2
 10
3084.5811528312
 20
23.6900007762
 10
3084.360011562
 20
23.6900007762
  0
LWPOLYLINE
  5
251
330
22B
100
AcDbEntity
  8
0
  6
Continuous
 62
     7
100
AcDbPolyline
 90
        2
 70
     0
 43
0.2
 10
3084.360011562
 20
23.6900007762
 10
3084.360011562
 20
22.5379725316
  0
LWPOLYLINE
  5
252
330
22B
100
AcDbEntity
  8
0
  6
Continuous
 62
     7
100
AcDbPolyline
 90
        2
 70
     0
 43
0.2
 10
3084.360011562
 20
22.5379725316
 10
3084.5811528312
 20
22.5379725316
  0
LWPOLYLINE
  5
253
330
22B
100
AcDbEntity
  8
0
  6
Continuous
 62
     7
100
AcDbPolyline
 90
        2
 70
     0
 43
0.2
 10
3084.5811528312
 20
22.5379725316
 10
3084.5811528312
 20
23.6900007762
  0
LWPOLYLINE
  5
254
330
22B
100
AcDbEntity
  8
0
  6
Continuous
 62
     7
100
AcDbPolyline
 90
        2
 70
     1
 43
0.2
 10
3084.318129554
 20
24.2199547051
 42
1.0
 10
3084.6232965449
 20
24.2199547051
 42
1.0
  0
SPLINE
  5
255
330
22B
100
AcDbEntity
  8
0
  6
Continuous
 62
     7
100
AcDbSpline
 70
     3
 71
     3
 72
    17
 73
    13
 74
     0
 42
0.000000001
 43
0.0000001
 40
0.0
 40
0.0
 40
0.0
 40
0.0
 40
1.0
 40
1.0
 40
1.0
 40
2.0
 40
2.0
 40
2.0
 40
3.0
 40
3.0
 40
3.0
 40
4.0
 40
4.0
 40
4.0
 40
4.0
 10
3086.7114367728
 20
22.6955193292
 30
0.0
 10
3086.4774719271
 20
22.6955193292
 30
0.0
 10
3086.3471425164
 20
22.8975560863
 30
0.0
 10
3086.3471425164
 20
23.1137249482
 30
0.0
 10
3086.3471425164
 20
23.3283235763
 30
0.0
 10
3086.4829677456
 20
23.5272198657
 30
0.0
 10
3086.7114367728
 20
23.5272198657
 30
0.0
 10
3086.950897437
 20
23.5272198657
 30
0.0
 10
3087.0864609605
 20
23.3382683907
 30
0.0
 10
3087.0864609605
 20
23.1137249482
 30
0.0
 10
3087.0864609605
 20
22.8876112719
 30
0.0
 10
3086.9532527878
 20
22.6955193292
 30
0.0
 10
3086.7114367728
 20
22.6955193292
 30
0.0
  0
SPLINE
  5
256
330
22B
100
AcDbEntity
  8
0
  6
Continuous
 62
     7
100
AcDbSpline
 70
     3
 71
     3
 72
    50
 73
    46
 74
     0
 42
0.000000001
 43
0.0000001
 40
0.0
 40
0.0
 40
0.0
 40
0.0
 40
1.0
 40
1.0
 40
1.0
 40
2.0
 40
2.0
 40
2.0
 40
3.0
 40
3.0
 40
3.0
 40
4.0
 40
4.0
 40
4.0
 40
5.0
 40
5.0
 40
5.0
 40
6.0
 40
6.0
 40
6.0
 40
7.0
 40
7.0
 40
7.0
 40
8.0
 40
8.0
 40
8.0
 40
9.0
 40
9.0
 40
9.0
 40
10.0
 40
10.0
 40
10.0
 40
11.0
 40
11.0
 40
11.0
 40
12.0
 40
12.0
 40
12.0
 40
13.0
 40
13.0
 40
13.0
 40
14.0
 40
14.0
 40
14.0
 40
15.0
 40
15.0
 40
15.0
 40
15.0
 10
3087.2955637701
 20
23.6905241875
 30
0.0
 10
3087.2955637701
 20
23.6905241875
 30
0.0
 10
3087.0738990896
 20
23.6905241875
 30
0.0
 10
3087.0738990896
 20
23.6905241875
 30
0.0
 10
3087.0738990896
 20
23.6905241875
 30
0.0
 10
3087.0738990896
 20
23.4931981319
 30
0.0
 10
3087.0738990896
 20
23.4931981319
 30
0.0
 10
3087.0738990896
 20
23.4931981319
 30
0.0
 10
3087.069188388
 20
23.4931981319
 30
0.0
 10
3087.069188388
 20
23.4931981319
 30
0.0
 10
3086.9778531183
 20
23.6360894135
 30
0.0
 10
3086.839934244
 20
23.7245459212
 30
0.0
 10
3086.667208519
 20
23.7245459212
 30
0.0
 10
3086.3348423512
 20
23.7245459212
 30
0.0
 10
3086.1257395417
 20
23.4366697129
 30
0.0
 10
3086.1257395417
 20
23.1210527063
 30
0.0
 10
3086.1257395417
 20
22.7913035949
 30
0.0
 10
3086.3228038915
 20
22.4981932737
 30
0.0
 10
3086.6776767447
 20
22.4981932737
 30
0.0
 10
3086.839934244
 20
22.4981932737
 30
0.0
 10
3086.9799467635
 20
22.5866497814
 30
0.0
 10
3087.069188388
 20
22.7175026033
 30
0.0
 10
3087.069188388
 20
22.7175026033
 30
0.0
 10
3087.0738990896
 20
22.7175026033
 30
0.0
 10
3087.0738990896
 20
22.7175026033
 30
0.0
 10
3087.0738990896
 20
22.7175026033
 30
0.0
 10
3087.0738990896
 20
22.4981932737
 30
0.0
 10
3087.0738990896
 20
22.4981932737
 30
0.0
 10
3087.0738990896
 20
22.2616113716
 30
0.0
 10
3087.0173706706
 20
22.0747535418
 30
0.0
 10
3086.7441499783
 20
22.0747535418
 30
0.0
 10
3086.5418515155
 20
22.0747535418
 30
0.0
 10
3086.3992219396
 20
22.1930444929
 30
0.0
 10
3086.3992219396
 20
22.3992685403
 30
0.0
 10
3086.3992219396
 20
22.3992685403
 30
0.0
 10
3086.1775572592
 20
22.3992685403
 30
0.0
 10
3086.1775572592
 20
22.3992685403
 30
0.0
 10
3086.1825296664
 20
22.0747535418
 30
0.0
 10
3086.41361575
 20
21.8779508976
 30
0.0
 10
3086.7339434582
 20
21.8779508976
 30
0.0
 10
3087.1819835206
 20
21.8779508976
 30
0.0
 10
3087.2955637701
 20
22.1632100495
 30
0.0
 10
3087.2955637701
 20
22.5599558057
 30
0.0
 10
3087.2955637701
 20
22.5599558057
 30
0.0
 10
3087.2955637701
 20
23.6905241875
 30
0.0
 10
3087.2955637701
 20
23.6905241875
 30
0.0
  0
SPLINE
  5
257
330
22B
100
AcDbEntity
  8
0
  6
Continuous
 62
     7
100
AcDbSpline
 70
     3
 71
     3
 72
    44
 73
    40
 74
     0
 42
0.000000001
 43
0.0000001
 40
0.0
 40
0.0
 40
0.0
 40
0.0
 40
1.0
 40
1.0
 40
1.0
 40
2.0
 40
2.0
 40
2.0
 40
3.0
 40
3.0
 40
3.0
 40
4.0
 40
4.0
 40
4.0
 40
5.0
 40
5.0
 40
5.0
 40
6.0
 40
6.0
 40
6.0
 40
7.0
 40
7.0
 40
7.0
 40
8.0
 40
8.0
 40
8.0
 40
9.0
 40
9.0
 40
9.0
 40
10.0
 40
10.0
 40
10.0
 40
11.0
 40
11.0
 40
11.0
 40
12.0
 40
12.0
 40
12.0
 40
13.0
 40
13.0
 40
13.0
 40
13.0
 10
3088.8644891054
 20
24.6755842312
 30
0.0
 10
3088.8644891054
 20
24.6755842312
 30
0.0
 10
3088.8644891054
 20
22.5374491203
 30
0.0
 10
3088.8644891054
 20
22.5374491203
 30
0.0
 10
3088.8644891054
 20
22.5374491203
 30
0.0
 10
3089.0858920802
 20
22.5374491203
 30
0.0
 10
3089.0858920802
 20
22.5374491203
 30
0.0
 10
3089.0858920802
 20
22.5374491203
 30
0.0
 10
3089.0858920802
 20
23.0671413436
 30
0.0
 10
3089.0858920802
 20
23.0671413436
 30
0.0
 10
3089.0858920802
 20
23.2770292701
 30
0.0
 10
3089.0858920802
 20
23.5277432769
 30
0.0
 10
3089.3711512321
 20
23.5277432769
 30
0.0
 10
3089.5980500254
 20
23.5277432769
 30
0.0
 10
3089.6250057067
 20
23.3947968098
 30
0.0
 10
3089.6250057067
 20
23.1985175769
 30
0.0
 10
3089.6250057067
 20
23.1985175769
 30
0.0
 10
3089.6250057067
 20
22.5374491203
 30
0.0
 10
3089.6250057067
 20
22.5374491203
 30
0.0
 10
3089.6250057067
 20
22.5374491203
 30
0.0
 10
3089.8469320928
 20
22.5374491203
 30
0.0
 10
3089.8469320928
 20
22.5374491203
 30
0.0
 10
3089.8469320928
 20
22.5374491203
 30
0.0
 10
3089.8469320928
 20
23.2246881413
 30
0.0
 10
3089.8469320928
 20
23.2246881413
 30
0.0
 10
3089.8469320928
 20
23.5052365916
 30
0.0
 10
3089.7629245811
 20
23.7250693325
 30
0.0
 10
3089.4378861713
 20
23.7250693325
 30
0.0
 10
3089.2981353574
 20
23.7250693325
 30
0.0
 10
3089.1599547774
 20
23.6585960989
 30
0.0
 10
3089.0906027818
 20
23.5355944463
 30
0.0
 10
3089.0906027818
 20
23.5355944463
 30
0.0
 10
3089.0858920802
 20
23.5355944463
 30
0.0
 10
3089.0858920802
 20
23.5355944463
 30
0.0
 10
3089.0858920802
 20
23.5355944463
 30
0.0
 10
3089.0858920802
 20
24.6755842312
 30
0.0
 10
3089.0858920802
 20
24.6755842312
 30
0.0
 10
3089.0858920802
 20
24.6755842312
 30
0.0
 10
3088.8644891054
 20
24.6755842312
 30
0.0
 10
3088.8644891054
 20
24.6755842312
 30
0.0
  0
LWPOLYLINE
  5
258
330
22B
100
AcDbEntity
  8
0
  6
Continuous
 62
     7
100
AcDbPolyline
 90
        2
 70
     0
 43
0.2
 10
3091.6867227696
 20
23.4832533175
 10
3091.9031533372
 20
23.4832533175
  0
LWPOLYLINE
  5
259
330
22B
100
AcDbEntity
  8
0
  6
Continuous
 62
     7
100
AcDbPolyline
 90
        2
 70
     0
 43
0.2
 10
3091.9031533372
 20
23.4832533175
 10
3091.9031533372
 20
23.6900007762
  0
LWPOLYLINE
  5
25A
330
22B
100
AcDbEntity
  8
0
  6
Continuous
 62
     7
100
AcDbPolyline
 90
        2
 70
     0
 43
0.2
 10
3091.9031533372
 20
23.6900007762
 10
3091.6867227696
 20
23.6900007762
  0
LWPOLYLINE
  5
25B
330
22B
100
AcDbEntity
  8
0
  6
Continuous
 62
     7
100
AcDbPolyline
 90
        2
 70
     0
 43
0.2
 10
3091.6867227696
 20
23.6900007762
 10
3091.6867227696
 20
24.1307130806
  0
LWPOLYLINE
  5
25C
330
22B
100
AcDbEntity
  8
0
  6
Continuous
 62
     7
100
AcDbPolyline
 90
        2
 70
     0
 43
0.2
 10
3091.6867227696
 20
24.1307130806
 10
3091.4650580892
 20
24.1307130806
  0
LWPOLYLINE
  5
25D
330
22B
100
AcDbEntity
  8
0
  6
Continuous
 62
     7
100
AcDbPolyline
 90
        2
 70
     0
 43
0.2
 10
3091.4650580892
 20
24.1307130806
 10
3091.4650580892
 20
23.6900007762
  0
LWPOLYLINE
  5
25E
330
22B
100
AcDbEntity
  8
0
  6
Continuous
 62
     7
100
AcDbPolyline
 90
        2
 70
     0
 43
0.2
 10
3091.4650580892
 20
23.6900007762
 10
3091.3444117874
 20
23.6900007762
  0
LWPOLYLINE
  5
25F
330
22B
100
AcDbEntity
  8
0
  6
Continuous
 62
     7
100
AcDbPolyline
 90
        2
 70
     0
 43
0.2
 10
3091.3444117874
 20
23.6900007762
 10
3091.3444117874
 20
23.4832533175
  0
LWPOLYLINE
  5
260
330
22B
100
AcDbEntity
  8
0
  6
Continuous
 62
     7
100
AcDbPolyline
 90
        2
 70
     0
 43
0.2
 10
3091.3444117874
 20
23.4832533175
 10
3091.4650580892
 20
23.4832533175
  0
LWPOLYLINE
  5
261
330
22B
100
AcDbEntity
  8
0
  6
Continuous
 62
     7
100
AcDbPolyline
 90
        2
 70
     0
 43
0.2
 10
3091.4650580892
 20
23.4832533175
 10
3091.4650580892
 20
22.5374491203
  0
LWPOLYLINE
  5
262
330
22B
100
AcDbEntity
  8
0
  6
Continuous
 62
     7
100
AcDbPolyline
 90
        2
 70
     0
 43
0.2
 10
3091.4650580892
 20
22.5374491203
 10
3091.6867227696
 20
22.5374491203
  0
LWPOLYLINE
  5
263
330
22B
100
AcDbEntity
  8
0
  6
Continuous
 62
     7
100
AcDbPolyline
 90
        2
 70
     0
 43
0.2
 10
3091.6867227696
 20
22.5374491203
 10
3091.6867227696
 20
23.4832533175
  0
SPLINE
  5
264
330
22B
100
AcDbEntity
  8
0
  6
Continuous
 62
     7
100
AcDbSpline
 70
     3
 71
     3
 72
    20
 73
    16
 74
     0
 42
0.000000001
 43
0.0000001
 40
0.0
 40
0.0
 40
0.0
 40
0.0
 40
1.0
 40
1.0
 40
1.0
 40
2.0
 40
2.0
 40
2.0
 40
3.0
 40
3.0
 40
3.0
 40
4.0
 40
4.0
 40
4.0
 40
5.0
 40
5.0
 40
5.0
 40
5.0
 10
3079.4687330769
 20
32.8983755637
 30
0.0
 10
3079.4687330769
 20
32.8983755637
 30
0.0
 10
3081.7850897314
 20
30.0688141415
 30
0.0
 10
3081.7850897314
 20
30.0688141415
 30
0.0
 10
3081.133442678
 20
29.4166436768
 30
0.0
 10
3080.3565694739
 20
28.680727406
 30
0.0
 10
3079.3853798293
 20
28.680727406
 30
0.0
 10
3078.3868419449
 20
28.680727406
 30
0.0
 10
3077.4435239513
 20
29.6103058533
 30
0.0
 10
3077.4435239513
 20
30.6094980018
 30
0.0
 10
3077.4435239513
 20
31.6086901504
 30
0.0
 10
3078.6223770244
 20
32.315295389
 30
0.0
 10
3079.3438994847
 20
32.8151531689
 30
0.0
 10
3079.3438994847
 20
32.8151531689
 30
0.0
 10
3079.4687330769
 20
32.8983755637
 30
0.0
 10
3079.4687330769
 20
32.8983755637
 30
0.0
  0
SPLINE
  5
265
330
22B
100
AcDbEntity
  8
0
  6
Continuous
 62
     7
100
AcDbSpline
 70
     3
 71
     3
 72
    23
 73
    19
 74
     0
 42
0.000000001
 43
0.0000001
 40
0.0
 40
0.0
 40
0.0
 40
0.0
 40
1.0
 40
1.0
 40
1.0
 40
2.0
 40
2.0
 40
2.0
 40
3.0
 40
3.0
 40
3.0
 40
4.0
 40
4.0
 40
4.0
 40
5.0
 40
5.0
 40
5.0
 40
6.0
 40
6.0
 40
6.0
 40
6.0
 10
3079.7461410595
 20
34.5361294834
 30
0.0
 10
3079.7461410595
 20
34.5361294834
 30
0.0
 10
3079.3996427869
 20
34.9794588443
 30
0.0
 10
3079.3996427869
 20
34.9794588443
 30
0.0
 10
3079.093839742
 20
35.3675683142
 30
0.0
 10
3078.7749514148
 20
35.7560703426
 30
0.0
 10
3078.7749514148
 20
36.2830146567
 30
0.0
 10
3078.7749514148
 20
36.9491863733
 30
0.0
 10
3079.3162895393
 20
37.3929082926
 30
0.0
 10
3079.9401957944
 20
37.3929082926
 30
0.0
 10
3080.6339774565
 20
37.3929082926
 30
0.0
 10
3081.1611834762
 20
36.9906667179
 30
0.0
 10
3081.1611834762
 20
36.2556664169
 30
0.0
 10
3081.1611834762
 20
35.4924019064
 30
0.0
 10
3080.4399227215
 20
35.0622886806
 30
0.0
 10
3079.9128475546
 20
34.6465692652
 30
0.0
 10
3079.9128475546
 20
34.6465692652
 30
0.0
 10
3079.7461410595
 20
34.5361294834
 30
0.0
 10
3079.7461410595
 20
34.5361294834
 30
0.0
  0
SPLINE
  5
266
330
22B
100
AcDbEntity
  8
0
  6
Continuous
 62
     7
100
AcDbSpline
 70
     3
 71
     3
 72
    50
 73
    46
 74
     0
 42
0.000000001
 43
0.0000001
 40
0.0
 40
0.0
 40
0.0
 40
0.0
 40
1.0
 40
1.0
 40
1.0
 40
2.0
 40
2.0
 40
2.0
 40
3.0
 40
3.0
 40
3.0
 40
4.0
 40
4.0
 40
4.0
 40
5.0
 40
5.0
 40
5.0
 40
6.0
 40
6.0
 40
6.0
 40
7.0
 40
7.0
 40
7.0
 40
8.0
 40
8.0
 40
8.0
 40
9.0
 40
9.0
 40
9.0
 40
10.0
 40
10.0
 40
10.0
 40
11.0
 40
11.0
 40
11.0
 40
12.0
 40
12.0
 40
12.0
 40
13.0
 40
13.0
 40
13.0
 40
14.0
 40
14.0
 40
14.0
 40
15.0
 40
15.0
 40
15.0
 40
15.0
 10
3083.6997282224
 20
27.7375402653
 30
0.0
 10
3083.6997282224
 20
27.7375402653
 30
0.0
 10
3085.3089562269
 20
27.7375402653
 30
0.0
 10
3085.3089562269
 20
27.7375402653
 30
0.0
 10
3085.3089562269
 20
27.7375402653
 30
0.0
 10
3083.4359289333
 20
30.0546820367
 30
0.0
 10
3083.4359289333
 20
30.0546820367
 30
0.0
 10
3083.4359289333
 20
30.0546820367
 30
0.0
 10
3084.7122673588
 20
31.5521617313
 30
0.0
 10
3084.7122673588
 20
31.5521617313
 30
0.0
 10
3084.7122673588
 20
31.5521617313
 30
0.0
 10
3083.8800434111
 20
32.4131732998
 30
0.0
 10
3083.8800434111
 20
32.4131732998
 30
0.0
 10
3083.8800434111
 20
32.4131732998
 30
0.0
 10
3082.6594482877
 20
30.9978691774
 30
0.0
 10
3082.6594482877
 20
30.9978691774
 30
0.0
 10
3082.6594482877
 20
30.9978691774
 30
0.0
 10
3080.4815339189
 20
33.6332450118
 30
0.0
 10
3080.4815339189
 20
33.6332450118
 30
0.0
 10
3081.3551073584
 20
34.2712833718
 30
0.0
 10
3082.3817785995
 20
35.0622886806
 30
0.0
 10
3082.3817785995
 20
36.2411417537
 30
0.0
 10
3082.3817785995
 20
37.6148346787
 30
0.0
 10
3081.2438824597
 20
38.4193178281
 30
0.0
 10
3079.9685908568
 20
38.4193178281
 30
0.0
 10
3078.5951596374
 20
38.4193178281
 30
0.0
 10
3077.5542254387
 20
37.5730926285
 30
0.0
 10
3077.5542254387
 20
36.1304402663
 30
0.0
 10
3077.5542254387
 20
35.2428655749
 30
0.0
 10
3078.1095648151
 20
34.4659923709
 30
0.0
 10
3078.705730272
 20
33.8415627044
 30
0.0
 10
3078.705730272
 20
33.8415627044
 30
0.0
 10
3078.053821513
 20
33.3699691341
 30
0.0
 10
3078.053821513
 20
33.3699691341
 30
0.0
 10
3077.0552836285
 20
32.6487083794
 30
0.0
 10
3076.2224054167
 20
31.9274476247
 30
0.0
 10
3076.2224054167
 20
30.5958893083
 30
0.0
 10
3076.2224054167
 20
28.7922140103
 30
0.0
 10
3077.6794515893
 20
27.5156138792
 30
0.0
 10
3079.4269910267
 20
27.5156138792
 30
0.0
 10
3080.6618491076
 20
27.5156138792
 30
0.0
 10
3081.7712193322
 20
28.2237893517
 30
0.0
 10
3082.5620937882
 20
29.1523209764
 30
0.0
 10
3082.5620937882
 20
29.1523209764
 30
0.0
 10
3083.6997282224
 20
27.7375402653
 30
0.0
 10
3083.6997282224
 20
27.7375402653
 30
0.0
  0
LINE
  5
267
330
22B
100
AcDbEntity
  8
0
  6
Continuous
 62
     7
100
AcDbLine
 10
3069.5025895974
 20
25.7114151699
 30
0.0
 11
3091.916500325
 21
25.7114151699
 31
0.0
  0
LINE
  5
268
330
22B
100
AcDbEntity
  8
0
  6
Continuous
 62
     7
100
AcDbLine
 10
3091.916500325
 20
25.7114151699
 30
0.0
 11
3091.916500325
 21
48.1253258976
 31
0.0
  0
LINE
  5
269
330
22B
100
AcDbEntity
  8
0
  6
Continuous
 62
     7
100
AcDbLine
 10
3091.916500325
 20
48.1253258976
 30
0.0
 11
3069.5025895974
 21
48.1253258976
 31
0.0
  0
LINE
  5
26A
330
22B
100
AcDbEntity
  8
0
  6
Continuous
 62
     7
100
AcDbLine
 10
3069.5025895974
 20
48.1253258976
 30
0.0
 11
3069.5025895974
 21
25.7114151699
 31
0.0
  0
ENDBLK
  5
26B
330
22B
100
AcDbEntity
  8
0
  6
ByBlock
 62
     0
100
AcDbBlockEnd
  0
BLOCK
  5
26C
330
22C
100
AcDbEntity
  8
0
100
AcDbBlockBegin
  2
PROIEZIONE_EU_BL0
 70
     0
 10
3081.88343249
 20
60.6266383976
 30
0.0
  3
PROIEZIONE_EU_BL0
  1

  0
LWPOLYLINE
  5
26D
330
22C
100
AcDbEntity
  8
DEFAULT_1
  6
CENTER
 62
     7
100
AcDbPolyline
 90
        2
 70
     0
 43
0.25
 10
3088.0100531517
 20
65.6263325295
 10
3088.010094134
 20
55.6269442657
  0
LWPOLYLINE
  5
26E
330
22C
100
AcDbEntity
  8
DEFAULT_1
  6
CENTER
 62
     7
100
AcDbPolyline
 90
        2
 70
     0
 43
0.25
 10
3094.0100829767
 20
60.6269095327
 10
3069.7567820033
 20
60.6266388723
  0
LWPOLYLINE
  5
26F
330
22C
100
AcDbEntity
  8
0
  6
Continuous
 62
     7
100
AcDbPolyline
 90
        2
 70
     1
 43
0.25
 10
3084.4629429759
 20
60.6080906434
 42
1.0
 10
3091.5692720745
 20
60.6080906434
 42
1.0
  0
LWPOLYLINE
  5
270
330
22C
100
AcDbEntity
  8
0
  6
Continuous
 62
     7
100
AcDbPolyline
 90
        2
 70
     1
 43
0.25
 10
3086.0126868043
 20
60.625988688
 42
1.0
 10
3090.0244385543
 20
60.625988688
 42
1.0
  0
LWPOLYLINE
  5
271
330
22C
100
AcDbEntity
  8
0
  6
Continuous
 62
     7
100
AcDbPolyline
 90
        2
 70
     0
 43
0.25
 10
3082.0100807707
 20
64.2018418928
 10
3082.0100804161
 20
57.1016389845
  0
LWPOLYLINE
  5
272
330
22C
100
AcDbEntity
  8
0
  6
Continuous
 62
     7
100
AcDbPolyline
 90
        2
 70
     0
 43
0.25
 10
3082.0101088525
 20
57.1016105481
 10
3072.0155515814
 20
58.621703961
  0
LWPOLYLINE
  5
273
330
22C
100
AcDbEntity
  8
0
  6
Continuous
 62
     7
100
AcDbPolyline
 90
        2
 70
     0
 43
0.25
 10
3072.0132415958
 20
58.6210264194
 10
3072.0105746917
 20
62.6266650309
  0
LWPOLYLINE
  5
274
330
22C
100
AcDbEntity
  8
0
  6
Continuous
 62
     7
100
AcDbPolyline
 90
        2
 70
     0
 43
0.25
 10
3072.0105664156
 20
62.6266567548
 10
3082.0103096529
 20
64.2018139749
  0
ENDBLK
  5
275
330
22C
100
AcDbEntity
  8
0
  6
ByBlock
 62
     0
100
AcDbBlockEnd
  0
ENDSEC
  0
SECTION
  2
ENTITIES
  0
LINE
  5
2A9
330
1B
100
AcDbEntity
 67
     1
  8
0
  6
Continuous
 62
     7
100
AcDbLine
 10
0.0
 20
0.0
 30
0.0
 11
3200.0
 21
0.0
 31
0.0
  0
LINE
  5
2AA
330
1B
100
AcDbEntity
 67
     1
  8
0
  6
Continuous
 62
     7
100
AcDbLine
 10
3200.0
 20
0.0
 30
0.0
 11
3200.0
 21
2500.0
 31
0.0
  0
LINE
  5
2AB
330
1B
100
AcDbEntity
 67
     1
  8
0
  6
Continuous
 62
     7
100
AcDbLine
 10
0.0
 20
2500.0
 30
0.0
 11
3200.0
 21
2500.0
 31
0.0
  0
LINE
  5
2AC
330
1B
100
AcDbEntity
 67
     1
  8
0
  6
Continuous
 62
     7
100
AcDbLine
 10
0.0
 20
0.0
 30
0.0
 11
0.0
 21
2500.0
 31
0.0
  0
VIEWPORT
  5
2AD
330
1B
100
AcDbEntity
 67
     1
  8
0
100
AcDbViewport
 10
0.0
 20
0.0
 30
0.0
 40
4167.315175097277
 41
2946.887159533074
 68
     1
 69
     1
 12
1969.844357976654
 22
1250.0
 13
0.0
 23
0.0
 14
1.0
 24
1.0
 15
0.0
 25
0.0
 16
0.0
 26
0.0
 36
1.0
 17
0.0
 27
0.0
 37
0.0
 42
50.0
 43
0.0
 44
0.0
 45
2946.887159533074
 50
0.0
 51
0.0
 72
   100
 90
   557216
  1

281
     0
 71
     1
 74
     0
110
0.0
120
0.0
130
0.0
111
1.0
121
0.0
131
0.0
112
0.0
122
1.0
132
0.0
 79
     0
146
0.0
170
     0
 61
     5
348
5A6
292
     1
282
     1
141
0.0
142
0.0
 63
   256
  0
LINE
  5
2AE
330
1B
100
AcDbEntity
 67
     1
  8
7_ALL_FEATURES
  6
Continuous
 62
     7
100
AcDbLine
 10
2839.9316563338
 20
742.0913855494
 30
0.0
 11
2839.9316563338
 21
742.9663855494
 31
0.0
  0
LINE
  5
2AF
330
1B
100
AcDbEntity
 67
     1
  8
7_ALL_FEATURES
  6
Continuous
 62
     7
100
AcDbLine
 10
2839.9316563338
 20
742.9663855494
 30
0.0
 11
2840.8066563338
 21
742.9663855494
 31
0.0
  0
LINE
  5
2B0
330
1B
100
AcDbEntity
 67
     1
  8
7_ALL_FEATURES
  6
Continuous
 62
     7
100
AcDbLine
 10
2840.8066563338
 20
743.7163855494
 30
0.0
 11
2839.9316563338
 21
743.7163855494
 31
0.0
  0
LINE
  5
2B1
330
1B
100
AcDbEntity
 67
     1
  8
7_ALL_FEATURES
  6
Continuous
 62
     7
100
AcDbLine
 10
2839.9316563338
 20
743.7163855494
 30
0.0
 11
2839.9316563338
 21
744.5913855494
 31
0.0
  0
LINE
  5
2B2
330
1B
100
AcDbEntity
 67
     1
  8
7_ALL_FEATURES
  6
Continuous
 62
     7
100
AcDbLine
 10
2839.1816563338
 20
744.5913855494
 30
0.0
 11
2839.1816563338
 21
743.7163855494
 31
0.0
  0
LINE
  5
2B3
330
1B
100
AcDbEntity
 67
     1
  8
7_ALL_FEATURES
  6
Continuous
 62
     7
100
AcDbLine
 10
2839.1816563338
 20
743.7163855494
 30
0.0
 11
2838.3066563338
 21
743.7163855494
 31
0.0
  0
LINE
  5
2B4
330
1B
100
AcDbEntity
 67
     1
  8
7_ALL_FEATURES
  6
Continuous
 62
     7
100
AcDbLine
 10
2838.3066563338
 20
742.9663855494
 30
0.0
 11
2839.1816563338
 21
742.9663855494
 31
0.0
  0
LINE
  5
2B5
330
1B
100
AcDbEntity
 67
     1
  8
7_ALL_FEATURES
  6
Continuous
 62
     7
100
AcDbLine
 10
2839.1816563338
 20
742.9663855494
 30
0.0
 11
2839.1816563338
 21
742.0913855494
 31
0.0
  0
ARC
  5
2B6
330
1B
100
AcDbEntity
 67
     1
  8
3_ALL_AXES
  6
Continuous
 62
     7
100
AcDbCircle
 10
2839.5566563338
 20
743.3413855494
 30
0.0
 40
2.75
100
AcDbArc
 50
0.0
 51
180.0
  0
LINE
  5
2B7
330
1B
100
AcDbEntity
 67
     1
  8
7_ALL_FEATURES
  6
Continuous
 62
     7
100
AcDbLine
 10
2839.1816563338
 20
744.5913855494
 30
0.0
 11
2839.9316563338
 21
744.5913855494
 31
0.0
  0
LINE
  5
2B8
330
1B
100
AcDbEntity
 67
     1
  8
7_ALL_FEATURES
  6
Continuous
 62
     7
100
AcDbLine
 10
2840.8066563338
 20
743.7163855494
 30
0.0
 11
2840.8066563338
 21
742.9663855494
 31
0.0
  0
LINE
  5
2B9
330
1B
100
AcDbEntity
 67
     1
  8
7_ALL_FEATURES
  6
Continuous
 62
     7
100
AcDbLine
 10
2839.9316563338
 20
742.0913855494
 30
0.0
 11
2839.1816563338
 21
742.0913855494
 31
0.0
  0
LINE
  5
2BA
330
1B
100
AcDbEntity
 67
     1
  8
7_ALL_FEATURES
  6
Continuous
 62
     7
100
AcDbLine
 10
2838.3066563338
 20
742.9663855494
 30
0.0
 11
2838.3066563338
 21
743.7163855494
 31
0.0
  0
ARC
  5
2BB
330
1B
100
AcDbEntity
 67
     1
  8
3_ALL_AXES
  6
Continuous
 62
     7
100
AcDbCircle
 10
2839.5566563338
 20
743.3413855494
 30
0.0
 40
2.75
100
AcDbArc
 50
180.0
 51
360.0
  0
LINE
  5
2BC
330
1B
100
AcDbEntity
 67
     1
  8
7_ALL_FEATURES
  6
Continuous
 62
     7
100
AcDbLine
 10
2803.5316563338
 20
742.0913855494
 30
0.0
 11
2803.5316563338
 21
742.9663855494
 31
0.0
  0
LINE
  5
2BD
330
1B
100
AcDbEntity
 67
     1
  8
7_ALL_FEATURES
  6
Continuous
 62
     7
100
AcDbLine
 10
2803.5316563338
 20
742.9663855494
 30
0.0
 11
2804.4066563338
 21
742.9663855494
 31
0.0
  0
LINE
  5
2BE
330
1B
100
AcDbEntity
 67
     1
  8
7_ALL_FEATURES
  6
Continuous
 62
     7
100
AcDbLine
 10
2804.4066563338
 20
743.7163855494
 30
0.0
 11
2803.5316563338
 21
743.7163855494
 31
0.0
  0
LINE
  5
2BF
330
1B
100
AcDbEntity
 67
     1
  8
7_ALL_FEATURES
  6
Continuous
 62
     7
100
AcDbLine
 10
2803.5316563338
 20
743.7163855494
 30
0.0
 11
2803.5316563338
 21
744.5913855494
 31
0.0
  0
LINE
  5
2C0
330
1B
100
AcDbEntity
 67
     1
  8
7_ALL_FEATURES
  6
Continuous
 62
     7
100
AcDbLine
 10
2802.7816563338
 20
744.5913855494
 30
0.0
 11
2802.7816563338
 21
743.7163855494
 31
0.0
  0
LINE
  5
2C1
330
1B
100
AcDbEntity
 67
     1
  8
7_ALL_FEATURES
  6
Continuous
 62
     7
100
AcDbLine
 10
2802.7816563338
 20
743.7163855494
 30
0.0
 11
2801.9066563338
 21
743.7163855494
 31
0.0
  0
LINE
  5
2C2
330
1B
100
AcDbEntity
 67
     1
  8
7_ALL_FEATURES
  6
Continuous
 62
     7
100
AcDbLine
 10
2801.9066563338
 20
742.9663855494
 30
0.0
 11
2802.7816563338
 21
742.9663855494
 31
0.0
  0
LINE
  5
2C3
330
1B
100
AcDbEntity
 67
     1
  8
7_ALL_FEATURES
  6
Continuous
 62
     7
100
AcDbLine
 10
2802.7816563338
 20
742.9663855494
 30
0.0
 11
2802.7816563338
 21
742.0913855494
 31
0.0
  0
ARC
  5
2C4
330
1B
100
AcDbEntity
 67
     1
  8
3_ALL_AXES
  6
Continuous
 62
     7
100
AcDbCircle
 10
2803.1566563338
 20
743.3413855494
 30
0.0
 40
2.75
100
AcDbArc
 50
0.0
 51
180.0
  0
LINE
  5
2C5
330
1B
100
AcDbEntity
 67
     1
  8
7_ALL_FEATURES
  6
Continuous
 62
     7
100
AcDbLine
 10
2802.7816563338
 20
744.5913855494
 30
0.0
 11
2803.5316563338
 21
744.5913855494
 31
0.0
  0
LINE
  5
2C6
330
1B
100
AcDbEntity
 67
     1
  8
7_ALL_FEATURES
  6
Continuous
 62
     7
100
AcDbLine
 10
2804.4066563338
 20
743.7163855494
 30
0.0
 11
2804.4066563338
 21
742.9663855494
 31
0.0
  0
LINE
  5
2C7
330
1B
100
AcDbEntity
 67
     1
  8
7_ALL_FEATURES
  6
Continuous
 62
     7
100
AcDbLine
 10
2803.5316563338
 20
742.0913855494
 30
0.0
 11
2802.7816563338
 21
742.0913855494
 31
0.0
  0
LINE
  5
2C8
330
1B
100
AcDbEntity
 67
     1
  8
7_ALL_FEATURES
  6
Continuous
 62
     7
100
AcDbLine
 10
2801.9066563338
 20
742.9663855494
 30
0.0
 11
2801.9066563338
 21
743.7163855494
 31
0.0
  0
ARC
  5
2C9
330
1B
100
AcDbEntity
 67
     1
  8
3_ALL_AXES
  6
Continuous
 62
     7
100
AcDbCircle
 10
2803.1566563338
 20
743.3413855494
 30
0.0
 40
2.75
100
AcDbArc
 50
180.0
 51
360.0
  0
LINE
  5
2CA
330
1B
100
AcDbEntity
 67
     1
  8
7_ALL_FEATURES
  6
Continuous
 62
     7
100
AcDbLine
 10
2803.5316563338
 20
693.3413855494
 30
0.0
 11
2803.5316563338
 21
694.2163855494
 31
0.0
  0
LINE
  5
2CB
330
1B
100
AcDbEntity
 67
     1
  8
7_ALL_FEATURES
  6
Continuous
 62
     7
100
AcDbLine
 10
2803.5316563338
 20
694.2163855494
 30
0.0
 11
2804.4066563338
 21
694.2163855494
 31
0.0
  0
LINE
  5
2CC
330
1B
100
AcDbEntity
 67
     1
  8
7_ALL_FEATURES
  6
Continuous
 62
     7
100
AcDbLine
 10
2804.4066563338
 20
694.9663855494
 30
0.0
 11
2803.5316563338
 21
694.9663855494
 31
0.0
  0
LINE
  5
2CD
330
1B
100
AcDbEntity
 67
     1
  8
7_ALL_FEATURES
  6
Continuous
 62
     7
100
AcDbLine
 10
2803.5316563338
 20
694.9663855494
 30
0.0
 11
2803.5316563338
 21
695.8413855494
 31
0.0
  0
LINE
  5
2CE
330
1B
100
AcDbEntity
 67
     1
  8
7_ALL_FEATURES
  6
Continuous
 62
     7
100
AcDbLine
 10
2802.7816563338
 20
695.8413855494
 30
0.0
 11
2802.7816563338
 21
694.9663855494
 31
0.0
  0
LINE
  5
2CF
330
1B
100
AcDbEntity
 67
     1
  8
7_ALL_FEATURES
  6
Continuous
 62
     7
100
AcDbLine
 10
2802.7816563338
 20
694.9663855494
 30
0.0
 11
2801.9066563338
 21
694.9663855494
 31
0.0
  0
LINE
  5
2D0
330
1B
100
AcDbEntity
 67
     1
  8
7_ALL_FEATURES
  6
Continuous
 62
     7
100
AcDbLine
 10
2801.9066563338
 20
694.2163855494
 30
0.0
 11
2802.7816563338
 21
694.2163855494
 31
0.0
  0
LINE
  5
2D1
330
1B
100
AcDbEntity
 67
     1
  8
7_ALL_FEATURES
  6
Continuous
 62
     7
100
AcDbLine
 10
2802.7816563338
 20
694.2163855494
 30
0.0
 11
2802.7816563338
 21
693.3413855494
 31
0.0
  0
ARC
  5
2D2
330
1B
100
AcDbEntity
 67
     1
  8
3_ALL_AXES
  6
Continuous
 62
     7
100
AcDbCircle
 10
2803.1566563338
 20
694.5913855494
 30
0.0
 40
2.75
100
AcDbArc
 50
0.0
 51
180.0
  0
LINE
  5
2D3
330
1B
100
AcDbEntity
 67
     1
  8
7_ALL_FEATURES
  6
Continuous
 62
     7
100
AcDbLine
 10
2802.7816563338
 20
695.8413855494
 30
0.0
 11
2803.5316563338
 21
695.8413855494
 31
0.0
  0
LINE
  5
2D4
330
1B
100
AcDbEntity
 67
     1
  8
7_ALL_FEATURES
  6
Continuous
 62
     7
100
AcDbLine
 10
2804.4066563338
 20
694.9663855494
 30
0.0
 11
2804.4066563338
 21
694.2163855494
 31
0.0
  0
LINE
  5
2D5
330
1B
100
AcDbEntity
 67
     1
  8
7_ALL_FEATURES
  6
Continuous
 62
     7
100
AcDbLine
 10
2803.5316563338
 20
693.3413855494
 30
0.0
 11
2802.7816563338
 21
693.3413855494
 31
0.0
  0
LINE
  5
2D6
330
1B
100
AcDbEntity
 67
     1
  8
7_ALL_FEATURES
  6
Continuous
 62
     7
100
AcDbLine
 10
2801.9066563338
 20
694.2163855494
 30
0.0
 11
2801.9066563338
 21
694.9663855494
 31
0.0
  0
ARC
  5
2D7
330
1B
100
AcDbEntity
 67
     1
  8
3_ALL_AXES
  6
Continuous
 62
     7
100
AcDbCircle
 10
2803.1566563338
 20
694.5913855494
 30
0.0
 40
2.75
100
AcDbArc
 50
180.0
 51
360.0
  0
LINE
  5
2D8
330
1B
100
AcDbEntity
 67
     1
  8
7_ALL_FEATURES
  6
Continuous
 62
     7
100
AcDbLine
 10
2839.9316563338
 20
693.3413855494
 30
0.0
 11
2839.9316563338
 21
694.2163855494
 31
0.0
  0
LINE
  5
2D9
330
1B
100
AcDbEntity
 67
     1
  8
7_ALL_FEATURES
  6
Continuous
 62
     7
100
AcDbLine
 10
2839.9316563338
 20
694.2163855494
 30
0.0
 11
2840.8066563338
 21
694.2163855494
 31
0.0
  0
LINE
  5
2DA
330
1B
100
AcDbEntity
 67
     1
  8
7_ALL_FEATURES
  6
Continuous
 62
     7
100
AcDbLine
 10
2840.8066563338
 20
694.9663855494
 30
0.0
 11
2839.9316563338
 21
694.9663855494
 31
0.0
  0
LINE
  5
2DB
330
1B
100
AcDbEntity
 67
     1
  8
7_ALL_FEATURES
  6
Continuous
 62
     7
100
AcDbLine
 10
2839.9316563338
 20
694.9663855494
 30
0.0
 11
2839.9316563338
 21
695.8413855494
 31
0.0
  0
LINE
  5
2DC
330
1B
100
AcDbEntity
 67
     1
  8
7_ALL_FEATURES
  6
Continuous
 62
     7
100
AcDbLine
 10
2839.1816563338
 20
695.8413855494
 30
0.0
 11
2839.1816563338
 21
694.9663855494
 31
0.0
  0
LINE
  5
2DD
330
1B
100
AcDbEntity
 67
     1
  8
7_ALL_FEATURES
  6
Continuous
 62
     7
100
AcDbLine
 10
2839.1816563338
 20
694.9663855494
 30
0.0
 11
2838.3066563338
 21
694.9663855494
 31
0.0
  0
LINE
  5
2DE
330
1B
100
AcDbEntity
 67
     1
  8
7_ALL_FEATURES
  6
Continuous
 62
     7
100
AcDbLine
 10
2838.3066563338
 20
694.2163855494
 30
0.0
 11
2839.1816563338
 21
694.2163855494
 31
0.0
  0
LINE
  5
2DF
330
1B
100
AcDbEntity
 67
     1
  8
7_ALL_FEATURES
  6
Continuous
 62
     7
100
AcDbLine
 10
2839.1816563338
 20
694.2163855494
 30
0.0
 11
2839.1816563338
 21
693.3413855494
 31
0.0
  0
ARC
  5
2E0
330
1B
100
AcDbEntity
 67
     1
  8
3_ALL_AXES
  6
Continuous
 62
     7
100
AcDbCircle
 10
2839.5566563338
 20
694.5913855494
 30
0.0
 40
2.75
100
AcDbArc
 50
0.0
 51
180.0
  0
LINE
  5
2E1
330
1B
100
AcDbEntity
 67
     1
  8
7_ALL_FEATURES
  6
Continuous
 62
     7
100
AcDbLine
 10
2839.1816563338
 20
695.8413855494
 30
0.0
 11
2839.9316563338
 21
695.8413855494
 31
0.0
  0
LINE
  5
2E2
330
1B
100
AcDbEntity
 67
     1
  8
7_ALL_FEATURES
  6
Continuous
 62
     7
100
AcDbLine
 10
2840.8066563338
 20
694.9663855494
 30
0.0
 11
2840.8066563338
 21
694.2163855494
 31
0.0
  0
LINE
  5
2E3
330
1B
100
AcDbEntity
 67
     1
  8
7_ALL_FEATURES
  6
Continuous
 62
     7
100
AcDbLine
 10
2839.9316563338
 20
693.3413855494
 30
0.0
 11
2839.1816563338
 21
693.3413855494
 31
0.0
  0
LINE
  5
2E4
330
1B
100
AcDbEntity
 67
     1
  8
7_ALL_FEATURES
  6
Continuous
 62
     7
100
AcDbLine
 10
2838.3066563338
 20
694.2163855494
 30
0.0
 11
2838.3066563338
 21
694.9663855494
 31
0.0
  0
ARC
  5
2E5
330
1B
100
AcDbEntity
 67
     1
  8
3_ALL_AXES
  6
Continuous
 62
     7
100
AcDbCircle
 10
2839.5566563338
 20
694.5913855494
 30
0.0
 40
2.75
100
AcDbArc
 50
180.0
 51
360.0
  0
ARC
  5
2E6
330
1B
100
AcDbEntity
 67
     1
  8
7_ALL_FEATURES
  6
Continuous
 62
     7
100
AcDbCircle
 10
2842.8566563338
 20
672.8413855494
 30
0.0
 40
1.5
100
AcDbArc
 50
126.8698976458
 51
233.1301023542
  0
ARC
  5
2E7
330
1B
100
AcDbEntity
 67
     1
  8
7_ALL_FEATURES
  6
Continuous
 62
     7
100
AcDbCircle
 10
2841.3566563338
 20
674.8413855494
 30
0.0
 40
1.0
100
AcDbArc
 50
306.8698976458
 51
360.0
  0
LINE
  5
2E8
330
1B
100
AcDbEntity
 67
     1
  8
7_ALL_FEATURES
  6
Continuous
 62
     7
100
AcDbLine
 10
2842.3566563338
 20
745.3413855494
 30
0.0
 11
2842.3566563338
 21
674.8413855494
 31
0.0
  0
ARC
  5
2E9
330
1B
100
AcDbEntity
 67
     1
  8
7_ALL_FEATURES
  6
Continuous
 62
     7
100
AcDbCircle
 10
2841.3566563338
 20
745.3413855494
 30
0.0
 40
1.0
100
AcDbArc
 50
0.0
 51
90.0
  0
LINE
  5
2EA
330
1B
100
AcDbEntity
 67
     1
  8
7_ALL_FEATURES
  6
Continuous
 62
     7
100
AcDbLine
 10
2801.3566563338
 20
746.3413855494
 30
0.0
 11
2841.3566563338
 21
746.3413855494
 31
0.0
  0
ARC
  5
2EB
330
1B
100
AcDbEntity
 67
     1
  8
7_ALL_FEATURES
  6
Continuous
 62
     7
100
AcDbCircle
 10
2801.3566563338
 20
745.3413855494
 30
0.0
 40
1.0
100
AcDbArc
 50
90.0
 51
180.0
  0
LINE
  5
2EC
330
1B
100
AcDbEntity
 67
     1
  8
7_ALL_FEATURES
  6
Continuous
 62
     7
100
AcDbLine
 10
2800.3566563338
 20
734.8413855494
 30
0.0
 11
2800.3566563338
 21
745.3413855494
 31
0.0
  0
ARC
  5
2ED
330
1B
100
AcDbEntity
 67
     1
  8
7_ALL_FEATURES
  6
Continuous
 62
     7
100
AcDbCircle
 10
2801.3566563338
 20
734.8413855494
 30
0.0
 40
1.0
100
AcDbArc
 50
180.0
 51
233.1301023542
  0
ARC
  5
2EE
330
1B
100
AcDbEntity
 67
     1
  8
7_ALL_FEATURES
  6
Continuous
 62
     7
100
AcDbCircle
 10
2799.8566563338
 20
732.8413855494
 30
0.0
 40
1.5
100
AcDbArc
 50
306.8698976458
 51
53.1301023542
  0
ARC
  5
2EF
330
1B
100
AcDbEntity
 67
     1
  8
7_ALL_FEATURES
  6
Continuous
 62
     7
100
AcDbCircle
 10
2801.3566563338
 20
730.8413855494
 30
0.0
 40
1.0
100
AcDbArc
 50
126.8698976458
 51
180.0
  0
LINE
  5
2F0
330
1B
100
AcDbEntity
 67
     1
  8
7_ALL_FEATURES
  6
Continuous
 62
     7
100
AcDbLine
 10
2800.3566563338
 20
663.8413855494
 30
0.0
 11
2800.3566563338
 21
730.8413855494
 31
0.0
  0
ARC
  5
2F1
330
1B
100
AcDbEntity
 67
     1
  8
7_ALL_FEATURES
  6
Continuous
 62
     7
100
AcDbCircle
 10
2801.3566563338
 20
663.8413855494
 30
0.0
 40
1.0
100
AcDbArc
 50
180.0
 51
270.0
  0
LINE
  5
2F2
330
1B
100
AcDbEntity
 67
     1
  8
7_ALL_FEATURES
  6
Continuous
 62
     7
100
AcDbLine
 10
2841.3566563338
 20
662.8413855494
 30
0.0
 11
2801.3566563338
 21
662.8413855494
 31
0.0
  0
ARC
  5
2F3
330
1B
100
AcDbEntity
 67
     1
  8
7_ALL_FEATURES
  6
Continuous
 62
     7
100
AcDbCircle
 10
2841.3566563338
 20
663.8413855494
 30
0.0
 40
1.0
100
AcDbArc
 50
270.0
 51
360.0
  0
LINE
  5
2F4
330
1B
100
AcDbEntity
 67
     1
  8
7_ALL_FEATURES
  6
Continuous
 62
     7
100
AcDbLine
 10
2842.3566563338
 20
670.8413855494
 30
0.0
 11
2842.3566563338
 21
663.8413855494
 31
0.0
  0
ARC
  5
2F5
330
1B
100
AcDbEntity
 67
     1
  8
7_ALL_FEATURES
  6
Continuous
 62
     7
100
AcDbCircle
 10
2841.3566563338
 20
670.8413855494
 30
0.0
 40
1.0
100
AcDbArc
 50
0.0
 51
53.1301023542
  0
ARC
  5
2F6
330
1B
100
AcDbEntity
 67
     1
  8
02___PRT_ALL_AXES
  6
Continuous
 62
     7
100
AcDbCircle
 10
2821.3566563338
 20
723.1729307681
 30
0.0
 40
9.5
100
AcDbArc
 50
2.0
 51
178.0
  0
LINE
  5
2F7
330
1B
100
AcDbEntity
 67
     1
  8
02___PRT_ALL_AXES
  6
Continuous
 62
     7
100
AcDbLine
 10
2811.3627480637
 20
723.5219257351
 30
0.0
 11
2811.8624434772
 21
723.5044759868
 31
0.0
  0
ARC
  5
2F8
330
1B
100
AcDbEntity
 67
     1
  8
02___PRT_ALL_AXES
  6
Continuous
 62
     7
100
AcDbCircle
 10
2821.3566563338
 20
723.1729307681
 30
0.0
 40
10.0
100
AcDbArc
 50
2.0
 51
178.0
  0
LINE
  5
2F9
330
1B
100
AcDbEntity
 67
     1
  8
02___PRT_ALL_AXES
  6
Continuous
 62
     7
100
AcDbLine
 10
2830.8508691905
 20
723.5044759868
 30
0.0
 11
2831.350564604
 21
723.5219257351
 31
0.0
  0
LINE
  5
2FA
330
1B
100
AcDbEntity
 67
     1
  8
02___PRT_ALL_AXES
  6
Continuous
 62
     7
100
AcDbLine
 10
2831.350564604
 20
722.8239358011
 30
0.0
 11
2830.8508691905
 21
722.8413855494
 31
0.0
  0
ARC
  5
2FB
330
1B
100
AcDbEntity
 67
     1
  8
02___PRT_ALL_AXES
  6
Continuous
 62
     7
100
AcDbCircle
 10
2821.3566563338
 20
723.1729307681
 30
0.0
 40
10.0
100
AcDbArc
 50
182.0
 51
358.0
  0
LINE
  5
2FC
330
1B
100
AcDbEntity
 67
     1
  8
02___PRT_ALL_AXES
  6
Continuous
 62
     7
100
AcDbLine
 10
2811.8624434772
 20
722.8413855494
 30
0.0
 11
2811.3627480637
 21
722.8239358011
 31
0.0
  0
ARC
  5
2FD
330
1B
100
AcDbEntity
 67
     1
  8
02___PRT_ALL_AXES
  6
Continuous
 62
     7
100
AcDbCircle
 10
2821.3566563338
 20
723.1729307681
 30
0.0
 40
9.5
100
AcDbArc
 50
182.0
 51
358.0
  0
LINE
  5
2FE
330
1B
100
AcDbEntity
 67
     1
  8
7_ALL_FEATURES
  6
Continuous
 62
     7
100
AcDbLine
 10
2801.1697492727
 20
662.8413855494
 30
0.0
 11
2801.3566563338
 21
662.8413855494
 31
0.0
  0
ARC
  5
2FF
330
1B
100
AcDbEntity
 67
     1
  8
7_ALL_FEATURES
  6
Continuous
 62
     7
100
AcDbCircle
 10
2801.1697492727
 20
663.1413855494
 30
0.0
 40
0.3
100
AcDbArc
 50
227.2949738223
 51
270.0
  0
LINE
  5
300
330
1B
100
AcDbEntity
 67
     1
  8
7_ALL_FEATURES
  6
Continuous
 62
     7
100
AcDbLine
 10
2800.2208198735
 20
668.0508306634
 30
0.0
 11
2800.3566563338
 21
667.0190503114
 31
0.0
  0
ARC
  5
301
330
1B
100
AcDbEntity
 67
     1
  8
7_ALL_FEATURES
  6
Continuous
 62
     7
100
AcDbCircle
 10
2807.6566563338
 20
669.0297771051
 30
0.0
 40
7.5
100
AcDbArc
 50
180.0
 51
187.5
  0
LINE
  5
302
330
1B
100
AcDbEntity
 67
     1
  8
7_ALL_FEATURES
  6
Continuous
 62
     7
100
AcDbLine
 10
2800.1566563338
 20
698.6413855494
 30
0.0
 11
2800.1566563338
 21
669.0297771051
 31
0.0
  0
ARC
  5
303
330
1B
100
AcDbEntity
 67
     1
  8
7_ALL_FEATURES
  6
Continuous
 62
     7
100
AcDbCircle
 10
2800.3566563338
 20
698.6413855494
 30
0.0
 40
0.2
100
AcDbArc
 50
90.0
 51
180.0
  0
ARC
  5
304
330
1B
100
AcDbEntity
 67
     1
  8
7_ALL_FEATURES
  6
Continuous
 62
     7
100
AcDbCircle
 10
2800.3566563338
 20
703.5413855494
 30
0.0
 40
0.2
100
AcDbArc
 50
180.0
 51
270.0
  0
LINE
  5
305
330
1B
100
AcDbEntity
 67
     1
  8
7_ALL_FEATURES
  6
Continuous
 62
     7
100
AcDbLine
 10
2800.1566563338
 20
716.5413855494
 30
0.0
 11
2800.1566563338
 21
703.5413855494
 31
0.0
  0
ARC
  5
306
330
1B
100
AcDbEntity
 67
     1
  8
7_ALL_FEATURES
  6
Continuous
 62
     7
100
AcDbCircle
 10
2800.4566563338
 20
716.5413855494
 30
0.0
 40
0.3
100
AcDbArc
 50
109.5991446746
 51
180.0
  0
ARC
  5
307
330
1B
100
AcDbEntity
 67
     1
  8
7_ALL_FEATURES
  6
Continuous
 62
     7
100
AcDbCircle
 10
2800.4566563338
 20
721.6413855494
 30
0.0
 40
0.3
100
AcDbArc
 50
180.0
 51
250.4008553254
  0
LINE
  5
308
330
1B
100
AcDbEntity
 67
     1
  8
7_ALL_FEATURES
  6
Continuous
 62
     7
100
AcDbLine
 10
2800.1566563338
 20
745.3413855494
 30
0.0
 11
2800.1566563338
 21
721.6413855494
 31
0.0
  0
ARC
  5
309
330
1B
100
AcDbEntity
 67
     1
  8
7_ALL_FEATURES
  6
Continuous
 62
     7
100
AcDbCircle
 10
2801.1566563338
 20
745.3413855494
 30
0.0
 40
1.0
100
AcDbArc
 50
90.0
 51
180.0
  0
LINE
  5
30A
330
1B
100
AcDbEntity
 67
     1
  8
7_ALL_FEATURES
  6
Continuous
 62
     7
100
AcDbLine
 10
2801.3566563338
 20
746.3413855494
 30
0.0
 11
2801.1566563338
 21
746.3413855494
 31
0.0
  0
LINE
  5
30B
330
1B
100
AcDbEntity
 67
     1
  8
7_ALL_FEATURES
  6
Continuous
 62
     7
100
AcDbLine
 10
2841.5566563338
 20
746.3413855494
 30
0.0
 11
2841.3566563338
 21
746.3413855494
 31
0.0
  0
ARC
  5
30C
330
1B
100
AcDbEntity
 67
     1
  8
7_ALL_FEATURES
  6
Continuous
 62
     7
100
AcDbCircle
 10
2841.5566563338
 20
745.3413855494
 30
0.0
 40
1.0
100
AcDbArc
 50
0.0
 51
90.0
  0
LINE
  5
30D
330
1B
100
AcDbEntity
 67
     1
  8
7_ALL_FEATURES
  6
Continuous
 62
     7
100
AcDbLine
 10
2842.5566563338
 20
721.6413855494
 30
0.0
 11
2842.5566563338
 21
745.3413855494
 31
0.0
  0
ARC
  5
30E
330
1B
100
AcDbEntity
 67
     1
  8
7_ALL_FEATURES
  6
Continuous
 62
     7
100
AcDbCircle
 10
2842.2566563338
 20
721.6413855494
 30
0.0
 40
0.3
100
AcDbArc
 50
289.5991446746
 51
360.0
  0
ARC
  5
30F
330
1B
100
AcDbEntity
 67
     1
  8
7_ALL_FEATURES
  6
Continuous
 62
     7
100
AcDbCircle
 10
2842.2566563338
 20
716.5413855494
 30
0.0
 40
0.3
100
AcDbArc
 50
0.0
 51
70.4008553254
  0
LINE
  5
310
330
1B
100
AcDbEntity
 67
     1
  8
7_ALL_FEATURES
  6
Continuous
 62
     7
100
AcDbLine
 10
2842.5566563338
 20
703.5413855494
 30
0.0
 11
2842.5566563338
 21
716.5413855494
 31
0.0
  0
ARC
  5
311
330
1B
100
AcDbEntity
 67
     1
  8
7_ALL_FEATURES
  6
Continuous
 62
     7
100
AcDbCircle
 10
2842.3566563338
 20
703.5413855494
 30
0.0
 40
0.2
100
AcDbArc
 50
270.0
 51
360.0
  0
ARC
  5
312
330
1B
100
AcDbEntity
 67
     1
  8
7_ALL_FEATURES
  6
Continuous
 62
     7
100
AcDbCircle
 10
2842.3566563338
 20
698.6413855494
 30
0.0
 40
0.2
100
AcDbArc
 50
0.0
 51
90.0
  0
LINE
  5
313
330
1B
100
AcDbEntity
 67
     1
  8
7_ALL_FEATURES
  6
Continuous
 62
     7
100
AcDbLine
 10
2842.5566563338
 20
669.0297771051
 30
0.0
 11
2842.5566563338
 21
698.6413855494
 31
0.0
  0
ARC
  5
314
330
1B
100
AcDbEntity
 67
     1
  8
7_ALL_FEATURES
  6
Continuous
 62
     7
100
AcDbCircle
 10
2835.0566563338
 20
669.0297771051
 30
0.0
 40
7.5
100
AcDbArc
 50
352.5
 51
360.0
  0
LINE
  5
315
330
1B
100
AcDbEntity
 67
     1
  8
7_ALL_FEATURES
  6
Continuous
 62
     7
100
AcDbLine
 10
2842.3566563338
 20
667.0190503114
 30
0.0
 11
2842.4924927942
 21
668.0508306634
 31
0.0
  0
ARC
  5
316
330
1B
100
AcDbEntity
 67
     1
  8
7_ALL_FEATURES
  6
Continuous
 62
     7
100
AcDbCircle
 10
2841.543563395
 20
663.1413855494
 30
0.0
 40
0.3
100
AcDbArc
 50
270.0
 51
312.7050261777
  0
LINE
  5
317
330
1B
100
AcDbEntity
 67
     1
  8
7_ALL_FEATURES
  6
Continuous
 62
     7
100
AcDbLine
 10
2841.3566563338
 20
662.8413855494
 30
0.0
 11
2841.543563395
 21
662.8413855494
 31
0.0
  0
LINE
  5
318
330
1B
100
AcDbEntity
 67
     1
  8
7_ALL_FEATURES
  6
Continuous
 62
     7
100
AcDbLine
 10
2799.8066563338
 20
677.5413855494
 30
0.0
 11
2799.8066563338
 21
745.7413855494
 31
0.0
  0
ARC
  5
319
330
1B
100
AcDbEntity
 67
     1
  8
7_ALL_FEATURES
  6
Continuous
 62
     7
100
AcDbCircle
 10
2842.3066563338
 20
745.7413855494
 30
0.0
 40
0.6
100
AcDbArc
 50
0.0
 51
90.0
  0
LINE
  5
31A
330
1B
100
AcDbEntity
 67
     1
  8
7_ALL_FEATURES
  6
Continuous
 62
     7
100
AcDbLine
 10
2867.9066563338
 20
676.3413855494
 30
0.0
 11
2844.9066563338
 21
676.3413855494
 31
0.0
  0
LINE
  5
31B
330
1B
100
AcDbEntity
 67
     1
  8
7_ALL_FEATURES
  6
Continuous
 62
     7
100
AcDbLine
 10
2844.9066563338
 20
676.3413855494
 30
0.0
 11
2844.1066563338
 21
676.3413855494
 31
0.0
  0
LINE
  5
31C
330
1B
100
AcDbEntity
 67
     1
  8
7_ALL_FEATURES
  6
Continuous
 62
     7
100
AcDbLine
 10
2842.9066563338
 20
745.7413855494
 30
0.0
 11
2842.9066563338
 21
677.5413855494
 31
0.0
  0
ARC
  5
31D
330
1B
100
AcDbEntity
 67
     1
  8
7_ALL_FEATURES
  6
Continuous
 62
     7
100
AcDbCircle
 10
2844.1066563338
 20
677.5413855494
 30
0.0
 40
1.2
100
AcDbArc
 50
180.0
 51
270.0
  0
LINE
  5
31E
330
1B
100
AcDbEntity
 67
     1
  8
7_ALL_FEATURES
  6
Continuous
 62
     7
100
AcDbLine
 10
2867.9066563338
 20
676.9413855494
 30
0.0
 11
2867.9066563338
 21
676.3413855494
 31
0.0
  0
LINE
  5
31F
330
1B
100
AcDbEntity
 67
     1
  8
7_ALL_FEATURES
  6
Continuous
 62
     7
100
AcDbLine
 10
2774.8066563338
 20
676.9413855494
 30
0.0
 11
2774.8066563338
 21
676.3413855494
 31
0.0
  0
ARC
  5
320
330
1B
100
AcDbEntity
 67
     1
  8
7_ALL_FEATURES
  6
Continuous
 62
     7
100
AcDbCircle
 10
2798.6066563338
 20
677.5413855494
 30
0.0
 40
1.2
100
AcDbArc
 50
270.0
 51
360.0
  0
LINE
  5
321
330
1B
100
AcDbEntity
 67
     1
  8
7_ALL_FEATURES
  6
Continuous
 62
     7
100
AcDbLine
 10
2798.6066563338
 20
676.3413855494
 30
0.0
 11
2797.8066563338
 21
676.3413855494
 31
0.0
  0
LINE
  5
322
330
1B
100
AcDbEntity
 67
     1
  8
7_ALL_FEATURES
  6
Continuous
 62
     7
100
AcDbLine
 10
2797.8066563338
 20
676.3413855494
 30
0.0
 11
2774.8066563338
 21
676.3413855494
 31
0.0
  0
LINE
  5
323
330
1B
100
AcDbEntity
 67
     1
  8
7_ALL_FEATURES
  6
Continuous
 62
     7
100
AcDbLine
 10
2800.4066563338
 20
746.3413855494
 30
0.0
 11
2801.1566563338
 21
746.3413855494
 31
0.0
  0
LINE
  5
324
330
1B
100
AcDbEntity
 67
     1
  8
7_ALL_FEATURES
  6
Continuous
 62
     7
100
AcDbLine
 10
2841.5566563338
 20
746.3413855494
 30
0.0
 11
2842.3066563338
 21
746.3413855494
 31
0.0
  0
ARC
  5
325
330
1B
100
AcDbEntity
 67
     1
  8
7_ALL_FEATURES
  6
Continuous
 62
     7
100
AcDbCircle
 10
2800.4066563338
 20
745.7413855494
 30
0.0
 40
0.6
100
AcDbArc
 50
90.0
 51
180.0
  0
LINE
  5
326
330
1B
100
AcDbEntity
 67
     1
  8
7_ALL_FEATURES
  6
Continuous
 62
     9
100
AcDbLine
 10
2843.5066563338
 20
745.7413855494
 30
0.0
 11
2842.9066563338
 21
745.7413855494
 31
0.0
  0
LINE
  5
327
330
1B
100
AcDbEntity
 67
     1
  8
7_ALL_FEATURES
  6
Continuous
 62
     9
100
AcDbLine
 10
2842.3066563338
 20
746.9413855494
 30
0.0
 11
2842.3066563338
 21
746.3413855494
 31
0.0
  0
LINE
  5
328
330
1B
100
AcDbEntity
 67
     1
  8
7_ALL_FEATURES
  6
Continuous
 62
     9
100
AcDbLine
 10
2842.9066563338
 20
677.5413855494
 30
0.0
 11
2843.5066563338
 21
677.5413855494
 31
0.0
  0
LINE
  5
329
330
1B
100
AcDbEntity
 67
     1
  8
7_ALL_FEATURES
  6
Continuous
 62
     9
100
AcDbLine
 10
2800.4066563338
 20
746.9413855494
 30
0.0
 11
2800.4066563338
 21
746.3413855494
 31
0.0
  0
LINE
  5
32A
330
1B
100
AcDbEntity
 67
     1
  8
7_ALL_FEATURES
  6
Continuous
 62
     9
100
AcDbLine
 10
2799.8066563338
 20
677.5413855494
 30
0.0
 11
2799.2066563338
 21
677.5413855494
 31
0.0
  0
LINE
  5
32B
330
1B
100
AcDbEntity
 67
     1
  8
7_ALL_FEATURES
  6
Continuous
 62
     9
100
AcDbLine
 10
2799.2066563338
 20
745.7413855494
 30
0.0
 11
2799.8066563338
 21
745.7413855494
 31
0.0
  0
LINE
  5
32C
330
1B
100
AcDbEntity
 67
     1
  8
7_ALL_FEATURES
  6
Continuous
 62
     9
100
AcDbLine
 10
2798.6066563338
 20
676.3413855494
 30
0.0
 11
2798.6066563338
 21
676.9413855494
 31
0.0
  0
LINE
  5
32D
330
1B
100
AcDbEntity
 67
     1
  8
7_ALL_FEATURES
  6
Continuous
 62
     7
100
AcDbLine
 10
2797.8066563338
 20
676.9413855494
 30
0.0
 11
2797.8066563338
 21
676.3413855494
 31
0.0
  0
LINE
  5
32E
330
1B
100
AcDbEntity
 67
     1
  8
7_ALL_FEATURES
  6
Continuous
 62
     7
100
AcDbLine
 10
2844.9066563338
 20
676.9413855494
 30
0.0
 11
2844.9066563338
 21
676.3413855494
 31
0.0
  0
LINE
  5
32F
330
1B
100
AcDbEntity
 67
     1
  8
7_ALL_FEATURES
  6
Continuous
 62
     9
100
AcDbLine
 10
2844.1066563338
 20
676.3413855494
 30
0.0
 11
2844.1066563338
 21
676.9413855494
 31
0.0
  0
LINE
  5
330
330
1B
100
AcDbEntity
 67
     1
  8
7_ALL_FEATURES
  6
Continuous
 62
     3
100
AcDbLine
 10
2843.5066563338
 20
745.7413855494
 30
0.0
 11
2843.5066563338
 21
677.5413855494
 31
0.0
  0
ARC
  5
331
330
1B
100
AcDbEntity
 67
     1
  8
7_ALL_FEATURES
  6
Continuous
 62
     3
100
AcDbCircle
 10
2842.3066563338
 20
745.7413855494
 30
0.0
 40
1.2
100
AcDbArc
 50
0.0
 51
90.0
  0
ARC
  5
332
330
1B
100
AcDbEntity
 67
     1
  8
7_ALL_FEATURES
  6
Continuous
 62
     3
100
AcDbCircle
 10
2798.6066563338
 20
677.5413855494
 30
0.0
 40
0.6
100
AcDbArc
 50
270.0
 51
360.0
  0
LINE
  5
333
330
1B
100
AcDbEntity
 67
     1
  8
7_ALL_FEATURES
  6
Continuous
 62
     3
100
AcDbLine
 10
2798.6066563338
 20
676.9413855494
 30
0.0
 11
2797.8066563338
 21
676.9413855494
 31
0.0
  0
LINE
  5
334
330
1B
100
AcDbEntity
 67
     1
  8
7_ALL_FEATURES
  6
Continuous
 62
     3
100
AcDbLine
 10
2774.8066563338
 20
676.9413855494
 30
0.0
 11
2797.8066563338
 21
676.9413855494
 31
0.0
  0
LINE
  5
335
330
1B
100
AcDbEntity
 67
     1
  8
7_ALL_FEATURES
  6
Continuous
 62
     3
100
AcDbLine
 10
2844.9066563338
 20
676.9413855494
 30
0.0
 11
2867.9066563338
 21
676.9413855494
 31
0.0
  0
LINE
  5
336
330
1B
100
AcDbEntity
 67
     1
  8
7_ALL_FEATURES
  6
Continuous
 62
     3
100
AcDbLine
 10
2844.9066563338
 20
676.9413855494
 30
0.0
 11
2844.1066563338
 21
676.9413855494
 31
0.0
  0
ARC
  5
337
330
1B
100
AcDbEntity
 67
     1
  8
7_ALL_FEATURES
  6
Continuous
 62
     3
100
AcDbCircle
 10
2844.1066563338
 20
677.5413855494
 30
0.0
 40
0.6
100
AcDbArc
 50
180.0
 51
270.0
  0
LINE
  5
338
330
1B
100
AcDbEntity
 67
     1
  8
7_ALL_FEATURES
  6
Continuous
 62
     3
100
AcDbLine
 10
2800.4066563338
 20
746.9413855494
 30
0.0
 11
2842.3066563338
 21
746.9413855494
 31
0.0
  0
ARC
  5
339
330
1B
100
AcDbEntity
 67
     1
  8
7_ALL_FEATURES
  6
Continuous
 62
     3
100
AcDbCircle
 10
2800.4066563338
 20
745.7413855494
 30
0.0
 40
1.2
100
AcDbArc
 50
90.0
 51
180.0
  0
LINE
  5
33A
330
1B
100
AcDbEntity
 67
     1
  8
7_ALL_FEATURES
  6
Continuous
 62
     3
100
AcDbLine
 10
2799.2066563338
 20
677.5413855494
 30
0.0
 11
2799.2066563338
 21
745.7413855494
 31
0.0
  0
LINE
  5
33B
330
1B
100
AcDbEntity
 67
     1
  8
3_ALL_AXES
  6
Continuous
 62
     7
100
AcDbLine
 10
2601.7823320095
 20
692.134465992
 30
0.0
 11
2602.1316116799
 21
691.8413855494
 31
0.0
  0
LINE
  5
33C
330
1B
100
AcDbEntity
 67
     1
  8
3_ALL_AXES
  6
Continuous
 62
     7
100
AcDbLine
 10
2602.2823320095
 20
691.8414336156
 30
0.0
 11
2602.2823320095
 21
694.5913855494
 31
0.0
  0
LINE
  5
33D
330
1B
100
AcDbEntity
 67
     1
  8
3_ALL_AXES
  6
Continuous
 62
     7
100
AcDbLine
 10
2602.1316116799
 20
691.8413855494
 30
0.0
 11
2602.2823320095
 21
691.8413855494
 31
0.0
  0
LINE
  5
33E
330
1B
100
AcDbEntity
 67
     1
  8
3_ALL_AXES
  6
Continuous
 62
     7
100
AcDbLine
 10
2601.7823320095
 20
697.0483051068
 30
0.0
 11
2602.1316116799
 21
697.3413855494
 31
0.0
  0
LINE
  5
33F
330
1B
100
AcDbEntity
 67
     1
  8
3_ALL_AXES
  6
Continuous
 62
     7
100
AcDbLine
 10
2602.2823320095
 20
697.3413374833
 30
0.0
 11
2602.2823320095
 21
694.5913855494
 31
0.0
  0
LINE
  5
340
330
1B
100
AcDbEntity
 67
     1
  8
3_ALL_AXES
  6
Continuous
 62
     7
100
AcDbLine
 10
2602.1316116799
 20
697.3413855494
 30
0.0
 11
2602.2823320095
 21
697.3413855494
 31
0.0
  0
LINE
  5
341
330
1B
100
AcDbEntity
 67
     1
  8
3_ALL_AXES
  6
Continuous
 62
     7
100
AcDbLine
 10
2602.1316116799
 20
691.8413855494
 30
0.0
 11
2602.1316116799
 21
694.5913855494
 31
0.0
  0
LINE
  5
342
330
1B
100
AcDbEntity
 67
     1
  8
3_ALL_AXES
  6
Continuous
 62
     7
100
AcDbLine
 10
2602.1316116799
 20
697.3413855494
 30
0.0
 11
2602.1316116799
 21
694.5913855494
 31
0.0
  0
LINE
  5
343
330
1B
100
AcDbEntity
 67
     1
  8
3_ALL_AXES
  6
Continuous
 62
     7
100
AcDbLine
 10
2601.7823320095
 20
740.884465992
 30
0.0
 11
2602.1316116799
 21
740.5913855494
 31
0.0
  0
LINE
  5
344
330
1B
100
AcDbEntity
 67
     1
  8
3_ALL_AXES
  6
Continuous
 62
     7
100
AcDbLine
 10
2602.2823320095
 20
740.5914336156
 30
0.0
 11
2602.2823320095
 21
743.3413855494
 31
0.0
  0
LINE
  5
345
330
1B
100
AcDbEntity
 67
     1
  8
3_ALL_AXES
  6
Continuous
 62
     7
100
AcDbLine
 10
2602.1316116799
 20
740.5913855494
 30
0.0
 11
2602.2823320095
 21
740.5913855494
 31
0.0
  0
LINE
  5
346
330
1B
100
AcDbEntity
 67
     1
  8
3_ALL_AXES
  6
Continuous
 62
     7
100
AcDbLine
 10
2601.7823320095
 20
745.7983051068
 30
0.0
 11
2602.1316116799
 21
746.0913855494
 31
0.0
  0
LINE
  5
347
330
1B
100
AcDbEntity
 67
     1
  8
3_ALL_AXES
  6
Continuous
 62
     7
100
AcDbLine
 10
2602.2823320095
 20
746.0913374833
 30
0.0
 11
2602.2823320095
 21
743.3413855494
 31
0.0
  0
LINE
  5
348
330
1B
100
AcDbEntity
 67
     1
  8
3_ALL_AXES
  6
Continuous
 62
     7
100
AcDbLine
 10
2602.1316116799
 20
746.0913855494
 30
0.0
 11
2602.2823320095
 21
746.0913855494
 31
0.0
  0
LINE
  5
349
330
1B
100
AcDbEntity
 67
     1
  8
3_ALL_AXES
  6
Continuous
 62
     7
100
AcDbLine
 10
2602.1316116799
 20
740.5913855494
 30
0.0
 11
2602.1316116799
 21
743.3413855494
 31
0.0
  0
LINE
  5
34A
330
1B
100
AcDbEntity
 67
     1
  8
3_ALL_AXES
  6
Continuous
 62
     7
100
AcDbLine
 10
2602.1316116799
 20
746.0913855494
 30
0.0
 11
2602.1316116799
 21
743.3413855494
 31
0.0
  0
LINE
  5
34B
330
1B
100
AcDbEntity
 67
     1
  8
3_ALL_AXES
  6
Continuous
 62
     7
100
AcDbLine
 10
1079.7823320095
 20
692.134465992
 30
0.0
 11
1079.4330523392
 21
691.8413855494
 31
0.0
  0
LINE
  5
34C
330
1B
100
AcDbEntity
 67
     1
  8
3_ALL_AXES
  6
Continuous
 62
     7
100
AcDbLine
 10
1079.4330523392
 20
691.8413855494
 30
0.0
 11
1079.2823320095
 21
691.8413855494
 31
0.0
  0
LINE
  5
34D
330
1B
100
AcDbEntity
 67
     1
  8
3_ALL_AXES
  6
Continuous
 62
     7
100
AcDbLine
 10
1079.2823320095
 20
694.5913855494
 30
0.0
 11
1079.2823320095
 21
697.3413374833
 31
0.0
  0
LINE
  5
34E
330
1B
100
AcDbEntity
 67
     1
  8
3_ALL_AXES
  6
Continuous
 62
     7
100
AcDbLine
 10
1079.2823320095
 20
694.5913855494
 30
0.0
 11
1079.2823320095
 21
691.8414336156
 31
0.0
  0
LINE
  5
34F
330
1B
100
AcDbEntity
 67
     1
  8
3_ALL_AXES
  6
Continuous
 62
     7
100
AcDbLine
 10
1079.7823320095
 20
697.0483051068
 30
0.0
 11
1079.4330523392
 21
697.3413855494
 31
0.0
  0
LINE
  5
350
330
1B
100
AcDbEntity
 67
     1
  8
3_ALL_AXES
  6
Continuous
 62
     7
100
AcDbLine
 10
1079.4330523392
 20
697.3413855494
 30
0.0
 11
1079.2823320095
 21
697.3413855494
 31
0.0
  0
LINE
  5
351
330
1B
100
AcDbEntity
 67
     1
  8
3_ALL_AXES
  6
Continuous
 62
     7
100
AcDbLine
 10
1079.4330523392
 20
694.5913855494
 30
0.0
 11
1079.4330523392
 21
691.8413855494
 31
0.0
  0
LINE
  5
352
330
1B
100
AcDbEntity
 67
     1
  8
3_ALL_AXES
  6
Continuous
 62
     7
100
AcDbLine
 10
1079.4330523392
 20
694.5913855494
 30
0.0
 11
1079.4330523392
 21
697.3413855494
 31
0.0
  0
LINE
  5
353
330
1B
100
AcDbEntity
 67
     1
  8
3_ALL_AXES
  6
Continuous
 62
     7
100
AcDbLine
 10
1079.7823320095
 20
740.884465992
 30
0.0
 11
1079.4330523392
 21
740.5913855494
 31
0.0
  0
LINE
  5
354
330
1B
100
AcDbEntity
 67
     1
  8
3_ALL_AXES
  6
Continuous
 62
     7
100
AcDbLine
 10
1079.4330523392
 20
740.5913855494
 30
0.0
 11
1079.2823320095
 21
740.5913855494
 31
0.0
  0
LINE
  5
355
330
1B
100
AcDbEntity
 67
     1
  8
3_ALL_AXES
  6
Continuous
 62
     7
100
AcDbLine
 10
1079.2823320095
 20
743.3413855494
 30
0.0
 11
1079.2823320095
 21
746.0913374833
 31
0.0
  0
LINE
  5
356
330
1B
100
AcDbEntity
 67
     1
  8
3_ALL_AXES
  6
Continuous
 62
     7
100
AcDbLine
 10
1079.2823320095
 20
743.3413855494
 30
0.0
 11
1079.2823320095
 21
740.5914336156
 31
0.0
  0
LINE
  5
357
330
1B
100
AcDbEntity
 67
     1
  8
3_ALL_AXES
  6
Continuous
 62
     7
100
AcDbLine
 10
1079.7823320095
 20
745.7983051068
 30
0.0
 11
1079.4330523392
 21
746.0913855494
 31
0.0
  0
LINE
  5
358
330
1B
100
AcDbEntity
 67
     1
  8
3_ALL_AXES
  6
Continuous
 62
     7
100
AcDbLine
 10
1079.4330523392
 20
746.0913855494
 30
0.0
 11
1079.2823320095
 21
746.0913855494
 31
0.0
  0
LINE
  5
359
330
1B
100
AcDbEntity
 67
     1
  8
3_ALL_AXES
  6
Continuous
 62
     7
100
AcDbLine
 10
1079.4330523392
 20
743.3413855494
 30
0.0
 11
1079.4330523392
 21
740.5913855494
 31
0.0
  0
LINE
  5
35A
330
1B
100
AcDbEntity
 67
     1
  8
3_ALL_AXES
  6
Continuous
 62
     7
100
AcDbLine
 10
1079.4330523392
 20
743.3413855494
 30
0.0
 11
1079.4330523392
 21
746.0913855494
 31
0.0
  0
LINE
  5
35B
330
1B
100
AcDbEntity
 67
     1
  8
7_ALL_FEATURES
  6
Continuous
 62
     7
100
AcDbLine
 10
1079.7823320095
 20
671.6413855494
 30
0.0
 11
1079.7823320095
 21
674.0413855494
 31
0.0
  0
LINE
  5
35C
330
1B
100
AcDbEntity
 67
     1
  8
7_ALL_FEATURES
  6
Continuous
 62
     7
100
AcDbLine
 10
1079.7823320095
 20
674.0413855494
 30
0.0
 11
1079.7823320095
 21
674.8413855494
 31
0.0
  0
LINE
  5
35D
330
1B
100
AcDbEntity
 67
     1
  8
7_ALL_FEATURES
  6
Continuous
 62
     7
100
AcDbLine
 10
1079.7823320095
 20
745.3413855494
 30
0.0
 11
1079.7823320095
 21
674.8413855494
 31
0.0
  0
LINE
  5
35E
330
1B
100
AcDbEntity
 67
     1
  8
7_ALL_FEATURES
  6
Continuous
 62
     7
100
AcDbLine
 10
1079.7823320095
 20
745.3413855494
 30
0.0
 11
1079.7823320095
 21
746.3413855494
 31
0.0
  0
LINE
  5
35F
330
1B
100
AcDbEntity
 67
     1
  8
7_ALL_FEATURES
  6
Continuous
 62
     7
100
AcDbLine
 10
1079.7823320095
 20
662.8413855494
 30
0.0
 11
1079.7823320095
 21
663.8413855494
 31
0.0
  0
LINE
  5
360
330
1B
100
AcDbEntity
 67
     1
  8
7_ALL_FEATURES
  6
Continuous
 62
     7
100
AcDbLine
 10
1079.7823320095
 20
670.8413855494
 30
0.0
 11
1079.7823320095
 21
663.8413855494
 31
0.0
  0
LINE
  5
361
330
1B
100
AcDbEntity
 67
     1
  8
7_ALL_FEATURES
  6
Continuous
 62
     7
100
AcDbLine
 10
1079.7823320095
 20
670.8413855494
 30
0.0
 11
1079.7823320095
 21
671.6413855494
 31
0.0
  0
LINE
  5
362
330
1B
100
AcDbEntity
 67
     1
  8
7_ALL_FEATURES
  6
Continuous
 62
     7
100
AcDbLine
 10
1079.7823320095
 20
746.3413855494
 30
0.0
 11
1081.2823320095
 21
746.3413855494
 31
0.0
  0
LINE
  5
363
330
1B
100
AcDbEntity
 67
     1
  8
7_ALL_FEATURES
  6
Continuous
 62
     7
100
AcDbLine
 10
1079.7823320095
 20
662.8413855494
 30
0.0
 11
1081.2823320095
 21
662.8413855494
 31
0.0
  0
LINE
  5
364
330
1B
100
AcDbEntity
 67
     1
  8
7_ALL_FEATURES
  6
Continuous
 62
     9
100
AcDbLine
 10
1079.7823320095
 20
745.3413855494
 30
0.0
 11
1081.2823320095
 21
745.3413855494
 31
0.0
  0
LINE
  5
365
330
1B
100
AcDbEntity
 67
     1
  8
7_ALL_FEATURES
  6
Continuous
 62
     9
100
AcDbLine
 10
1079.7823320095
 20
674.0413855494
 30
0.0
 11
1081.2823320095
 21
674.0413855494
 31
0.0
  0
LINE
  5
366
330
1B
100
AcDbEntity
 67
     1
  8
7_ALL_FEATURES
  6
Continuous
 62
     9
100
AcDbLine
 10
1079.7823320095
 20
671.6413855494
 30
0.0
 11
1081.2823320095
 21
671.6413855494
 31
0.0
  0
LINE
  5
367
330
1B
100
AcDbEntity
 67
     1
  8
7_ALL_FEATURES
  6
Continuous
 62
     9
100
AcDbLine
 10
1079.7823320095
 20
674.8413855494
 30
0.0
 11
1081.2823320095
 21
674.8413855494
 31
0.0
  0
LINE
  5
368
330
1B
100
AcDbEntity
 67
     1
  8
7_ALL_FEATURES
  6
Continuous
 62
     9
100
AcDbLine
 10
1079.7823320095
 20
663.8413855494
 30
0.0
 11
1081.2823320095
 21
663.8413855494
 31
0.0
  0
LINE
  5
369
330
1B
100
AcDbEntity
 67
     1
  8
7_ALL_FEATURES
  6
Continuous
 62
     9
100
AcDbLine
 10
1079.7823320095
 20
670.8413855494
 30
0.0
 11
1081.2823320095
 21
670.8413855494
 31
0.0
  0
LINE
  5
36A
330
1B
100
AcDbEntity
 67
     1
  8
7_ALL_FEATURES
  6
Continuous
 62
     7
100
AcDbLine
 10
2601.7823320095
 20
746.3413855494
 30
0.0
 11
2601.7823320095
 21
745.3413855494
 31
0.0
  0
LINE
  5
36B
330
1B
100
AcDbEntity
 67
     1
  8
7_ALL_FEATURES
  6
Continuous
 62
     7
100
AcDbLine
 10
2601.7823320095
 20
734.8413855494
 30
0.0
 11
2601.7823320095
 21
745.3413855494
 31
0.0
  0
LINE
  5
36C
330
1B
100
AcDbEntity
 67
     1
  8
7_ALL_FEATURES
  6
Continuous
 62
     7
100
AcDbLine
 10
2601.7823320095
 20
734.8413855494
 30
0.0
 11
2601.7823320095
 21
734.0413855494
 31
0.0
  0
LINE
  5
36D
330
1B
100
AcDbEntity
 67
     1
  8
7_ALL_FEATURES
  6
Continuous
 62
     7
100
AcDbLine
 10
2601.7823320095
 20
734.0413855494
 30
0.0
 11
2601.7823320095
 21
731.6413855494
 31
0.0
  0
LINE
  5
36E
330
1B
100
AcDbEntity
 67
     1
  8
7_ALL_FEATURES
  6
Continuous
 62
     7
100
AcDbLine
 10
2601.7823320095
 20
731.6413855494
 30
0.0
 11
2601.7823320095
 21
730.8413855494
 31
0.0
  0
LINE
  5
36F
330
1B
100
AcDbEntity
 67
     1
  8
7_ALL_FEATURES
  6
Continuous
 62
     7
100
AcDbLine
 10
2601.7823320095
 20
663.8413855494
 30
0.0
 11
2601.7823320095
 21
730.8413855494
 31
0.0
  0
LINE
  5
370
330
1B
100
AcDbEntity
 67
     1
  8
7_ALL_FEATURES
  6
Continuous
 62
     7
100
AcDbLine
 10
2601.7823320095
 20
663.8413855494
 30
0.0
 11
2601.7823320095
 21
662.8413855494
 31
0.0
  0
LINE
  5
371
330
1B
100
AcDbEntity
 67
     1
  8
7_ALL_FEATURES
  6
Continuous
 62
     7
100
AcDbLine
 10
2601.7823320095
 20
746.3413855494
 30
0.0
 11
2600.2823320095
 21
746.3413855494
 31
0.0
  0
LINE
  5
372
330
1B
100
AcDbEntity
 67
     1
  8
7_ALL_FEATURES
  6
Continuous
 62
     7
100
AcDbLine
 10
2601.7823320095
 20
662.8413855494
 30
0.0
 11
2600.2823320095
 21
662.8413855494
 31
0.0
  0
LINE
  5
373
330
1B
100
AcDbEntity
 67
     1
  8
7_ALL_FEATURES
  6
Continuous
 62
     9
100
AcDbLine
 10
2601.7823320095
 20
734.0413855494
 30
0.0
 11
2600.2823320095
 21
734.0413855494
 31
0.0
  0
LINE
  5
374
330
1B
100
AcDbEntity
 67
     1
  8
7_ALL_FEATURES
  6
Continuous
 62
     9
100
AcDbLine
 10
2601.7823320095
 20
731.6413855494
 30
0.0
 11
2600.2823320095
 21
731.6413855494
 31
0.0
  0
LINE
  5
375
330
1B
100
AcDbEntity
 67
     1
  8
7_ALL_FEATURES
  6
Continuous
 62
     9
100
AcDbLine
 10
2601.7823320095
 20
745.3413855494
 30
0.0
 11
2600.2823320095
 21
745.3413855494
 31
0.0
  0
LINE
  5
376
330
1B
100
AcDbEntity
 67
     1
  8
7_ALL_FEATURES
  6
Continuous
 62
     9
100
AcDbLine
 10
2601.7823320095
 20
734.8413855494
 30
0.0
 11
2600.2823320095
 21
734.8413855494
 31
0.0
  0
LINE
  5
377
330
1B
100
AcDbEntity
 67
     1
  8
7_ALL_FEATURES
  6
Continuous
 62
     9
100
AcDbLine
 10
2601.7823320095
 20
663.8413855494
 30
0.0
 11
2600.2823320095
 21
663.8413855494
 31
0.0
  0
LINE
  5
378
330
1B
100
AcDbEntity
 67
     1
  8
7_ALL_FEATURES
  6
Continuous
 62
     9
100
AcDbLine
 10
2601.7823320095
 20
730.8413855494
 30
0.0
 11
2600.2823320095
 21
730.8413855494
 31
0.0
  0
LINE
  5
379
330
1B
100
AcDbEntity
 67
     1
  8
7_ALL_FEATURES
  6
Continuous
 62
     7
100
AcDbLine
 10
2401.2823320095
 20
676.3413855494
 30
0.0
 11
2389.2823320095
 21
676.3413855494
 31
0.0
  0
LINE
  5
37A
330
1B
100
AcDbEntity
 67
     1
  8
7_ALL_FEATURES
  6
Continuous
 62
     7
100
AcDbLine
 10
2502.2823320095
 20
676.3413855494
 30
0.0
 11
2401.2823320095
 21
676.3413855494
 31
0.0
  0
LINE
  5
37B
330
1B
100
AcDbEntity
 67
     1
  8
7_ALL_FEATURES
  6
Continuous
 62
     7
100
AcDbLine
 10
2514.2823320095
 20
676.3413855494
 30
0.0
 11
2502.2823320095
 21
676.3413855494
 31
0.0
  0
LINE
  5
37C
330
1B
100
AcDbEntity
 67
     1
  8
7_ALL_FEATURES
  6
Continuous
 62
     7
100
AcDbLine
 10
2514.2823320095
 20
676.9413855494
 30
0.0
 11
2514.2823320095
 21
676.3413855494
 31
0.0
  0
LINE
  5
37D
330
1B
100
AcDbEntity
 67
     1
  8
7_ALL_FEATURES
  6
Continuous
 62
     7
100
AcDbLine
 10
2389.2823320095
 20
676.9413855494
 30
0.0
 11
2389.2823320095
 21
676.3413855494
 31
0.0
  0
LINE
  5
37E
330
1B
100
AcDbEntity
 67
     1
  8
7_ALL_FEATURES
  6
Continuous
 62
     7
100
AcDbLine
 10
2401.2823320095
 20
676.9413855494
 30
0.0
 11
2401.2823320095
 21
676.3413855494
 31
0.0
  0
LINE
  5
37F
330
1B
100
AcDbEntity
 67
     1
  8
7_ALL_FEATURES
  6
Continuous
 62
     7
100
AcDbLine
 10
2502.2823320095
 20
676.9413855494
 30
0.0
 11
2502.2823320095
 21
676.3413855494
 31
0.0
  0
LINE
  5
380
330
1B
100
AcDbEntity
 67
     1
  8
7_ALL_FEATURES
  6
Continuous
 62
     7
100
AcDbLine
 10
1761.2823320095
 20
676.3413855494
 30
0.0
 11
1749.2823320095
 21
676.3413855494
 31
0.0
  0
LINE
  5
381
330
1B
100
AcDbEntity
 67
     1
  8
7_ALL_FEATURES
  6
Continuous
 62
     7
100
AcDbLine
 10
1862.2823320095
 20
676.3413855494
 30
0.0
 11
1761.2823320095
 21
676.3413855494
 31
0.0
  0
LINE
  5
382
330
1B
100
AcDbEntity
 67
     1
  8
7_ALL_FEATURES
  6
Continuous
 62
     7
100
AcDbLine
 10
1874.2823320095
 20
676.3413855494
 30
0.0
 11
1862.2823320095
 21
676.3413855494
 31
0.0
  0
LINE
  5
383
330
1B
100
AcDbEntity
 67
     1
  8
7_ALL_FEATURES
  6
Continuous
 62
     7
100
AcDbLine
 10
1874.2823320095
 20
676.9413855494
 30
0.0
 11
1874.2823320095
 21
676.3413855494
 31
0.0
  0
LINE
  5
384
330
1B
100
AcDbEntity
 67
     1
  8
7_ALL_FEATURES
  6
Continuous
 62
     7
100
AcDbLine
 10
1749.2823320095
 20
676.9413855494
 30
0.0
 11
1749.2823320095
 21
676.3413855494
 31
0.0
  0
LINE
  5
385
330
1B
100
AcDbEntity
 67
     1
  8
7_ALL_FEATURES
  6
Continuous
 62
     7
100
AcDbLine
 10
1761.2823320095
 20
676.9413855494
 30
0.0
 11
1761.2823320095
 21
676.3413855494
 31
0.0
  0
LINE
  5
386
330
1B
100
AcDbEntity
 67
     1
  8
7_ALL_FEATURES
  6
Continuous
 62
     7
100
AcDbLine
 10
1862.2823320095
 20
676.9413855494
 30
0.0
 11
1862.2823320095
 21
676.3413855494
 31
0.0
  0
LINE
  5
387
330
1B
100
AcDbEntity
 67
     1
  8
7_ALL_FEATURES
  6
Continuous
 62
     7
100
AcDbLine
 10
1121.2823320095
 20
676.3413855494
 30
0.0
 11
1109.2823320095
 21
676.3413855494
 31
0.0
  0
LINE
  5
388
330
1B
100
AcDbEntity
 67
     1
  8
7_ALL_FEATURES
  6
Continuous
 62
     7
100
AcDbLine
 10
1222.2823320095
 20
676.3413855494
 30
0.0
 11
1121.2823320095
 21
676.3413855494
 31
0.0
  0
LINE
  5
389
330
1B
100
AcDbEntity
 67
     1
  8
7_ALL_FEATURES
  6
Continuous
 62
     7
100
AcDbLine
 10
1234.2823320095
 20
676.3413855494
 30
0.0
 11
1222.2823320095
 21
676.3413855494
 31
0.0
  0
LINE
  5
38A
330
1B
100
AcDbEntity
 67
     1
  8
7_ALL_FEATURES
  6
Continuous
 62
     7
100
AcDbLine
 10
1234.2823320095
 20
676.9413855494
 30
0.0
 11
1234.2823320095
 21
676.3413855494
 31
0.0
  0
LINE
  5
38B
330
1B
100
AcDbEntity
 67
     1
  8
7_ALL_FEATURES
  6
Continuous
 62
     7
100
AcDbLine
 10
1109.2823320095
 20
676.9413855494
 30
0.0
 11
1109.2823320095
 21
676.3413855494
 31
0.0
  0
LINE
  5
38C
330
1B
100
AcDbEntity
 67
     1
  8
7_ALL_FEATURES
  6
Continuous
 62
     7
100
AcDbLine
 10
1121.2823320095
 20
676.9413855494
 30
0.0
 11
1121.2823320095
 21
676.3413855494
 31
0.0
  0
LINE
  5
38D
330
1B
100
AcDbEntity
 67
     1
  8
7_ALL_FEATURES
  6
Continuous
 62
     7
100
AcDbLine
 10
1222.2823320095
 20
676.9413855494
 30
0.0
 11
1222.2823320095
 21
676.3413855494
 31
0.0
  0
LINE
  5
38E
330
1B
100
AcDbEntity
 67
     1
  8
7_ALL_FEATURES
  6
Continuous
 62
     7
100
AcDbLine
 10
2600.2823320095
 20
662.9215312274
 30
0.0
 11
2600.2823320095
 21
662.8413855494
 31
0.0
  0
LINE
  5
38F
330
1B
100
AcDbEntity
 67
     1
  8
7_ALL_FEATURES
  6
Continuous
 62
     7
100
AcDbLine
 10
2600.2823320095
 20
667.0190503114
 30
0.0
 11
2600.2823320095
 21
668.0508306634
 31
0.0
  0
LINE
  5
390
330
1B
100
AcDbEntity
 67
     1
  8
7_ALL_FEATURES
  6
Continuous
 62
     7
100
AcDbLine
 10
2600.2823320095
 20
669.0297771051
 30
0.0
 11
2600.2823320095
 21
668.0508306634
 31
0.0
  0
LINE
  5
391
330
1B
100
AcDbEntity
 67
     1
  8
7_ALL_FEATURES
  6
Continuous
 62
     7
100
AcDbLine
 10
2600.2823320095
 20
669.0297771051
 30
0.0
 11
2600.2823320095
 21
698.6413855494
 31
0.0
  0
LINE
  5
392
330
1B
100
AcDbEntity
 67
     1
  8
7_ALL_FEATURES
  6
Continuous
 62
     7
100
AcDbLine
 10
2600.2823320095
 20
698.8413855494
 30
0.0
 11
2600.2823320095
 21
698.6413855494
 31
0.0
  0
LINE
  5
393
330
1B
100
AcDbEntity
 67
     1
  8
7_ALL_FEATURES
  6
Continuous
 62
     7
100
AcDbLine
 10
2600.2823320095
 20
703.5413855494
 30
0.0
 11
2600.2823320095
 21
703.3413855494
 31
0.0
  0
LINE
  5
394
330
1B
100
AcDbEntity
 67
     1
  8
7_ALL_FEATURES
  6
Continuous
 62
     7
100
AcDbLine
 10
2600.2823320095
 20
703.5413855494
 30
0.0
 11
2600.2823320095
 21
716.5413855494
 31
0.0
  0
LINE
  5
395
330
1B
100
AcDbEntity
 67
     1
  8
7_ALL_FEATURES
  6
Continuous
 62
     7
100
AcDbLine
 10
2600.2823320095
 20
716.8413855494
 30
0.0
 11
2600.2823320095
 21
716.8222314424
 31
0.0
  0
LINE
  5
396
330
1B
100
AcDbEntity
 67
     1
  8
7_ALL_FEATURES
  6
Continuous
 62
     7
100
AcDbLine
 10
2600.2823320095
 20
716.8222314424
 30
0.0
 11
2600.2823320095
 21
716.5413855494
 31
0.0
  0
LINE
  5
397
330
1B
100
AcDbEntity
 67
     1
  8
7_ALL_FEATURES
  6
Continuous
 62
     7
100
AcDbLine
 10
2600.2823320095
 20
721.6413855494
 30
0.0
 11
2600.2823320095
 21
721.3605396565
 31
0.0
  0
LINE
  5
398
330
1B
100
AcDbEntity
 67
     1
  8
7_ALL_FEATURES
  6
Continuous
 62
     7
100
AcDbLine
 10
2600.2823320095
 20
721.3605396565
 30
0.0
 11
2600.2823320095
 21
721.3413855494
 31
0.0
  0
LINE
  5
399
330
1B
100
AcDbEntity
 67
     1
  8
7_ALL_FEATURES
  6
Continuous
 62
     7
100
AcDbLine
 10
2600.2823320095
 20
721.6413855494
 30
0.0
 11
2600.2823320095
 21
745.3413855494
 31
0.0
  0
LINE
  5
39A
330
1B
100
AcDbEntity
 67
     1
  8
7_ALL_FEATURES
  6
Continuous
 62
     7
100
AcDbLine
 10
2600.2823320095
 20
746.3413855494
 30
0.0
 11
2600.2823320095
 21
745.3413855494
 31
0.0
  0
LINE
  5
39B
330
1B
100
AcDbEntity
 67
     1
  8
7_ALL_FEATURES
  6
Continuous
 62
     7
100
AcDbLine
 10
1081.2823320095
 20
745.3413855494
 30
0.0
 11
1081.2823320095
 21
746.3413855494
 31
0.0
  0
LINE
  5
39C
330
1B
100
AcDbEntity
 67
     1
  8
7_ALL_FEATURES
  6
Continuous
 62
     7
100
AcDbLine
 10
1081.2823320095
 20
721.6413855494
 30
0.0
 11
1081.2823320095
 21
745.3413855494
 31
0.0
  0
LINE
  5
39D
330
1B
100
AcDbEntity
 67
     1
  8
7_ALL_FEATURES
  6
Continuous
 62
     7
100
AcDbLine
 10
1081.2823320095
 20
721.3413855494
 30
0.0
 11
1081.2823320095
 21
721.3605396565
 31
0.0
  0
LINE
  5
39E
330
1B
100
AcDbEntity
 67
     1
  8
7_ALL_FEATURES
  6
Continuous
 62
     7
100
AcDbLine
 10
1081.2823320095
 20
721.3605396565
 30
0.0
 11
1081.2823320095
 21
721.6413855494
 31
0.0
  0
LINE
  5
39F
330
1B
100
AcDbEntity
 67
     1
  8
7_ALL_FEATURES
  6
Continuous
 62
     7
100
AcDbLine
 10
1081.2823320095
 20
716.5413855494
 30
0.0
 11
1081.2823320095
 21
716.8222314424
 31
0.0
  0
LINE
  5
3A0
330
1B
100
AcDbEntity
 67
     1
  8
7_ALL_FEATURES
  6
Continuous
 62
     7
100
AcDbLine
 10
1081.2823320095
 20
716.8222314424
 30
0.0
 11
1081.2823320095
 21
716.8413855494
 31
0.0
  0
LINE
  5
3A1
330
1B
100
AcDbEntity
 67
     1
  8
7_ALL_FEATURES
  6
Continuous
 62
     7
100
AcDbLine
 10
1081.2823320095
 20
703.5413855494
 30
0.0
 11
1081.2823320095
 21
716.5413855494
 31
0.0
  0
LINE
  5
3A2
330
1B
100
AcDbEntity
 67
     1
  8
7_ALL_FEATURES
  6
Continuous
 62
     7
100
AcDbLine
 10
1081.2823320095
 20
703.3413855494
 30
0.0
 11
1081.2823320095
 21
703.5413855494
 31
0.0
  0
LINE
  5
3A3
330
1B
100
AcDbEntity
 67
     1
  8
02___PRT_ALL_AXES
  6
Continuous
 62
     7
100
AcDbLine
 10
1204.0624287001
 20
721.3413855494
 30
0.0
 11
1204.748089918
 21
721.3413855494
 31
0.0
  0
LINE
  5
3A4
330
1B
100
AcDbEntity
 67
     1
  8
02___PRT_ALL_AXES
  6
Continuous
 62
     7
100
AcDbLine
 10
1234.2823320095
 20
721.3413855494
 30
0.0
 11
1749.2823320095
 21
721.3413855494
 31
0.0
  0
LINE
  5
3A5
330
1B
100
AcDbEntity
 67
     1
  8
02___PRT_ALL_AXES
  6
Continuous
 62
     7
100
AcDbLine
 10
1778.8165741011
 20
721.3413855494
 30
0.0
 11
1779.502235319
 21
721.3413855494
 31
0.0
  0
LINE
  5
3A6
330
1B
100
AcDbEntity
 67
     1
  8
02___PRT_ALL_AXES
  6
Continuous
 62
     7
100
AcDbLine
 10
1844.0624287001
 20
721.3413855494
 30
0.0
 11
1844.748089918
 21
721.3413855494
 31
0.0
  0
LINE
  5
3A7
330
1B
100
AcDbEntity
 67
     1
  8
02___PRT_ALL_AXES
  6
Continuous
 62
     7
100
AcDbLine
 10
1874.2823320095
 20
721.3413855494
 30
0.0
 11
2389.2823320095
 21
721.3413855494
 31
0.0
  0
LINE
  5
3A8
330
1B
100
AcDbEntity
 67
     1
  8
02___PRT_ALL_AXES
  6
Continuous
 62
     7
100
AcDbLine
 10
2418.8165741011
 20
721.3413855494
 30
0.0
 11
2419.502235319
 21
721.3413855494
 31
0.0
  0
LINE
  5
3A9
330
1B
100
AcDbEntity
 67
     1
  8
02___PRT_ALL_AXES
  6
Continuous
 62
     7
100
AcDbLine
 10
2484.0624287001
 20
721.3413855494
 30
0.0
 11
2484.748089918
 21
721.3413855494
 31
0.0
  0
LINE
  5
3AA
330
1B
100
AcDbEntity
 67
     1
  8
02___PRT_ALL_AXES
  6
Continuous
 62
     7
100
AcDbLine
 10
2514.2823320095
 20
721.3413855494
 30
0.0
 11
2600.2823320095
 21
721.3413855494
 31
0.0
  0
LINE
  5
3AB
330
1B
100
AcDbEntity
 67
     1
  8
02___PRT_ALL_AXES
  6
Continuous
 62
     7
100
AcDbLine
 10
1081.2823320095
 20
721.3413855494
 30
0.0
 11
1109.2823320095
 21
721.3413855494
 31
0.0
  0
LINE
  5
3AC
330
1B
100
AcDbEntity
 67
     1
  8
02___PRT_ALL_AXES
  6
Continuous
 62
     7
100
AcDbLine
 10
1138.8165741011
 20
721.3413855494
 30
0.0
 11
1139.502235319
 21
721.3413855494
 31
0.0
  0
LINE
  5
3AD
330
1B
100
AcDbEntity
 67
     1
  8
7_ALL_FEATURES
  6
Continuous
 62
     7
100
AcDbLine
 10
1081.2823320095
 20
698.6413855494
 30
0.0
 11
1081.2823320095
 21
698.8413855494
 31
0.0
  0
LINE
  5
3AE
330
1B
100
AcDbEntity
 67
     1
  8
7_ALL_FEATURES
  6
Continuous
 62
     7
100
AcDbLine
 10
1081.2823320095
 20
669.0297771051
 30
0.0
 11
1081.2823320095
 21
698.6413855494
 31
0.0
  0
LINE
  5
3AF
330
1B
100
AcDbEntity
 67
     1
  8
7_ALL_FEATURES
  6
Continuous
 62
     7
100
AcDbLine
 10
1081.2823320095
 20
668.0508306634
 30
0.0
 11
1081.2823320095
 21
669.0297771051
 31
0.0
  0
LINE
  5
3B0
330
1B
100
AcDbEntity
 67
     1
  8
7_ALL_FEATURES
  6
Continuous
 62
     7
100
AcDbLine
 10
1081.2823320095
 20
667.0190503114
 30
0.0
 11
1081.2823320095
 21
668.0508306634
 31
0.0
  0
LINE
  5
3B1
330
1B
100
AcDbEntity
 67
     1
  8
7_ALL_FEATURES
  6
Continuous
 62
     7
100
AcDbLine
 10
1081.2823320095
 20
662.8413855494
 30
0.0
 11
1081.2823320095
 21
662.9215312274
 31
0.0
  0
LINE
  5
3B2
330
1B
100
AcDbEntity
 67
     1
  8
02___PRT_ALL_AXES
  6
Continuous
 62
     7
100
AcDbLine
 10
2600.2823320095
 20
716.8413855494
 30
0.0
 11
2514.2823320095
 21
716.8413855494
 31
0.0
  0
LINE
  5
3B3
330
1B
100
AcDbEntity
 67
     1
  8
02___PRT_ALL_AXES
  6
Continuous
 62
     7
100
AcDbLine
 10
2490.3940572163
 20
716.8413855494
 30
0.0
 11
2490.1683715986
 21
716.8413855494
 31
0.0
  0
LINE
  5
3B4
330
1B
100
AcDbEntity
 67
     1
  8
02___PRT_ALL_AXES
  6
Continuous
 62
     7
100
AcDbLine
 10
2413.3962924205
 20
716.8413855494
 30
0.0
 11
2413.1706068027
 21
716.8413855494
 31
0.0
  0
LINE
  5
3B5
330
1B
100
AcDbEntity
 67
     1
  8
02___PRT_ALL_AXES
  6
Continuous
 62
     7
100
AcDbLine
 10
2389.2823320095
 20
716.8413855494
 30
0.0
 11
1874.2823320095
 21
716.8413855494
 31
0.0
  0
LINE
  5
3B6
330
1B
100
AcDbEntity
 67
     1
  8
02___PRT_ALL_AXES
  6
Continuous
 62
     7
100
AcDbLine
 10
1850.3940572163
 20
716.8413855494
 30
0.0
 11
1850.1683715986
 21
716.8413855494
 31
0.0
  0
LINE
  5
3B7
330
1B
100
AcDbEntity
 67
     1
  8
02___PRT_ALL_AXES
  6
Continuous
 62
     7
100
AcDbLine
 10
1773.3962924205
 20
716.8413855494
 30
0.0
 11
1773.1706068027
 21
716.8413855494
 31
0.0
  0
LINE
  5
3B8
330
1B
100
AcDbEntity
 67
     1
  8
02___PRT_ALL_AXES
  6
Continuous
 62
     7
100
AcDbLine
 10
1749.2823320095
 20
716.8413855494
 30
0.0
 11
1234.2823320095
 21
716.8413855494
 31
0.0
  0
LINE
  5
3B9
330
1B
100
AcDbEntity
 67
     1
  8
02___PRT_ALL_AXES
  6
Continuous
 62
     7
100
AcDbLine
 10
1210.3940572163
 20
716.8413855494
 30
0.0
 11
1210.1683715986
 21
716.8413855494
 31
0.0
  0
LINE
  5
3BA
330
1B
100
AcDbEntity
 67
     1
  8
02___PRT_ALL_AXES
  6
Continuous
 62
     7
100
AcDbLine
 10
1133.3962924205
 20
716.8413855494
 30
0.0
 11
1133.1706068027
 21
716.8413855494
 31
0.0
  0
LINE
  5
3BB
330
1B
100
AcDbEntity
 67
     1
  8
02___PRT_ALL_AXES
  6
Continuous
 62
     7
100
AcDbLine
 10
1109.2823320095
 20
716.8413855494
 30
0.0
 11
1081.2823320095
 21
716.8413855494
 31
0.0
  0
LINE
  5
3BC
330
1B
100
AcDbEntity
 67
     1
  8
7_ALL_FEATURES
  6
Continuous
 62
     7
100
AcDbLine
 10
1081.2823320095
 20
746.3413855494
 30
0.0
 11
1109.2823320095
 21
746.3413855494
 31
0.0
  0
LINE
  5
3BD
330
1B
100
AcDbEntity
 67
     1
  8
7_ALL_FEATURES
  6
Continuous
 62
     7
100
AcDbLine
 10
1234.2823320095
 20
746.3413855494
 30
0.0
 11
1749.2823320095
 21
746.3413855494
 31
0.0
  0
LINE
  5
3BE
330
1B
100
AcDbEntity
 67
     1
  8
7_ALL_FEATURES
  6
Continuous
 62
     7
100
AcDbLine
 10
1874.2823320095
 20
746.3413855494
 30
0.0
 11
2389.2823320095
 21
746.3413855494
 31
0.0
  0
LINE
  5
3BF
330
1B
100
AcDbEntity
 67
     1
  8
7_ALL_FEATURES
  6
Continuous
 62
     7
100
AcDbLine
 10
2514.2823320095
 20
746.3413855494
 30
0.0
 11
2600.2823320095
 21
746.3413855494
 31
0.0
  0
ARC
  5
3C0
330
1B
100
AcDbEntity
 67
     1
  8
02___PRT_ALL_AXES
  6
Continuous
 62
     7
100
AcDbCircle
 10
1181.2823320095
 20
728.8413855494
 30
0.0
 40
13.0
100
AcDbArc
 50
326.3687225521
 51
327.398073612
  0
ARC
  5
3C1
330
1B
100
AcDbEntity
 67
     1
  8
02___PRT_ALL_AXES
  6
Continuous
 62
     7
100
AcDbCircle
 10
1181.2823320095
 20
728.8413855494
 30
0.0
 40
13.0
100
AcDbArc
 50
212.601926388
 51
213.6312774479
  0
LINE
  5
3C2
330
1B
100
AcDbEntity
 67
     1
  8
7_ALL_FEATURES
  6
Continuous
 62
     7
100
AcDbLine
 10
1081.2823320095
 20
703.3413855494
 30
0.0
 11
1109.2823320095
 21
703.3413855494
 31
0.0
  0
LINE
  5
3C3
330
1B
100
AcDbEntity
 67
     1
  8
7_ALL_FEATURES
  6
Continuous
 62
     7
100
AcDbLine
 10
1131.7823320095
 20
703.3413855494
 30
0.0
 11
1131.9823320095
 21
703.3413855494
 31
0.0
  0
LINE
  5
3C4
330
1B
100
AcDbEntity
 67
     1
  8
7_ALL_FEATURES
  6
Continuous
 62
     7
100
AcDbLine
 10
1211.5823320095
 20
703.3413855494
 30
0.0
 11
1211.7823320095
 21
703.3413855494
 31
0.0
  0
LINE
  5
3C5
330
1B
100
AcDbEntity
 67
     1
  8
7_ALL_FEATURES
  6
Continuous
 62
     7
100
AcDbLine
 10
1234.2823320095
 20
703.3413855494
 30
0.0
 11
1749.2823320095
 21
703.3413855494
 31
0.0
  0
LINE
  5
3C6
330
1B
100
AcDbEntity
 67
     1
  8
7_ALL_FEATURES
  6
Continuous
 62
     7
100
AcDbLine
 10
1771.7823320095
 20
703.3413855494
 30
0.0
 11
1771.9823320095
 21
703.3413855494
 31
0.0
  0
LINE
  5
3C7
330
1B
100
AcDbEntity
 67
     1
  8
7_ALL_FEATURES
  6
Continuous
 62
     7
100
AcDbLine
 10
1851.5823320095
 20
703.3413855494
 30
0.0
 11
1851.7823320095
 21
703.3413855494
 31
0.0
  0
LINE
  5
3C8
330
1B
100
AcDbEntity
 67
     1
  8
7_ALL_FEATURES
  6
Continuous
 62
     7
100
AcDbLine
 10
1874.2823320095
 20
703.3413855494
 30
0.0
 11
2389.2823320095
 21
703.3413855494
 31
0.0
  0
LINE
  5
3C9
330
1B
100
AcDbEntity
 67
     1
  8
7_ALL_FEATURES
  6
Continuous
 62
     7
100
AcDbLine
 10
2411.7823320095
 20
703.3413855494
 30
0.0
 11
2411.9823320095
 21
703.3413855494
 31
0.0
  0
LINE
  5
3CA
330
1B
100
AcDbEntity
 67
     1
  8
7_ALL_FEATURES
  6
Continuous
 62
     7
100
AcDbLine
 10
2491.5823320095
 20
703.3413855494
 30
0.0
 11
2491.7823320095
 21
703.3413855494
 31
0.0
  0
LINE
  5
3CB
330
1B
100
AcDbEntity
 67
     1
  8
7_ALL_FEATURES
  6
Continuous
 62
     7
100
AcDbLine
 10
2514.2823320095
 20
703.3413855494
 30
0.0
 11
2600.2823320095
 21
703.3413855494
 31
0.0
  0
LINE
  5
3CC
330
1B
100
AcDbEntity
 67
     1
  8
7_ALL_FEATURES
  6
Continuous
 62
     7
100
AcDbLine
 10
1081.2823320095
 20
698.8413855494
 30
0.0
 11
1109.2823320095
 21
698.8413855494
 31
0.0
  0
LINE
  5
3CD
330
1B
100
AcDbEntity
 67
     1
  8
7_ALL_FEATURES
  6
Continuous
 62
     7
100
AcDbLine
 10
1131.7823320095
 20
698.8413855494
 30
0.0
 11
1131.9823320095
 21
698.8413855494
 31
0.0
  0
LINE
  5
3CE
330
1B
100
AcDbEntity
 67
     1
  8
7_ALL_FEATURES
  6
Continuous
 62
     7
100
AcDbLine
 10
1211.5823320095
 20
698.8413855494
 30
0.0
 11
1211.7823320095
 21
698.8413855494
 31
0.0
  0
LINE
  5
3CF
330
1B
100
AcDbEntity
 67
     1
  8
7_ALL_FEATURES
  6
Continuous
 62
     7
100
AcDbLine
 10
1234.2823320095
 20
698.8413855494
 30
0.0
 11
1749.2823320095
 21
698.8413855494
 31
0.0
  0
LINE
  5
3D0
330
1B
100
AcDbEntity
 67
     1
  8
7_ALL_FEATURES
  6
Continuous
 62
     7
100
AcDbLine
 10
1771.7823320095
 20
698.8413855494
 30
0.0
 11
1771.9823320095
 21
698.8413855494
 31
0.0
  0
LINE
  5
3D1
330
1B
100
AcDbEntity
 67
     1
  8
7_ALL_FEATURES
  6
Continuous
 62
     7
100
AcDbLine
 10
1851.5823320095
 20
698.8413855494
 30
0.0
 11
1851.7823320095
 21
698.8413855494
 31
0.0
  0
LINE
  5
3D2
330
1B
100
AcDbEntity
 67
     1
  8
7_ALL_FEATURES
  6
Continuous
 62
     7
100
AcDbLine
 10
1874.2823320095
 20
698.8413855494
 30
0.0
 11
2389.2823320095
 21
698.8413855494
 31
0.0
  0
LINE
  5
3D3
330
1B
100
AcDbEntity
 67
     1
  8
7_ALL_FEATURES
  6
Continuous
 62
     7
100
AcDbLine
 10
2411.7823320095
 20
698.8413855494
 30
0.0
 11
2411.9823320095
 21
698.8413855494
 31
0.0
  0
LINE
  5
3D4
330
1B
100
AcDbEntity
 67
     1
  8
7_ALL_FEATURES
  6
Continuous
 62
     7
100
AcDbLine
 10
2491.5823320095
 20
698.8413855494
 30
0.0
 11
2491.7823320095
 21
698.8413855494
 31
0.0
  0
LINE
  5
3D5
330
1B
100
AcDbEntity
 67
     1
  8
7_ALL_FEATURES
  6
Continuous
 62
     7
100
AcDbLine
 10
2514.2823320095
 20
698.8413855494
 30
0.0
 11
2600.2823320095
 21
698.8413855494
 31
0.0
  0
LINE
  5
3D6
330
1B
100
AcDbEntity
 67
     1
  8
7_ALL_FEATURES
  6
Continuous
 62
     7
100
AcDbLine
 10
1081.2823320095
 20
662.8413855494
 30
0.0
 11
2600.2823320095
 21
662.8413855494
 31
0.0
  0
LINE
  5
3D7
330
1B
100
AcDbEntity
 67
     1
  8
02___PRT_ALL_AXES
  6
Continuous
 62
     9
100
AcDbLine
 10
2600.2823320095
 20
716.5413855494
 30
0.0
 11
2514.2823320095
 21
716.5413855494
 31
0.0
  0
LINE
  5
3D8
330
1B
100
AcDbEntity
 67
     1
  8
02___PRT_ALL_AXES
  6
Continuous
 62
     9
100
AcDbLine
 10
2490.5544105571
 20
716.5413855494
 30
0.0
 11
2490.3287249394
 21
716.5413855494
 31
0.0
  0
LINE
  5
3D9
330
1B
100
AcDbEntity
 67
     1
  8
02___PRT_ALL_AXES
  6
Continuous
 62
     9
100
AcDbLine
 10
2413.2359390797
 20
716.5413855494
 30
0.0
 11
2413.010253462
 21
716.5413855494
 31
0.0
  0
LINE
  5
3DA
330
1B
100
AcDbEntity
 67
     1
  8
02___PRT_ALL_AXES
  6
Continuous
 62
     9
100
AcDbLine
 10
2389.2823320095
 20
716.5413855494
 30
0.0
 11
1874.2823320095
 21
716.5413855494
 31
0.0
  0
LINE
  5
3DB
330
1B
100
AcDbEntity
 67
     1
  8
02___PRT_ALL_AXES
  6
Continuous
 62
     9
100
AcDbLine
 10
1850.5544105571
 20
716.5413855494
 30
0.0
 11
1850.3287249394
 21
716.5413855494
 31
0.0
  0
LINE
  5
3DC
330
1B
100
AcDbEntity
 67
     1
  8
02___PRT_ALL_AXES
  6
Continuous
 62
     9
100
AcDbLine
 10
1773.2359390797
 20
716.5413855494
 30
0.0
 11
1773.010253462
 21
716.5413855494
 31
0.0
  0
LINE
  5
3DD
330
1B
100
AcDbEntity
 67
     1
  8
02___PRT_ALL_AXES
  6
Continuous
 62
     9
100
AcDbLine
 10
1749.2823320095
 20
716.5413855494
 30
0.0
 11
1234.2823320095
 21
716.5413855494
 31
0.0
  0
LINE
  5
3DE
330
1B
100
AcDbEntity
 67
     1
  8
02___PRT_ALL_AXES
  6
Continuous
 62
     9
100
AcDbLine
 10
1210.5544105571
 20
716.5413855494
 30
0.0
 11
1210.3287249394
 21
716.5413855494
 31
0.0
  0
LINE
  5
3DF
330
1B
100
AcDbEntity
 67
     1
  8
02___PRT_ALL_AXES
  6
Continuous
 62
     9
100
AcDbLine
 10
1201.7823320095
 20
721.6413855494
 30
0.0
 11
1203.7591224553
 21
721.6413855494
 31
0.0
  0
LINE
  5
3E0
330
1B
100
AcDbEntity
 67
     1
  8
02___PRT_ALL_AXES
  6
Continuous
 62
     9
100
AcDbLine
 10
1234.2823320095
 20
721.6413855494
 30
0.0
 11
1749.2823320095
 21
721.6413855494
 31
0.0
  0
LINE
  5
3E1
330
1B
100
AcDbEntity
 67
     1
  8
02___PRT_ALL_AXES
  6
Continuous
 62
     9
100
AcDbLine
 10
1779.8055415638
 20
721.6413855494
 30
0.0
 11
1781.7823320095
 21
721.6413855494
 31
0.0
  0
LINE
  5
3E2
330
1B
100
AcDbEntity
 67
     1
  8
02___PRT_ALL_AXES
  6
Continuous
 62
     9
100
AcDbLine
 10
1841.7823320095
 20
721.6413855494
 30
0.0
 11
1843.7591224553
 21
721.6413855494
 31
0.0
  0
LINE
  5
3E3
330
1B
100
AcDbEntity
 67
     1
  8
02___PRT_ALL_AXES
  6
Continuous
 62
     9
100
AcDbLine
 10
1874.2823320095
 20
721.6413855494
 30
0.0
 11
2389.2823320095
 21
721.6413855494
 31
0.0
  0
LINE
  5
3E4
330
1B
100
AcDbEntity
 67
     1
  8
02___PRT_ALL_AXES
  6
Continuous
 62
     9
100
AcDbLine
 10
2419.8055415638
 20
721.6413855494
 30
0.0
 11
2421.7823320095
 21
721.6413855494
 31
0.0
  0
LINE
  5
3E5
330
1B
100
AcDbEntity
 67
     1
  8
02___PRT_ALL_AXES
  6
Continuous
 62
     9
100
AcDbLine
 10
2481.7823320095
 20
721.6413855494
 30
0.0
 11
2483.7591224553
 21
721.6413855494
 31
0.0
  0
LINE
  5
3E6
330
1B
100
AcDbEntity
 67
     1
  8
02___PRT_ALL_AXES
  6
Continuous
 62
     9
100
AcDbLine
 10
2514.2823320095
 20
721.6413855494
 30
0.0
 11
2600.2823320095
 21
721.6413855494
 31
0.0
  0
LINE
  5
3E7
330
1B
100
AcDbEntity
 67
     1
  8
7_ALL_FEATURES
  6
Continuous
 62
     9
100
AcDbLine
 10
1081.2823320095
 20
745.3413855494
 30
0.0
 11
1109.2823320095
 21
745.3413855494
 31
0.0
  0
LINE
  5
3E8
330
1B
100
AcDbEntity
 67
     1
  8
7_ALL_FEATURES
  6
Continuous
 62
     9
100
AcDbLine
 10
1234.2823320095
 20
745.3413855494
 30
0.0
 11
1749.2823320095
 21
745.3413855494
 31
0.0
  0
LINE
  5
3E9
330
1B
100
AcDbEntity
 67
     1
  8
7_ALL_FEATURES
  6
Continuous
 62
     9
100
AcDbLine
 10
1874.2823320095
 20
745.3413855494
 30
0.0
 11
2389.2823320095
 21
745.3413855494
 31
0.0
  0
LINE
  5
3EA
330
1B
100
AcDbEntity
 67
     1
  8
7_ALL_FEATURES
  6
Continuous
 62
     9
100
AcDbLine
 10
2514.2823320095
 20
745.3413855494
 30
0.0
 11
2600.2823320095
 21
745.3413855494
 31
0.0
  0
LINE
  5
3EB
330
1B
100
AcDbEntity
 67
     1
  8
02___PRT_ALL_AXES
  6
Continuous
 62
     9
100
AcDbLine
 10
1081.2823320095
 20
721.6413855494
 30
0.0
 11
1109.2823320095
 21
721.6413855494
 31
0.0
  0
LINE
  5
3EC
330
1B
100
AcDbEntity
 67
     1
  8
02___PRT_ALL_AXES
  6
Continuous
 62
     9
100
AcDbLine
 10
1139.8055415638
 20
721.6413855494
 30
0.0
 11
1141.7823320095
 21
721.6413855494
 31
0.0
  0
LINE
  5
3ED
330
1B
100
AcDbEntity
 67
     1
  8
7_ALL_FEATURES
  6
Continuous
 62
     9
100
AcDbLine
 10
1081.2823320095
 20
669.0297771051
 30
0.0
 11
2600.2823320095
 21
669.0297771051
 31
0.0
  0
LINE
  5
3EE
330
1B
100
AcDbEntity
 67
     1
  8
7_ALL_FEATURES
  6
Continuous
 62
     9
100
AcDbLine
 10
1081.2823320095
 20
698.6413855494
 30
0.0
 11
1109.2823320095
 21
698.6413855494
 31
0.0
  0
LINE
  5
3EF
330
1B
100
AcDbEntity
 67
     1
  8
7_ALL_FEATURES
  6
Continuous
 62
     9
100
AcDbLine
 10
1131.7823320095
 20
698.6413855494
 30
0.0
 11
1131.9823320095
 21
698.6413855494
 31
0.0
  0
LINE
  5
3F0
330
1B
100
AcDbEntity
 67
     1
  8
7_ALL_FEATURES
  6
Continuous
 62
     9
100
AcDbLine
 10
1211.5823320095
 20
698.6413855494
 30
0.0
 11
1211.7823320095
 21
698.6413855494
 31
0.0
  0
LINE
  5
3F1
330
1B
100
AcDbEntity
 67
     1
  8
7_ALL_FEATURES
  6
Continuous
 62
     9
100
AcDbLine
 10
1234.2823320095
 20
698.6413855494
 30
0.0
 11
1749.2823320095
 21
698.6413855494
 31
0.0
  0
LINE
  5
3F2
330
1B
100
AcDbEntity
 67
     1
  8
7_ALL_FEATURES
  6
Continuous
 62
     9
100
AcDbLine
 10
1771.7823320095
 20
698.6413855494
 30
0.0
 11
1771.9823320095
 21
698.6413855494
 31
0.0
  0
LINE
  5
3F3
330
1B
100
AcDbEntity
 67
     1
  8
7_ALL_FEATURES
  6
Continuous
 62
     9
100
AcDbLine
 10
1851.5823320095
 20
698.6413855494
 30
0.0
 11
1851.7823320095
 21
698.6413855494
 31
0.0
  0
LINE
  5
3F4
330
1B
100
AcDbEntity
 67
     1
  8
7_ALL_FEATURES
  6
Continuous
 62
     9
100
AcDbLine
 10
1874.2823320095
 20
698.6413855494
 30
0.0
 11
2389.2823320095
 21
698.6413855494
 31
0.0
  0
LINE
  5
3F5
330
1B
100
AcDbEntity
 67
     1
  8
7_ALL_FEATURES
  6
Continuous
 62
     9
100
AcDbLine
 10
2411.7823320095
 20
698.6413855494
 30
0.0
 11
2411.9823320095
 21
698.6413855494
 31
0.0
  0
LINE
  5
3F6
330
1B
100
AcDbEntity
 67
     1
  8
7_ALL_FEATURES
  6
Continuous
 62
     9
100
AcDbLine
 10
2491.5823320095
 20
698.6413855494
 30
0.0
 11
2491.7823320095
 21
698.6413855494
 31
0.0
  0
LINE
  5
3F7
330
1B
100
AcDbEntity
 67
     1
  8
7_ALL_FEATURES
  6
Continuous
 62
     9
100
AcDbLine
 10
2514.2823320095
 20
698.6413855494
 30
0.0
 11
2600.2823320095
 21
698.6413855494
 31
0.0
  0
LINE
  5
3F8
330
1B
100
AcDbEntity
 67
     1
  8
7_ALL_FEATURES
  6
Continuous
 62
     9
100
AcDbLine
 10
1081.2823320095
 20
668.0508306634
 30
0.0
 11
2600.2823320095
 21
668.0508306634
 31
0.0
  0
LINE
  5
3F9
330
1B
100
AcDbEntity
 67
     1
  8
7_ALL_FEATURES
  6
Continuous
 62
     9
100
AcDbLine
 10
1081.2823320095
 20
663.1022276918
 30
0.0
 11
2600.2823320095
 21
663.1022276918
 31
0.0
  0
LINE
  5
3FA
330
1B
100
AcDbEntity
 67
     1
  8
02___PRT_ALL_AXES
  6
Continuous
 62
     9
100
AcDbLine
 10
1133.2359390797
 20
716.5413855494
 30
0.0
 11
1133.010253462
 21
716.5413855494
 31
0.0
  0
LINE
  5
3FB
330
1B
100
AcDbEntity
 67
     1
  8
02___PRT_ALL_AXES
  6
Continuous
 62
     9
100
AcDbLine
 10
1109.2823320095
 20
716.5413855494
 30
0.0
 11
1081.2823320095
 21
716.5413855494
 31
0.0
  0
LINE
  5
3FC
330
1B
100
AcDbEntity
 67
     1
  8
7_ALL_FEATURES
  6
Continuous
 62
     9
100
AcDbLine
 10
1081.2823320095
 20
703.5413855494
 30
0.0
 11
1109.2823320095
 21
703.5413855494
 31
0.0
  0
LINE
  5
3FD
330
1B
100
AcDbEntity
 67
     1
  8
7_ALL_FEATURES
  6
Continuous
 62
     9
100
AcDbLine
 10
1131.7823320095
 20
703.5413855494
 30
0.0
 11
1131.9823320095
 21
703.5413855494
 31
0.0
  0
LINE
  5
3FE
330
1B
100
AcDbEntity
 67
     1
  8
7_ALL_FEATURES
  6
Continuous
 62
     9
100
AcDbLine
 10
1211.5823320095
 20
703.5413855494
 30
0.0
 11
1211.7823320095
 21
703.5413855494
 31
0.0
  0
LINE
  5
3FF
330
1B
100
AcDbEntity
 67
     1
  8
7_ALL_FEATURES
  6
Continuous
 62
     9
100
AcDbLine
 10
1234.2823320095
 20
703.5413855494
 30
0.0
 11
1749.2823320095
 21
703.5413855494
 31
0.0
  0
LINE
  5
400
330
1B
100
AcDbEntity
 67
     1
  8
7_ALL_FEATURES
  6
Continuous
 62
     9
100
AcDbLine
 10
1771.7823320095
 20
703.5413855494
 30
0.0
 11
1771.9823320095
 21
703.5413855494
 31
0.0
  0
LINE
  5
401
330
1B
100
AcDbEntity
 67
     1
  8
7_ALL_FEATURES
  6
Continuous
 62
     9
100
AcDbLine
 10
1851.5823320095
 20
703.5413855494
 30
0.0
 11
1851.7823320095
 21
703.5413855494
 31
0.0
  0
LINE
  5
402
330
1B
100
AcDbEntity
 67
     1
  8
7_ALL_FEATURES
  6
Continuous
 62
     9
100
AcDbLine
 10
1874.2823320095
 20
703.5413855494
 30
0.0
 11
2389.2823320095
 21
703.5413855494
 31
0.0
  0
LINE
  5
403
330
1B
100
AcDbEntity
 67
     1
  8
7_ALL_FEATURES
  6
Continuous
 62
     9
100
AcDbLine
 10
2411.7823320095
 20
703.5413855494
 30
0.0
 11
2411.9823320095
 21
703.5413855494
 31
0.0
  0
LINE
  5
404
330
1B
100
AcDbEntity
 67
     1
  8
7_ALL_FEATURES
  6
Continuous
 62
     9
100
AcDbLine
 10
2491.5823320095
 20
703.5413855494
 30
0.0
 11
2491.7823320095
 21
703.5413855494
 31
0.0
  0
LINE
  5
405
330
1B
100
AcDbEntity
 67
     1
  8
7_ALL_FEATURES
  6
Continuous
 62
     9
100
AcDbLine
 10
2514.2823320095
 20
703.5413855494
 30
0.0
 11
2600.2823320095
 21
703.5413855494
 31
0.0
  0
LINE
  5
406
330
1B
100
AcDbEntity
 67
     1
  8
7_ALL_FEATURES
  6
Continuous
 62
     3
100
AcDbLine
 10
1081.2823320095
 20
721.3605396565
 30
0.0
 11
1081.2823320095
 21
721.3413855494
 31
0.0
  0
LINE
  5
407
330
1B
100
AcDbEntity
 67
     1
  8
7_ALL_FEATURES
  6
Continuous
 62
     3
100
AcDbLine
 10
1081.2823320095
 20
721.3413855494
 30
0.0
 11
1081.2823320095
 21
716.8413855494
 31
0.0
  0
LINE
  5
408
330
1B
100
AcDbEntity
 67
     1
  8
7_ALL_FEATURES
  6
Continuous
 62
     3
100
AcDbLine
 10
1081.2823320095
 20
716.8413855494
 30
0.0
 11
1081.2823320095
 21
716.8222314424
 31
0.0
  0
LINE
  5
409
330
1B
100
AcDbEntity
 67
     1
  8
7_ALL_FEATURES
  6
Continuous
 62
     3
100
AcDbLine
 10
1081.2823320095
 20
703.3413855494
 30
0.0
 11
1081.2823320095
 21
698.8413855494
 31
0.0
  0
LINE
  5
40A
330
1B
100
AcDbEntity
 67
     1
  8
7_ALL_FEATURES
  6
Continuous
 62
     3
100
AcDbLine
 10
1081.2823320095
 20
663.8413855494
 30
0.0
 11
1081.2823320095
 21
663.2387509131
 31
0.0
  0
LINE
  5
40B
330
1B
100
AcDbEntity
 67
     1
  8
7_ALL_FEATURES
  6
Continuous
 62
     3
100
AcDbLine
 10
1081.2823320095
 20
663.2387509131
 30
0.0
 11
1081.2823320095
 21
662.9462222581
 31
0.0
  0
LINE
  5
40C
330
1B
100
AcDbEntity
 67
     1
  8
7_ALL_FEATURES
  6
Continuous
 62
     3
100
AcDbLine
 10
1081.2823320095
 20
662.9462222581
 30
0.0
 11
1081.2823320095
 21
662.9215312274
 31
0.0
  0
LINE
  5
40D
330
1B
100
AcDbEntity
 67
     1
  8
7_ALL_FEATURES
  6
Continuous
 62
     3
100
AcDbLine
 10
1081.2823320095
 20
667.0190503114
 30
0.0
 11
1081.2823320095
 21
663.8413855494
 31
0.0
  0
LINE
  5
40E
330
1B
100
AcDbEntity
 67
     1
  8
7_ALL_FEATURES
  6
Continuous
 62
     3
100
AcDbLine
 10
2600.2823320095
 20
663.8413855494
 30
0.0
 11
2600.2823320095
 21
667.0190503114
 31
0.0
  0
LINE
  5
40F
330
1B
100
AcDbEntity
 67
     1
  8
7_ALL_FEATURES
  6
Continuous
 62
     3
100
AcDbLine
 10
2600.2823320095
 20
698.8413855494
 30
0.0
 11
2600.2823320095
 21
703.3413855494
 31
0.0
  0
LINE
  5
410
330
1B
100
AcDbEntity
 67
     1
  8
7_ALL_FEATURES
  6
Continuous
 62
     3
100
AcDbLine
 10
2600.2823320095
 20
716.8222314424
 30
0.0
 11
2600.2823320095
 21
716.8413855494
 31
0.0
  0
LINE
  5
411
330
1B
100
AcDbEntity
 67
     1
  8
7_ALL_FEATURES
  6
Continuous
 62
     3
100
AcDbLine
 10
2600.2823320095
 20
716.8413855494
 30
0.0
 11
2600.2823320095
 21
721.3413855494
 31
0.0
  0
LINE
  5
412
330
1B
100
AcDbEntity
 67
     1
  8
7_ALL_FEATURES
  6
Continuous
 62
     3
100
AcDbLine
 10
2600.2823320095
 20
721.3413855494
 30
0.0
 11
2600.2823320095
 21
721.3605396565
 31
0.0
  0
LINE
  5
413
330
1B
100
AcDbEntity
 67
     1
  8
7_ALL_FEATURES
  6
Continuous
 62
     3
100
AcDbLine
 10
2600.2823320095
 20
662.9215312274
 30
0.0
 11
2600.2823320095
 21
662.9462222581
 31
0.0
  0
LINE
  5
414
330
1B
100
AcDbEntity
 67
     1
  8
7_ALL_FEATURES
  6
Continuous
 62
     3
100
AcDbLine
 10
2600.2823320095
 20
662.9462222581
 30
0.0
 11
2600.2823320095
 21
663.2387509131
 31
0.0
  0
LINE
  5
415
330
1B
100
AcDbEntity
 67
     1
  8
7_ALL_FEATURES
  6
Continuous
 62
     3
100
AcDbLine
 10
2600.2823320095
 20
663.2387509131
 30
0.0
 11
2600.2823320095
 21
663.8413855494
 31
0.0
  0
LINE
  5
416
330
1B
100
AcDbEntity
 67
     1
  8
7_ALL_FEATURES
  6
Continuous
 62
     3
100
AcDbLine
 10
2389.2823320095
 20
745.7413855494
 30
0.0
 11
2389.2823320095
 21
677.5413855494
 31
0.0
  0
LINE
  5
417
330
1B
100
AcDbEntity
 67
     1
  8
7_ALL_FEATURES
  6
Continuous
 62
     3
100
AcDbLine
 10
2514.2823320095
 20
677.5413855494
 30
0.0
 11
2514.2823320095
 21
745.7413855494
 31
0.0
  0
LINE
  5
418
330
1B
100
AcDbEntity
 67
     1
  8
02___PRT_ALL_AXES
  6
Continuous
 62
     3
100
AcDbLine
 10
2491.7823320095
 20
691.8413855494
 30
0.0
 11
2491.7823320095
 21
711.8413855494
 31
0.0
  0
ARC
  5
419
330
1B
100
AcDbEntity
 67
     1
  8
02___PRT_ALL_AXES
  6
Continuous
 62
     3
100
AcDbCircle
 10
2481.7823320095
 20
711.8413855494
 30
0.0
 40
10.0
100
AcDbArc
 50
0.0
 51
90.0
  0
LINE
  5
41A
330
1B
100
AcDbEntity
 67
     1
  8
02___PRT_ALL_AXES
  6
Continuous
 62
     3
100
AcDbLine
 10
2481.7823320095
 20
721.8413855494
 30
0.0
 11
2421.7823320095
 21
721.8413855494
 31
0.0
  0
ARC
  5
41B
330
1B
100
AcDbEntity
 67
     1
  8
02___PRT_ALL_AXES
  6
Continuous
 62
     3
100
AcDbCircle
 10
2421.7823320095
 20
711.8413855494
 30
0.0
 40
10.0
100
AcDbArc
 50
90.0
 51
180.0
  0
LINE
  5
41C
330
1B
100
AcDbEntity
 67
     1
  8
02___PRT_ALL_AXES
  6
Continuous
 62
     3
100
AcDbLine
 10
2411.7823320095
 20
711.8413855494
 30
0.0
 11
2411.7823320095
 21
691.8413855494
 31
0.0
  0
LINE
  5
41D
330
1B
100
AcDbEntity
 67
     1
  8
02___PRT_ALL_AXES
  6
Continuous
 62
     3
100
AcDbLine
 10
2411.7823320095
 20
691.8413855494
 30
0.0
 11
2411.9823320095
 21
691.8413855494
 31
0.0
  0
LINE
  5
41E
330
1B
100
AcDbEntity
 67
     1
  8
02___PRT_ALL_AXES
  6
Continuous
 62
     3
100
AcDbLine
 10
2411.9823320095
 20
691.8413855494
 30
0.0
 11
2411.9823320095
 21
711.8413855494
 31
0.0
  0
ARC
  5
41F
330
1B
100
AcDbEntity
 67
     1
  8
02___PRT_ALL_AXES
  6
Continuous
 62
     3
100
AcDbCircle
 10
2421.7823320095
 20
711.8413855494
 30
0.0
 40
9.8
100
AcDbArc
 50
90.0
 51
180.0
  0
LINE
  5
420
330
1B
100
AcDbEntity
 67
     1
  8
02___PRT_ALL_AXES
  6
Continuous
 62
     3
100
AcDbLine
 10
2421.7823320095
 20
721.6413855494
 30
0.0
 11
2481.7823320095
 21
721.6413855494
 31
0.0
  0
ARC
  5
421
330
1B
100
AcDbEntity
 67
     1
  8
02___PRT_ALL_AXES
  6
Continuous
 62
     3
100
AcDbCircle
 10
2481.7823320095
 20
711.8413855494
 30
0.0
 40
9.8
100
AcDbArc
 50
0.0
 51
90.0
  0
LINE
  5
422
330
1B
100
AcDbEntity
 67
     1
  8
02___PRT_ALL_AXES
  6
Continuous
 62
     3
100
AcDbLine
 10
2491.5823320095
 20
711.8413855494
 30
0.0
 11
2491.5823320095
 21
691.8413855494
 31
0.0
  0
LINE
  5
423
330
1B
100
AcDbEntity
 67
     1
  8
02___PRT_ALL_AXES
  6
Continuous
 62
     3
100
AcDbLine
 10
2491.5823320095
 20
691.8413855494
 30
0.0
 11
2491.7823320095
 21
691.8413855494
 31
0.0
  0
LINE
  5
424
330
1B
100
AcDbEntity
 67
     1
  8
02___PRT_ALL_AXES
  6
Continuous
 62
     3
100
AcDbLine
 10
2489.9823320095
 20
691.7413855494
 30
0.0
 11
2489.9823320095
 21
691.9413855494
 31
0.0
  0
LINE
  5
425
330
1B
100
AcDbEntity
 67
     1
  8
02___PRT_ALL_AXES
  6
Continuous
 62
     3
100
AcDbLine
 10
2489.9823320095
 20
691.9413855494
 30
0.0
 11
2452.5823320095
 21
691.9413855494
 31
0.0
  0
LINE
  5
426
330
1B
100
AcDbEntity
 67
     1
  8
02___PRT_ALL_AXES
  6
Continuous
 62
     3
100
AcDbLine
 10
2452.5823320095
 20
691.9413855494
 30
0.0
 11
2452.5823320095
 21
691.7413855494
 31
0.0
  0
LINE
  5
427
330
1B
100
AcDbEntity
 67
     1
  8
02___PRT_ALL_AXES
  6
Continuous
 62
     3
100
AcDbLine
 10
2452.5823320095
 20
691.7413855494
 30
0.0
 11
2489.9823320095
 21
691.7413855494
 31
0.0
  0
LINE
  5
428
330
1B
100
AcDbEntity
 67
     1
  8
02___PRT_ALL_AXES
  6
Continuous
 62
     3
100
AcDbLine
 10
2413.5823320095
 20
691.7413855494
 30
0.0
 11
2450.9823320095
 21
691.7413855494
 31
0.0
  0
LINE
  5
429
330
1B
100
AcDbEntity
 67
     1
  8
02___PRT_ALL_AXES
  6
Continuous
 62
     3
100
AcDbLine
 10
2450.9823320095
 20
691.7413855494
 30
0.0
 11
2450.9823320095
 21
691.9413855494
 31
0.0
  0
LINE
  5
42A
330
1B
100
AcDbEntity
 67
     1
  8
02___PRT_ALL_AXES
  6
Continuous
 62
     3
100
AcDbLine
 10
2450.9823320095
 20
691.9413855494
 30
0.0
 11
2413.5823320095
 21
691.9413855494
 31
0.0
  0
LINE
  5
42B
330
1B
100
AcDbEntity
 67
     1
  8
02___PRT_ALL_AXES
  6
Continuous
 62
     3
100
AcDbLine
 10
2413.5823320095
 20
691.9413855494
 30
0.0
 11
2413.5823320095
 21
691.7413855494
 31
0.0
  0
LINE
  5
42C
330
1B
100
AcDbEntity
 67
     1
  8
7_ALL_FEATURES
  6
Continuous
 62
     3
100
AcDbLine
 10
2389.2823320095
 20
745.7413855494
 30
0.0
 11
2389.2823320095
 21
746.4467278522
 31
0.0
  0
LINE
  5
42D
330
1B
100
AcDbEntity
 67
     1
  8
7_ALL_FEATURES
  6
Continuous
 62
     3
100
AcDbLine
 10
2389.2823320095
 20
746.4467278522
 30
0.0
 11
2389.2823320095
 21
746.9413855494
 31
0.0
  0
LINE
  5
42E
330
1B
100
AcDbEntity
 67
     1
  8
7_ALL_FEATURES
  6
Continuous
 62
     3
100
AcDbLine
 10
2514.2823320095
 20
746.9413855494
 30
0.0
 11
2389.2823320095
 21
746.9413855494
 31
0.0
  0
LINE
  5
42F
330
1B
100
AcDbEntity
 67
     1
  8
7_ALL_FEATURES
  6
Continuous
 62
     3
100
AcDbLine
 10
2514.2823320095
 20
745.7413855494
 30
0.0
 11
2514.2823320095
 21
746.4467278522
 31
0.0
  0
LINE
  5
430
330
1B
100
AcDbEntity
 67
     1
  8
7_ALL_FEATURES
  6
Continuous
 62
     3
100
AcDbLine
 10
2514.2823320095
 20
746.4467278522
 30
0.0
 11
2514.2823320095
 21
746.9413855494
 31
0.0
  0
LINE
  5
431
330
1B
100
AcDbEntity
 67
     1
  8
7_ALL_FEATURES
  6
Continuous
 62
     3
100
AcDbLine
 10
2389.2823320095
 20
676.9413855494
 30
0.0
 11
2401.2823320095
 21
676.9413855494
 31
0.0
  0
LINE
  5
432
330
1B
100
AcDbEntity
 67
     1
  8
7_ALL_FEATURES
  6
Continuous
 62
     3
100
AcDbLine
 10
2502.2823320095
 20
676.9413855494
 30
0.0
 11
2514.2823320095
 21
676.9413855494
 31
0.0
  0
LINE
  5
433
330
1B
100
AcDbEntity
 67
     1
  8
7_ALL_FEATURES
  6
Continuous
 62
     3
100
AcDbLine
 10
2502.2823320095
 20
676.9413855494
 30
0.0
 11
2401.2823320095
 21
676.9413855494
 31
0.0
  0
LINE
  5
434
330
1B
100
AcDbEntity
 67
     1
  8
7_ALL_FEATURES
  6
Continuous
 62
     3
100
AcDbLine
 10
2389.2823320095
 20
676.9413855494
 30
0.0
 11
2389.2823320095
 21
677.5413855494
 31
0.0
  0
LINE
  5
435
330
1B
100
AcDbEntity
 67
     1
  8
7_ALL_FEATURES
  6
Continuous
 62
     3
100
AcDbLine
 10
2514.2823320095
 20
676.9413855494
 30
0.0
 11
2514.2823320095
 21
677.5413855494
 31
0.0
  0
LINE
  5
436
330
1B
100
AcDbEntity
 67
     1
  8
7_ALL_FEATURES
  6
Continuous
 62
     9
100
AcDbLine
 10
2389.2823320095
 20
677.5413855494
 30
0.0
 11
2514.2823320095
 21
677.5413855494
 31
0.0
  0
LINE
  5
437
330
1B
100
AcDbEntity
 67
     1
  8
7_ALL_FEATURES
  6
Continuous
 62
     9
100
AcDbLine
 10
2514.2823320095
 20
745.7413855494
 30
0.0
 11
2389.2823320095
 21
745.7413855494
 31
0.0
  0
LINE
  5
438
330
1B
100
AcDbEntity
 67
     1
  8
7_ALL_FEATURES
  6
Continuous
 62
     3
100
AcDbLine
 10
1749.2823320095
 20
745.7413855494
 30
0.0
 11
1749.2823320095
 21
677.5413855494
 31
0.0
  0
LINE
  5
439
330
1B
100
AcDbEntity
 67
     1
  8
7_ALL_FEATURES
  6
Continuous
 62
     3
100
AcDbLine
 10
1874.2823320095
 20
677.5413855494
 30
0.0
 11
1874.2823320095
 21
745.7413855494
 31
0.0
  0
LINE
  5
43A
330
1B
100
AcDbEntity
 67
     1
  8
02___PRT_ALL_AXES
  6
Continuous
 62
     3
100
AcDbLine
 10
1851.7823320095
 20
691.8413855494
 30
0.0
 11
1851.7823320095
 21
711.8413855494
 31
0.0
  0
ARC
  5
43B
330
1B
100
AcDbEntity
 67
     1
  8
02___PRT_ALL_AXES
  6
Continuous
 62
     3
100
AcDbCircle
 10
1841.7823320095
 20
711.8413855494
 30
0.0
 40
10.0
100
AcDbArc
 50
0.0
 51
90.0
  0
LINE
  5
43C
330
1B
100
AcDbEntity
 67
     1
  8
02___PRT_ALL_AXES
  6
Continuous
 62
     3
100
AcDbLine
 10
1841.7823320095
 20
721.8413855494
 30
0.0
 11
1781.7823320095
 21
721.8413855494
 31
0.0
  0
ARC
  5
43D
330
1B
100
AcDbEntity
 67
     1
  8
02___PRT_ALL_AXES
  6
Continuous
 62
     3
100
AcDbCircle
 10
1781.7823320095
 20
711.8413855494
 30
0.0
 40
10.0
100
AcDbArc
 50
90.0
 51
180.0
  0
LINE
  5
43E
330
1B
100
AcDbEntity
 67
     1
  8
02___PRT_ALL_AXES
  6
Continuous
 62
     3
100
AcDbLine
 10
1771.7823320095
 20
711.8413855494
 30
0.0
 11
1771.7823320095
 21
691.8413855494
 31
0.0
  0
LINE
  5
43F
330
1B
100
AcDbEntity
 67
     1
  8
02___PRT_ALL_AXES
  6
Continuous
 62
     3
100
AcDbLine
 10
1771.7823320095
 20
691.8413855494
 30
0.0
 11
1771.9823320095
 21
691.8413855494
 31
0.0
  0
LINE
  5
440
330
1B
100
AcDbEntity
 67
     1
  8
02___PRT_ALL_AXES
  6
Continuous
 62
     3
100
AcDbLine
 10
1771.9823320095
 20
691.8413855494
 30
0.0
 11
1771.9823320095
 21
711.8413855494
 31
0.0
  0
ARC
  5
441
330
1B
100
AcDbEntity
 67
     1
  8
02___PRT_ALL_AXES
  6
Continuous
 62
     3
100
AcDbCircle
 10
1781.7823320095
 20
711.8413855494
 30
0.0
 40
9.8
100
AcDbArc
 50
90.0
 51
180.0
  0
LINE
  5
442
330
1B
100
AcDbEntity
 67
     1
  8
02___PRT_ALL_AXES
  6
Continuous
 62
     3
100
AcDbLine
 10
1781.7823320095
 20
721.6413855494
 30
0.0
 11
1841.7823320095
 21
721.6413855494
 31
0.0
  0
ARC
  5
443
330
1B
100
AcDbEntity
 67
     1
  8
02___PRT_ALL_AXES
  6
Continuous
 62
     3
100
AcDbCircle
 10
1841.7823320095
 20
711.8413855494
 30
0.0
 40
9.8
100
AcDbArc
 50
0.0
 51
90.0
  0
LINE
  5
444
330
1B
100
AcDbEntity
 67
     1
  8
02___PRT_ALL_AXES
  6
Continuous
 62
     3
100
AcDbLine
 10
1851.5823320095
 20
711.8413855494
 30
0.0
 11
1851.5823320095
 21
691.8413855494
 31
0.0
  0
LINE
  5
445
330
1B
100
AcDbEntity
 67
     1
  8
02___PRT_ALL_AXES
  6
Continuous
 62
     3
100
AcDbLine
 10
1851.5823320095
 20
691.8413855494
 30
0.0
 11
1851.7823320095
 21
691.8413855494
 31
0.0
  0
LINE
  5
446
330
1B
100
AcDbEntity
 67
     1
  8
02___PRT_ALL_AXES
  6
Continuous
 62
     3
100
AcDbLine
 10
1849.9823320095
 20
691.7413855494
 30
0.0
 11
1849.9823320095
 21
691.9413855494
 31
0.0
  0
LINE
  5
447
330
1B
100
AcDbEntity
 67
     1
  8
02___PRT_ALL_AXES
  6
Continuous
 62
     3
100
AcDbLine
 10
1849.9823320095
 20
691.9413855494
 30
0.0
 11
1812.5823320095
 21
691.9413855494
 31
0.0
  0
LINE
  5
448
330
1B
100
AcDbEntity
 67
     1
  8
02___PRT_ALL_AXES
  6
Continuous
 62
     3
100
AcDbLine
 10
1812.5823320095
 20
691.9413855494
 30
0.0
 11
1812.5823320095
 21
691.7413855494
 31
0.0
  0
LINE
  5
449
330
1B
100
AcDbEntity
 67
     1
  8
02___PRT_ALL_AXES
  6
Continuous
 62
     3
100
AcDbLine
 10
1812.5823320095
 20
691.7413855494
 30
0.0
 11
1849.9823320095
 21
691.7413855494
 31
0.0
  0
LINE
  5
44A
330
1B
100
AcDbEntity
 67
     1
  8
02___PRT_ALL_AXES
  6
Continuous
 62
     3
100
AcDbLine
 10
1773.5823320095
 20
691.7413855494
 30
0.0
 11
1810.9823320095
 21
691.7413855494
 31
0.0
  0
LINE
  5
44B
330
1B
100
AcDbEntity
 67
     1
  8
02___PRT_ALL_AXES
  6
Continuous
 62
     3
100
AcDbLine
 10
1810.9823320095
 20
691.7413855494
 30
0.0
 11
1810.9823320095
 21
691.9413855494
 31
0.0
  0
LINE
  5
44C
330
1B
100
AcDbEntity
 67
     1
  8
02___PRT_ALL_AXES
  6
Continuous
 62
     3
100
AcDbLine
 10
1810.9823320095
 20
691.9413855494
 30
0.0
 11
1773.5823320095
 21
691.9413855494
 31
0.0
  0
LINE
  5
44D
330
1B
100
AcDbEntity
 67
     1
  8
02___PRT_ALL_AXES
  6
Continuous
 62
     3
100
AcDbLine
 10
1773.5823320095
 20
691.9413855494
 30
0.0
 11
1773.5823320095
 21
691.7413855494
 31
0.0
  0
LINE
  5
44E
330
1B
100
AcDbEntity
 67
     1
  8
7_ALL_FEATURES
  6
Continuous
 62
     3
100
AcDbLine
 10
1749.2823320095
 20
745.7413855494
 30
0.0
 11
1749.2823320095
 21
746.4467278522
 31
0.0
  0
LINE
  5
44F
330
1B
100
AcDbEntity
 67
     1
  8
7_ALL_FEATURES
  6
Continuous
 62
     3
100
AcDbLine
 10
1749.2823320095
 20
746.4467278522
 30
0.0
 11
1749.2823320095
 21
746.9413855494
 31
0.0
  0
LINE
  5
450
330
1B
100
AcDbEntity
 67
     1
  8
7_ALL_FEATURES
  6
Continuous
 62
     3
100
AcDbLine
 10
1874.2823320095
 20
746.9413855494
 30
0.0
 11
1749.2823320095
 21
746.9413855494
 31
0.0
  0
LINE
  5
451
330
1B
100
AcDbEntity
 67
     1
  8
7_ALL_FEATURES
  6
Continuous
 62
     3
100
AcDbLine
 10
1874.2823320095
 20
745.7413855494
 30
0.0
 11
1874.2823320095
 21
746.4467278522
 31
0.0
  0
LINE
  5
452
330
1B
100
AcDbEntity
 67
     1
  8
7_ALL_FEATURES
  6
Continuous
 62
     3
100
AcDbLine
 10
1874.2823320095
 20
746.4467278522
 30
0.0
 11
1874.2823320095
 21
746.9413855494
 31
0.0
  0
LINE
  5
453
330
1B
100
AcDbEntity
 67
     1
  8
7_ALL_FEATURES
  6
Continuous
 62
     3
100
AcDbLine
 10
1749.2823320095
 20
676.9413855494
 30
0.0
 11
1761.2823320095
 21
676.9413855494
 31
0.0
  0
LINE
  5
454
330
1B
100
AcDbEntity
 67
     1
  8
7_ALL_FEATURES
  6
Continuous
 62
     3
100
AcDbLine
 10
1862.2823320095
 20
676.9413855494
 30
0.0
 11
1874.2823320095
 21
676.9413855494
 31
0.0
  0
LINE
  5
455
330
1B
100
AcDbEntity
 67
     1
  8
7_ALL_FEATURES
  6
Continuous
 62
     3
100
AcDbLine
 10
1862.2823320095
 20
676.9413855494
 30
0.0
 11
1761.2823320095
 21
676.9413855494
 31
0.0
  0
LINE
  5
456
330
1B
100
AcDbEntity
 67
     1
  8
7_ALL_FEATURES
  6
Continuous
 62
     3
100
AcDbLine
 10
1749.2823320095
 20
676.9413855494
 30
0.0
 11
1749.2823320095
 21
677.5413855494
 31
0.0
  0
LINE
  5
457
330
1B
100
AcDbEntity
 67
     1
  8
7_ALL_FEATURES
  6
Continuous
 62
     3
100
AcDbLine
 10
1874.2823320095
 20
676.9413855494
 30
0.0
 11
1874.2823320095
 21
677.5413855494
 31
0.0
  0
LINE
  5
458
330
1B
100
AcDbEntity
 67
     1
  8
7_ALL_FEATURES
  6
Continuous
 62
     9
100
AcDbLine
 10
1749.2823320095
 20
677.5413855494
 30
0.0
 11
1874.2823320095
 21
677.5413855494
 31
0.0
  0
LINE
  5
459
330
1B
100
AcDbEntity
 67
     1
  8
7_ALL_FEATURES
  6
Continuous
 62
     9
100
AcDbLine
 10
1874.2823320095
 20
745.7413855494
 30
0.0
 11
1749.2823320095
 21
745.7413855494
 31
0.0
  0
LINE
  5
45A
330
1B
100
AcDbEntity
 67
     1
  8
7_ALL_FEATURES
  6
Continuous
 62
     3
100
AcDbLine
 10
1109.2823320095
 20
745.7413855494
 30
0.0
 11
1109.2823320095
 21
677.5413855494
 31
0.0
  0
LINE
  5
45B
330
1B
100
AcDbEntity
 67
     1
  8
7_ALL_FEATURES
  6
Continuous
 62
     3
100
AcDbLine
 10
1234.2823320095
 20
677.5413855494
 30
0.0
 11
1234.2823320095
 21
745.7413855494
 31
0.0
  0
LINE
  5
45C
330
1B
100
AcDbEntity
 67
     1
  8
02___PRT_ALL_AXES
  6
Continuous
 62
     3
100
AcDbLine
 10
1211.7823320095
 20
691.8413855494
 30
0.0
 11
1211.7823320095
 21
711.8413855494
 31
0.0
  0
ARC
  5
45D
330
1B
100
AcDbEntity
 67
     1
  8
02___PRT_ALL_AXES
  6
Continuous
 62
     3
100
AcDbCircle
 10
1201.7823320095
 20
711.8413855494
 30
0.0
 40
10.0
100
AcDbArc
 50
0.0
 51
90.0
  0
LINE
  5
45E
330
1B
100
AcDbEntity
 67
     1
  8
02___PRT_ALL_AXES
  6
Continuous
 62
     3
100
AcDbLine
 10
1201.7823320095
 20
721.8413855494
 30
0.0
 11
1141.7823320095
 21
721.8413855494
 31
0.0
  0
ARC
  5
45F
330
1B
100
AcDbEntity
 67
     1
  8
02___PRT_ALL_AXES
  6
Continuous
 62
     3
100
AcDbCircle
 10
1141.7823320095
 20
711.8413855494
 30
0.0
 40
10.0
100
AcDbArc
 50
90.0
 51
180.0
  0
LINE
  5
460
330
1B
100
AcDbEntity
 67
     1
  8
02___PRT_ALL_AXES
  6
Continuous
 62
     3
100
AcDbLine
 10
1131.7823320095
 20
711.8413855494
 30
0.0
 11
1131.7823320095
 21
691.8413855494
 31
0.0
  0
LINE
  5
461
330
1B
100
AcDbEntity
 67
     1
  8
02___PRT_ALL_AXES
  6
Continuous
 62
     3
100
AcDbLine
 10
1131.7823320095
 20
691.8413855494
 30
0.0
 11
1131.9823320095
 21
691.8413855494
 31
0.0
  0
LINE
  5
462
330
1B
100
AcDbEntity
 67
     1
  8
02___PRT_ALL_AXES
  6
Continuous
 62
     3
100
AcDbLine
 10
1131.9823320095
 20
691.8413855494
 30
0.0
 11
1131.9823320095
 21
711.8413855494
 31
0.0
  0
ARC
  5
463
330
1B
100
AcDbEntity
 67
     1
  8
02___PRT_ALL_AXES
  6
Continuous
 62
     3
100
AcDbCircle
 10
1141.7823320095
 20
711.8413855494
 30
0.0
 40
9.8
100
AcDbArc
 50
90.0
 51
180.0
  0
LINE
  5
464
330
1B
100
AcDbEntity
 67
     1
  8
02___PRT_ALL_AXES
  6
Continuous
 62
     3
100
AcDbLine
 10
1141.7823320095
 20
721.6413855494
 30
0.0
 11
1201.7823320095
 21
721.6413855494
 31
0.0
  0
ARC
  5
465
330
1B
100
AcDbEntity
 67
     1
  8
02___PRT_ALL_AXES
  6
Continuous
 62
     3
100
AcDbCircle
 10
1201.7823320095
 20
711.8413855494
 30
0.0
 40
9.8
100
AcDbArc
 50
0.0
 51
90.0
  0
LINE
  5
466
330
1B
100
AcDbEntity
 67
     1
  8
02___PRT_ALL_AXES
  6
Continuous
 62
     3
100
AcDbLine
 10
1211.5823320095
 20
711.8413855494
 30
0.0
 11
1211.5823320095
 21
691.8413855494
 31
0.0
  0
LINE
  5
467
330
1B
100
AcDbEntity
 67
     1
  8
02___PRT_ALL_AXES
  6
Continuous
 62
     3
100
AcDbLine
 10
1211.5823320095
 20
691.8413855494
 30
0.0
 11
1211.7823320095
 21
691.8413855494
 31
0.0
  0
LINE
  5
468
330
1B
100
AcDbEntity
 67
     1
  8
02___PRT_ALL_AXES
  6
Continuous
 62
     3
100
AcDbLine
 10
1209.9823320095
 20
691.7413855494
 30
0.0
 11
1209.9823320095
 21
691.9413855494
 31
0.0
  0
LINE
  5
469
330
1B
100
AcDbEntity
 67
     1
  8
02___PRT_ALL_AXES
  6
Continuous
 62
     3
100
AcDbLine
 10
1209.9823320095
 20
691.9413855494
 30
0.0
 11
1172.5823320095
 21
691.9413855494
 31
0.0
  0
LINE
  5
46A
330
1B
100
AcDbEntity
 67
     1
  8
02___PRT_ALL_AXES
  6
Continuous
 62
     3
100
AcDbLine
 10
1172.5823320095
 20
691.9413855494
 30
0.0
 11
1172.5823320095
 21
691.7413855494
 31
0.0
  0
LINE
  5
46B
330
1B
100
AcDbEntity
 67
     1
  8
02___PRT_ALL_AXES
  6
Continuous
 62
     3
100
AcDbLine
 10
1172.5823320095
 20
691.7413855494
 30
0.0
 11
1209.9823320095
 21
691.7413855494
 31
0.0
  0
LINE
  5
46C
330
1B
100
AcDbEntity
 67
     1
  8
02___PRT_ALL_AXES
  6
Continuous
 62
     3
100
AcDbLine
 10
1133.5823320095
 20
691.7413855494
 30
0.0
 11
1170.9823320095
 21
691.7413855494
 31
0.0
  0
LINE
  5
46D
330
1B
100
AcDbEntity
 67
     1
  8
02___PRT_ALL_AXES
  6
Continuous
 62
     3
100
AcDbLine
 10
1170.9823320095
 20
691.7413855494
 30
0.0
 11
1170.9823320095
 21
691.9413855494
 31
0.0
  0
LINE
  5
46E
330
1B
100
AcDbEntity
 67
     1
  8
02___PRT_ALL_AXES
  6
Continuous
 62
     3
100
AcDbLine
 10
1170.9823320095
 20
691.9413855494
 30
0.0
 11
1133.5823320095
 21
691.9413855494
 31
0.0
  0
LINE
  5
46F
330
1B
100
AcDbEntity
 67
     1
  8
02___PRT_ALL_AXES
  6
Continuous
 62
     3
100
AcDbLine
 10
1133.5823320095
 20
691.9413855494
 30
0.0
 11
1133.5823320095
 21
691.7413855494
 31
0.0
  0
LINE
  5
470
330
1B
100
AcDbEntity
 67
     1
  8
7_ALL_FEATURES
  6
Continuous
 62
     3
100
AcDbLine
 10
1109.2823320095
 20
745.7413855494
 30
0.0
 11
1109.2823320095
 21
746.4467278522
 31
0.0
  0
LINE
  5
471
330
1B
100
AcDbEntity
 67
     1
  8
7_ALL_FEATURES
  6
Continuous
 62
     3
100
AcDbLine
 10
1109.2823320095
 20
746.4467278522
 30
0.0
 11
1109.2823320095
 21
746.9413855494
 31
0.0
  0
LINE
  5
472
330
1B
100
AcDbEntity
 67
     1
  8
7_ALL_FEATURES
  6
Continuous
 62
     3
100
AcDbLine
 10
1234.2823320095
 20
746.9413855494
 30
0.0
 11
1109.2823320095
 21
746.9413855494
 31
0.0
  0
LINE
  5
473
330
1B
100
AcDbEntity
 67
     1
  8
7_ALL_FEATURES
  6
Continuous
 62
     3
100
AcDbLine
 10
1234.2823320095
 20
745.7413855494
 30
0.0
 11
1234.2823320095
 21
746.4467278522
 31
0.0
  0
LINE
  5
474
330
1B
100
AcDbEntity
 67
     1
  8
7_ALL_FEATURES
  6
Continuous
 62
     3
100
AcDbLine
 10
1234.2823320095
 20
746.4467278522
 30
0.0
 11
1234.2823320095
 21
746.9413855494
 31
0.0
  0
LINE
  5
475
330
1B
100
AcDbEntity
 67
     1
  8
7_ALL_FEATURES
  6
Continuous
 62
     3
100
AcDbLine
 10
1109.2823320095
 20
676.9413855494
 30
0.0
 11
1121.2823320095
 21
676.9413855494
 31
0.0
  0
LINE
  5
476
330
1B
100
AcDbEntity
 67
     1
  8
7_ALL_FEATURES
  6
Continuous
 62
     3
100
AcDbLine
 10
1222.2823320095
 20
676.9413855494
 30
0.0
 11
1234.2823320095
 21
676.9413855494
 31
0.0
  0
LINE
  5
477
330
1B
100
AcDbEntity
 67
     1
  8
7_ALL_FEATURES
  6
Continuous
 62
     3
100
AcDbLine
 10
1222.2823320095
 20
676.9413855494
 30
0.0
 11
1121.2823320095
 21
676.9413855494
 31
0.0
  0
LINE
  5
478
330
1B
100
AcDbEntity
 67
     1
  8
7_ALL_FEATURES
  6
Continuous
 62
     3
100
AcDbLine
 10
1109.2823320095
 20
676.9413855494
 30
0.0
 11
1109.2823320095
 21
677.5413855494
 31
0.0
  0
LINE
  5
479
330
1B
100
AcDbEntity
 67
     1
  8
7_ALL_FEATURES
  6
Continuous
 62
     3
100
AcDbLine
 10
1234.2823320095
 20
676.9413855494
 30
0.0
 11
1234.2823320095
 21
677.5413855494
 31
0.0
  0
LINE
  5
47A
330
1B
100
AcDbEntity
 67
     1
  8
7_ALL_FEATURES
  6
Continuous
 62
     9
100
AcDbLine
 10
1109.2823320095
 20
677.5413855494
 30
0.0
 11
1234.2823320095
 21
677.5413855494
 31
0.0
  0
LINE
  5
47B
330
1B
100
AcDbEntity
 67
     1
  8
7_ALL_FEATURES
  6
Continuous
 62
     9
100
AcDbLine
 10
1234.2823320095
 20
745.7413855494
 30
0.0
 11
1109.2823320095
 21
745.7413855494
 31
0.0
  0
LINE
  5
47C
330
1B
100
AcDbEntity
 67
     1
  8
7_ALL_FEATURES
  6
Continuous
 62
     7
100
AcDbLine
 10
2601.7823320095
 20
379.5373314954
 30
0.0
 11
2600.2823320095
 21
379.5373314954
 31
0.0
  0
LINE
  5
47D
330
1B
100
AcDbEntity
 67
     1
  8
7_ALL_FEATURES
  6
Continuous
 62
     7
100
AcDbLine
 10
2601.7823320095
 20
421.5373314954
 30
0.0
 11
2600.2823320095
 21
421.5373314954
 31
0.0
  0
LINE
  5
47E
330
1B
100
AcDbEntity
 67
     1
  8
7_ALL_FEATURES
  6
Continuous
 62
     7
100
AcDbLine
 10
2601.7823320095
 20
421.5373314954
 30
0.0
 11
2601.7823320095
 21
420.5373314954
 31
0.0
  0
LINE
  5
47F
330
1B
100
AcDbEntity
 67
     1
  8
7_ALL_FEATURES
  6
Continuous
 62
     7
100
AcDbLine
 10
2601.7823320095
 20
380.5373314954
 30
0.0
 11
2601.7823320095
 21
420.5373314954
 31
0.0
  0
LINE
  5
480
330
1B
100
AcDbEntity
 67
     1
  8
7_ALL_FEATURES
  6
Continuous
 62
     7
100
AcDbLine
 10
2601.7823320095
 20
380.5373314954
 30
0.0
 11
2601.7823320095
 21
379.5373314954
 31
0.0
  0
LINE
  5
481
330
1B
100
AcDbEntity
 67
     1
  8
7_ALL_FEATURES
  6
Continuous
 62
     9
100
AcDbLine
 10
2601.7823320095
 20
380.5373314954
 30
0.0
 11
2600.2823320095
 21
380.5373314954
 31
0.0
  0
LINE
  5
482
330
1B
100
AcDbEntity
 67
     1
  8
7_ALL_FEATURES
  6
Continuous
 62
     9
100
AcDbLine
 10
2601.7823320095
 20
420.5373314954
 30
0.0
 11
2600.2823320095
 21
420.5373314954
 31
0.0
  0
LINE
  5
483
330
1B
100
AcDbEntity
 67
     1
  8
7_ALL_FEATURES
  6
Continuous
 62
     7
100
AcDbLine
 10
1079.7823320095
 20
421.5373314954
 30
0.0
 11
1081.2823320095
 21
421.5373314954
 31
0.0
  0
LINE
  5
484
330
1B
100
AcDbEntity
 67
     1
  8
7_ALL_FEATURES
  6
Continuous
 62
     7
100
AcDbLine
 10
1079.7823320095
 20
379.5373314954
 30
0.0
 11
1081.2823320095
 21
379.5373314954
 31
0.0
  0
LINE
  5
485
330
1B
100
AcDbEntity
 67
     1
  8
7_ALL_FEATURES
  6
Continuous
 62
     7
100
AcDbLine
 10
1079.7823320095
 20
379.5373314954
 30
0.0
 11
1079.7823320095
 21
380.5373314954
 31
0.0
  0
LINE
  5
486
330
1B
100
AcDbEntity
 67
     1
  8
7_ALL_FEATURES
  6
Continuous
 62
     7
100
AcDbLine
 10
1079.7823320095
 20
420.5373314954
 30
0.0
 11
1079.7823320095
 21
380.5373314954
 31
0.0
  0
LINE
  5
487
330
1B
100
AcDbEntity
 67
     1
  8
7_ALL_FEATURES
  6
Continuous
 62
     7
100
AcDbLine
 10
1079.7823320095
 20
420.5373314954
 30
0.0
 11
1079.7823320095
 21
421.5373314954
 31
0.0
  0
LINE
  5
488
330
1B
100
AcDbEntity
 67
     1
  8
7_ALL_FEATURES
  6
Continuous
 62
     9
100
AcDbLine
 10
1079.7823320095
 20
420.5373314954
 30
0.0
 11
1081.2823320095
 21
420.5373314954
 31
0.0
  0
LINE
  5
489
330
1B
100
AcDbEntity
 67
     1
  8
7_ALL_FEATURES
  6
Continuous
 62
     9
100
AcDbLine
 10
1079.7823320095
 20
380.5373314954
 30
0.0
 11
1081.2823320095
 21
380.5373314954
 31
0.0
  0
LINE
  5
48A
330
1B
100
AcDbEntity
 67
     1
  8
3_ALL_AXES
  6
Continuous
 62
     7
100
AcDbLine
 10
1079.2823320095
 20
415.9873314954
 30
0.0
 11
1079.2823320095
 21
421.4873314954
 31
0.0
  0
LINE
  5
48B
330
1B
100
AcDbEntity
 67
     1
  8
3_ALL_AXES
  6
Continuous
 62
     7
100
AcDbLine
 10
1079.2823320095
 20
415.9873314954
 30
0.0
 11
1079.4330523392
 21
415.9873314954
 31
0.0
  0
LINE
  5
48C
330
1B
100
AcDbEntity
 67
     1
  8
3_ALL_AXES
  6
Continuous
 62
     7
100
AcDbLine
 10
1079.2823320095
 20
421.4873314954
 30
0.0
 11
1079.4330523392
 21
421.4873314954
 31
0.0
  0
LINE
  5
48D
330
1B
100
AcDbEntity
 67
     1
  8
3_ALL_AXES
  6
Continuous
 62
     7
100
AcDbLine
 10
1079.4330523392
 20
421.4873314954
 30
0.0
 11
1079.7823320095
 21
421.1942510528
 31
0.0
  0
LINE
  5
48E
330
1B
100
AcDbEntity
 67
     1
  8
3_ALL_AXES
  6
Continuous
 62
     7
100
AcDbLine
 10
1079.4330523392
 20
415.9873314954
 30
0.0
 11
1079.7823320095
 21
416.280411938
 31
0.0
  0
LINE
  5
48F
330
1B
100
AcDbEntity
 67
     1
  8
3_ALL_AXES
  6
Continuous
 62
     7
100
AcDbLine
 10
1079.4330523392
 20
415.9873314954
 30
0.0
 11
1079.4330523392
 21
421.4873314954
 31
0.0
  0
LINE
  5
490
330
1B
100
AcDbEntity
 67
     1
  8
3_ALL_AXES
  6
Continuous
 62
     7
100
AcDbLine
 10
1079.2823320095
 20
379.5873314954
 30
0.0
 11
1079.2823320095
 21
385.0873314954
 31
0.0
  0
LINE
  5
491
330
1B
100
AcDbEntity
 67
     1
  8
3_ALL_AXES
  6
Continuous
 62
     7
100
AcDbLine
 10
1079.2823320095
 20
379.5873314954
 30
0.0
 11
1079.4330523392
 21
379.5873314954
 31
0.0
  0
LINE
  5
492
330
1B
100
AcDbEntity
 67
     1
  8
3_ALL_AXES
  6
Continuous
 62
     7
100
AcDbLine
 10
1079.2823320095
 20
385.0873314954
 30
0.0
 11
1079.4330523392
 21
385.0873314954
 31
0.0
  0
LINE
  5
493
330
1B
100
AcDbEntity
 67
     1
  8
3_ALL_AXES
  6
Continuous
 62
     7
100
AcDbLine
 10
1079.4330523392
 20
385.0873314954
 30
0.0
 11
1079.7823320095
 21
384.7942510528
 31
0.0
  0
LINE
  5
494
330
1B
100
AcDbEntity
 67
     1
  8
3_ALL_AXES
  6
Continuous
 62
     7
100
AcDbLine
 10
1079.4330523392
 20
379.5873314954
 30
0.0
 11
1079.7823320095
 21
379.880411938
 31
0.0
  0
LINE
  5
495
330
1B
100
AcDbEntity
 67
     1
  8
3_ALL_AXES
  6
Continuous
 62
     7
100
AcDbLine
 10
1079.4330523392
 20
379.5873314954
 30
0.0
 11
1079.4330523392
 21
385.0873314954
 31
0.0
  0
LINE
  5
496
330
1B
100
AcDbEntity
 67
     1
  8
3_ALL_AXES
  6
Continuous
 62
     7
100
AcDbLine
 10
2602.2823320095
 20
385.0873314954
 30
0.0
 11
2602.2823320095
 21
379.5873314954
 31
0.0
  0
LINE
  5
497
330
1B
100
AcDbEntity
 67
     1
  8
3_ALL_AXES
  6
Continuous
 62
     7
100
AcDbLine
 10
2602.2823320095
 20
385.0873314954
 30
0.0
 11
2602.1316116799
 21
385.0873314954
 31
0.0
  0
LINE
  5
498
330
1B
100
AcDbEntity
 67
     1
  8
3_ALL_AXES
  6
Continuous
 62
     7
100
AcDbLine
 10
2602.2823320095
 20
379.5873314954
 30
0.0
 11
2602.1316116799
 21
379.5873314954
 31
0.0
  0
LINE
  5
499
330
1B
100
AcDbEntity
 67
     1
  8
3_ALL_AXES
  6
Continuous
 62
     7
100
AcDbLine
 10
2602.1316116799
 20
379.5873314954
 30
0.0
 11
2601.7823320095
 21
379.880411938
 31
0.0
  0
LINE
  5
49A
330
1B
100
AcDbEntity
 67
     1
  8
3_ALL_AXES
  6
Continuous
 62
     7
100
AcDbLine
 10
2602.1316116799
 20
385.0873314954
 30
0.0
 11
2601.7823320095
 21
384.7942510528
 31
0.0
  0
LINE
  5
49B
330
1B
100
AcDbEntity
 67
     1
  8
3_ALL_AXES
  6
Continuous
 62
     7
100
AcDbLine
 10
2602.1316116799
 20
385.0873314954
 30
0.0
 11
2602.1316116799
 21
379.5873314954
 31
0.0
  0
LINE
  5
49C
330
1B
100
AcDbEntity
 67
     1
  8
3_ALL_AXES
  6
Continuous
 62
     7
100
AcDbLine
 10
2602.2823320095
 20
421.4873314954
 30
0.0
 11
2602.2823320095
 21
415.9873314954
 31
0.0
  0
LINE
  5
49D
330
1B
100
AcDbEntity
 67
     1
  8
3_ALL_AXES
  6
Continuous
 62
     7
100
AcDbLine
 10
2602.2823320095
 20
421.4873314954
 30
0.0
 11
2602.1316116799
 21
421.4873314954
 31
0.0
  0
LINE
  5
49E
330
1B
100
AcDbEntity
 67
     1
  8
3_ALL_AXES
  6
Continuous
 62
     7
100
AcDbLine
 10
2602.2823320095
 20
415.9873314954
 30
0.0
 11
2602.1316116799
 21
415.9873314954
 31
0.0
  0
LINE
  5
49F
330
1B
100
AcDbEntity
 67
     1
  8
3_ALL_AXES
  6
Continuous
 62
     7
100
AcDbLine
 10
2602.1316116799
 20
415.9873314954
 30
0.0
 11
2601.7823320095
 21
416.280411938
 31
0.0
  0
LINE
  5
4A0
330
1B
100
AcDbEntity
 67
     1
  8
3_ALL_AXES
  6
Continuous
 62
     7
100
AcDbLine
 10
2602.1316116799
 20
421.4873314954
 30
0.0
 11
2601.7823320095
 21
421.1942510528
 31
0.0
  0
LINE
  5
4A1
330
1B
100
AcDbEntity
 67
     1
  8
3_ALL_AXES
  6
Continuous
 62
     7
100
AcDbLine
 10
2602.1316116799
 20
421.4873314954
 30
0.0
 11
2602.1316116799
 21
415.9873314954
 31
0.0
  0
LINE
  5
4A2
330
1B
100
AcDbEntity
 67
     1
  8
7_ALL_FEATURES
  6
Continuous
 62
     7
100
AcDbLine
 10
2600.2823320095
 20
380.3373314954
 30
0.0
 11
2600.2823320095
 21
379.6945438857
 31
0.0
  0
LINE
  5
4A3
330
1B
100
AcDbEntity
 67
     1
  8
7_ALL_FEATURES
  6
Continuous
 62
     7
100
AcDbLine
 10
2600.2823320095
 20
379.6945438857
 30
0.0
 11
2600.2823320095
 21
379.5373314954
 31
0.0
  0
LINE
  5
4A4
330
1B
100
AcDbEntity
 67
     1
  8
7_ALL_FEATURES
  6
Continuous
 62
     7
100
AcDbLine
 10
2600.2823320095
 20
379.5373314954
 30
0.0
 11
2600.2823320095
 21
379.3373314954
 31
0.0
  0
LINE
  5
4A5
330
1B
100
AcDbEntity
 67
     1
  8
7_ALL_FEATURES
  6
Continuous
 62
     7
100
AcDbLine
 10
2600.2823320095
 20
380.3373314954
 30
0.0
 11
2600.2823320095
 21
380.5373314954
 31
0.0
  0
LINE
  5
4A6
330
1B
100
AcDbEntity
 67
     1
  8
7_ALL_FEATURES
  6
Continuous
 62
     7
100
AcDbLine
 10
2600.2823320095
 20
380.5373314954
 30
0.0
 11
2600.2823320095
 21
399.3167543588
 31
0.0
  0
LINE
  5
4A7
330
1B
100
AcDbEntity
 67
     1
  8
7_ALL_FEATURES
  6
Continuous
 62
     7
100
AcDbLine
 10
2600.2823320095
 20
399.3167543588
 30
0.0
 11
2600.2823320095
 21
399.8167543588
 31
0.0
  0
LINE
  5
4A8
330
1B
100
AcDbEntity
 67
     1
  8
7_ALL_FEATURES
  6
Continuous
 62
     7
100
AcDbLine
 10
2600.2823320095
 20
401.757908632
 30
0.0
 11
2600.2823320095
 21
420.5373314954
 31
0.0
  0
LINE
  5
4A9
330
1B
100
AcDbEntity
 67
     1
  8
7_ALL_FEATURES
  6
Continuous
 62
     7
100
AcDbLine
 10
2600.2823320095
 20
420.5373314954
 30
0.0
 11
2600.2823320095
 21
420.7373314954
 31
0.0
  0
LINE
  5
4AA
330
1B
100
AcDbEntity
 67
     1
  8
7_ALL_FEATURES
  6
Continuous
 62
     7
100
AcDbLine
 10
2600.2823320095
 20
421.7373314954
 30
0.0
 11
2600.2823320095
 21
421.5373314954
 31
0.0
  0
LINE
  5
4AB
330
1B
100
AcDbEntity
 67
     1
  8
7_ALL_FEATURES
  6
Continuous
 62
     7
100
AcDbLine
 10
2600.2823320095
 20
421.5373314954
 30
0.0
 11
2600.2823320095
 21
421.3801191051
 31
0.0
  0
LINE
  5
4AC
330
1B
100
AcDbEntity
 67
     1
  8
7_ALL_FEATURES
  6
Continuous
 62
     7
100
AcDbLine
 10
2600.2823320095
 20
421.3801191051
 30
0.0
 11
2600.2823320095
 21
420.7373314954
 31
0.0
  0
LINE
  5
4AD
330
1B
100
AcDbEntity
 67
     1
  8
7_ALL_FEATURES
  6
Continuous
 62
     7
100
AcDbLine
 10
1081.2823320095
 20
420.7373314954
 30
0.0
 11
1081.2823320095
 21
421.3801191051
 31
0.0
  0
LINE
  5
4AE
330
1B
100
AcDbEntity
 67
     1
  8
7_ALL_FEATURES
  6
Continuous
 62
     7
100
AcDbLine
 10
1081.2823320095
 20
421.3801191051
 30
0.0
 11
1081.2823320095
 21
421.5373314954
 31
0.0
  0
LINE
  5
4AF
330
1B
100
AcDbEntity
 67
     1
  8
7_ALL_FEATURES
  6
Continuous
 62
     7
100
AcDbLine
 10
1081.2823320095
 20
421.5373314954
 30
0.0
 11
1081.2823320095
 21
421.7373314954
 31
0.0
  0
LINE
  5
4B0
330
1B
100
AcDbEntity
 67
     1
  8
7_ALL_FEATURES
  6
Continuous
 62
     7
100
AcDbLine
 10
1081.2823320095
 20
401.757908632
 30
0.0
 11
1081.2823320095
 21
420.5373314954
 31
0.0
  0
LINE
  5
4B1
330
1B
100
AcDbEntity
 67
     1
  8
7_ALL_FEATURES
  6
Continuous
 62
     7
100
AcDbLine
 10
1081.2823320095
 20
420.5373314954
 30
0.0
 11
1081.2823320095
 21
420.7373314954
 31
0.0
  0
LINE
  5
4B2
330
1B
100
AcDbEntity
 67
     1
  8
7_ALL_FEATURES
  6
Continuous
 62
     7
100
AcDbLine
 10
1081.2823320095
 20
401.757908632
 30
0.0
 11
1081.2823320095
 21
401.257908632
 31
0.0
  0
LINE
  5
4B3
330
1B
100
AcDbEntity
 67
     1
  8
7_ALL_FEATURES
  6
Continuous
 62
     7
100
AcDbLine
 10
1081.2823320095
 20
380.3373314954
 30
0.0
 11
1081.2823320095
 21
380.5373314954
 31
0.0
  0
LINE
  5
4B4
330
1B
100
AcDbEntity
 67
     1
  8
7_ALL_FEATURES
  6
Continuous
 62
     7
100
AcDbLine
 10
1081.2823320095
 20
380.5373314954
 30
0.0
 11
1081.2823320095
 21
399.3167543588
 31
0.0
  0
LINE
  5
4B5
330
1B
100
AcDbEntity
 67
     1
  8
7_ALL_FEATURES
  6
Continuous
 62
     7
100
AcDbLine
 10
1081.2823320095
 20
379.3373314954
 30
0.0
 11
1081.2823320095
 21
379.5373314954
 31
0.0
  0
LINE
  5
4B6
330
1B
100
AcDbEntity
 67
     1
  8
7_ALL_FEATURES
  6
Continuous
 62
     7
100
AcDbLine
 10
1081.2823320095
 20
379.5373314954
 30
0.0
 11
1081.2823320095
 21
379.6945438857
 31
0.0
  0
LINE
  5
4B7
330
1B
100
AcDbEntity
 67
     1
  8
7_ALL_FEATURES
  6
Continuous
 62
     7
100
AcDbLine
 10
1081.2823320095
 20
379.6945438857
 30
0.0
 11
1081.2823320095
 21
380.3373314954
 31
0.0
  0
LINE
  5
4B8
330
1B
100
AcDbEntity
 67
     1
  8
7_ALL_FEATURES
  6
Continuous
 62
     7
100
AcDbLine
 10
1081.2823320095
 20
421.7373314954
 30
0.0
 11
1109.2823320095
 21
421.7373314954
 31
0.0
  0
LINE
  5
4B9
330
1B
100
AcDbEntity
 67
     1
  8
7_ALL_FEATURES
  6
Continuous
 62
     7
100
AcDbLine
 10
1234.2823320095
 20
421.7373314954
 30
0.0
 11
1749.2823320095
 21
421.7373314954
 31
0.0
  0
LINE
  5
4BA
330
1B
100
AcDbEntity
 67
     1
  8
7_ALL_FEATURES
  6
Continuous
 62
     7
100
AcDbLine
 10
1874.2823320095
 20
421.7373314954
 30
0.0
 11
2389.2823320095
 21
421.7373314954
 31
0.0
  0
LINE
  5
4BB
330
1B
100
AcDbEntity
 67
     1
  8
7_ALL_FEATURES
  6
Continuous
 62
     7
100
AcDbLine
 10
2514.2823320095
 20
421.7373314954
 30
0.0
 11
2600.2823320095
 21
421.7373314954
 31
0.0
  0
LINE
  5
4BC
330
1B
100
AcDbEntity
 67
     1
  8
7_ALL_FEATURES
  6
Continuous
 62
     7
100
AcDbLine
 10
1081.2823320095
 20
379.3373314954
 30
0.0
 11
1109.2823320095
 21
379.3373314954
 31
0.0
  0
LINE
  5
4BD
330
1B
100
AcDbEntity
 67
     1
  8
7_ALL_FEATURES
  6
Continuous
 62
     7
100
AcDbLine
 10
1234.2823320095
 20
379.3373314954
 30
0.0
 11
1749.2823320095
 21
379.3373314954
 31
0.0
  0
LINE
  5
4BE
330
1B
100
AcDbEntity
 67
     1
  8
7_ALL_FEATURES
  6
Continuous
 62
     7
100
AcDbLine
 10
1874.2823320095
 20
379.3373314954
 30
0.0
 11
2389.2823320095
 21
379.3373314954
 31
0.0
  0
LINE
  5
4BF
330
1B
100
AcDbEntity
 67
     1
  8
7_ALL_FEATURES
  6
Continuous
 62
     7
100
AcDbLine
 10
2514.2823320095
 20
379.3373314954
 30
0.0
 11
2600.2823320095
 21
379.3373314954
 31
0.0
  0
LINE
  5
4C0
330
1B
100
AcDbEntity
 67
     1
  8
7_ALL_FEATURES
  6
Continuous
 62
     9
100
AcDbLine
 10
1081.2823320095
 20
401.257908632
 30
0.0
 11
1109.2823320095
 21
401.257908632
 31
0.0
  0
LINE
  5
4C1
330
1B
100
AcDbEntity
 67
     1
  8
7_ALL_FEATURES
  6
Continuous
 62
     9
100
AcDbLine
 10
1234.2823320095
 20
401.257908632
 30
0.0
 11
1749.2823320095
 21
401.257908632
 31
0.0
  0
LINE
  5
4C2
330
1B
100
AcDbEntity
 67
     1
  8
7_ALL_FEATURES
  6
Continuous
 62
     9
100
AcDbLine
 10
1874.2823320095
 20
401.257908632
 30
0.0
 11
2389.2823320095
 21
401.257908632
 31
0.0
  0
LINE
  5
4C3
330
1B
100
AcDbEntity
 67
     1
  8
7_ALL_FEATURES
  6
Continuous
 62
     9
100
AcDbLine
 10
2514.2823320095
 20
401.257908632
 30
0.0
 11
2600.2823320095
 21
401.257908632
 31
0.0
  0
LINE
  5
4C4
330
1B
100
AcDbEntity
 67
     1
  8
7_ALL_FEATURES
  6
Continuous
 62
     9
100
AcDbLine
 10
1081.2823320095
 20
399.8167543588
 30
0.0
 11
1109.2823320095
 21
399.8167543588
 31
0.0
  0
LINE
  5
4C5
330
1B
100
AcDbEntity
 67
     1
  8
7_ALL_FEATURES
  6
Continuous
 62
     9
100
AcDbLine
 10
1234.2823320095
 20
399.8167543588
 30
0.0
 11
1749.2823320095
 21
399.8167543588
 31
0.0
  0
LINE
  5
4C6
330
1B
100
AcDbEntity
 67
     1
  8
7_ALL_FEATURES
  6
Continuous
 62
     9
100
AcDbLine
 10
1874.2823320095
 20
399.8167543588
 30
0.0
 11
2389.2823320095
 21
399.8167543588
 31
0.0
  0
LINE
  5
4C7
330
1B
100
AcDbEntity
 67
     1
  8
7_ALL_FEATURES
  6
Continuous
 62
     9
100
AcDbLine
 10
2514.2823320095
 20
399.8167543588
 30
0.0
 11
2600.2823320095
 21
399.8167543588
 31
0.0
  0
LINE
  5
4C8
330
1B
100
AcDbEntity
 67
     1
  8
7_ALL_FEATURES
  6
Continuous
 62
     9
100
AcDbLine
 10
1081.2823320095
 20
380.3373314954
 30
0.0
 11
1109.2823320095
 21
380.3373314954
 31
0.0
  0
LINE
  5
4C9
330
1B
100
AcDbEntity
 67
     1
  8
7_ALL_FEATURES
  6
Continuous
 62
     9
100
AcDbLine
 10
1234.2823320095
 20
380.3373314954
 30
0.0
 11
1749.2823320095
 21
380.3373314954
 31
0.0
  0
LINE
  5
4CA
330
1B
100
AcDbEntity
 67
     1
  8
7_ALL_FEATURES
  6
Continuous
 62
     9
100
AcDbLine
 10
1874.2823320095
 20
380.3373314954
 30
0.0
 11
2389.2823320095
 21
380.3373314954
 31
0.0
  0
LINE
  5
4CB
330
1B
100
AcDbEntity
 67
     1
  8
7_ALL_FEATURES
  6
Continuous
 62
     9
100
AcDbLine
 10
2514.2823320095
 20
380.3373314954
 30
0.0
 11
2600.2823320095
 21
380.3373314954
 31
0.0
  0
LINE
  5
4CC
330
1B
100
AcDbEntity
 67
     1
  8
7_ALL_FEATURES
  6
Continuous
 62
     9
100
AcDbLine
 10
1081.2823320095
 20
399.3167543588
 30
0.0
 11
1109.2823320095
 21
399.3167543588
 31
0.0
  0
LINE
  5
4CD
330
1B
100
AcDbEntity
 67
     1
  8
7_ALL_FEATURES
  6
Continuous
 62
     9
100
AcDbLine
 10
1234.2823320095
 20
399.3167543588
 30
0.0
 11
1749.2823320095
 21
399.3167543588
 31
0.0
  0
LINE
  5
4CE
330
1B
100
AcDbEntity
 67
     1
  8
7_ALL_FEATURES
  6
Continuous
 62
     9
100
AcDbLine
 10
1874.2823320095
 20
399.3167543588
 30
0.0
 11
2389.2823320095
 21
399.3167543588
 31
0.0
  0
LINE
  5
4CF
330
1B
100
AcDbEntity
 67
     1
  8
7_ALL_FEATURES
  6
Continuous
 62
     9
100
AcDbLine
 10
2514.2823320095
 20
399.3167543588
 30
0.0
 11
2600.2823320095
 21
399.3167543588
 31
0.0
  0
LINE
  5
4D0
330
1B
100
AcDbEntity
 67
     1
  8
7_ALL_FEATURES
  6
Continuous
 62
     9
100
AcDbLine
 10
1081.2823320095
 20
420.7373314954
 30
0.0
 11
1109.2823320095
 21
420.7373314954
 31
0.0
  0
LINE
  5
4D1
330
1B
100
AcDbEntity
 67
     1
  8
7_ALL_FEATURES
  6
Continuous
 62
     9
100
AcDbLine
 10
1234.2823320095
 20
420.7373314954
 30
0.0
 11
1749.2823320095
 21
420.7373314954
 31
0.0
  0
LINE
  5
4D2
330
1B
100
AcDbEntity
 67
     1
  8
7_ALL_FEATURES
  6
Continuous
 62
     9
100
AcDbLine
 10
1874.2823320095
 20
420.7373314954
 30
0.0
 11
2389.2823320095
 21
420.7373314954
 31
0.0
  0
LINE
  5
4D3
330
1B
100
AcDbEntity
 67
     1
  8
7_ALL_FEATURES
  6
Continuous
 62
     9
100
AcDbLine
 10
2514.2823320095
 20
420.7373314954
 30
0.0
 11
2600.2823320095
 21
420.7373314954
 31
0.0
  0
LINE
  5
4D4
330
1B
100
AcDbEntity
 67
     1
  8
7_ALL_FEATURES
  6
Continuous
 62
     9
100
AcDbLine
 10
1081.2823320095
 20
401.757908632
 30
0.0
 11
1109.2823320095
 21
401.757908632
 31
0.0
  0
LINE
  5
4D5
330
1B
100
AcDbEntity
 67
     1
  8
7_ALL_FEATURES
  6
Continuous
 62
     9
100
AcDbLine
 10
1234.2823320095
 20
401.757908632
 30
0.0
 11
1749.2823320095
 21
401.757908632
 31
0.0
  0
LINE
  5
4D6
330
1B
100
AcDbEntity
 67
     1
  8
7_ALL_FEATURES
  6
Continuous
 62
     9
100
AcDbLine
 10
1874.2823320095
 20
401.757908632
 30
0.0
 11
2389.2823320095
 21
401.757908632
 31
0.0
  0
LINE
  5
4D7
330
1B
100
AcDbEntity
 67
     1
  8
7_ALL_FEATURES
  6
Continuous
 62
     9
100
AcDbLine
 10
2514.2823320095
 20
401.757908632
 30
0.0
 11
2600.2823320095
 21
401.757908632
 31
0.0
  0
LINE
  5
4D8
330
1B
100
AcDbEntity
 67
     1
  8
7_ALL_FEATURES
  6
Continuous
 62
     7
100
AcDbLine
 10
2600.2823320095
 20
400.5373314954
 30
0.0
 11
2514.2823320095
 21
400.5373314954
 31
0.0
  0
LINE
  5
4D9
330
1B
100
AcDbEntity
 67
     1
  8
7_ALL_FEATURES
  6
Continuous
 62
     7
100
AcDbLine
 10
2389.2823320095
 20
400.5373314954
 30
0.0
 11
1874.2823320095
 21
400.5373314954
 31
0.0
  0
LINE
  5
4DA
330
1B
100
AcDbEntity
 67
     1
  8
7_ALL_FEATURES
  6
Continuous
 62
     7
100
AcDbLine
 10
1749.2823320095
 20
400.5373314954
 30
0.0
 11
1234.2823320095
 21
400.5373314954
 31
0.0
  0
LINE
  5
4DB
330
1B
100
AcDbEntity
 67
     1
  8
7_ALL_FEATURES
  6
Continuous
 62
     7
100
AcDbLine
 10
1109.2823320095
 20
400.5373314954
 30
0.0
 11
1081.2823320095
 21
400.5373314954
 31
0.0
  0
LINE
  5
4DC
330
1B
100
AcDbEntity
 67
     1
  8
7_ALL_FEATURES
  6
Continuous
 62
     3
100
AcDbLine
 10
2600.2823320095
 20
420.5373314954
 30
0.0
 11
2600.2823320095
 21
420.6295998548
 31
0.0
  0
LINE
  5
4DD
330
1B
100
AcDbEntity
 67
     1
  8
7_ALL_FEATURES
  6
Continuous
 62
     3
100
AcDbLine
 10
2600.2823320095
 20
380.5373314954
 30
0.0
 11
2600.2823320095
 21
399.3167543588
 31
0.0
  0
LINE
  5
4DE
330
1B
100
AcDbEntity
 67
     1
  8
7_ALL_FEATURES
  6
Continuous
 62
     3
100
AcDbLine
 10
2600.2823320095
 20
399.3167543588
 30
0.0
 11
2600.2823320095
 21
399.8167543588
 31
0.0
  0
LINE
  5
4DF
330
1B
100
AcDbEntity
 67
     1
  8
7_ALL_FEATURES
  6
Continuous
 62
     3
100
AcDbLine
 10
2600.2823320095
 20
399.8167543588
 30
0.0
 11
2600.2823320095
 21
400.5373314954
 31
0.0
  0
LINE
  5
4E0
330
1B
100
AcDbEntity
 67
     1
  8
7_ALL_FEATURES
  6
Continuous
 62
     3
100
AcDbLine
 10
2600.2823320095
 20
400.5373314954
 30
0.0
 11
2600.2823320095
 21
401.257908632
 31
0.0
  0
LINE
  5
4E1
330
1B
100
AcDbEntity
 67
     1
  8
7_ALL_FEATURES
  6
Continuous
 62
     3
100
AcDbLine
 10
2600.2823320095
 20
401.257908632
 30
0.0
 11
2600.2823320095
 21
401.757908632
 31
0.0
  0
LINE
  5
4E2
330
1B
100
AcDbEntity
 67
     1
  8
7_ALL_FEATURES
  6
Continuous
 62
     3
100
AcDbLine
 10
2600.2823320095
 20
401.757908632
 30
0.0
 11
2600.2823320095
 21
420.5373314954
 31
0.0
  0
LINE
  5
4E3
330
1B
100
AcDbEntity
 67
     1
  8
7_ALL_FEATURES
  6
Continuous
 62
     3
100
AcDbLine
 10
2600.2823320095
 20
380.4450631359
 30
0.0
 11
2600.2823320095
 21
380.5373314954
 31
0.0
  0
LINE
  5
4E4
330
1B
100
AcDbEntity
 67
     1
  8
7_ALL_FEATURES
  6
Continuous
 62
     3
100
AcDbLine
 10
1081.2823320095
 20
380.5373314954
 30
0.0
 11
1081.2823320095
 21
380.4450631359
 31
0.0
  0
LINE
  5
4E5
330
1B
100
AcDbEntity
 67
     1
  8
7_ALL_FEATURES
  6
Continuous
 62
     3
100
AcDbLine
 10
1081.2823320095
 20
420.5373314954
 30
0.0
 11
1081.2823320095
 21
401.757908632
 31
0.0
  0
LINE
  5
4E6
330
1B
100
AcDbEntity
 67
     1
  8
7_ALL_FEATURES
  6
Continuous
 62
     3
100
AcDbLine
 10
1081.2823320095
 20
401.757908632
 30
0.0
 11
1081.2823320095
 21
401.257908632
 31
0.0
  0
LINE
  5
4E7
330
1B
100
AcDbEntity
 67
     1
  8
7_ALL_FEATURES
  6
Continuous
 62
     3
100
AcDbLine
 10
1081.2823320095
 20
401.257908632
 30
0.0
 11
1081.2823320095
 21
400.5373314954
 31
0.0
  0
LINE
  5
4E8
330
1B
100
AcDbEntity
 67
     1
  8
7_ALL_FEATURES
  6
Continuous
 62
     3
100
AcDbLine
 10
1081.2823320095
 20
400.5373314954
 30
0.0
 11
1081.2823320095
 21
399.8167543588
 31
0.0
  0
LINE
  5
4E9
330
1B
100
AcDbEntity
 67
     1
  8
7_ALL_FEATURES
  6
Continuous
 62
     3
100
AcDbLine
 10
1081.2823320095
 20
399.8167543588
 30
0.0
 11
1081.2823320095
 21
399.3167543588
 31
0.0
  0
LINE
  5
4EA
330
1B
100
AcDbEntity
 67
     1
  8
7_ALL_FEATURES
  6
Continuous
 62
     3
100
AcDbLine
 10
1081.2823320095
 20
399.3167543588
 30
0.0
 11
1081.2823320095
 21
380.5373314954
 31
0.0
  0
LINE
  5
4EB
330
1B
100
AcDbEntity
 67
     1
  8
7_ALL_FEATURES
  6
Continuous
 62
     3
100
AcDbLine
 10
1081.2823320095
 20
420.6295998548
 30
0.0
 11
1081.2823320095
 21
420.5373314954
 31
0.0
  0
LINE
  5
4EC
330
1B
100
AcDbEntity
 67
     1
  8
7_ALL_FEATURES
  6
Continuous
 62
     3
100
AcDbLine
 10
2514.2823320095
 20
378.3873314954
 30
0.0
 11
2389.2823320095
 21
378.3873314954
 31
0.0
  0
LINE
  5
4ED
330
1B
100
AcDbEntity
 67
     1
  8
7_ALL_FEATURES
  6
Continuous
 62
     3
100
AcDbLine
 10
2389.2823320095
 20
378.3873314954
 30
0.0
 11
2389.2823320095
 21
378.9873314954
 31
0.0
  0
LINE
  5
4EE
330
1B
100
AcDbEntity
 67
     1
  8
7_ALL_FEATURES
  6
Continuous
 62
     3
100
AcDbLine
 10
2389.2823320095
 20
378.9873314954
 30
0.0
 11
2389.2823320095
 21
379.5873314954
 31
0.0
  0
LINE
  5
4EF
330
1B
100
AcDbEntity
 67
     1
  8
7_ALL_FEATURES
  6
Continuous
 62
     3
100
AcDbLine
 10
2514.2823320095
 20
378.3873314954
 30
0.0
 11
2514.2823320095
 21
378.9873314954
 31
0.0
  0
LINE
  5
4F0
330
1B
100
AcDbEntity
 67
     1
  8
7_ALL_FEATURES
  6
Continuous
 62
     3
100
AcDbLine
 10
2514.2823320095
 20
378.9873314954
 30
0.0
 11
2514.2823320095
 21
379.5873314954
 31
0.0
  0
LINE
  5
4F1
330
1B
100
AcDbEntity
 67
     1
  8
7_ALL_FEATURES
  6
Continuous
 62
     3
100
AcDbLine
 10
2389.2823320095
 20
423.2873314954
 30
0.0
 11
2389.2823320095
 21
422.6873314954
 31
0.0
  0
LINE
  5
4F2
330
1B
100
AcDbEntity
 67
     1
  8
7_ALL_FEATURES
  6
Continuous
 62
     3
100
AcDbLine
 10
2514.2823320095
 20
423.2873314954
 30
0.0
 11
2514.2823320095
 21
422.6873314954
 31
0.0
  0
LINE
  5
4F3
330
1B
100
AcDbEntity
 67
     1
  8
7_ALL_FEATURES
  6
Continuous
 62
     3
100
AcDbLine
 10
2389.2823320095
 20
423.2873314954
 30
0.0
 11
2389.2823320095
 21
424.0873314954
 31
0.0
  0
LINE
  5
4F4
330
1B
100
AcDbEntity
 67
     1
  8
7_ALL_FEATURES
  6
Continuous
 62
     3
100
AcDbLine
 10
2514.2823320095
 20
424.0873314954
 30
0.0
 11
2514.2823320095
 21
423.2873314954
 31
0.0
  0
LINE
  5
4F5
330
1B
100
AcDbEntity
 67
     1
  8
7_ALL_FEATURES
  6
Continuous
 62
     3
100
AcDbLine
 10
2389.2823320095
 20
376.9873314954
 30
0.0
 11
2401.2823320095
 21
353.9873314954
 31
0.0
  0
LINE
  5
4F6
330
1B
100
AcDbEntity
 67
     1
  8
7_ALL_FEATURES
  6
Continuous
 62
     3
100
AcDbLine
 10
2389.2823320095
 20
376.9873314954
 30
0.0
 11
2389.2823320095
 21
377.7873314954
 31
0.0
  0
LINE
  5
4F7
330
1B
100
AcDbEntity
 67
     1
  8
7_ALL_FEATURES
  6
Continuous
 62
     3
100
AcDbLine
 10
2514.2823320095
 20
377.7873314954
 30
0.0
 11
2514.2823320095
 21
376.9873314954
 31
0.0
  0
LINE
  5
4F8
330
1B
100
AcDbEntity
 67
     1
  8
7_ALL_FEATURES
  6
Continuous
 62
     3
100
AcDbLine
 10
2502.2823320095
 20
353.9873314954
 30
0.0
 11
2514.2823320095
 21
376.9873314954
 31
0.0
  0
LINE
  5
4F9
330
1B
100
AcDbEntity
 67
     1
  8
7_ALL_FEATURES
  6
Continuous
 62
     3
100
AcDbLine
 10
2502.2823320095
 20
353.9873314954
 30
0.0
 11
2401.2823320095
 21
353.9873314954
 31
0.0
  0
LINE
  5
4FA
330
1B
100
AcDbEntity
 67
     1
  8
7_ALL_FEATURES
  6
Continuous
 62
     3
100
AcDbLine
 10
2389.2823320095
 20
377.7873314954
 30
0.0
 11
2389.2823320095
 21
378.3873314954
 31
0.0
  0
LINE
  5
4FB
330
1B
100
AcDbEntity
 67
     1
  8
7_ALL_FEATURES
  6
Continuous
 62
     3
100
AcDbLine
 10
2514.2823320095
 20
377.7873314954
 30
0.0
 11
2514.2823320095
 21
378.3873314954
 31
0.0
  0
LINE
  5
4FC
330
1B
100
AcDbEntity
 67
     1
  8
7_ALL_FEATURES
  6
Continuous
 62
     3
100
AcDbLine
 10
2389.2823320095
 20
421.4873314954
 30
0.0
 11
2389.2823320095
 21
379.5873314954
 31
0.0
  0
LINE
  5
4FD
330
1B
100
AcDbEntity
 67
     1
  8
7_ALL_FEATURES
  6
Continuous
 62
     3
100
AcDbLine
 10
2514.2823320095
 20
424.0873314954
 30
0.0
 11
2502.2823320095
 21
447.0873314954
 31
0.0
  0
LINE
  5
4FE
330
1B
100
AcDbEntity
 67
     1
  8
7_ALL_FEATURES
  6
Continuous
 62
     3
100
AcDbLine
 10
2401.2823320095
 20
447.0873314954
 30
0.0
 11
2502.2823320095
 21
447.0873314954
 31
0.0
  0
LINE
  5
4FF
330
1B
100
AcDbEntity
 67
     1
  8
7_ALL_FEATURES
  6
Continuous
 62
     3
100
AcDbLine
 10
2514.2823320095
 20
421.4873314954
 30
0.0
 11
2514.2823320095
 21
379.5873314954
 31
0.0
  0
LINE
  5
500
330
1B
100
AcDbEntity
 67
     1
  8
7_ALL_FEATURES
  6
Continuous
 62
     3
100
AcDbLine
 10
2401.2823320095
 20
447.0873314954
 30
0.0
 11
2389.2823320095
 21
424.0873314954
 31
0.0
  0
LINE
  5
501
330
1B
100
AcDbEntity
 67
     1
  8
7_ALL_FEATURES
  6
Continuous
 62
     3
100
AcDbLine
 10
2389.2823320095
 20
422.6873314954
 30
0.0
 11
2389.2823320095
 21
422.0873314954
 31
0.0
  0
LINE
  5
502
330
1B
100
AcDbEntity
 67
     1
  8
7_ALL_FEATURES
  6
Continuous
 62
     3
100
AcDbLine
 10
2389.2823320095
 20
422.0873314954
 30
0.0
 11
2389.2823320095
 21
421.4873314954
 31
0.0
  0
LINE
  5
503
330
1B
100
AcDbEntity
 67
     1
  8
7_ALL_FEATURES
  6
Continuous
 62
     3
100
AcDbLine
 10
2514.2823320095
 20
422.6873314954
 30
0.0
 11
2514.2823320095
 21
422.0873314954
 31
0.0
  0
LINE
  5
504
330
1B
100
AcDbEntity
 67
     1
  8
7_ALL_FEATURES
  6
Continuous
 62
     3
100
AcDbLine
 10
2514.2823320095
 20
422.0873314954
 30
0.0
 11
2514.2823320095
 21
421.4873314954
 31
0.0
  0
LINE
  5
505
330
1B
100
AcDbEntity
 67
     1
  8
7_ALL_FEATURES
  6
Continuous
 62
     3
100
AcDbLine
 10
2389.2823320095
 20
422.6873314954
 30
0.0
 11
2514.2823320095
 21
422.6873314954
 31
0.0
  0
LINE
  5
506
330
1B
100
AcDbEntity
 67
     1
  8
7_ALL_FEATURES
  6
Continuous
 62
     9
100
AcDbLine
 10
2389.2823320095
 20
377.7873314954
 30
0.0
 11
2514.2823320095
 21
377.7873314954
 31
0.0
  0
LINE
  5
507
330
1B
100
AcDbEntity
 67
     1
  8
7_ALL_FEATURES
  6
Continuous
 62
     9
100
AcDbLine
 10
2514.2823320095
 20
423.2873314954
 30
0.0
 11
2389.2823320095
 21
423.2873314954
 31
0.0
  0
LINE
  5
508
330
1B
100
AcDbEntity
 67
     1
  8
7_ALL_FEATURES
  6
Continuous
 62
     9
100
AcDbLine
 10
2514.2823320095
 20
379.5873314954
 30
0.0
 11
2389.2823320095
 21
379.5873314954
 31
0.0
  0
LINE
  5
509
330
1B
100
AcDbEntity
 67
     1
  8
7_ALL_FEATURES
  6
Continuous
 62
     9
100
AcDbLine
 10
2389.2823320095
 20
421.4873314954
 30
0.0
 11
2514.2823320095
 21
421.4873314954
 31
0.0
  0
LINE
  5
50A
330
1B
100
AcDbEntity
 67
     1
  8
7_ALL_FEATURES
  6
Continuous
 62
     3
100
AcDbLine
 10
1874.2823320095
 20
378.3873314954
 30
0.0
 11
1749.2823320095
 21
378.3873314954
 31
0.0
  0
LINE
  5
50B
330
1B
100
AcDbEntity
 67
     1
  8
7_ALL_FEATURES
  6
Continuous
 62
     3
100
AcDbLine
 10
1749.2823320095
 20
378.3873314954
 30
0.0
 11
1749.2823320095
 21
378.9873314954
 31
0.0
  0
LINE
  5
50C
330
1B
100
AcDbEntity
 67
     1
  8
7_ALL_FEATURES
  6
Continuous
 62
     3
100
AcDbLine
 10
1749.2823320095
 20
378.9873314954
 30
0.0
 11
1749.2823320095
 21
379.5873314954
 31
0.0
  0
LINE
  5
50D
330
1B
100
AcDbEntity
 67
     1
  8
7_ALL_FEATURES
  6
Continuous
 62
     3
100
AcDbLine
 10
1874.2823320095
 20
378.3873314954
 30
0.0
 11
1874.2823320095
 21
378.9873314954
 31
0.0
  0
LINE
  5
50E
330
1B
100
AcDbEntity
 67
     1
  8
7_ALL_FEATURES
  6
Continuous
 62
     3
100
AcDbLine
 10
1874.2823320095
 20
378.9873314954
 30
0.0
 11
1874.2823320095
 21
379.5873314954
 31
0.0
  0
LINE
  5
50F
330
1B
100
AcDbEntity
 67
     1
  8
7_ALL_FEATURES
  6
Continuous
 62
     3
100
AcDbLine
 10
1749.2823320095
 20
423.2873314954
 30
0.0
 11
1749.2823320095
 21
422.6873314954
 31
0.0
  0
LINE
  5
510
330
1B
100
AcDbEntity
 67
     1
  8
7_ALL_FEATURES
  6
Continuous
 62
     3
100
AcDbLine
 10
1874.2823320095
 20
423.2873314954
 30
0.0
 11
1874.2823320095
 21
422.6873314954
 31
0.0
  0
LINE
  5
511
330
1B
100
AcDbEntity
 67
     1
  8
7_ALL_FEATURES
  6
Continuous
 62
     3
100
AcDbLine
 10
1749.2823320095
 20
423.2873314954
 30
0.0
 11
1749.2823320095
 21
424.0873314954
 31
0.0
  0
LINE
  5
512
330
1B
100
AcDbEntity
 67
     1
  8
7_ALL_FEATURES
  6
Continuous
 62
     3
100
AcDbLine
 10
1874.2823320095
 20
424.0873314954
 30
0.0
 11
1874.2823320095
 21
423.2873314954
 31
0.0
  0
LINE
  5
513
330
1B
100
AcDbEntity
 67
     1
  8
7_ALL_FEATURES
  6
Continuous
 62
     3
100
AcDbLine
 10
1749.2823320095
 20
376.9873314954
 30
0.0
 11
1761.2823320095
 21
353.9873314954
 31
0.0
  0
LINE
  5
514
330
1B
100
AcDbEntity
 67
     1
  8
7_ALL_FEATURES
  6
Continuous
 62
     3
100
AcDbLine
 10
1749.2823320095
 20
376.9873314954
 30
0.0
 11
1749.2823320095
 21
377.7873314954
 31
0.0
  0
LINE
  5
515
330
1B
100
AcDbEntity
 67
     1
  8
7_ALL_FEATURES
  6
Continuous
 62
     3
100
AcDbLine
 10
1874.2823320095
 20
377.7873314954
 30
0.0
 11
1874.2823320095
 21
376.9873314954
 31
0.0
  0
LINE
  5
516
330
1B
100
AcDbEntity
 67
     1
  8
7_ALL_FEATURES
  6
Continuous
 62
     3
100
AcDbLine
 10
1862.2823320095
 20
353.9873314954
 30
0.0
 11
1874.2823320095
 21
376.9873314954
 31
0.0
  0
LINE
  5
517
330
1B
100
AcDbEntity
 67
     1
  8
7_ALL_FEATURES
  6
Continuous
 62
     3
100
AcDbLine
 10
1862.2823320095
 20
353.9873314954
 30
0.0
 11
1761.2823320095
 21
353.9873314954
 31
0.0
  0
LINE
  5
518
330
1B
100
AcDbEntity
 67
     1
  8
7_ALL_FEATURES
  6
Continuous
 62
     3
100
AcDbLine
 10
1749.2823320095
 20
377.7873314954
 30
0.0
 11
1749.2823320095
 21
378.3873314954
 31
0.0
  0
LINE
  5
519
330
1B
100
AcDbEntity
 67
     1
  8
7_ALL_FEATURES
  6
Continuous
 62
     3
100
AcDbLine
 10
1874.2823320095
 20
377.7873314954
 30
0.0
 11
1874.2823320095
 21
378.3873314954
 31
0.0
  0
LINE
  5
51A
330
1B
100
AcDbEntity
 67
     1
  8
7_ALL_FEATURES
  6
Continuous
 62
     3
100
AcDbLine
 10
1749.2823320095
 20
421.4873314954
 30
0.0
 11
1749.2823320095
 21
379.5873314954
 31
0.0
  0
LINE
  5
51B
330
1B
100
AcDbEntity
 67
     1
  8
7_ALL_FEATURES
  6
Continuous
 62
     3
100
AcDbLine
 10
1874.2823320095
 20
424.0873314954
 30
0.0
 11
1862.2823320095
 21
447.0873314954
 31
0.0
  0
LINE
  5
51C
330
1B
100
AcDbEntity
 67
     1
  8
7_ALL_FEATURES
  6
Continuous
 62
     3
100
AcDbLine
 10
1761.2823320095
 20
447.0873314954
 30
0.0
 11
1862.2823320095
 21
447.0873314954
 31
0.0
  0
LINE
  5
51D
330
1B
100
AcDbEntity
 67
     1
  8
7_ALL_FEATURES
  6
Continuous
 62
     3
100
AcDbLine
 10
1874.2823320095
 20
421.4873314954
 30
0.0
 11
1874.2823320095
 21
379.5873314954
 31
0.0
  0
LINE
  5
51E
330
1B
100
AcDbEntity
 67
     1
  8
7_ALL_FEATURES
  6
Continuous
 62
     3
100
AcDbLine
 10
1761.2823320095
 20
447.0873314954
 30
0.0
 11
1749.2823320095
 21
424.0873314954
 31
0.0
  0
LINE
  5
51F
330
1B
100
AcDbEntity
 67
     1
  8
7_ALL_FEATURES
  6
Continuous
 62
     3
100
AcDbLine
 10
1749.2823320095
 20
422.6873314954
 30
0.0
 11
1749.2823320095
 21
422.0873314954
 31
0.0
  0
LINE
  5
520
330
1B
100
AcDbEntity
 67
     1
  8
7_ALL_FEATURES
  6
Continuous
 62
     3
100
AcDbLine
 10
1749.2823320095
 20
422.0873314954
 30
0.0
 11
1749.2823320095
 21
421.4873314954
 31
0.0
  0
LINE
  5
521
330
1B
100
AcDbEntity
 67
     1
  8
7_ALL_FEATURES
  6
Continuous
 62
     3
100
AcDbLine
 10
1874.2823320095
 20
422.6873314954
 30
0.0
 11
1874.2823320095
 21
422.0873314954
 31
0.0
  0
LINE
  5
522
330
1B
100
AcDbEntity
 67
     1
  8
7_ALL_FEATURES
  6
Continuous
 62
     3
100
AcDbLine
 10
1874.2823320095
 20
422.0873314954
 30
0.0
 11
1874.2823320095
 21
421.4873314954
 31
0.0
  0
LINE
  5
523
330
1B
100
AcDbEntity
 67
     1
  8
7_ALL_FEATURES
  6
Continuous
 62
     3
100
AcDbLine
 10
1749.2823320095
 20
422.6873314954
 30
0.0
 11
1874.2823320095
 21
422.6873314954
 31
0.0
  0
LINE
  5
524
330
1B
100
AcDbEntity
 67
     1
  8
7_ALL_FEATURES
  6
Continuous
 62
     9
100
AcDbLine
 10
1749.2823320095
 20
377.7873314954
 30
0.0
 11
1874.2823320095
 21
377.7873314954
 31
0.0
  0
LINE
  5
525
330
1B
100
AcDbEntity
 67
     1
  8
7_ALL_FEATURES
  6
Continuous
 62
     9
100
AcDbLine
 10
1874.2823320095
 20
423.2873314954
 30
0.0
 11
1749.2823320095
 21
423.2873314954
 31
0.0
  0
LINE
  5
526
330
1B
100
AcDbEntity
 67
     1
  8
7_ALL_FEATURES
  6
Continuous
 62
     9
100
AcDbLine
 10
1874.2823320095
 20
379.5873314954
 30
0.0
 11
1749.2823320095
 21
379.5873314954
 31
0.0
  0
LINE
  5
527
330
1B
100
AcDbEntity
 67
     1
  8
7_ALL_FEATURES
  6
Continuous
 62
     9
100
AcDbLine
 10
1749.2823320095
 20
421.4873314954
 30
0.0
 11
1874.2823320095
 21
421.4873314954
 31
0.0
  0
LINE
  5
528
330
1B
100
AcDbEntity
 67
     1
  8
7_ALL_FEATURES
  6
Continuous
 62
     3
100
AcDbLine
 10
1234.2823320095
 20
378.3873314954
 30
0.0
 11
1109.2823320095
 21
378.3873314954
 31
0.0
  0
LINE
  5
529
330
1B
100
AcDbEntity
 67
     1
  8
7_ALL_FEATURES
  6
Continuous
 62
     3
100
AcDbLine
 10
1109.2823320095
 20
378.3873314954
 30
0.0
 11
1109.2823320095
 21
378.9873314954
 31
0.0
  0
LINE
  5
52A
330
1B
100
AcDbEntity
 67
     1
  8
7_ALL_FEATURES
  6
Continuous
 62
     3
100
AcDbLine
 10
1109.2823320095
 20
378.9873314954
 30
0.0
 11
1109.2823320095
 21
379.5873314954
 31
0.0
  0
LINE
  5
52B
330
1B
100
AcDbEntity
 67
     1
  8
7_ALL_FEATURES
  6
Continuous
 62
     3
100
AcDbLine
 10
1234.2823320095
 20
378.3873314954
 30
0.0
 11
1234.2823320095
 21
378.9873314954
 31
0.0
  0
LINE
  5
52C
330
1B
100
AcDbEntity
 67
     1
  8
7_ALL_FEATURES
  6
Continuous
 62
     3
100
AcDbLine
 10
1234.2823320095
 20
378.9873314954
 30
0.0
 11
1234.2823320095
 21
379.5873314954
 31
0.0
  0
LINE
  5
52D
330
1B
100
AcDbEntity
 67
     1
  8
7_ALL_FEATURES
  6
Continuous
 62
     3
100
AcDbLine
 10
1109.2823320095
 20
423.2873314954
 30
0.0
 11
1109.2823320095
 21
422.6873314954
 31
0.0
  0
LINE
  5
52E
330
1B
100
AcDbEntity
 67
     1
  8
7_ALL_FEATURES
  6
Continuous
 62
     3
100
AcDbLine
 10
1234.2823320095
 20
423.2873314954
 30
0.0
 11
1234.2823320095
 21
422.6873314954
 31
0.0
  0
LINE
  5
52F
330
1B
100
AcDbEntity
 67
     1
  8
7_ALL_FEATURES
  6
Continuous
 62
     3
100
AcDbLine
 10
1109.2823320095
 20
423.2873314954
 30
0.0
 11
1109.2823320095
 21
424.0873314954
 31
0.0
  0
LINE
  5
530
330
1B
100
AcDbEntity
 67
     1
  8
7_ALL_FEATURES
  6
Continuous
 62
     3
100
AcDbLine
 10
1234.2823320095
 20
424.0873314954
 30
0.0
 11
1234.2823320095
 21
423.2873314954
 31
0.0
  0
LINE
  5
531
330
1B
100
AcDbEntity
 67
     1
  8
7_ALL_FEATURES
  6
Continuous
 62
     3
100
AcDbLine
 10
1109.2823320095
 20
376.9873314954
 30
0.0
 11
1121.2823320095
 21
353.9873314954
 31
0.0
  0
LINE
  5
532
330
1B
100
AcDbEntity
 67
     1
  8
7_ALL_FEATURES
  6
Continuous
 62
     3
100
AcDbLine
 10
1109.2823320095
 20
376.9873314954
 30
0.0
 11
1109.2823320095
 21
377.7873314954
 31
0.0
  0
LINE
  5
533
330
1B
100
AcDbEntity
 67
     1
  8
7_ALL_FEATURES
  6
Continuous
 62
     3
100
AcDbLine
 10
1234.2823320095
 20
377.7873314954
 30
0.0
 11
1234.2823320095
 21
376.9873314954
 31
0.0
  0
LINE
  5
534
330
1B
100
AcDbEntity
 67
     1
  8
7_ALL_FEATURES
  6
Continuous
 62
     3
100
AcDbLine
 10
1222.2823320095
 20
353.9873314954
 30
0.0
 11
1234.2823320095
 21
376.9873314954
 31
0.0
  0
LINE
  5
535
330
1B
100
AcDbEntity
 67
     1
  8
7_ALL_FEATURES
  6
Continuous
 62
     3
100
AcDbLine
 10
1222.2823320095
 20
353.9873314954
 30
0.0
 11
1121.2823320095
 21
353.9873314954
 31
0.0
  0
LINE
  5
536
330
1B
100
AcDbEntity
 67
     1
  8
7_ALL_FEATURES
  6
Continuous
 62
     3
100
AcDbLine
 10
1109.2823320095
 20
377.7873314954
 30
0.0
 11
1109.2823320095
 21
378.3873314954
 31
0.0
  0
LINE
  5
537
330
1B
100
AcDbEntity
 67
     1
  8
7_ALL_FEATURES
  6
Continuous
 62
     3
100
AcDbLine
 10
1234.2823320095
 20
377.7873314954
 30
0.0
 11
1234.2823320095
 21
378.3873314954
 31
0.0
  0
LINE
  5
538
330
1B
100
AcDbEntity
 67
     1
  8
7_ALL_FEATURES
  6
Continuous
 62
     3
100
AcDbLine
 10
1109.2823320095
 20
421.4873314954
 30
0.0
 11
1109.2823320095
 21
379.5873314954
 31
0.0
  0
LINE
  5
539
330
1B
100
AcDbEntity
 67
     1
  8
7_ALL_FEATURES
  6
Continuous
 62
     3
100
AcDbLine
 10
1234.2823320095
 20
424.0873314954
 30
0.0
 11
1222.2823320095
 21
447.0873314954
 31
0.0
  0
LINE
  5
53A
330
1B
100
AcDbEntity
 67
     1
  8
7_ALL_FEATURES
  6
Continuous
 62
     3
100
AcDbLine
 10
1121.2823320095
 20
447.0873314954
 30
0.0
 11
1222.2823320095
 21
447.0873314954
 31
0.0
  0
LINE
  5
53B
330
1B
100
AcDbEntity
 67
     1
  8
7_ALL_FEATURES
  6
Continuous
 62
     3
100
AcDbLine
 10
1234.2823320095
 20
421.4873314954
 30
0.0
 11
1234.2823320095
 21
379.5873314954
 31
0.0
  0
LINE
  5
53C
330
1B
100
AcDbEntity
 67
     1
  8
7_ALL_FEATURES
  6
Continuous
 62
     3
100
AcDbLine
 10
1121.2823320095
 20
447.0873314954
 30
0.0
 11
1109.2823320095
 21
424.0873314954
 31
0.0
  0
LINE
  5
53D
330
1B
100
AcDbEntity
 67
     1
  8
7_ALL_FEATURES
  6
Continuous
 62
     3
100
AcDbLine
 10
1109.2823320095
 20
422.6873314954
 30
0.0
 11
1109.2823320095
 21
422.0873314954
 31
0.0
  0
LINE
  5
53E
330
1B
100
AcDbEntity
 67
     1
  8
7_ALL_FEATURES
  6
Continuous
 62
     3
100
AcDbLine
 10
1109.2823320095
 20
422.0873314954
 30
0.0
 11
1109.2823320095
 21
421.4873314954
 31
0.0
  0
LINE
  5
53F
330
1B
100
AcDbEntity
 67
     1
  8
7_ALL_FEATURES
  6
Continuous
 62
     3
100
AcDbLine
 10
1234.2823320095
 20
422.6873314954
 30
0.0
 11
1234.2823320095
 21
422.0873314954
 31
0.0
  0
LINE
  5
540
330
1B
100
AcDbEntity
 67
     1
  8
7_ALL_FEATURES
  6
Continuous
 62
     3
100
AcDbLine
 10
1234.2823320095
 20
422.0873314954
 30
0.0
 11
1234.2823320095
 21
421.4873314954
 31
0.0
  0
LINE
  5
541
330
1B
100
AcDbEntity
 67
     1
  8
7_ALL_FEATURES
  6
Continuous
 62
     3
100
AcDbLine
 10
1109.2823320095
 20
422.6873314954
 30
0.0
 11
1234.2823320095
 21
422.6873314954
 31
0.0
  0
LINE
  5
542
330
1B
100
AcDbEntity
 67
     1
  8
7_ALL_FEATURES
  6
Continuous
 62
     9
100
AcDbLine
 10
1109.2823320095
 20
377.7873314954
 30
0.0
 11
1234.2823320095
 21
377.7873314954
 31
0.0
  0
LINE
  5
543
330
1B
100
AcDbEntity
 67
     1
  8
7_ALL_FEATURES
  6
Continuous
 62
     9
100
AcDbLine
 10
1234.2823320095
 20
423.2873314954
 30
0.0
 11
1109.2823320095
 21
423.2873314954
 31
0.0
  0
LINE
  5
544
330
1B
100
AcDbEntity
 67
     1
  8
7_ALL_FEATURES
  6
Continuous
 62
     9
100
AcDbLine
 10
1234.2823320095
 20
379.5873314954
 30
0.0
 11
1109.2823320095
 21
379.5873314954
 31
0.0
  0
LINE
  5
545
330
1B
100
AcDbEntity
 67
     1
  8
7_ALL_FEATURES
  6
Continuous
 62
     9
100
AcDbLine
 10
1109.2823320095
 20
421.4873314954
 30
0.0
 11
1234.2823320095
 21
421.4873314954
 31
0.0
  0
DIMENSION
  5
546
330
1B
100
AcDbEntity
 67
     1
  8
0
  6
Continuous
 62
     2
100
AcDbDimension
280
     0
  2
*D1
 10
2601.7823320095
 20
772.3637961203
 30
0.0
 11
1840.8920898438
 21
772.3637961203
 31
0.0
 70
   160
 71
     5
 42
-1.0
 73
     0
 74
     0
 75
     0
  3
DIMSTYLE_1
100
AcDbAlignedDimension
 13
1079.7823320095
 23
745.3413855494
 33
0.0
 14
2601.7823320095
 24
745.3413855494
 34
0.0
100
AcDbRotatedDimension
  0
DIMENSION
  5
547
330
1B
100
AcDbEntity
 67
     1
  8
0
  6
Continuous
 62
     2
100
AcDbDimension
280
     0
  2
*D2
 10
2842.5566563338
 20
645.4636561086
 30
0.0
 11
2821.2802734375
 21
645.4636561086
 31
0.0
 70
   160
 71
     5
 42
-1.0
 73
     0
 74
     0
 75
     0
  3
DIMSTYLE_2
100
AcDbAlignedDimension
 13
2800.1566563338
 23
669.0297771051
 33
0.0
 14
2842.5566563338
 24
669.0297771051
 34
0.0
100
AcDbRotatedDimension
  0
DIMENSION
  5
548
330
1B
100
AcDbEntity
 67
     1
  8
0
  6
Continuous
 62
     2
100
AcDbDimension
280
     0
  2
*D3
 10
2879.0479586388
 20
746.3413855494
 30
0.0
 11
2879.0479586388
 21
704.5875312322
 31
0.0
 70
   160
 71
     5
 42
-1.0
 73
     0
 74
     0
 75
     0
  3
DIMSTYLE_2
100
AcDbAlignedDimension
 13
2841.3566563338
 23
662.8413855494
 33
0.0
 14
2841.3566563338
 24
746.3413855494
 34
0.0
 50
90.0
100
AcDbRotatedDimension
  0
DIMENSION
  5
549
330
1B
100
AcDbEntity
 67
     1
  8
0
  6
Continuous
 62
     2
100
AcDbDimension
280
     0
  2
*D4
 10
2759.7226123133
 20
746.9413855494
 30
0.0
 11
2759.7226123133
 21
711.6431509952
 31
0.0
 70
   160
 71
     5
 42
-1.0
 73
     0
 74
     0
 75
     0
  3
DIMSTYLE_2
100
AcDbAlignedDimension
 13
2774.8066563338
 23
676.3413855494
 33
0.0
 14
2800.4066563338
 24
746.9413855494
 34
0.0
 50
90.0
100
AcDbRotatedDimension
  0
DIMENSION
  5
54A
330
1B
100
AcDbEntity
 67
     1
  8
0
  6
Continuous
 62
     2
100
AcDbDimension
280
     0
  2
*D5
 10
2652.6283464263
 20
447.0873314954
 30
0.0
 11
2652.6283464263
 21
400.2379526719
 31
0.0
 70
   160
 71
     5
 42
-1.0
 73
     0
 74
     0
 75
     0
  3
DIMSTYLE_2
100
AcDbAlignedDimension
 13
2502.2823320095
 23
353.9873314954
 33
0.0
 14
2502.2823320095
 24
447.0873314954
 34
0.0
 50
90.0
100
AcDbRotatedDimension
  0
LINE
  5
54B
330
1B
100
AcDbEntity
 67
     1
  8
0
  6
Continuous
 62
     2
100
AcDbLine
 10
3066.88343249
 20
69.0016383976
 30
0.0
 11
3196.88343249
 21
69.0016383976
 31
0.0
  0
LINE
  5
54C
330
1B
100
AcDbEntity
 67
     1
  8
0
  6
Continuous
 62
     2
100
AcDbLine
 10
3066.88343249
 20
69.0016383976
 30
0.0
 11
3066.88343249
 21
3.0016383976
 31
0.0
  0
LINE
  5
54D
330
1B
100
AcDbEntity
 67
     1
  8
0
  6
Continuous
 62
     2
100
AcDbLine
 10
3096.88343249
 20
61.0016383976
 30
0.0
 11
3196.88343249
 21
61.0016383976
 31
0.0
  0
LINE
  5
54E
330
1B
100
AcDbEntity
 67
     1
  8
0
  6
Continuous
 62
     2
100
AcDbLine
 10
3066.88343249
 20
53.0016383976
 30
0.0
 11
3196.88343249
 21
53.0016383976
 31
0.0
  0
LINE
  5
54F
330
1B
100
AcDbEntity
 67
     1
  8
0
  6
Continuous
 62
     2
100
AcDbLine
 10
3096.88343249
 20
47.0016383976
 30
0.0
 11
3196.88343249
 21
47.0016383976
 31
0.0
  0
LINE
  5
550
330
1B
100
AcDbEntity
 67
     1
  8
0
  6
Continuous
 62
     2
100
AcDbLine
 10
3096.88343249
 20
41.0016383976
 30
0.0
 11
3196.88343249
 21
41.0016383976
 31
0.0
  0
LINE
  5
551
330
1B
100
AcDbEntity
 67
     1
  8
0
  6
Continuous
 62
     2
100
AcDbLine
 10
3096.88343249
 20
35.0016383976
 30
0.0
 11
3196.88343249
 21
35.0016383976
 31
0.0
  0
LINE
  5
552
330
1B
100
AcDbEntity
 67
     1
  8
0
  6
Continuous
 62
     2
100
AcDbLine
 10
3096.88343249
 20
29.0016383976
 30
0.0
 11
3196.88343249
 21
29.0016383976
 31
0.0
  0
LINE
  5
553
330
1B
100
AcDbEntity
 67
     1
  8
0
  6
Continuous
 62
     2
100
AcDbLine
 10
3096.88343249
 20
23.0016383976
 30
0.0
 11
3196.88343249
 21
23.0016383976
 31
0.0
  0
LINE
  5
554
330
1B
100
AcDbEntity
 67
     1
  8
0
  6
Continuous
 62
     2
100
AcDbLine
 10
3066.88343249
 20
17.0016383976
 30
0.0
 11
3196.88343249
 21
17.0016383976
 31
0.0
  0
LINE
  5
555
330
1B
100
AcDbEntity
 67
     1
  8
0
  6
Continuous
 62
     2
100
AcDbLine
 10
3066.88343249
 20
11.0016383976
 30
0.0
 11
3196.88343249
 21
11.0016383976
 31
0.0
  0
LINE
  5
556
330
1B
100
AcDbEntity
 67
     1
  8
0
  6
Continuous
 62
     2
100
AcDbLine
 10
3066.88343249
 20
7.0016383976
 30
0.0
 11
3196.88343249
 21
7.0016383976
 31
0.0
  0
LINE
  5
557
330
1B
100
AcDbEntity
 67
     1
  8
0
  6
Continuous
 62
     2
100
AcDbLine
 10
3066.88343249
 20
3.0016383976
 30
0.0
 11
3196.88343249
 21
3.0016383976
 31
0.0
  0
LINE
  5
558
330
1B
100
AcDbEntity
 67
     1
  8
0
  6
Continuous
 62
     2
100
AcDbLine
 10
3096.88343249
 20
69.0016383976
 30
0.0
 11
3096.88343249
 21
11.0016383976
 31
0.0
  0
LINE
  5
559
330
1B
100
AcDbEntity
 67
     1
  8
0
  6
Continuous
 62
     2
100
AcDbLine
 10
3116.88343249
 20
53.0016383976
 30
0.0
 11
3116.88343249
 21
47.0016383976
 31
0.0
  0
LINE
  5
55A
330
1B
100
AcDbEntity
 67
     1
  8
0
  6
Continuous
 62
     2
100
AcDbLine
 10
3146.88343249
 20
23.0016383976
 30
0.0
 11
3146.88343249
 21
11.0016383976
 31
0.0
  0
LINE
  5
55B
330
1B
100
AcDbEntity
 67
     1
  8
0
  6
Continuous
 62
     2
100
AcDbLine
 10
3156.88343249
 20
53.0016383976
 30
0.0
 11
3156.88343249
 21
47.0016383976
 31
0.0
  0
LINE
  5
55C
330
1B
100
AcDbEntity
 67
     1
  8
0
  6
Continuous
 62
     2
100
AcDbLine
 10
3156.88343249
 20
41.0016383976
 30
0.0
 11
3156.88343249
 21
35.0016383976
 31
0.0
  0
LINE
  5
55D
330
1B
100
AcDbEntity
 67
     1
  8
0
  6
Continuous
 62
     2
100
AcDbLine
 10
3176.88343249
 20
53.0016383976
 30
0.0
 11
3176.88343249
 21
47.0016383976
 31
0.0
  0
LINE
  5
55E
330
1B
100
AcDbEntity
 67
     1
  8
0
  6
Continuous
 62
     2
100
AcDbLine
 10
3186.88343249
 20
41.0016383976
 30
0.0
 11
3186.88343249
 21
35.0016383976
 31
0.0
  0
LINE
  5
55F
330
1B
100
AcDbEntity
 67
     1
  8
0
  6
Continuous
 62
     2
100
AcDbLine
 10
3196.88343249
 20
69.0016383976
 30
0.0
 11
3196.88343249
 21
3.0016383976
 31
0.0
  0
INSERT
  5
560
330
1B
100
AcDbEntity
 67
     1
  8
0
  6
Continuous
 62
     2
100
AcDbBlockReference
  2
PROIEZIONE_EU_BL0
 10
3081.88343249
 20
60.6266383976
 30
0.0
  0
MTEXT
  5
561
330
1B
100
AcDbEntity
 67
     1
  8
9_SOLID
  6
Continuous
 62
     2
100
AcDbMText
 10
3098.37093249
 20
67.3766383976
 30
0.0
 40
1.9
 41
142.3642857143
 46
0.0
 71
     1
 72
     1
  1
EN: Chamfer/radii unlisted 0.3x45°. Remove sharp edges.\PGen. tol.: hole H11, shaft h11, lenght Js12. UNI EN 22768 Medium Grande.
  7
TEXTSTYLE_3
 73
     1
 44
1.0
  0
MTEXT
  5
562
330
1B
100
AcDbEntity
 67
     1
  8
9_SOLID
  6
Continuous
 62
     2
100
AcDbMText
 10
3098.37093249
 20
59.3766383976
 30
0.0
 40
1.9
 41
148.2678571429
 46
0.0
 71
     1
 72
     1
  1
IT: Sm./rac. non quotati 0.3x45°. Eliminare spigoli taglienti.\PToll. gen.: foro H11, albero h11, lunghezza Js12. UNI EN 22768 Grado Medio.
  7
TEXTSTYLE_3
 73
     1
 44
1.0
  0
INSERT
  5
563
330
1B
100
AcDbEntity
 67
     1
  8
0
  6
Continuous
 62
     2
100
AcDbBlockReference
  2
LOGO2_BL1
 10
3080.7094795348
 20
35.0016383976
 30
0.0
  0
MTEXT
  5
564
330
1B
100
AcDbEntity
 67
     1
  8
9_SOLID
  6
Continuous
 62
     2
100
AcDbMText
 10
3098.37093249
 20
51.2516383976
 30
0.0
 40
3.0
 41
21.75
 46
0.0
 71
     1
 72
     1
  1
Pj: 565
  7
TEXTSTYLE_3
 73
     1
 44
1.0
  0
MTEXT
  5
565
330
1B
100
AcDbEntity
 67
     1
  8
9_SOLID
  6
Continuous
 62
     2
100
AcDbMText
 10
3118.37093249
 20
51.2516383976
 30
0.0
 40
3.0
 41
38.0357142857
 46
0.0
 71
     1
 72
     1
  1
% Check: %
  7
TEXTSTYLE_3
 73
     1
 44
1.0
  0
MTEXT
  5
566
330
1B
100
AcDbEntity
 67
     1
  8
9_SOLID
  6
Continuous
 62
     2
100
AcDbMText
 10
3158.37093249
 20
51.2516383976
 30
0.0
 40
3.0
 41
19.5
 46
0.0
 71
     1
 72
     1
  1
Rev:00
  7
TEXTSTYLE_3
 73
     1
 44
1.0
  0
MTEXT
  5
567
330
1B
100
AcDbEntity
 67
     1
  8
9_SOLID
  6
Continuous
 62
     2
100
AcDbMText
 10
3178.37093249
 20
51.5016383976
 30
0.0
 40
3.0
 41
19.7142857143
 46
0.0
 71
     1
 72
     1
  1
Ver: A
  7
TEXTSTYLE_3
 73
     1
 44
1.0
  0
MTEXT
  5
568
330
1B
100
AcDbEntity
 67
     1
  8
9_SOLID
  6
Continuous
 62
     2
100
AcDbMText
 10
3098.37093249
 20
45.2516383976
 30
0.0
 40
3.0
 41
74.0357142857
 46
0.0
 71
     1
 72
     1
  1
Neutral code: 565_C_705
  7
TEXTSTYLE_3
 73
     1
 44
1.0
  0
MTEXT
  5
569
330
1B
100
AcDbEntity
 67
     1
  8
9_SOLID
  6
Continuous
 62
     2
100
AcDbMText
 10
3098.37093249
 20
39.2516383976
 30
0.0
 40
3.0
 41
19.3928571429
 46
0.0
 71
     1
 72
     1
  1
Code: 
  7
TEXTSTYLE_3
 73
     1
 44
1.0
  0
MTEXT
  5
56A
330
1B
100
AcDbEntity
 67
     1
  8
9_SOLID
  6
Continuous
 62
     2
100
AcDbMText
 10
3158.37093249
 20
39.5016383976
 30
0.0
 40
3.0
 41
27.8571428571
 46
0.0
 71
     1
 72
     1
  1
Scale: 1:1
  7
TEXTSTYLE_3
 73
     1
 44
1.0
  0
MTEXT
  5
56B
330
1B
100
AcDbEntity
 67
     1
  8
9_SOLID
  6
Continuous
 62
     2
100
AcDbMText
 10
3191.88343249
 20
39.5016383976
 30
0.0
 40
3.0
 41
41.5714285714
 46
0.0
 71
     2
 72
     1
  1
3200 by 2500
  7
TEXTSTYLE_3
 73
     1
 44
1.0
  0
MTEXT
  5
56C
330
1B
100
AcDbEntity
 67
     1
  8
9_SOLID
  6
Continuous
 62
     2
100
AcDbMText
 10
3098.37093249
 20
33.4016383976
 30
0.0
 40
2.8
 41
144.8
 46
0.0
 71
     1
 72
     1
  1
It descr.: CASSAFORMA CART. NEVA1.2 1522mm ALL
  7
TEXTSTYLE_3
 73
     1
 44
1.0
  0
MTEXT
  5
56D
330
1B
100
AcDbEntity
 67
     1
  8
9_SOLID
  6
Continuous
 62
     2
100
AcDbMText
 10
3098.37093249
 20
27.5016383976
 30
0.0
 40
3.0
 41
33.9642857143
 46
0.0
 71
     1
 72
     1
  1
En descr.: 
  7
TEXTSTYLE_3
 73
     1
 44
1.0
  0
MTEXT
  5
56E
330
1B
100
AcDbEntity
 67
     1
  8
9_SOLID
  6
Continuous
 62
     2
100
AcDbMText
 10
3098.37093249
 20
21.5016383976
 30
0.0
 40
3.0
 41
31.2857142857
 46
0.0
 71
     1
 72
     1
  1
Des.: S.Z.
  7
TEXTSTYLE_3
 73
     1
 44
1.0
  0
MTEXT
  5
56F
330
1B
100
AcDbEntity
 67
     1
  8
9_SOLID
  6
Continuous
 62
     2
100
AcDbMText
 10
3148.37093249
 20
21.5016383976
 30
0.0
 40
3.0
 41
34.8214285714
 46
0.0
 71
     1
 72
     1
  1
Check: A.P.
  7
TEXTSTYLE_3
 73
     1
 44
1.0
  0
MTEXT
  5
570
330
1B
100
AcDbEntity
 67
     1
  8
9_SOLID
  6
Continuous
 62
     2
100
AcDbMText
 10
3068.37093249
 20
15.5016383976
 30
0.0
 40
3.0
 41
43.1785714286
 46
0.0
 71
     1
 72
     1
  1
Date: 05.12.18
  7
TEXTSTYLE_3
 73
     1
 44
1.0
  0
MTEXT
  5
571
330
1B
100
AcDbEntity
 67
     1
  8
9_SOLID
  6
Continuous
 62
     2
100
AcDbMText
 10
3098.37093249
 20
15.5016383976
 30
0.0
 40
3.0
 41
18.2142857143
 46
0.0
 71
     1
 72
     1
  1
Mat.: 
  7
TEXTSTYLE_3
 73
     1
 44
1.0
  0
MTEXT
  5
572
330
1B
100
AcDbEntity
 67
     1
  8
9_SOLID
  6
Continuous
 62
     2
100
AcDbMText
 10
3148.37093249
 20
15.0016383976
 30
0.0
 40
2.0
 41
42.3571428571
 46
0.0
 71
     1
 72
     1
  1
Disegno per catalogo
  7
TEXTSTYLE_3
 73
     1
 44
1.0
  0
MTEXT
  5
573
330
1B
100
AcDbEntity
 67
     1
  8
9_SOLID
  6
Continuous
 62
     2
100
AcDbMText
 10
3068.37093249
 20
9.9016383976
 30
0.0
 40
1.8
 41
176.2071428571
 46
0.0
 71
     1
 72
     1
  1
It: A norma di legge si diffida da qualsiasi riproduzione senza nostra autorizzazione esplicita.
  7
TEXTSTYLE_3
 73
     1
 44
1.0
  0
MTEXT
  5
574
330
1B
100
AcDbEntity
 67
     1
  8
9_SOLID
  6
Continuous
 62
     2
100
AcDbMText
 10
3068.37093249
 20
5.9016383976
 30
0.0
 40
1.8
 41
158.1428571429
 46
0.0
 71
     1
 72
     1
  1
En: According to the law, beware of any reproduction made without our authorization.
  7
TEXTSTYLE_3
 73
     1
 44
1.0
  0
ENDSEC
  0
SECTION
  2
OBJECTS
  0
DICTIONARY
  5
575
330
0
100
AcDbDictionary
281
     1
  3
ACAD_DETAILVIEWSTYLE
350
5CB
  3
ACAD_GROUP
350
576
  3
ACAD_LAYOUT
350
59E
  3
ACAD_MATERIAL
350
5BA
  3
ACAD_MLEADERSTYLE
350
5C0
  3
ACAD_MLINESTYLE
350
577
  3
ACAD_PLOTSETTINGS
350
579
  3
ACAD_PLOTSTYLENAME
350
57A
  3
ACAD_SCALELIST
350
57C
  3
ACAD_SECTIONVIEWSTYLE
350
5CC
  3
ACAD_TABLESTYLE
350
5BE
  3
ACAD_VISUALSTYLE
350
5A1
  3
ACDB_RECOMPOSE_DATA
350
5C7
  3
AcDbVariableDictionary
350
5C3
  3
APPDATA
350
5C2
  0
DICTIONARY
  5
5CB
102
{ACAD_REACTORS
330
575
102
}
330
575
100
AcDbDictionary
281
     1
  0
DICTIONARY
  5
576
102
{ACAD_REACTORS
330
575
102
}
330
575
100
AcDbDictionary
281
     1
  0
DICTIONARY
  5
59E
102
{ACAD_REACTORS
330
575
102
}
330
575
100
AcDbDictionary
281
     1
  3
Foglio 1
350
5A0
  3
Model
350
59F
  0
DICTIONARY
  5
5BA
102
{ACAD_REACTORS
330
575
102
}
330
575
100
AcDbDictionary
281
     1
  3
ByBlock
350
5BC
  3
ByLayer
350
5BB
  3
Global
350
5BD
  0
DICTIONARY
  5
5C0
102
{ACAD_REACTORS
330
575
102
}
330
575
100
AcDbDictionary
281
     1
  3
Standard
350
5C1
  0
DICTIONARY
  5
577
102
{ACAD_REACTORS
330
575
102
}
330
575
100
AcDbDictionary
281
     1
  3
STANDARD
350
578
  0
DICTIONARY
  5
579
102
{ACAD_REACTORS
330
575
102
}
330
575
100
AcDbDictionary
281
     1
  0
ACDBDICTIONARYWDFLT
  5
57A
102
{ACAD_REACTORS
330
575
102
}
330
575
100
AcDbDictionary
281
     1
  3
Normal
350
57B
100
AcDbDictionaryWithDefault
340
57B
  0
DICTIONARY
  5
57C
102
{ACAD_REACTORS
330
575
102
}
330
575
100
AcDbDictionary
281
     1
  3
A0
350
57D
  3
A1
350
57E
  3
A2
350
57F
  3
A3
350
580
  3
A4
350
581
  3
A5
350
582
  3
A6
350
583
  3
A7
350
584
  3
A8
350
585
  3
A9
350
586
  3
B0
350
587
  3
B1
350
588
  3
B2
350
589
  3
B3
350
58A
  3
B4
350
58B
  3
B5
350
58C
  3
B6
350
58D
  3
B7
350
58E
  3
B8
350
58F
  3
B9
350
590
  3
C0
350
591
  3
C1
350
592
  3
C2
350
593
  3
C3
350
594
  3
C4
350
595
  3
C5
350
596
  3
C6
350
597
  3
C7
350
598
  3
C8
350
599
  3
C9
350
59A
  3
D0
350
59B
  3
D1
350
59C
  3
D2
350
59D
  0
DICTIONARY
  5
5CC
102
{ACAD_REACTORS
330
575
102
}
330
575
100
AcDbDictionary
281
     1
  0
DICTIONARY
  5
5BE
102
{ACAD_REACTORS
330
575
102
}
330
575
100
AcDbDictionary
281
     1
  3
Standard
350
5BF
  0
DICTIONARY
  5
5A1
102
{ACAD_REACTORS
330
575
102
}
330
575
100
AcDbDictionary
281
     1
  3
2dWireframe
350
5A6
  3
Basic
350
5A9
  3
Brighten
350
5AD
  3
ColorChange
350
5B1
  3
Conceptual
350
5AB
  3
Dim
350
5AC
  3
EdgeColorOff
350
5B4
  3
Facepattern
350
5B0
  3
Flat
350
5A2
  3
FlatWithEdges
350
5A3
  3
Gouraud
350
5A4
  3
GouraudWithEdges
350
5A5
  3
Hidden
350
5A8
  3
JitterOff
350
5B2
  3
Linepattern
350
5AF
  3
OverhangOff
350
5B3
  3
Realistic
350
5AA
  3
Shaded
350
5B9
  3
Shaded with edges
350
5B8
  3
Shades of Gray
350
5B5
  3
Sketchy
350
5B6
  3
Thicken
350
5AE
  3
Wireframe
350
5A7
  3
X-Ray
350
5B7
  0
XRECORD
  5
5C7
102
{ACAD_REACTORS
330
575
102
}
330
575
100
AcDbXrecord
280
     1
 90
        1
330
5BF
  0
DICTIONARY
  5
5C3
102
{ACAD_REACTORS
330
575
102
}
330
575
100
AcDbDictionary
281
     1
  3
CANNOSCALE
350
5C4
  3
CMLEADERSTYLE
350
5C9
  3
CTABLESTYLE
350
5C8
  3
MSLTSCALE
350
5CA
  0
DICTIONARY
  5
5C2
102
{ACAD_REACTORS
330
575
102
}
330
575
100
AcDbDictionary
281
     1
  0
LAYOUT
  5
5A0
102
{ACAD_REACTORS
330
59E
102
}
330
59E
100
AcDbPlotSettings
  1

  2
none_device
  4
ISO_A3_(420.00_x_297.00_MM)
  6

 40
7.5
 41
20.0
 42
7.5
 43
20.0
 44
420.0
 45
297.0
 46
0.0
 47
0.0
 48
0.0
 49
0.0
140
0.0
141
0.0
142
1.0
143
9.727626459143968
 70
   688
 72
     1
 73
     0
 74
     1
  7

 75
     0
 76
     0
 77
     2
 78
   300
147
0.1028
148
0.0
149
0.0
100
AcDbLayout
  1
Foglio 1
 70
     1
 71
     1
 10
0.0
 20
0.0
 11
412.5
 21
277.0
 12
0.0
 22
0.0
 32
0.0
 14
0.0
 24
0.0
 34
0.0
 15
3205.90843249
 25
2500.0
 35
0.0
146
0.0
 13
0.0
 23
0.0
 33
0.0
 16
1.0
 26
0.0
 36
0.0
 17
0.0
 27
1.0
 37
0.0
 76
     0
330
1B
331
2AD
  0
LAYOUT
  5
59F
102
{ACAD_REACTORS
330
59E
102
}
330
59E
100
AcDbPlotSettings
  1

  2
none_device
  4
Letter_(8.50_x_11.00_Inches)
  6

 40
6.35
 41
6.35
 42
6.35
 43
6.35
 44
215.9
 45
279.4
 46
0.0
 47
0.0
 48
0.0
 49
0.0
140
0.0
141
0.0
142
1.0
143
400.0
 70
  1712
 72
     0
 73
     0
 74
     0
  7

 75
     0
 76
     0
 77
     2
 78
   300
147
0.0025
148
0.0
149
0.0
100
AcDbLayout
  1
Model
 70
     1
 71
     0
 10
0.0
 20
0.0
 11
3200.0
 21
2500.0
 12
0.0
 22
0.0
 32
0.0
 14
0.0
 24
0.0
 34
0.0
 15
3200.0
 25
2500.0
 35
0.0
146
0.0
 13
0.0
 23
0.0
 33
0.0
 16
1.0
 26
0.0
 36
0.0
 17
0.0
 27
1.0
 37
0.0
 76
     0
330
1F
331
1F4
  0
MATERIAL
  5
5BC
102
{ACAD_REACTORS
330
5BA
102
}
330
5BA
100
AcDbMaterial
  1
ByBlock
 72
     1
 94
      127
  0
MATERIAL
  5
5BB
102
{ACAD_REACTORS
330
5BA
102
}
330
5BA
100
AcDbMaterial
  1
ByLayer
 72
     1
 94
      127
  0
MATERIAL
  5
5BD
102
{ACAD_REACTORS
330
5BA
102
}
330
5BA
100
AcDbMaterial
  1
Global
 72
     1
 94
      127
  0
MLEADERSTYLE
  5
5C1
102
{ACAD_REACTORS
330
5C0
102
}
330
5C0
100
AcDbMLeaderStyle
179
     2
170
     2
171
     1
172
     0
 90
        2
 40
0.0
 41
0.0
173
     1
 91
-1056964608
340
14
 92
       -2
290
     1
 42
2.0
291
     1
 43
8.0
  3
Standard
341
0
 44
4.0
300

342
11
174
     1
178
     1
175
     1
176
     0
 93
-1056964608
 45
4.0
292
     0
297
     0
 46
4.0
343
0
 94
-1056964608
 47
1.0
 49
1.0
140
1.0
293
     1
141
0.0
294
     1
177
     0
142
1.0
295
     0
296
     0
143
3.75
271
     0
272
     9
273
     9
298
     0
  0
MLINESTYLE
  5
578
102
{ACAD_REACTORS
330
577
102
}
330
577
100
AcDbMlineStyle
  2
STANDARD
 70
     0
  3

 62
   256
 51
90.0
 52
90.0
 71
     2
 49
0.5
 62
   256
  6
BYLAYER
 49
-0.5
 62
   256
  6
BYLAYER
  0
ACDBPLACEHOLDER
  5
57B
102
{ACAD_REACTORS
330
57A
102
}
330
57A
  0
SCALE
  5
57D
102
{ACAD_REACTORS
330
57C
102
}
330
57C
100
AcDbScale
 70
     0
300
1:1
140
1.0
141
1.0
290
     1
  0
SCALE
  5
57E
102
{ACAD_REACTORS
330
57C
102
}
330
57C
100
AcDbScale
 70
     0
300
1:2
140
1.0
141
2.0
290
     0
  0
SCALE
  5
57F
102
{ACAD_REACTORS
330
57C
102
}
330
57C
100
AcDbScale
 70
     0
300
1:4
140
1.0
141
4.0
290
     0
  0
SCALE
  5
580
102
{ACAD_REACTORS
330
57C
102
}
330
57C
100
AcDbScale
 70
     0
300
1:5
140
1.0
141
5.0
290
     0
  0
SCALE
  5
581
102
{ACAD_REACTORS
330
57C
102
}
330
57C
100
AcDbScale
 70
     0
300
1:8
140
1.0
141
8.0
290
     0
  0
SCALE
  5
582
102
{ACAD_REACTORS
330
57C
102
}
330
57C
100
AcDbScale
 70
     0
300
1:10
140
1.0
141
10.0
290
     0
  0
SCALE
  5
583
102
{ACAD_REACTORS
330
57C
102
}
330
57C
100
AcDbScale
 70
     0
300
1:16
140
1.0
141
16.0
290
     0
  0
SCALE
  5
584
102
{ACAD_REACTORS
330
57C
102
}
330
57C
100
AcDbScale
 70
     0
300
1:20
140
1.0
141
20.0
290
     0
  0
SCALE
  5
585
102
{ACAD_REACTORS
330
57C
102
}
330
57C
100
AcDbScale
 70
     0
300
1:30
140
1.0
141
30.0
290
     0
  0
SCALE
  5
586
102
{ACAD_REACTORS
330
57C
102
}
330
57C
100
AcDbScale
 70
     0
300
1:40
140
1.0
141
40.0
290
     0
  0
SCALE
  5
587
102
{ACAD_REACTORS
330
57C
102
}
330
57C
100
AcDbScale
 70
     0
300
1:50
140
1.0
141
50.0
290
     0
  0
SCALE
  5
588
102
{ACAD_REACTORS
330
57C
102
}
330
57C
100
AcDbScale
 70
     0
300
1:100
140
1.0
141
100.0
290
     0
  0
SCALE
  5
589
102
{ACAD_REACTORS
330
57C
102
}
330
57C
100
AcDbScale
 70
     0
300
2:1
140
2.0
141
1.0
290
     0
  0
SCALE
  5
58A
102
{ACAD_REACTORS
330
57C
102
}
330
57C
100
AcDbScale
 70
     0
300
4:1
140
4.0
141
1.0
290
     0
  0
SCALE
  5
58B
102
{ACAD_REACTORS
330
57C
102
}
330
57C
100
AcDbScale
 70
     0
300
8:1
140
8.0
141
1.0
290
     0
  0
SCALE
  5
58C
102
{ACAD_REACTORS
330
57C
102
}
330
57C
100
AcDbScale
 70
     0
300
10:1
140
10.0
141
1.0
290
     0
  0
SCALE
  5
58D
102
{ACAD_REACTORS
330
57C
102
}
330
57C
100
AcDbScale
 70
     0
300
100:1
140
100.0
141
1.0
290
     0
  0
SCALE
  5
58E
102
{ACAD_REACTORS
330
57C
102
}
330
57C
100
AcDbScale
 70
     0
300
1/128" = 1'-0"
140
0.0078125
141
12.0
290
     0
  0
SCALE
  5
58F
102
{ACAD_REACTORS
330
57C
102
}
330
57C
100
AcDbScale
 70
     0
300
1/64" = 1'-0"
140
0.015625
141
12.0
290
     0
  0
SCALE
  5
590
102
{ACAD_REACTORS
330
57C
102
}
330
57C
100
AcDbScale
 70
     0
300
1/32" = 1'-0"
140
0.03125
141
12.0
290
     0
  0
SCALE
  5
591
102
{ACAD_REACTORS
330
57C
102
}
330
57C
100
AcDbScale
 70
     0
300
1/16" = 1'-0"
140
0.0625
141
12.0
290
     0
  0
SCALE
  5
592
102
{ACAD_REACTORS
330
57C
102
}
330
57C
100
AcDbScale
 70
     0
300
3/32" = 1'-0"
140
0.09375
141
12.0
290
     0
  0
SCALE
  5
593
102
{ACAD_REACTORS
330
57C
102
}
330
57C
100
AcDbScale
 70
     0
300
1/8" = 1'-0"
140
0.125
141
12.0
290
     0
  0
SCALE
  5
594
102
{ACAD_REACTORS
330
57C
102
}
330
57C
100
AcDbScale
 70
     0
300
3/16" = 1'-0"
140
0.1875
141
12.0
290
     0
  0
SCALE
  5
595
102
{ACAD_REACTORS
330
57C
102
}
330
57C
100
AcDbScale
 70
     0
300
1/4" = 1'-0"
140
0.25
141
12.0
290
     0
  0
SCALE
  5
596
102
{ACAD_REACTORS
330
57C
102
}
330
57C
100
AcDbScale
 70
     0
300
3/8" = 1'-0"
140
0.375
141
12.0
290
     0
  0
SCALE
  5
597
102
{ACAD_REACTORS
330
57C
102
}
330
57C
100
AcDbScale
 70
     0
300
1/2" = 1'-0"
140
0.5
141
12.0
290
     0
  0
SCALE
  5
598
102
{ACAD_REACTORS
330
57C
102
}
330
57C
100
AcDbScale
 70
     0
300
3/4" = 1'-0"
140
0.75
141
12.0
290
     0
  0
SCALE
  5
599
102
{ACAD_REACTORS
330
57C
102
}
330
57C
100
AcDbScale
 70
     0
300
1" = 1'-0"
140
1.0
141
12.0
290
     0
  0
SCALE
  5
59A
102
{ACAD_REACTORS
330
57C
102
}
330
57C
100
AcDbScale
 70
     0
300
1-1/2" = 1'-0"
140
1.5
141
12.0
290
     0
  0
SCALE
  5
59B
102
{ACAD_REACTORS
330
57C
102
}
330
57C
100
AcDbScale
 70
     0
300
3" = 1'-0"
140
3.0
141
12.0
290
     0
  0
SCALE
  5
59C
102
{ACAD_REACTORS
330
57C
102
}
330
57C
100
AcDbScale
 70
     0
300
6" = 1'-0"
140
6.0
141
12.0
290
     0
  0
SCALE
  5
59D
102
{ACAD_REACTORS
330
57C
102
}
330
57C
100
AcDbScale
 70
     0
300
1'-0" = 1'-0"
140
12.0
141
12.0
290
     0
  0
TABLESTYLE
  5
5BF
102
{ACAD_REACTORS
330
5BE
102
}
102
{ACAD_XDICTIONARY
360
5C5
102
}
330
5BE
100
AcDbTableStyle
  3
Standard
 70
     0
 71
     0
 40
0.06
 41
0.06
280
     0
281
     0
  7
STANDARD
140
4.5
170
     2
 62
     0
 63
   257
283
     0
 90
        4
 91
        0
  1

274
    -2
284
     1
 64
     0
275
    -2
285
     1
 65
     0
276
    -2
286
     1
 66
     0
277
    -2
287
     1
 67
     0
278
    -2
288
     1
 68
     0
279
    -2
289
     1
 69
     0
  7
STANDARD
140
6.0
170
     5
 62
     0
 63
   257
283
     0
 90
        4
 91
        0
  1

274
    -2
284
     1
 64
     0
275
    -2
285
     1
 65
     0
276
    -2
286
     1
 66
     0
277
    -2
287
     1
 67
     0
278
    -2
288
     1
 68
     0
279
    -2
289
     1
 69
     0
  7
STANDARD
140
4.5
170
     5
 62
     0
 63
   257
283
     0
 90
        4
 91
        0
  1

274
    -2
284
     1
 64
     0
275
    -2
285
     1
 65
     0
276
    -2
286
     1
 66
     0
277
    -2
287
     1
 67
     0
278
    -2
288
     1
 68
     0
279
    -2
289
     1
 69
     0
  0
VISUALSTYLE
  5
5A6
102
{ACAD_REACTORS
330
5A1
102
}
330
5A1
100
AcDbVisualStyle
  2
2dWireframe
 70
     4
177
     3
291
     0
 70
    58
 90
        0
176
     1
 90
        2
176
     1
 90
        0
176
     1
 90
        0
176
     1
 40
0.6
176
     1
 40
30.0
176
     1
 62
     7
420
 16777215
176
     1
 90
        1
176
     1
 90
        4
176
     1
 62
     7
176
     1
 62
   257
176
     1
 90
        1
176
     1
 90
        1
176
     1
 40
1.0
176
     1
 90
        0
176
     1
 62
   257
176
     1
 40
1.0
176
     1
 90
        1
176
     1
 90
        6
176
     1
 90
        2
176
     1
 62
     7
176
     1
 90
        5
176
     1
 90
        0
176
     1
 90
        0
176
     1
290
     0
176
     1
 90
        1
176
     1
 40
0.0
176
     1
 90
        0
176
     1
290
     1
176
     1
290
     1
176
     1
290
     0
176
     1
290
     0
176
     1
290
     0
176
     1
290
     0
176
     1
290
     0
176
     1
290
     0
176
     1
290
     0
176
     1
 90
       50
176
     1
 40
0.0
176
     1
 40
1.0
176
     1
 90
        0
176
     1
 62
    18
420
        0
176
     1
 90
       50
176
     1
 90
        3
176
     1
 62
     5
420
      255
176
     1
290
     0
176
     1
 90
       50
176
     1
 90
       50
176
     1
 90
       50
176
     1
290
     0
176
     1
 90
       50
176
     1
 62
   256
176
     0
 40
1.0
176
     0
 90
        2
176
     1
  1
strokes_ogs.tif
176
     1
290
     0
176
     1
 40
1.0
176
     1
 40
1.0
176
     1
  0
VISUALSTYLE
  5
5A9
102
{ACAD_REACTORS
330
5A1
102
}
330
5A1
100
AcDbVisualStyle
  2
Basic
 70
     7
177
     3
291
     1
 70
    58
 90
        1
176
     1
 90
        0
176
     1
 90
        1
176
     1
 90
        0
176
     1
 40
0.6
176
     1
 40
30.0
176
     1
 62
     7
420
 16777215
176
     1
 90
        0
176
     1
 90
        4
176
     1
 62
     7
176
     1
 62
   257
176
     1
 90
        1
176
     1
 90
        1
176
     1
 40
1.0
176
     1
 90
        8
176
     1
 62
     7
176
     1
 40
1.0
176
     1
 90
        1
176
     1
 90
        6
176
     1
 90
        2
176
     1
 62
     7
176
     1
 90
        5
176
     1
 90
        0
176
     1
 90
        0
176
     1
290
     0
176
     1
 90
        1
176
     1
 40
0.0
176
     1
 90
        0
176
     1
290
     0
176
     1
290
     1
176
     1
290
     1
176
     1
290
     0
176
     1
290
     0
176
     1
290
     0
176
     1
290
     0
176
     1
290
     0
176
     1
290
     0
176
     1
 90
       50
176
     1
 40
0.0
176
     1
 40
1.0
176
     1
 90
        0
176
     1
 62
    18
420
        0
176
     1
 90
       50
176
     1
 90
        3
176
     1
 62
     5
420
      255
176
     1
290
     0
176
     1
 90
       50
176
     1
 90
       50
176
     1
 90
       50
176
     1
290
     0
176
     1
 90
       50
176
     1
 62
   256
176
     0
 40
1.0
176
     0
 90
        2
176
     1
  1
strokes_ogs.tif
176
     1
290
     0
176
     1
 40
1.0
176
     1
 40
1.0
176
     1
  0
VISUALSTYLE
  5
5AD
102
{ACAD_REACTORS
330
5A1
102
}
330
5A1
100
AcDbVisualStyle
  2
Brighten
 70
    12
177
     3
291
     1
 70
    58
 90
        2
176
     1
 90
        2
176
     1
 90
        0
176
     1
 90
        0
176
     1
 40
0.6
176
     1
 40
30.0
176
     1
 62
     7
420
 16777215
176
     1
 90
        1
176
     1
 90
        4
176
     1
 62
     7
176
     1
 62
   257
176
     1
 90
        1
176
     1
 90
        1
176
     1
 40
1.0
176
     1
 90
        8
176
     1
 62
     7
176
     1
 40
1.0
176
     1
 90
        1
176
     1
 90
        6
176
     1
 90
        2
176
     1
 62
     7
176
     1
 90
        5
176
     1
 90
        0
176
     1
 90
        0
176
     1
290
     0
176
     1
 90
        1
176
     1
 40
50.0
176
     1
 90
        0
176
     1
290
     0
176
     1
290
     1
176
     1
290
     1
176
     1
290
     0
176
     1
290
     0
176
     1
290
     0
176
     1
290
     0
176
     1
290
     0
176
     1
290
     0
176
     1
 90
       50
176
     1
 40
0.0
176
     1
 40
1.0
176
     1
 90
        0
176
     1
 62
    18
420
        0
176
     1
 90
       50
176
     1
 90
        3
176
     1
 62
     5
420
      255
176
     1
290
     0
176
     1
 90
       50
176
     1
 90
       50
176
     1
 90
       50
176
     1
290
     0
176
     1
 90
       50
176
     1
 62
   256
176
     0
 40
1.0
176
     0
 90
        2
176
     1
  1
strokes_ogs.tif
176
     1
290
     0
176
     1
 40
1.0
176
     1
 40
1.0
176
     1
  0
VISUALSTYLE
  5
5B1
102
{ACAD_REACTORS
330
5A1
102
}
330
5A1
100
AcDbVisualStyle
  2
ColorChange
 70
    16
177
     3
291
     1
 70
    58
 90
        2
176
     1
 90
        2
176
     1
 90
        3
176
     1
 90
        0
176
     1
 40
0.6
176
     1
 40
30.0
176
     1
 62
     8
420
  8421504
176
     1
 90
        1
176
     1
 90
        4
176
     1
 62
     7
176
     1
 62
   257
176
     1
 90
        1
176
     1
 90
        1
176
     1
 40
1.0
176
     1
 90
        8
176
     1
 62
     8
420
  8421504
176
     1
 40
1.0
176
     1
 90
        1
176
     1
 90
        6
176
     1
 90
        2
176
     1
 62
     7
176
     1
 90
        5
176
     1
 90
        0
176
     1
 90
        0
176
     1
290
     0
176
     1
 90
        1
176
     1
 40
0.0
176
     1
 90
        0
176
     1
290
     0
176
     1
290
     1
176
     1
290
     1
176
     1
290
     0
176
     1
290
     0
176
     1
290
     0
176
     1
290
     0
176
     1
290
     0
176
     1
290
     0
176
     1
 90
       50
176
     1
 40
0.0
176
     1
 40
1.0
176
     1
 90
        0
176
     1
 62
    18
420
        0
176
     1
 90
       50
176
     1
 90
        3
176
     1
 62
     5
420
      255
176
     1
290
     0
176
     1
 90
       50
176
     1
 90
       50
176
     1
 90
       50
176
     1
290
     0
176
     1
 90
       50
176
     1
 62
   256
176
     0
 40
1.0
176
     0
 90
        2
176
     1
  1
strokes_ogs.tif
176
     1
290
     0
176
     1
 40
1.0
176
     1
 40
1.0
176
     1
  0
VISUALSTYLE
  5
5AB
102
{ACAD_REACTORS
330
5A1
102
}
330
5A1
100
AcDbVisualStyle
  2
Conceptual
 70
     9
177
     3
291
     0
 70
    58
 90
        3
176
     1
 90
        2
176
     1
 90
        0
176
     1
 90
        0
176
     1
 40
0.6
176
     1
 40
30.0
176
     1
 62
     7
420
 16777215
176
     1
 90
        2
176
     1
 90
        2
176
     1
 62
     7
176
     1
 62
   257
176
     1
 90
        1
176
     1
 90
        1
176
     1
 40
179.0
176
     1
 90
        8
176
     1
 62
     7
176
     1
 40
1.0
176
     1
 90
        1
176
     1
 90
        6
176
     1
 90
        2
176
     1
 62
     7
176
     1
 90
        3
176
     1
 90
        0
176
     1
 90
        0
176
     1
290
     0
176
     1
 90
        1
176
     1
 40
0.0
176
     1
 90
        0
176
     1
290
     0
176
     1
290
     1
176
     1
290
     1
176
     1
290
     0
176
     1
290
     0
176
     1
290
     0
176
     1
290
     0
176
     1
290
     0
176
     1
290
     0
176
     1
 90
       50
176
     1
 40
0.0
176
     1
 40
1.0
176
     1
 90
        0
176
     1
 62
    18
420
        0
176
     1
 90
       50
176
     1
 90
        3
176
     1
 62
     5
420
      255
176
     1
290
     0
176
     1
 90
       50
176
     1
 90
       50
176
     1
 90
       50
176
     1
290
     0
176
     1
 90
       50
176
     1
 62
   256
176
     0
 40
1.0
176
     0
 90
        2
176
     1
  1
strokes_ogs.tif
176
     1
290
     0
176
     1
 40
1.0
176
     1
 40
1.0
176
     1
  0
VISUALSTYLE
  5
5AC
102
{ACAD_REACTORS
330
5A1
102
}
330
5A1
100
AcDbVisualStyle
  2
Dim
 70
    11
177
     3
291
     1
 70
    58
 90
        2
176
     1
 90
        2
176
     1
 90
        0
176
     1
 90
        0
176
     1
 40
0.6
176
     1
 40
30.0
176
     1
 62
     7
420
 16777215
176
     1
 90
        1
176
     1
 90
        4
176
     1
 62
     7
176
     1
 62
   257
176
     1
 90
        1
176
     1
 90
        1
176
     1
 40
1.0
176
     1
 90
        8
176
     1
 62
     7
176
     1
 40
1.0
176
     1
 90
        1
176
     1
 90
        6
176
     1
 90
        2
176
     1
 62
     7
176
     1
 90
        5
176
     1
 90
        0
176
     1
 90
        0
176
     1
290
     0
176
     1
 90
        1
176
     1
 40
-50.0
176
     1
 90
        0
176
     1
290
     0
176
     1
290
     1
176
     1
290
     1
176
     1
290
     0
176
     1
290
     0
176
     1
290
     0
176
     1
290
     0
176
     1
290
     0
176
     1
290
     0
176
     1
 90
       50
176
     1
 40
0.0
176
     1
 40
1.0
176
     1
 90
        0
176
     1
 62
    18
420
        0
176
     1
 90
       50
176
     1
 90
        3
176
     1
 62
     5
420
      255
176
     1
290
     0
176
     1
 90
       50
176
     1
 90
       50
176
     1
 90
       50
176
     1
290
     0
176
     1
 90
       50
176
     1
 62
   256
176
     0
 40
1.0
176
     0
 90
        2
176
     1
  1
strokes_ogs.tif
176
     1
290
     0
176
     1
 40
1.0
176
     1
 40
1.0
176
     1
  0
VISUALSTYLE
  5
5B4
102
{ACAD_REACTORS
330
5A1
102
}
330
5A1
100
AcDbVisualStyle
  2
EdgeColorOff
 70
    22
177
     3
291
     1
 70
    58
 90
        2
176
     0
 90
        2
176
     0
 90
        0
176
     0
 90
        0
176
     0
 40
0.6
176
     0
 40
30.0
176
     0
 62
     7
420
 16777215
176
     0
 90
        1
176
     0
 90
        4
176
     0
 62
     7
176
     0
 62
   257
176
     0
 90
        1
176
     0
 90
        1
176
     0
 40
1.0
176
     0
 90
        8
176
     2
 62
     7
176
     0
 40
1.0
176
     0
 90
        1
176
     0
 90
        6
176
     0
 90
        2
176
     0
 62
     7
176
     0
 90
        5
176
     0
 90
        0
176
     0
 90
        0
176
     0
290
     0
176
     0
 90
        1
176
     0
 40
0.0
176
     0
 90
        0
176
     0
290
     0
176
     0
290
     1
176
     0
290
     1
176
     0
290
     0
176
     0
290
     0
176
     0
290
     0
176
     0
290
     0
176
     0
290
     0
176
     0
290
     0
176
     0
 90
       50
176
     0
 40
0.0
176
     0
 40
1.0
176
     0
 90
        0
176
     0
 62
    18
420
        0
176
     0
 90
       50
176
     0
 90
        3
176
     0
 62
     5
420
      255
176
     0
290
     0
176
     0
 90
       50
176
     0
 90
       50
176
     0
 90
       50
176
     0
290
     0
176
     0
 90
       50
176
     0
 62
   256
176
     0
 40
1.0
176
     0
 90
        2
176
     0
  1
strokes_ogs.tif
176
     0
290
     0
176
     0
 40
1.0
176
     0
 40
1.0
176
     0
  0
VISUALSTYLE
  5
5B0
102
{ACAD_REACTORS
330
5A1
102
}
330
5A1
100
AcDbVisualStyle
  2
Facepattern
 70
    15
177
     3
291
     1
 70
    58
 90
        2
176
     1
 90
        2
176
     1
 90
        0
176
     1
 90
        0
176
     1
 40
0.6
176
     1
 40
30.0
176
     1
 62
     7
420
 16777215
176
     1
 90
        1
176
     1
 90
        4
176
     1
 62
     7
176
     1
 62
   257
176
     1
 90
        1
176
     1
 90
        1
176
     1
 40
1.0
176
     1
 90
        8
176
     1
 62
     7
176
     1
 40
1.0
176
     1
 90
        1
176
     1
 90
        6
176
     1
 90
        2
176
     1
 62
     7
176
     1
 90
        5
176
     1
 90
        0
176
     1
 90
        0
176
     1
290
     0
176
     1
 90
        1
176
     1
 40
0.0
176
     1
 90
        0
176
     1
290
     0
176
     1
290
     1
176
     1
290
     1
176
     1
290
     0
176
     1
290
     0
176
     1
290
     0
176
     1
290
     0
176
     1
290
     0
176
     1
290
     0
176
     1
 90
       50
176
     1
 40
0.0
176
     1
 40
1.0
176
     1
 90
        0
176
     1
 62
    18
420
        0
176
     1
 90
       50
176
     1
 90
        3
176
     1
 62
     5
420
      255
176
     1
290
     0
176
     1
 90
       50
176
     1
 90
       50
176
     1
 90
       50
176
     1
290
     0
176
     1
 90
       50
176
     1
 62
   256
176
     0
 40
1.0
176
     0
 90
        2
176
     1
  1
strokes_ogs.tif
176
     1
290
     0
176
     1
 40
1.0
176
     1
 40
1.0
176
     1
  0
VISUALSTYLE
  5
5A2
102
{ACAD_REACTORS
330
5A1
102
}
330
5A1
100
AcDbVisualStyle
  2
Flat
 70
     0
177
     3
291
     1
 70
    58
 90
        2
176
     1
 90
        1
176
     1
 90
        1
176
     1
 90
        2
176
     1
 40
0.6
176
     1
 40
30.0
176
     1
 62
     7
420
 16777215
176
     1
 90
        0
176
     1
 90
        0
176
     1
 62
     7
176
     1
 62
   257
176
     1
 90
        1
176
     1
 90
        1
176
     1
 40
1.0
176
     1
 90
        8
176
     1
 62
     7
176
     1
 40
1.0
176
     1
 90
        1
176
     1
 90
        6
176
     1
 90
        2
176
     1
 62
     7
176
     1
 90
        5
176
     1
 90
        0
176
     1
 90
        0
176
     1
290
     0
176
     1
 90
       13
176
     1
 40
0.0
176
     1
 90
        0
176
     1
290
     0
176
     1
290
     1
176
     1
290
     1
176
     1
290
     0
176
     1
290
     0
176
     1
290
     0
176
     1
290
     0
176
     1
290
     0
176
     1
290
     0
176
     1
 90
       50
176
     1
 40
0.0
176
     1
 40
1.0
176
     1
 90
        0
176
     1
 62
    18
420
        0
176
     1
 90
       50
176
     1
 90
        3
176
     1
 62
     5
420
      255
176
     1
290
     0
176
     1
 90
       50
176
     1
 90
       50
176
     1
 90
       50
176
     1
290
     0
176
     1
 90
       50
176
     1
 62
   256
176
     0
 40
1.0
176
     0
 90
        2
176
     1
  1
strokes_ogs.tif
176
     1
290
     0
176
     1
 40
1.0
176
     1
 40
1.0
176
     1
  0
VISUALSTYLE
  5
5A3
102
{ACAD_REACTORS
330
5A1
102
}
330
5A1
100
AcDbVisualStyle
  2
FlatWithEdges
 70
     1
177
     3
291
     1
 70
    58
 90
        2
176
     1
 90
        1
176
     1
 90
        1
176
     1
 90
        2
176
     1
 40
0.6
176
     1
 40
30.0
176
     1
 62
     7
420
 16777215
176
     1
 90
        1
176
     1
 90
        0
176
     1
 62
     7
176
     1
 62
   257
176
     1
 90
        1
176
     1
 90
        1
176
     1
 40
1.0
176
     1
 90
        0
176
     1
 62
   257
176
     1
 40
1.0
176
     1
 90
        1
176
     1
 90
        6
176
     1
 90
        2
176
     1
 62
     7
176
     1
 90
        5
176
     1
 90
        0
176
     1
 90
        0
176
     1
290
     0
176
     1
 90
       13
176
     1
 40
0.0
176
     1
 90
        0
176
     1
290
     0
176
     1
290
     1
176
     1
290
     1
176
     1
290
     0
176
     1
290
     0
176
     1
290
     0
176
     1
290
     0
176
     1
290
     0
176
     1
290
     0
176
     1
 90
       50
176
     1
 40
0.0
176
     1
 40
1.0
176
     1
 90
        0
176
     1
 62
    18
420
        0
176
     1
 90
       50
176
     1
 90
        3
176
     1
 62
     5
420
      255
176
     1
290
     0
176
     1
 90
       50
176
     1
 90
       50
176
     1
 90
       50
176
     1
290
     0
176
     1
 90
       50
176
     1
 62
   256
176
     0
 40
1.0
176
     0
 90
        2
176
     1
  1
strokes_ogs.tif
176
     1
290
     0
176
     1
 40
1.0
176
     1
 40
1.0
176
     1
  0
VISUALSTYLE
  5
5A4
102
{ACAD_REACTORS
330
5A1
102
}
330
5A1
100
AcDbVisualStyle
  2
Gouraud
 70
     2
177
     3
291
     1
 70
    58
 90
        2
176
     1
 90
        2
176
     1
 90
        1
176
     1
 90
        2
176
     1
 40
0.6
176
     1
 40
30.0
176
     1
 62
     7
420
 16777215
176
     1
 90
        0
176
     1
 90
        0
176
     1
 62
     7
176
     1
 62
   257
176
     1
 90
        1
176
     1
 90
        1
176
     1
 40
1.0
176
     1
 90
        0
176
     1
 62
     7
176
     1
 40
1.0
176
     1
 90
        1
176
     1
 90
        6
176
     1
 90
        2
176
     1
 62
     7
176
     1
 90
        5
176
     1
 90
        0
176
     1
 90
        0
176
     1
290
     0
176
     1
 90
       13
176
     1
 40
0.0
176
     1
 90
        0
176
     1
290
     0
176
     1
290
     1
176
     1
290
     1
176
     1
290
     0
176
     1
290
     0
176
     1
290
     0
176
     1
290
     0
176
     1
290
     0
176
     1
290
     0
176
     1
 90
       50
176
     1
 40
0.0
176
     1
 40
1.0
176
     1
 90
        0
176
     1
 62
    18
420
        0
176
     1
 90
       50
176
     1
 90
        3
176
     1
 62
     5
420
      255
176
     1
290
     0
176
     1
 90
       50
176
     1
 90
       50
176
     1
 90
       50
176
     1
290
     0
176
     1
 90
       50
176
     1
 62
   256
176
     0
 40
1.0
176
     0
 90
        2
176
     1
  1
strokes_ogs.tif
176
     1
290
     0
176
     1
 40
1.0
176
     1
 40
1.0
176
     1
  0
VISUALSTYLE
  5
5A5
102
{ACAD_REACTORS
330
5A1
102
}
330
5A1
100
AcDbVisualStyle
  2
GouraudWithEdges
 70
     3
177
     3
291
     1
 70
    58
 90
        2
176
     1
 90
        2
176
     1
 90
        1
176
     1
 90
        2
176
     1
 40
0.6
176
     1
 40
30.0
176
     1
 62
     7
420
 16777215
176
     1
 90
        1
176
     1
 90
        0
176
     1
 62
     7
176
     1
 62
   257
176
     1
 90
        1
176
     1
 90
        1
176
     1
 40
1.0
176
     1
 90
        0
176
     1
 62
   257
176
     1
 40
1.0
176
     1
 90
        1
176
     1
 90
        6
176
     1
 90
        2
176
     1
 62
     7
176
     1
 90
        5
176
     1
 90
        0
176
     1
 90
        0
176
     1
290
     0
176
     1
 90
       13
176
     1
 40
0.0
176
     1
 90
        0
176
     1
290
     0
176
     1
290
     1
176
     1
290
     1
176
     1
290
     0
176
     1
290
     0
176
     1
290
     0
176
     1
290
     0
176
     1
290
     0
176
     1
290
     0
176
     1
 90
       50
176
     1
 40
0.0
176
     1
 40
1.0
176
     1
 90
        0
176
     1
 62
    18
420
        0
176
     1
 90
       50
176
     1
 90
        3
176
     1
 62
     5
420
      255
176
     1
290
     0
176
     1
 90
       50
176
     1
 90
       50
176
     1
 90
       50
176
     1
290
     0
176
     1
 90
       50
176
     1
 62
   256
176
     0
 40
1.0
176
     0
 90
        2
176
     1
  1
strokes_ogs.tif
176
     1
290
     0
176
     1
 40
1.0
176
     1
 40
1.0
176
     1
  0
VISUALSTYLE
  5
5A8
102
{ACAD_REACTORS
330
5A1
102
}
330
5A1
100
AcDbVisualStyle
  2
Hidden
 70
     6
177
     3
291
     0
 70
    58
 90
        1
176
     1
 90
        2
176
     1
 90
        2
176
     1
 90
        0
176
     1
 40
0.6
176
     1
 40
30.0
176
     1
 62
     7
420
 16777215
176
     1
 90
        2
176
     1
 90
        2
176
     1
 62
     7
176
     1
 62
   257
176
     1
 90
        2
176
     1
 90
        1
176
     1
 40
40.0
176
     1
 90
        0
176
     1
 62
   257
176
     1
 40
1.0
176
     1
 90
        1
176
     1
 90
        6
176
     1
 90
        2
176
     1
 62
     7
176
     1
 90
        3
176
     1
 90
        0
176
     1
 90
        0
176
     1
290
     0
176
     1
 90
        1
176
     1
 40
0.0
176
     1
 90
        0
176
     1
290
     0
176
     1
290
     1
176
     1
290
     1
176
     1
290
     0
176
     1
290
     0
176
     1
290
     0
176
     1
290
     0
176
     1
290
     0
176
     1
290
     0
176
     1
 90
       50
176
     1
 40
0.0
176
     1
 40
1.0
176
     1
 90
        0
176
     1
 62
    18
420
        0
176
     1
 90
       50
176
     1
 90
        3
176
     1
 62
     5
420
      255
176
     1
290
     0
176
     1
 90
       50
176
     1
 90
       50
176
     1
 90
       50
176
     1
290
     0
176
     1
 90
       50
176
     1
 62
   256
176
     0
 40
1.0
176
     0
 90
        2
176
     1
  1
strokes_ogs.tif
176
     1
290
     0
176
     1
 40
1.0
176
     1
 40
1.0
176
     1
  0
VISUALSTYLE
  5
5B2
102
{ACAD_REACTORS
330
5A1
102
}
330
5A1
100
AcDbVisualStyle
  2
JitterOff
 70
    20
177
     3
291
     1
 70
    58
 90
        2
176
     0
 90
        2
176
     0
 90
        0
176
     0
 90
        0
176
     0
 40
0.6
176
     0
 40
30.0
176
     0
 62
     7
420
 16777215
176
     0
 90
        1
176
     0
 90
        4
176
     0
 62
     7
176
     0
 62
   257
176
     0
 90
        1
176
     0
 90
        1
176
     0
 40
1.0
176
     0
 90
       10
176
     2
 62
     7
176
     0
 40
1.0
176
     0
 90
        1
176
     0
 90
        6
176
     0
 90
        2
176
     0
 62
     7
176
     0
 90
        5
176
     0
 90
        0
176
     0
 90
        0
176
     0
290
     0
176
     0
 90
        1
176
     0
 40
0.0
176
     0
 90
        0
176
     0
290
     0
176
     0
290
     1
176
     0
290
     1
176
     0
290
     0
176
     0
290
     0
176
     0
290
     0
176
     0
290
     0
176
     0
290
     0
176
     0
290
     0
176
     0
 90
       50
176
     0
 40
0.0
176
     0
 40
1.0
176
     0
 90
        0
176
     0
 62
    18
420
        0
176
     0
 90
       50
176
     0
 90
        3
176
     0
 62
     5
420
      255
176
     0
290
     0
176
     0
 90
       50
176
     0
 90
       50
176
     0
 90
       50
176
     0
290
     0
176
     0
 90
       50
176
     0
 62
   256
176
     0
 40
1.0
176
     0
 90
        2
176
     0
  1
strokes_ogs.tif
176
     0
290
     0
176
     0
 40
1.0
176
     0
 40
1.0
176
     0
  0
VISUALSTYLE
  5
5AF
102
{ACAD_REACTORS
330
5A1
102
}
330
5A1
100
AcDbVisualStyle
  2
Linepattern
 70
    14
177
     3
291
     1
 70
    58
 90
        2
176
     1
 90
        2
176
     1
 90
        0
176
     1
 90
        0
176
     1
 40
0.6
176
     1
 40
30.0
176
     1
 62
     7
420
 16777215
176
     1
 90
        1
176
     1
 90
        4
176
     1
 62
     7
176
     1
 62
   257
176
     1
 90
        7
176
     1
 90
        7
176
     1
 40
1.0
176
     1
 90
        8
176
     1
 62
     7
176
     1
 40
1.0
176
     1
 90
        1
176
     1
 90
        6
176
     1
 90
        2
176
     1
 62
     7
176
     1
 90
        5
176
     1
 90
        0
176
     1
 90
        0
176
     1
290
     0
176
     1
 90
        1
176
     1
 40
0.0
176
     1
 90
        0
176
     1
290
     0
176
     1
290
     1
176
     1
290
     1
176
     1
290
     0
176
     1
290
     0
176
     1
290
     0
176
     1
290
     0
176
     1
290
     0
176
     1
290
     0
176
     1
 90
       50
176
     1
 40
0.0
176
     1
 40
1.0
176
     1
 90
        0
176
     1
 62
    18
420
        0
176
     1
 90
       50
176
     1
 90
        3
176
     1
 62
     5
420
      255
176
     1
290
     0
176
     1
 90
       50
176
     1
 90
       50
176
     1
 90
       50
176
     1
290
     0
176
     1
 90
       50
176
     1
 62
   256
176
     0
 40
1.0
176
     0
 90
        2
176
     1
  1
strokes_ogs.tif
176
     1
290
     0
176
     1
 40
1.0
176
     1
 40
1.0
176
     1
  0
VISUALSTYLE
  5
5B3
102
{ACAD_REACTORS
330
5A1
102
}
330
5A1
100
AcDbVisualStyle
  2
OverhangOff
 70
    21
177
     3
291
     1
 70
    58
 90
        2
176
     0
 90
        2
176
     0
 90
        0
176
     0
 90
        0
176
     0
 40
0.6
176
     0
 40
30.0
176
     0
 62
     7
420
 16777215
176
     0
 90
        1
176
     0
 90
        4
176
     0
 62
     7
176
     0
 62
   257
176
     0
 90
        1
176
     0
 90
        1
176
     0
 40
1.0
176
     0
 90
        9
176
     2
 62
     7
176
     0
 40
1.0
176
     0
 90
        1
176
     0
 90
        6
176
     0
 90
        2
176
     0
 62
     7
176
     0
 90
        5
176
     0
 90
        0
176
     0
 90
        0
176
     0
290
     0
176
     0
 90
        1
176
     0
 40
0.0
176
     0
 90
        0
176
     0
290
     0
176
     0
290
     1
176
     0
290
     1
176
     0
290
     0
176
     0
290
     0
176
     0
290
     0
176
     0
290
     0
176
     0
290
     0
176
     0
290
     0
176
     0
 90
       50
176
     0
 40
0.0
176
     0
 40
1.0
176
     0
 90
        0
176
     0
 62
    18
420
        0
176
     0
 90
       50
176
     0
 90
        3
176
     0
 62
     5
420
      255
176
     0
290
     0
176
     0
 90
       50
176
     0
 90
       50
176
     0
 90
       50
176
     0
290
     0
176
     0
 90
       50
176
     0
 62
   256
176
     0
 40
1.0
176
     0
 90
        2
176
     0
  1
strokes_ogs.tif
176
     0
290
     0
176
     0
 40
1.0
176
     0
 40
1.0
176
     0
  0
VISUALSTYLE
  5
5AA
102
{ACAD_REACTORS
330
5A1
102
}
330
5A1
100
AcDbVisualStyle
  2
Realistic
 70
     8
177
     3
291
     0
 70
    58
 90
        2
176
     1
 90
        3
176
     1
 90
        0
176
     1
 90
        2
176
     1
 40
0.6
176
     1
 40
30.0
176
     1
 62
     7
420
 16777215
176
     1
 90
        0
176
     1
 90
        0
176
     1
 62
     7
176
     1
 62
   257
176
     1
 90
        1
176
     1
 90
        1
176
     1
 40
1.0
176
     1
 90
        8
176
     1
 62
   257
176
     1
 40
1.0
176
     1
 90
        1
176
     1
 90
        6
176
     1
 90
        2
176
     1
 62
     7
176
     1
 90
        3
176
     1
 90
        0
176
     1
 90
        0
176
     1
290
     0
176
     1
 90
       13
176
     1
 40
0.0
176
     1
 90
        0
176
     1
290
     0
176
     1
290
     1
176
     1
290
     1
176
     1
290
     0
176
     1
290
     0
176
     1
290
     0
176
     1
290
     0
176
     1
290
     0
176
     1
290
     0
176
     1
 90
       50
176
     1
 40
0.0
176
     1
 40
1.0
176
     1
 90
        0
176
     1
 62
    18
420
        0
176
     1
 90
       50
176
     1
 90
        3
176
     1
 62
     5
420
      255
176
     1
290
     0
176
     1
 90
       50
176
     1
 90
       50
176
     1
 90
       50
176
     1
290
     0
176
     1
 90
       50
176
     1
 62
   256
176
     0
 40
1.0
176
     0
 90
        2
176
     1
  1
strokes_ogs.tif
176
     1
290
     0
176
     1
 40
1.0
176
     1
 40
1.0
176
     1
  0
VISUALSTYLE
  5
5B9
102
{ACAD_REACTORS
330
5A1
102
}
330
5A1
100
AcDbVisualStyle
  2
Shaded
 70
    27
177
     3
291
     0
 70
    58
 90
        2
176
     1
 90
        2
176
     1
 90
        1
176
     1
 90
        2
176
     1
 40
0.6
176
     1
 40
30.0
176
     1
 62
     7
420
 16777215
176
     1
 90
        0
176
     1
 90
        4
176
     1
 62
     7
176
     1
 62
   257
176
     1
 90
        1
176
     1
 90
        1
176
     1
 40
1.0
176
     1
 90
        8
176
     1
 62
   257
176
     1
 40
1.0
176
     1
 90
        1
176
     1
 90
        6
176
     1
 90
        2
176
     1
 62
     8
420
  7895160
176
     1
 90
        3
176
     1
 90
        0
176
     1
 90
        0
176
     1
290
     0
176
     1
 90
        5
176
     1
 40
0.0
176
     1
 90
        0
176
     1
290
     0
176
     1
290
     1
176
     1
290
     1
176
     1
290
     0
176
     1
290
     0
176
     1
290
     0
176
     1
290
     0
176
     1
290
     0
176
     1
290
     0
176
     1
 90
       50
176
     1
 40
0.0
176
     1
 40
1.0
176
     1
 90
        0
176
     1
 62
    18
420
        0
176
     1
 90
       50
176
     1
 90
        3
176
     1
 62
     5
420
      255
176
     1
290
     0
176
     1
 90
       50
176
     1
 90
       50
176
     1
 90
       50
176
     1
290
     0
176
     1
 90
       50
176
     1
 62
   256
176
     0
 40
1.0
176
     0
 90
        2
176
     1
  1
strokes_ogs.tif
176
     1
290
     0
176
     1
 40
1.0
176
     1
 40
1.0
176
     1
  0
VISUALSTYLE
  5
5B8
102
{ACAD_REACTORS
330
5A1
102
}
330
5A1
100
AcDbVisualStyle
  2
Shaded with edges
 70
    26
177
     3
291
     0
 70
    58
 90
        2
176
     1
 90
        2
176
     1
 90
        1
176
     1
 90
        2
176
     1
 40
0.6
176
     1
 40
30.0
176
     1
 62
     7
420
 16777215
176
     1
 90
        1
176
     1
 90
       10
176
     1
 62
     7
176
     1
 62
   257
176
     1
 90
        2
176
     1
 90
        1
176
     1
 40
1.0
176
     1
 90
        8
176
     1
 62
   257
176
     1
 40
1.0
176
     1
 90
        1
176
     1
 90
        6
176
     1
 90
        2
176
     1
 62
     7
176
     1
 90
        3
176
     1
 90
        0
176
     1
 90
        0
176
     1
290
     0
176
     1
 90
        5
176
     1
 40
0.0
176
     1
 90
        0
176
     1
290
     0
176
     1
290
     1
176
     1
290
     1
176
     1
290
     0
176
     1
290
     0
176
     1
290
     0
176
     1
290
     0
176
     1
290
     0
176
     1
290
     0
176
     1
 90
       50
176
     1
 40
0.0
176
     1
 40
1.0
176
     1
 90
        0
176
     1
 62
    18
420
        0
176
     1
 90
       50
176
     1
 90
        3
176
     1
 62
     5
420
      255
176
     1
290
     0
176
     1
 90
       50
176
     1
 90
       50
176
     1
 90
       50
176
     1
290
     0
176
     1
 90
       50
176
     1
 62
   256
176
     0
 40
1.0
176
     0
 90
        2
176
     1
  1
strokes_ogs.tif
176
     1
290
     0
176
     1
 40
1.0
176
     1
 40
1.0
176
     1
  0
VISUALSTYLE
  5
5B5
102
{ACAD_REACTORS
330
5A1
102
}
330
5A1
100
AcDbVisualStyle
  2
Shades of Gray
 70
    23
177
     3
291
     0
 70
    58
 90
        2
176
     1
 90
        2
176
     1
 90
        3
176
     1
 90
        0
176
     1
 40
0.6
176
     1
 40
30.0
176
     1
 62
     7
420
 16777215
176
     1
 90
        2
176
     1
 90
        2
176
     1
 62
     7
176
     1
 62
     7
176
     1
 90
        1
176
     1
 90
        1
176
     1
 40
40.0
176
     1
 90
        8
176
     1
 62
     7
176
     1
 40
1.0
176
     1
 90
        1
176
     1
 90
        6
176
     1
 90
        2
176
     1
 62
     7
176
     1
 90
        3
176
     1
 90
        0
176
     1
 90
        0
176
     1
290
     0
176
     1
 90
        1
176
     1
 40
0.0
176
     1
 90
        0
176
     1
290
     0
176
     1
290
     1
176
     1
290
     1
176
     1
290
     0
176
     1
290
     0
176
     1
290
     0
176
     1
290
     0
176
     1
290
     0
176
     1
290
     0
176
     1
 90
       50
176
     1
 40
0.0
176
     1
 40
1.0
176
     1
 90
        0
176
     1
 62
    18
420
        0
176
     1
 90
       50
176
     1
 90
        3
176
     1
 62
     5
420
      255
176
     1
290
     0
176
     1
 90
       50
176
     1
 90
       50
176
     1
 90
       50
176
     1
290
     0
176
     1
 90
       50
176
     1
 62
   256
176
     0
 40
1.0
176
     0
 90
        2
176
     1
  1
strokes_ogs.tif
176
     1
290
     0
176
     1
 40
1.0
176
     1
 40
1.0
176
     1
  0
VISUALSTYLE
  5
5B6
102
{ACAD_REACTORS
330
5A1
102
}
330
5A1
100
AcDbVisualStyle
  2
Sketchy
 70
    24
177
     3
291
     0
 70
    58
 90
        1
176
     1
 90
        2
176
     1
 90
        2
176
     1
 90
        0
176
     1
 40
0.6
176
     1
 40
30.0
176
     1
 62
     7
420
 16777215
176
     1
 90
        2
176
     1
 90
        2
176
     1
 62
     7
176
     1
 62
     7
176
     1
 90
        1
176
     1
 90
        1
176
     1
 40
40.0
176
     1
 90
       11
176
     1
 62
     7
176
     1
 40
1.0
176
     1
 90
        1
176
     1
 90
        6
176
     1
 90
        2
176
     1
 62
     7
176
     1
 90
        6
176
     1
 90
        0
176
     1
 90
        0
176
     1
290
     0
176
     1
 90
        1
176
     1
 40
0.0
176
     1
 90
        0
176
     1
290
     0
176
     1
290
     1
176
     1
290
     1
176
     1
290
     0
176
     1
290
     0
176
     1
290
     0
176
     1
290
     0
176
     1
290
     0
176
     1
290
     0
176
     1
 90
       50
176
     1
 40
0.0
176
     1
 40
1.0
176
     1
 90
        0
176
     1
 62
    18
420
        0
176
     1
 90
       50
176
     1
 90
        3
176
     1
 62
     5
420
      255
176
     1
290
     0
176
     1
 90
       50
176
     1
 90
       50
176
     1
 90
       50
176
     1
290
     0
176
     1
 90
       50
176
     1
 62
   256
176
     0
 40
1.0
176
     0
 90
        2
176
     1
  1
strokes_ogs.tif
176
     1
290
     0
176
     1
 40
1.0
176
     1
 40
1.0
176
     1
  0
VISUALSTYLE
  5
5AE
102
{ACAD_REACTORS
330
5A1
102
}
330
5A1
100
AcDbVisualStyle
  2
Thicken
 70
    13
177
     3
291
     1
 70
    58
 90
        2
176
     1
 90
        2
176
     1
 90
        0
176
     1
 90
        0
176
     1
 40
0.6
176
     1
 40
30.0
176
     1
 62
     7
420
 16777215
176
     1
 90
        1
176
     1
 90
        4
176
     1
 62
     7
176
     1
 62
   257
176
     1
 90
        1
176
     1
 90
        1
176
     1
 40
1.0
176
     1
 90
       12
176
     1
 62
     7
176
     1
 40
1.0
176
     1
 90
        1
176
     1
 90
        6
176
     1
 90
        2
176
     1
 62
     7
176
     1
 90
        5
176
     1
 90
        0
176
     1
 90
        0
176
     1
290
     0
176
     1
 90
        1
176
     1
 40
0.0
176
     1
 90
        0
176
     1
290
     0
176
     1
290
     1
176
     1
290
     1
176
     1
290
     0
176
     1
290
     0
176
     1
290
     0
176
     1
290
     0
176
     1
290
     0
176
     1
290
     0
176
     1
 90
       50
176
     1
 40
0.0
176
     1
 40
1.0
176
     1
 90
        0
176
     1
 62
    18
420
        0
176
     1
 90
       50
176
     1
 90
        3
176
     1
 62
     5
420
      255
176
     1
290
     0
176
     1
 90
       50
176
     1
 90
       50
176
     1
 90
       50
176
     1
290
     0
176
     1
 90
       50
176
     1
 62
   256
176
     0
 40
1.0
176
     0
 90
        2
176
     1
  1
strokes_ogs.tif
176
     1
290
     0
176
     1
 40
1.0
176
     1
 40
1.0
176
     1
  0
VISUALSTYLE
  5
5A7
102
{ACAD_REACTORS
330
5A1
102
}
330
5A1
100
AcDbVisualStyle
  2
Wireframe
 70
     5
177
     3
291
     0
 70
    58
 90
        0
176
     1
 90
        2
176
     1
 90
        0
176
     1
 90
        0
176
     1
 40
0.6
176
     1
 40
30.0
176
     1
 62
     7
420
 16777215
176
     1
 90
        1
176
     1
 90
        4
176
     1
 62
     7
176
     1
 62
   257
176
     1
 90
        1
176
     1
 90
        1
176
     1
 40
1.0
176
     1
 90
        0
176
     1
 62
   257
176
     1
 40
1.0
176
     1
 90
        1
176
     1
 90
        6
176
     1
 90
        2
176
     1
 62
     7
176
     1
 90
        3
176
     1
 90
        0
176
     1
 90
        0
176
     1
290
     0
176
     1
 90
        1
176
     1
 40
0.0
176
     1
 90
        0
176
     1
290
     0
176
     1
290
     1
176
     1
290
     1
176
     1
290
     0
176
     1
290
     0
176
     1
290
     0
176
     1
290
     0
176
     1
290
     0
176
     1
290
     0
176
     1
 90
       50
176
     1
 40
0.0
176
     1
 40
1.0
176
     1
 90
        0
176
     1
 62
    18
420
        0
176
     1
 90
       50
176
     1
 90
        3
176
     1
 62
     5
420
      255
176
     1
290
     0
176
     1
 90
       50
176
     1
 90
       50
176
     1
 90
       50
176
     1
290
     0
176
     1
 90
       50
176
     1
 62
   256
176
     0
 40
1.0
176
     0
 90
        2
176
     1
  1
strokes_ogs.tif
176
     1
290
     0
176
     1
 40
1.0
176
     1
 40
1.0
176
     1
  0
VISUALSTYLE
  5
5B7
102
{ACAD_REACTORS
330
5A1
102
}
330
5A1
100
AcDbVisualStyle
  2
X-Ray
 70
    25
177
     3
291
     0
 70
    58
 90
        2
176
     1
 90
        2
176
     1
 90
        1
176
     1
 90
        1
176
     1
 40
0.5
176
     1
 40
30.0
176
     1
 62
     7
420
 16777215
176
     1
 90
        1
176
     1
 90
        0
176
     1
 62
     7
176
     1
 62
   257
176
     1
 90
        1
176
     1
 90
        1
176
     1
 40
1.0
176
     1
 90
        8
176
     1
 62
     7
176
     1
 40
1.0
176
     1
 90
        1
176
     1
 90
        6
176
     1
 90
        2
176
     1
 62
     7
176
     1
 90
        3
176
     1
 90
        0
176
     1
 90
        0
176
     1
290
     0
176
     1
 90
       13
176
     1
 40
0.0
176
     1
 90
        0
176
     1
290
     0
176
     1
290
     1
176
     1
290
     1
176
     1
290
     0
176
     1
290
     0
176
     1
290
     0
176
     1
290
     0
176
     1
290
     0
176
     1
290
     0
176
     1
 90
       50
176
     1
 40
0.0
176
     1
 40
1.0
176
     1
 90
        0
176
     1
 62
    18
420
        0
176
     1
 90
       50
176
     1
 90
        3
176
     1
 62
     5
420
      255
176
     1
290
     0
176
     1
 90
       50
176
     1
 90
       50
176
     1
 90
       50
176
     1
290
     0
176
     1
 90
       50
176
     1
 62
   256
176
     0
 40
1.0
176
     0
 90
        2
176
     1
  1
strokes_ogs.tif
176
     1
290
     0
176
     1
 40
1.0
176
     1
 40
1.0
176
     1
  0
DICTIONARYVAR
  5
5C4
102
{ACAD_REACTORS
330
5C3
102
}
330
5C3
100
DictionaryVariables
280
     0
  1
1:1
  0
DICTIONARYVAR
  5
5C9
102
{ACAD_REACTORS
330
5C3
102
}
330
5C3
100
DictionaryVariables
280
     0
  1
Standard
  0
DICTIONARYVAR
  5
5C8
102
{ACAD_REACTORS
330
5C3
102
}
330
5C3
100
DictionaryVariables
280
     0
  1
Standard
  0
DICTIONARYVAR
  5
5CA
102
{ACAD_REACTORS
330
5C3
102
}
330
5C3
100
DictionaryVariables
280
     0
  1
0
  0
DICTIONARY
  5
5C5
330
5BF
100
AcDbDictionary
280
     1
281
     1
  3
ACAD_ROUNDTRIP_2008_TABLESTYLE_CELLSTYLEMAP
360
5C6
  0
CELLSTYLEMAP
  5
5C6
102
{ACAD_REACTORS
330
5C5
102
}
330
5C5
100
AcDbCellStyleMap
 90
        3
300
CELLSTYLE
  1
TABLEFORMAT_BEGIN
 90
        5
170
     1
 91
        0
 92
    32768
 62
   257
 93
        1
300
CONTENTFORMAT
  1
CONTENTFORMAT_BEGIN
 90
        0
 91
        0
 92
        4
 93
        0
300

 40
0.0
140
1.0
 94
        5
 62
     0
340
11
144
6.0
309
CONTENTFORMAT_END
171
     1
301
MARGIN
  1
CELLMARGIN_BEGIN
 40
1.5
 40
1.5
 40
1.5
 40
1.5
 40
1.5
 40
1.5
309
CELLMARGIN_END
 94
        6
 95
        1
302
GRIDFORMAT
  1
GRIDFORMAT_BEGIN
 90
        0
 91
        1
 62
     0
 92
       -2
340
14
 93
        0
 40
0.045
309
GRIDFORMAT_END
 95
        2
302
GRIDFORMAT
  1
GRIDFORMAT_BEGIN
 90
        0
 91
        1
 62
     0
 92
       -2
340
14
 93
        0
 40
0.045
309
GRIDFORMAT_END
 95
        4
302
GRIDFORMAT
  1
GRIDFORMAT_BEGIN
 90
        0
 91
        1
 62
     0
 92
       -2
340
14
 93
        0
 40
0.045
309
GRIDFORMAT_END
 95
        8
302
GRIDFORMAT
  1
GRIDFORMAT_BEGIN
 90
        0
 91
        1
 62
     0
 92
       -2
340
14
 93
        0
 40
0.045
309
GRIDFORMAT_END
 95
       16
302
GRIDFORMAT
  1
GRIDFORMAT_BEGIN
 90
        0
 91
        1
 62
     0
 92
       -2
340
14
 93
        0
 40
0.045
309
GRIDFORMAT_END
 95
       32
302
GRIDFORMAT
  1
GRIDFORMAT_BEGIN
 90
        0
 91
        1
 62
     0
 92
       -2
340
14
 93
        0
 40
0.045
309
GRIDFORMAT_END
309
TABLEFORMAT_END
  1
CELLSTYLE_BEGIN
 90
        1
 91
        1
300
_TITLE
309
CELLSTYLE_END
300
CELLSTYLE
  1
TABLEFORMAT_BEGIN
 90
        5
170
     1
 91
        0
 92
        0
 62
   257
 93
        1
300
CONTENTFORMAT
  1
CONTENTFORMAT_BEGIN
 90
        0
 91
        0
 92
        4
 93
        0
300

 40
0.0
140
1.0
 94
        5
 62
     0
340
11
144
4.5
309
CONTENTFORMAT_END
171
     1
301
MARGIN
  1
CELLMARGIN_BEGIN
 40
1.5
 40
1.5
 40
1.5
 40
1.5
 40
1.5
 40
1.5
309
CELLMARGIN_END
 94
        6
 95
        1
302
GRIDFORMAT
  1
GRIDFORMAT_BEGIN
 90
        0
 91
        1
 62
     0
 92
       -2
340
14
 93
        0
 40
0.045
309
GRIDFORMAT_END
 95
        2
302
GRIDFORMAT
  1
GRIDFORMAT_BEGIN
 90
        0
 91
        1
 62
     0
 92
       -2
340
14
 93
        0
 40
0.045
309
GRIDFORMAT_END
 95
        4
302
GRIDFORMAT
  1
GRIDFORMAT_BEGIN
 90
        0
 91
        1
 62
     0
 92
       -2
340
14
 93
        0
 40
0.045
309
GRIDFORMAT_END
 95
        8
302
GRIDFORMAT
  1
GRIDFORMAT_BEGIN
 90
        0
 91
        1
 62
     0
 92
       -2
340
14
 93
        0
 40
0.045
309
GRIDFORMAT_END
 95
       16
302
GRIDFORMAT
  1
GRIDFORMAT_BEGIN
 90
        0
 91
        1
 62
     0
 92
       -2
340
14
 93
        0
 40
0.045
309
GRIDFORMAT_END
 95
       32
302
GRIDFORMAT
  1
GRIDFORMAT_BEGIN
 90
        0
 91
        1
 62
     0
 92
       -2
340
14
 93
        0
 40
0.045
309
GRIDFORMAT_END
309
TABLEFORMAT_END
  1
CELLSTYLE_BEGIN
 90
        2
 91
        1
300
_HEADER
309
CELLSTYLE_END
300
CELLSTYLE
  1
TABLEFORMAT_BEGIN
 90
        5
170
     1
 91
        0
 92
        0
 62
   257
 93
        1
300
CONTENTFORMAT
  1
CONTENTFORMAT_BEGIN
 90
        0
 91
        0
 92
        4
 93
        0
300

 40
0.0
140
1.0
 94
        2
 62
     0
340
11
144
4.5
309
CONTENTFORMAT_END
171
     1
301
MARGIN
  1
CELLMARGIN_BEGIN
 40
1.5
 40
1.5
 40
1.5
 40
1.5
 40
1.5
 40
1.5
309
CELLMARGIN_END
 94
        6
 95
        1
302
GRIDFORMAT
  1
GRIDFORMAT_BEGIN
 90
        0
 91
        1
 62
     0
 92
       -2
340
14
 93
        0
 40
0.045
309
GRIDFORMAT_END
 95
        2
302
GRIDFORMAT
  1
GRIDFORMAT_BEGIN
 90
        0
 91
        1
 62
     0
 92
       -2
340
14
 93
        0
 40
0.045
309
GRIDFORMAT_END
 95
        4
302
GRIDFORMAT
  1
GRIDFORMAT_BEGIN
 90
        0
 91
        1
 62
     0
 92
       -2
340
14
 93
        0
 40
0.045
309
GRIDFORMAT_END
 95
        8
302
GRIDFORMAT
  1
GRIDFORMAT_BEGIN
 90
        0
 91
        1
 62
     0
 92
       -2
340
14
 93
        0
 40
0.045
309
GRIDFORMAT_END
 95
       16
302
GRIDFORMAT
  1
GRIDFORMAT_BEGIN
 90
        0
 91
        1
 62
     0
 92
       -2
340
14
 93
        0
 40
0.045
309
GRIDFORMAT_END
 95
       32
302
GRIDFORMAT
  1
GRIDFORMAT_BEGIN
 90
        0
 91
        1
 62
     0
 92
       -2
340
14
 93
        0
 40
0.045
309
GRIDFORMAT_END
309
TABLEFORMAT_END
  1
CELLSTYLE_BEGIN
 90
        3
 91
        2
300
_DATA
309
CELLSTYLE_END
  0
ENDSEC
  0
EOF
