  0
SECTION
  2
HEADER
  9
$ACADVER
  1
AC1027
  9
$ACADMAINTVER
 70
     8
  9
$DWGCODEPAGE
  3
ANSI_1252
  9
$REQUIREDVERSIONS
160
                 0
  9
$INSBASE
 10
0.0
 20
0.0
 30
0.0
  9
$EXTMIN
 10
0.0
 20
0.0
 30
0.0
  9
$EXTMAX
 10
420.0
 20
297.0
 30
0.0
  9
$LIMMIN
 10
0.0
 20
0.0
  9
$LIMMAX
 10
420.0
 20
297.0
  9
$ORTHOMODE
 70
     0
  9
$REGENMODE
 70
     1
  9
$FILLMODE
 70
     1
  9
$QTEXTMODE
 70
     0
  9
$MIRRTEXT
 70
     1
  9
$LTSCALE
 40
23.1
  9
$ATTMODE
 70
     1
  9
$TEXTSIZE
 40
0.2
  9
$TRACEWID
 40
0.05
  9
$TEXTSTYLE
  7
STANDARD
  9
$CLAYER
  8
0
  9
$CELTYPE
  6
BYLAYER
  9
$CECOLOR
 62
   256
  9
$CELTSCALE
 40
1.0
  9
$DISPSILH
 70
     0
  9
$DIMSCALE
 40
1.0
  9
$DIMASZ
 40
2.5
  9
$DIMEXO
 40
0.75
  9
$DIMDLI
 40
15.96
  9
$DIMRND
 40
0.0
  9
$DIMDLE
 40
0.0
  9
$DIMEXE
 40
0.75
  9
$DIMTP
 40
0.01
  9
$DIMTM
 40
0.01
  9
$DIMTXT
 40
3.0
  9
$DIMCEN
 40
3.78
  9
$DIMTSZ
 40
0.0
  9
$DIMTOL
 70
     1
  9
$DIMLIM
 70
     0
  9
$DIMTIH
 70
     1
  9
$DIMTOH
 70
     1
  9
$DIMSE1
 70
     0
  9
$DIMSE2
 70
     0
  9
$DIMTAD
 70
     0
  9
$DIMZIN
 70
     0
  9
$DIMBLK
  1
CLOSED
  9
$DIMASO
 70
     1
  9
$DIMSHO
 70
     1
  9
$DIMPOST
  1

  9
$DIMAPOST
  1

  9
$DIMALT
 70
     0
  9
$DIMALTD
 70
     2
  9
$DIMALTF
 40
25.4
  9
$DIMLFAC
 40
1.0
  9
$DIMTOFL
 70
     0
  9
$DIMTVP
 40
0.0
  9
$DIMTIX
 70
     0
  9
$DIMSOXD
 70
     0
  9
$DIMSAH
 70
     0
  9
$DIMBLK1
  1

  9
$DIMBLK2
  1

  9
$DIMSTYLE
  2
STANDARD
  9
$DIMCLRD
 70
     0
  9
$DIMCLRE
 70
     0
  9
$DIMCLRT
 70
     0
  9
$DIMTFAC
 40
1.0
  9
$DIMGAP
 40
0.625
  9
$DIMJUST
 70
     0
  9
$DIMSD1
 70
     0
  9
$DIMSD2
 70
     0
  9
$DIMTOLJ
 70
     1
  9
$DIMTZIN
 70
     0
  9
$DIMALTZ
 70
     0
  9
$DIMALTTZ
 70
     0
  9
$DIMUPT
 70
     0
  9
$DIMDEC
 70
     4
  9
$DIMTDEC
 70
     4
  9
$DIMALTU
 70
     2
  9
$DIMALTTD
 70
     2
  9
$DIMTXSTY
  7
STANDARD
  9
$DIMAUNIT
 70
     0
  9
$DIMADEC
 70
     0
  9
$DIMALTRND
 40
0.0
  9
$DIMAZIN
 70
     0
  9
$DIMDSEP
 70
    44
  9
$DIMATFIT
 70
     3
  9
$DIMFRAC
 70
     0
  9
$DIMLDRBLK
  1

  9
$DIMLUNIT
 70
     2
  9
$DIMLWD
 70
    -2
  9
$DIMLWE
 70
    -2
  9
$DIMTMOVE
 70
     0
  9
$DIMFXL
 40
1.0
  9
$DIMFXLON
 70
     0
  9
$DIMJOGANG
 40
0.785398
  9
$DIMTFILL
 70
     0
  9
$DIMTFILLCLR
 70
     0
  9
$DIMARCSYM
 70
     0
  9
$DIMLTYPE
  6

  9
$DIMLTEX1
  6

  9
$DIMLTEX2
  6

  9
$DIMTXTDIRECTION
 70
     0
  9
$LUNITS
 70
     2
  9
$LUPREC
 70
     4
  9
$SKETCHINC
 40
0.1
  9
$FILLETRAD
 40
0.5
  9
$AUNITS
 70
     0
  9
$AUPREC
 70
     0
  9
$MENU
  1
.
  9
$ELEVATION
 40
0.0
  9
$PELEVATION
 40
0.0
  9
$THICKNESS
 40
0.0
  9
$LIMCHECK
 70
     0
  9
$CHAMFERA
 40
0.0
  9
$CHAMFERB
 40
0.0
  9
$CHAMFERC
 40
0.0
  9
$CHAMFERD
 40
0.0
  9
$SKPOLY
 70
     0
  9
$TDCREATE
 40
2447893.041666667
  9
$TDUCREATE
 40
0.0
  9
$TDUPDATE
 40
2460329.371737523
  9
$TDUUPDATE
 40
2460329.330070856
  9
$TDINDWG
 40
0.0
  9
$TDUSRTIMER
 40
0.0
  9
$USRTIMER
 70
     1
  9
$ANGBASE
 50
0.0
  9
$ANGDIR
 70
     0
  9
$PDMODE
 70
     3
  9
$PDSIZE
 40
0.3125
  9
$PLINEWID
 40
0.0
  9
$SPLFRAME
 70
     0
  9
$SPLINETYPE
 70
     6
  9
$SPLINESEGS
 70
     8
  9
$HANDSEED
  5
451
  9
$SURFTAB1
 70
     6
  9
$SURFTAB2
 70
     6
  9
$SURFTYPE
 70
     6
  9
$SURFU
 70
     6
  9
$SURFV
 70
     6
  9
$UCSBASE
  2

  9
$UCSNAME
  2

  9
$UCSORG
 10
0.0
 20
0.0
 30
0.0
  9
$UCSXDIR
 10
1.0
 20
0.0
 30
0.0
  9
$UCSYDIR
 10
0.0
 20
1.0
 30
0.0
  9
$UCSORTHOREF
  2

  9
$UCSORTHOVIEW
 70
     0
  9
$UCSORGTOP
 10
0.0
 20
0.0
 30
0.0
  9
$UCSORGBOTTOM
 10
0.0
 20
0.0
 30
0.0
  9
$UCSORGLEFT
 10
0.0
 20
0.0
 30
0.0
  9
$UCSORGRIGHT
 10
0.0
 20
0.0
 30
0.0
  9
$UCSORGFRONT
 10
0.0
 20
0.0
 30
0.0
  9
$UCSORGBACK
 10
0.0
 20
0.0
 30
0.0
  9
$PUCSBASE
  2

  9
$PUCSNAME
  2

  9
$PUCSORG
 10
0.0
 20
0.0
 30
0.0
  9
$PUCSXDIR
 10
1.0
 20
0.0
 30
0.0
  9
$PUCSYDIR
 10
0.0
 20
1.0
 30
0.0
  9
$PUCSORTHOREF
  2

  9
$PUCSORTHOVIEW
 70
     0
  9
$PUCSORGTOP
 10
0.0
 20
0.0
 30
0.0
  9
$PUCSORGBOTTOM
 10
0.0
 20
0.0
 30
0.0
  9
$PUCSORGLEFT
 10
0.0
 20
0.0
 30
0.0
  9
$PUCSORGRIGHT
 10
0.0
 20
0.0
 30
0.0
  9
$PUCSORGFRONT
 10
0.0
 20
0.0
 30
0.0
  9
$PUCSORGBACK
 10
0.0
 20
0.0
 30
0.0
  9
$USERI1
 70
     0
  9
$USERI2
 70
     0
  9
$USERI3
 70
     0
  9
$USERI4
 70
     0
  9
$USERI5
 70
     0
  9
$USERR1
 40
0.0
  9
$USERR2
 40
0.0
  9
$USERR3
 40
0.0
  9
$USERR4
 40
0.0
  9
$USERR5
 40
0.0
  9
$WORLDVIEW
 70
     1
  9
$SHADEDGE
 70
     3
  9
$SHADEDIF
 70
    70
  9
$TILEMODE
 70
     1
  9
$MAXACTVP
 70
    64
  9
$PINSBASE
 10
0.0
 20
0.0
 30
0.0
  9
$PLIMCHECK
 70
     0
  9
$PEXTMIN
 10
1.000000E+20
 20
1.000000E+20
 30
1.000000E+20
  9
$PEXTMAX
 10
-1.000000E+20
 20
-1.000000E+20
 30
-1.000000E+20
  9
$PLIMMIN
 10
0.0
 20
0.0
  9
$PLIMMAX
 10
12.0
 20
9.0
  9
$UNITMODE
 70
     0
  9
$VISRETAIN
 70
     1
  9
$PLINEGEN
 70
     0
  9
$PSLTSCALE
 70
     0
  9
$TREEDEPTH
 70
  3020
  9
$CMLSTYLE
  2

  9
$CMLJUST
 70
     0
  9
$CMLSCALE
 40
1.0
  9
$PROXYGRAPHICS
 70
     1
  9
$MEASUREMENT
 70
     1
  9
$CELWEIGHT
370
    -1
  9
$ENDCAPS
280
     0
  9
$JOINSTYLE
280
     0
  9
$LWDISPLAY
290
     0
  9
$INSUNITS
 70
     4
  9
$HYPERLINKBASE
  1

  9
$STYLESHEET
  1

  9
$XEDIT
290
     1
  9
$CEPSNTYPE
380
     0
  9
$PSTYLEMODE
290
     1
  9
$FINGERPRINTGUID
  2
{7A5972B1-679D-44DD-A7BC-138F44B198F8}
  9
$VERSIONGUID
  2
{FAEB1C32-E019-11D5-929B-00C0DF256EC4}
  9
$EXTNAMES
290
     1
  9
$PSVPSCALE
 40
0.0
  9
$OLESTARTUP
290
     0
  9
$SORTENTS
280
   127
  9
$INDEXCTL
280
     0
  9
$HIDETEXT
280
     1
  9
$XCLIPFRAME
280
     2
  9
$HALOGAP
280
     0
  9
$OBSCOLOR
 70
   257
  9
$OBSLTYPE
280
     0
  9
$INTERSECTIONDISPLAY
280
     0
  9
$INTERSECTIONCOLOR
 70
   257
  9
$DIMASSOC
280
     2
  9
$PROJECTNAME
  1

  9
$CAMERADISPLAY
290
     0
  9
$LENSLENGTH
 40
50.0
  9
$CAMERAHEIGHT
 40
0.0
  9
$STEPSPERSEC
 40
2.0
  9
$STEPSIZE
 40
6.0
  9
$3DDWFPREC
 40
2.0
  9
$PSOLWIDTH
 40
0.25
  9
$PSOLHEIGHT
 40
4.0
  9
$LOFTANG1
 40
1.570796
  9
$LOFTANG2
 40
1.570796
  9
$LOFTMAG1
 40
0.0
  9
$LOFTMAG2
 40
0.0
  9
$LOFTPARAM
 70
     7
  9
$LOFTNORMALS
280
     1
  9
$LATITUDE
 40
37.795
  9
$LONGITUDE
 40
-122.394
  9
$NORTHDIRECTION
 40
0.0
  9
$TIMEZONE
 70
 -8000
  9
$LIGHTGLYPHDISPLAY
280
     1
  9
$TILEMODELIGHTSYNCH
280
     1
  9
$SOLIDHIST
280
     1
  9
$SHOWHIST
280
     1
  9
$DWFFRAME
280
     2
  9
$DGNFRAME
280
     2
  9
$REALWORLDSCALE
290
     1
  9
$INTERFERECOLOR
 62
   256
  9
$CSHADOW
280
     0
  9
$SHADOWPLANELOCATION
 40
0.0
  0
ENDSEC
  0
SECTION
  2
CLASSES
  0
CLASS
  1
ACDBDICTIONARYWDFLT
  2
AcDbDictionaryWithDefault
  3
ObjectDBX Classes
 90
        0
 91
        6
280
     0
281
     0
  0
CLASS
  1
ACDBPLACEHOLDER
  2
AcDbPlaceHolder
  3
ObjectDBX Classes
 90
        0
 91
        1
280
     0
281
     0
  0
CLASS
  1
LAYOUT
  2
AcDbLayout
  3
ObjectDBX Classes
 90
        0
 91
        1
280
     0
281
     0
  0
CLASS
  1
TABLESTYLE
  2
AcDbTableStyle
  3
ObjectDBX Classes
 90
     4095
 91
        5
280
     0
281
     0
  0
CLASS
  1
ACAD_TABLE
  2
AcDbTable
  3
ObjectDBX Classes
 90
     1025
 91
        5
280
     0
281
     1
  0
CLASS
  1
SCALE
  2
AcDbScale
  3
ObjectDBX Classes
 90
     1153
 91
        5
280
     0
281
     0
  0
CLASS
  1
TABLEGEOMETRY
  2
AcDbTableGeometry
  3
ObjectDBX Classes
 90
     1152
 91
        4
280
     0
281
     0
  0
CLASS
  1
VISUALSTYLE
  2
AcDbVisualStyle
  3
ObjectDBX Classes
 90
     4095
 91
        5
280
     0
281
     0
  0
CLASS
  1
MATERIAL
  2
AcDbMaterial
  3
ObjectDBX Classes
 90
     1153
 91
        5
280
     0
281
     0
  0
CLASS
  1
SUN
  2
AcDbSun
  3
SCENEOE
 90
     1153
 91
        5
280
     0
281
     0
  0
CLASS
  1
CSACDOCUMENTOPTIONS
  2
CDocDataContainer
  3
"DERU003_CSAPP"
 90
     4095
 91
        4
280
     0
281
     0
  0
CLASS
  1
TABLECONTENT
  2
AcDbTableContent
  3
ObjectDBX Classes
 90
     1152
 91
        4
280
     0
281
     0
  0
CLASS
  1
DICTIONARYVAR
  2
AcDbDictionaryVar
  3
ObjectDBX Classes
 90
        0
 91
        4
280
     0
281
     0
  0
CLASS
  1
CELLSTYLEMAP
  2
AcDbCellStyleMap
  3
ObjectDBX Classes
 90
     1152
 91
        4
280
     0
281
     0
  0
ENDSEC
  0
SECTION
  2
TABLES
  0
TABLE
  2
VPORT
  5
8
330
0
100
AcDbSymbolTable
 70
     1
  0
VPORT
  5
1F4
330
8
100
AcDbSymbolTableRecord
100
AcDbViewportTableRecord
  2
*ACTIVE
 70
     0
 10
0.0
 20
0.0
 11
1.0
 21
1.0
 12
210.0
 22
148.5
 13
0.0
 23
0.0
 14
1.0
 24
1.0
 15
0.0
 25
0.0
 16
0.0
 26
0.0
 36
1.0
 17
0.0
 27
0.0
 37
0.0
 40
297.0
 41
1.980415
 42
50.0
 43
0.0
 44
0.0
 50
0.0
 51
0.0
 71
    16
 72
   100
 73
     1
 74
     1
 75
     0
 76
     0
 77
     0
 78
     0
281
     0
 65
     1
110
0.0
120
0.0
130
0.0
111
1.0
121
0.0
131
0.0
112
0.0
122
1.0
132
0.0
 79
     0
146
0.0
 60
     3
 61
     5
292
     1
282
     1
141
0.0
142
0.0
 63
   256
361
43C
  0
ENDTAB
  0
TABLE
  2
LTYPE
  5
5
330
0
100
AcDbSymbolTable
 70
     6
  0
LTYPE
  5
14
330
5
100
AcDbSymbolTableRecord
100
AcDbLinetypeTableRecord
  2
BYBLOCK
 70
     0
  3

 72
    65
 73
     0
 40
0.0
  0
LTYPE
  5
15
330
5
100
AcDbSymbolTableRecord
100
AcDbLinetypeTableRecord
  2
BYLAYER
 70
     0
  3

 72
    65
 73
     0
 40
0.0
  0
LTYPE
  5
16
330
5
100
AcDbSymbolTableRecord
100
AcDbLinetypeTableRecord
  2
CONTINUOUS
 70
     0
  3
Solid line
 72
    65
 73
     0
 40
0.0
  0
LTYPE
  5
1F5
330
5
100
AcDbSymbolTableRecord
100
AcDbLinetypeTableRecord
  2
CENTER
 70
     0
  3
____ _ ____ _ ____ _ ____ _ ____ _ ____ _ ____
 72
    65
 73
     4
 40
0.6
 49
0.375
 74
     0
 49
-0.075
 74
     0
 49
0.075
 74
     0
 49
-0.075
 74
     0
  0
LTYPE
  5
1F6
330
5
100
AcDbSymbolTableRecord
100
AcDbLinetypeTableRecord
  2
HIDDEN
 70
     0
  3
- - - - - - - - - - - - - - - - - - - -
 72
    65
 73
     2
 40
0.2
 49
0.1
 74
     0
 49
-0.1
 74
     0
  0
LTYPE
  5
1F7
330
5
100
AcDbSymbolTableRecord
100
AcDbLinetypeTableRecord
  2
PHANTOM
 70
     0
  3
_____ _ _ _____ _ _ _____ _ _ _____
 72
    65
 73
     6
 40
0.8
 49
0.45
 74
     0
 49
-0.05
 74
     0
 49
0.1
 74
     0
 49
-0.05
 74
     0
 49
0.1
 74
     0
 49
-0.05
 74
     0
  0
LTYPE
  5
1F8
330
5
100
AcDbSymbolTableRecord
100
AcDbLinetypeTableRecord
  2
DOT
 70
     0
  3
. . . . . . . . . . . . . . . . . . . .
 72
    65
 73
     2
 40
0.2
 49
0.1
 74
     0
 49
-0.1
 74
     0
  0
LTYPE
  5
1F9
330
5
100
AcDbSymbolTableRecord
100
AcDbLinetypeTableRecord
  2
DASHED
 70
     0
  3
- - - - - - - - - - - - - - - - - - - -
 72
    65
 73
     2
 40
0.2
 49
0.1
 74
     0
 49
-0.1
 74
     0
  0
ENDTAB
  0
TABLE
  2
LAYER
  5
2
330
0
100
AcDbSymbolTable
 70
    20
  0
LAYER
  5
10
330
2
100
AcDbSymbolTableRecord
100
AcDbLayerTableRecord
  2
0
 70
     0
 62
     7
  6
CONTINUOUS
370
    -3
390
F
347
436
348
0
  0
LAYER
  5
1FA
330
2
100
AcDbSymbolTableRecord
100
AcDbLayerTableRecord
  2
DEFAULT_1
 70
     0
 62
     7
  6
CENTER
370
    -3
390
F
347
436
348
0
  0
LAYER
  5
1FB
330
2
100
AcDbSymbolTableRecord
100
AcDbLayerTableRecord
  2
DEFAULT_2
 70
     0
 62
     8
  6
HIDDEN
370
    -3
390
F
347
436
348
0
  0
LAYER
  5
1FC
330
2
100
AcDbSymbolTableRecord
100
AcDbLayerTableRecord
  2
DEFAULT_3
 70
     0
 62
     7
  6
PHANTOM
370
    -3
390
F
347
436
348
0
  0
LAYER
  5
1FD
330
2
100
AcDbSymbolTableRecord
100
AcDbLayerTableRecord
  2
01___PRT_ALL_DTM_PLN
 70
     0
 62
     7
  6
CONTINUOUS
370
    -3
390
F
347
436
348
0
  0
LAYER
  5
1FE
330
2
100
AcDbSymbolTableRecord
100
AcDbLayerTableRecord
  2
01___PRT_DEF_DTM_PLN
 70
     0
 62
     7
  6
CONTINUOUS
370
    -3
390
F
347
436
348
0
  0
LAYER
  5
1FF
330
2
100
AcDbSymbolTableRecord
100
AcDbLayerTableRecord
  2
02___PRT_ALL_AXES
 70
     0
 62
     7
  6
CONTINUOUS
370
    -3
390
F
347
436
348
0
  0
LAYER
  5
200
330
2
100
AcDbSymbolTableRecord
100
AcDbLayerTableRecord
  2
03___PRT_ALL_CURVES
 70
     0
 62
     7
  6
CONTINUOUS
370
    -3
390
F
347
436
348
0
  0
LAYER
  5
201
330
2
100
AcDbSymbolTableRecord
100
AcDbLayerTableRecord
  2
04___PRT_ALL_DTM_PNT
 70
     0
 62
     7
  6
CONTINUOUS
370
    -3
390
F
347
436
348
0
  0
LAYER
  5
202
330
2
100
AcDbSymbolTableRecord
100
AcDbLayerTableRecord
  2
05___PRT_ALL_DTM_CSYS
 70
     0
 62
     7
  6
CONTINUOUS
370
    -3
390
F
347
436
348
0
  0
LAYER
  5
203
330
2
100
AcDbSymbolTableRecord
100
AcDbLayerTableRecord
  2
05___PRT_DEF_DTM_CSYS
 70
     0
 62
     7
  6
CONTINUOUS
370
    -3
390
F
347
436
348
0
  0
LAYER
  5
204
330
2
100
AcDbSymbolTableRecord
100
AcDbLayerTableRecord
  2
06___PRT_ALL_SURFS
 70
     0
 62
     7
  6
CONTINUOUS
370
    -3
390
F
347
436
348
0
  0
LAYER
  5
205
330
2
100
AcDbSymbolTableRecord
100
AcDbLayerTableRecord
  2
1_ALL_PLANES
 70
     0
 62
     7
  6
CONTINUOUS
370
    -3
390
F
347
436
348
0
  0
LAYER
  5
206
330
2
100
AcDbSymbolTableRecord
100
AcDbLayerTableRecord
  2
2_ALL_CSYS
 70
     0
 62
     7
  6
CONTINUOUS
370
    -3
390
F
347
436
348
0
  0
LAYER
  5
207
330
2
100
AcDbSymbolTableRecord
100
AcDbLayerTableRecord
  2
3_ALL_AXES
 70
     0
 62
     7
  6
CONTINUOUS
370
    -3
390
F
347
436
348
0
  0
LAYER
  5
208
330
2
100
AcDbSymbolTableRecord
100
AcDbLayerTableRecord
  2
4_ALL_POINTS
 70
     0
 62
     7
  6
CONTINUOUS
370
    -3
390
F
347
436
348
0
  0
LAYER
  5
209
330
2
100
AcDbSymbolTableRecord
100
AcDbLayerTableRecord
  2
5_ALL_CURVES
 70
     0
 62
     7
  6
CONTINUOUS
370
    -3
390
F
347
436
348
0
  0
LAYER
  5
20A
330
2
100
AcDbSymbolTableRecord
100
AcDbLayerTableRecord
  2
6_ALL_SURFS
 70
     0
 62
     7
  6
CONTINUOUS
370
    -3
390
F
347
436
348
0
  0
LAYER
  5
20B
330
2
100
AcDbSymbolTableRecord
100
AcDbLayerTableRecord
  2
7_ALL_FEATURES
 70
     0
 62
     7
  6
CONTINUOUS
370
    -3
390
F
347
436
348
0
  0
LAYER
  5
20C
330
2
100
AcDbSymbolTableRecord
100
AcDbLayerTableRecord
  2
9_SOLID
 70
     0
 62
     7
  6
CONTINUOUS
370
    -3
390
F
347
436
348
0
  0
ENDTAB
  0
TABLE
  2
STYLE
  5
3
330
0
100
AcDbSymbolTable
 70
     4
  0
STYLE
  5
11
330
3
100
AcDbSymbolTableRecord
100
AcDbTextStyleTableRecord
  2
STANDARD
 70
     0
 40
0.0
 41
1.0
 50
0.0
 71
     0
 42
0.2
  3
arial.ttf
  4

  0
STYLE
  5
20D
330
3
100
AcDbSymbolTableRecord
100
AcDbTextStyleTableRecord
  2
TEXTSTYLE_1
 70
     0
 40
0.0
 41
0.8
 50
0.0
 71
     0
 42
0.2
  3
gdt
  4

  0
STYLE
  5
20E
330
3
100
AcDbSymbolTableRecord
100
AcDbTextStyleTableRecord
  2
TEXTSTYLE_2
 70
     0
 40
0.0
 41
0.9
 50
0.0
 71
     0
 42
0.2
  3
txt
  4

  0
STYLE
  5
20F
330
3
100
AcDbSymbolTableRecord
100
AcDbTextStyleTableRecord
  2
TEXTSTYLE_3
 70
     0
 40
0.0
 41
0.9
 50
0.0
 71
     0
 42
0.2
  3
txt
  4

  0
ENDTAB
  0
TABLE
  2
VIEW
  5
6
330
0
100
AcDbSymbolTable
 70
     0
  0
ENDTAB
  0
TABLE
  2
UCS
  5
7
330
0
100
AcDbSymbolTable
 70
     0
  0
ENDTAB
  0
TABLE
  2
APPID
  5
9
330
0
100
AcDbSymbolTable
 70
     6
  0
APPID
  5
210
330
9
100
AcDbSymbolTableRecord
100
AcDbRegAppTableRecord
  2
ACAD
 70
     0
  0
APPID
  5
437
330
9
100
AcDbSymbolTableRecord
100
AcDbRegAppTableRecord
  2
MCS_DIM1
 70
     0
  0
APPID
  5
438
330
9
100
AcDbSymbolTableRecord
100
AcDbRegAppTableRecord
  2
McsXdata5
 70
     0
  0
APPID
  5
43B
330
9
100
AcDbSymbolTableRecord
100
AcDbRegAppTableRecord
  2
MCS_DOCUMENT_ID
 70
     0
  0
APPID
  5
441
330
9
100
AcDbSymbolTableRecord
100
AcDbRegAppTableRecord
  2
MCS_PARAMS_DATA
 70
     0
  0
APPID
  5
443
330
9
100
AcDbSymbolTableRecord
100
AcDbRegAppTableRecord
  2
MC_VERSION_DATA
 70
     0
  0
ENDTAB
  0
TABLE
  2
DIMSTYLE
  5
A
330
0
100
AcDbSymbolTable
 70
     2
100
AcDbDimStyleTable
  0
DIMSTYLE
105
21A
330
A
100
AcDbSymbolTableRecord
100
AcDbDimStyleTableRecord
  2
STANDARD
 70
     0
 41
2.5
 42
0.75
 44
0.75
 47
0.01
 48
0.01
 71
     1
 73
     0
 74
     0
 77
     1
 78
     8
 79
     2
140
3.0
147
0.625
171
     1
178
     0
179
     2
271
     2
272
     2
278
    44
284
     8
340
11
341
213
342
213
343
213
344
213
  0
DIMSTYLE
105
21B
330
A
100
AcDbSymbolTableRecord
100
AcDbDimStyleTableRecord
  2
DIMSTYLE_1
 70
     0
 41
2.5
 42
0.75
 44
0.75
 47
0.3
 48
0.3
 73
     0
 74
     0
 77
     1
 78
     8
 79
     2
140
3.0
147
0.75
171
     1
178
     0
179
     2
271
     2
272
     2
278
    44
284
     8
340
11
341
213
342
213
343
213
344
213
  0
ENDTAB
  0
TABLE
  2
BLOCK_RECORD
  5
1
330
0
100
AcDbSymbolTable
 70
     7
  0
BLOCK_RECORD
  5
211
330
1
100
AcDbSymbolTableRecord
100
AcDbBlockTableRecord
  2
*Model_Space
340
3F1
 70
     0
280
     1
281
     0
  0
BLOCK_RECORD
  5
212
330
1
100
AcDbSymbolTableRecord
100
AcDbBlockTableRecord
  2
*Paper_Space
340
3F2
 70
     0
280
     1
281
     0
  0
BLOCK_RECORD
  5
213
330
1
100
AcDbSymbolTableRecord
100
AcDbBlockTableRecord
  2
_CLOSED
340
0
102
{BLKREFS
331
264
331
265
331
26D
331
26E
331
276
331
277
331
27F
331
280
102
}
 70
     0
280
     1
281
     0
  0
BLOCK_RECORD
  5
214
330
1
100
AcDbSymbolTableRecord
100
AcDbBlockTableRecord
  2
*D1
340
0
 70
     0
280
     1
281
     0
  0
BLOCK_RECORD
  5
215
330
1
100
AcDbSymbolTableRecord
100
AcDbBlockTableRecord
  2
*D2
340
0
 70
     0
280
     1
281
     0
  0
BLOCK_RECORD
  5
216
330
1
100
AcDbSymbolTableRecord
100
AcDbBlockTableRecord
  2
*D3
340
0
 70
     0
280
     1
281
     0
  0
BLOCK_RECORD
  5
217
330
1
100
AcDbSymbolTableRecord
100
AcDbBlockTableRecord
  2
*D4
340
0
 70
     0
280
     1
281
     0
  0
BLOCK_RECORD
  5
218
330
1
100
AcDbSymbolTableRecord
100
AcDbBlockTableRecord
  2
LOGO2_BL0
340
0
102
{BLKREFS
331
3EE
102
}
 70
     0
280
     1
281
     0
  0
BLOCK_RECORD
  5
219
330
1
100
AcDbSymbolTableRecord
100
AcDbBlockTableRecord
  2
*T6
340
0
102
{BLKREFS
331
3EF
102
}
 70
     0
280
     1
281
     0
  0
ENDTAB
  0
ENDSEC
  0
SECTION
  2
BLOCKS
  0
BLOCK
  5
20
330
211
100
AcDbEntity
  8
0
100
AcDbBlockBegin
  2
*Model_Space
 70
     0
 10
0.0
 20
0.0
 30
0.0
  3
*Model_Space
  1
*Model_Space
  0
ENDBLK
  5
21
330
211
100
AcDbEntity
  8
0
100
AcDbBlockEnd
  0
BLOCK
  5
1C
330
212
100
AcDbEntity
 67
     1
  8
0
100
AcDbBlockBegin
  2
*Paper_Space
 70
     0
 10
0.0
 20
0.0
 30
0.0
  3
*Paper_Space
  1
*Paper_Space
  0
ENDBLK
  5
1D
330
212
100
AcDbEntity
 67
     1
  8
0
100
AcDbBlockEnd
  0
BLOCK
  5
258
330
213
100
AcDbEntity
  8
0
100
AcDbBlockBegin
  2
_CLOSED
 70
     0
 10
0.0
 20
0.0
 30
0.0
  3
_CLOSED
  1
_CLOSED
  0
LINE
  5
259
330
213
100
AcDbEntity
  8
0
  6
ByBlock
 62
     0
100
AcDbLine
 10
0.0
 20
0.0
 30
0.0
 11
-1.0
 21
0.2
 31
0.0
  0
LINE
  5
25A
330
213
100
AcDbEntity
  8
0
  6
ByBlock
 62
     0
100
AcDbLine
 10
-1.0
 20
0.2
 30
0.0
 11
-1.0
 21
-0.2
 31
0.0
  0
LINE
  5
25B
330
213
100
AcDbEntity
  8
0
  6
ByBlock
 62
     0
100
AcDbLine
 10
-1.0
 20
-0.2
 30
0.0
 11
0.0
 21
0.0
 31
0.0
  0
LINE
  5
25C
330
213
100
AcDbEntity
  8
0
  6
ByBlock
 62
     0
100
AcDbLine
 10
-1.0
 20
0.0
 30
0.0
 11
0.0
 21
0.0
 31
0.0
  0
ENDBLK
  5
25D
330
213
100
AcDbEntity
  8
0
  6
ByBlock
 62
     0
100
AcDbBlockEnd
  0
BLOCK
  5
25E
330
214
100
AcDbEntity
  8
0
100
AcDbBlockBegin
  2
*D1
 70
     1
 10
0.0
 20
0.0
 30
0.0
  3
*D1
  1
*D1
  0
MTEXT
  5
25F
330
214
100
AcDbEntity
  8
0
  6
Continuous
 62
     2
100
AcDbMText
 10
103.938163
 20
266.14506
 30
0.0
 40
3.0
 41
8.152416
 46
0.0
 71
     2
 72
     1
  1
58,5
 73
     1
 44
0.9
  0
LINE
  5
260
330
214
100
AcDbEntity
  8
0
  6
Continuous
 62
     2
100
AcDbLine
 10
74.688163
 20
254.151094
 30
0.0
 11
74.688163
 21
263.14506
 31
0.0
  0
LINE
  5
261
330
214
100
AcDbEntity
  8
0
  6
Continuous
 62
     2
100
AcDbLine
 10
133.188163
 20
253.348972
 30
0.0
 11
133.188163
 21
263.14506
 31
0.0
  0
LINE
  5
262
330
214
100
AcDbEntity
  8
0
  6
Continuous
 62
     2
100
AcDbLine
 10
74.688163
 20
262.39506
 30
0.0
 11
103.938163
 21
262.39506
 31
0.0
  0
LINE
  5
263
330
214
100
AcDbEntity
  8
0
  6
Continuous
 62
     2
100
AcDbLine
 10
133.188163
 20
262.39506
 30
0.0
 11
103.938163
 21
262.39506
 31
0.0
  0
INSERT
  5
264
330
214
100
AcDbEntity
  8
0
  6
Continuous
 62
     2
100
AcDbBlockReference
  2
_CLOSED
 10
74.688163
 20
262.39506
 30
0.0
 41
2.5
 42
2.5
 43
2.5
 50
180.0
  0
INSERT
  5
265
330
214
100
AcDbEntity
  8
0
  6
Continuous
 62
     2
100
AcDbBlockReference
  2
_CLOSED
 10
133.188163
 20
262.39506
 30
0.0
 41
2.5
 42
2.5
 43
2.5
  0
ENDBLK
  5
266
330
214
100
AcDbEntity
  8
0
  6
ByBlock
 62
     0
100
AcDbBlockEnd
  0
BLOCK
  5
267
330
215
100
AcDbEntity
  8
0
100
AcDbBlockBegin
  2
*D2
 70
     1
 10
0.0
 20
0.0
 30
0.0
  3
*D2
  1
*D2
  0
MTEXT
  5
268
330
215
100
AcDbEntity
  8
0
  6
Continuous
 62
     2
100
AcDbMText
 10
149.067473
 20
216.322447
 30
0.0
 40
3.0
 41
8.152416
 46
0.0
 71
     2
 72
     1
  1
58,5
 11
0.0
 21
1.0
 31
0.0
 73
     1
 44
0.9
  0
LINE
  5
269
330
215
100
AcDbEntity
  8
0
  6
Continuous
 62
     2
100
AcDbLine
 10
142.167871
 20
245.572447
 30
0.0
 11
153.567473
 21
245.572447
 31
0.0
  0
LINE
  5
26A
330
215
100
AcDbEntity
  8
0
  6
Continuous
 62
     2
100
AcDbLine
 10
141.56628
 20
187.072447
 30
0.0
 11
153.567473
 21
187.072447
 31
0.0
  0
LINE
  5
26B
330
215
100
AcDbEntity
  8
0
  6
Continuous
 62
     2
100
AcDbLine
 10
152.817473
 20
245.572447
 30
0.0
 11
152.817473
 21
216.322447
 31
0.0
  0
LINE
  5
26C
330
215
100
AcDbEntity
  8
0
  6
Continuous
 62
     2
100
AcDbLine
 10
152.817473
 20
187.072447
 30
0.0
 11
152.817473
 21
216.322447
 31
0.0
  0
INSERT
  5
26D
330
215
100
AcDbEntity
  8
0
  6
Continuous
 62
     2
100
AcDbBlockReference
  2
_CLOSED
 10
152.817473
 20
245.572447
 30
0.0
 41
2.5
 42
2.5
 43
2.5
 50
90.0
  0
INSERT
  5
26E
330
215
100
AcDbEntity
  8
0
  6
Continuous
 62
     2
100
AcDbBlockReference
  2
_CLOSED
 10
152.817473
 20
187.072447
 30
0.0
 41
2.5
 42
2.5
 43
2.5
 50
270.0
  0
ENDBLK
  5
26F
330
215
100
AcDbEntity
  8
0
  6
ByBlock
 62
     0
100
AcDbBlockEnd
  0
BLOCK
  5
270
330
216
100
AcDbEntity
  8
0
100
AcDbBlockBegin
  2
*D3
 70
     1
 10
0.0
 20
0.0
 30
0.0
  3
*D3
  1
*D3
  0
MTEXT
  5
271
330
216
100
AcDbEntity
  8
0
  6
Continuous
 62
     2
100
AcDbMText
 10
174.447115
 20
211.322447
 30
0.0
 40
3.0
 41
8.152416
 46
0.0
 71
     2
 72
     1
  1
68,5
 11
0.0
 21
1.0
 31
0.0
 73
     1
 44
0.9
  0
LINE
  5
272
330
216
100
AcDbEntity
  8
0
  6
Continuous
 62
     2
100
AcDbLine
 10
187.590816
 20
245.572447
 30
0.0
 11
177.447115
 21
245.572447
 31
0.0
  0
LINE
  5
273
330
216
100
AcDbEntity
  8
0
  6
Continuous
 62
     2
100
AcDbLine
 10
188.387633
 20
177.072447
 30
0.0
 11
177.447115
 21
177.072447
 31
0.0
  0
LINE
  5
274
330
216
100
AcDbEntity
  8
0
  6
Continuous
 62
     2
100
AcDbLine
 10
178.197115
 20
245.572447
 30
0.0
 11
178.197115
 21
211.322447
 31
0.0
  0
LINE
  5
275
330
216
100
AcDbEntity
  8
0
  6
Continuous
 62
     2
100
AcDbLine
 10
178.197115
 20
177.072447
 30
0.0
 11
178.197115
 21
211.322447
 31
0.0
  0
INSERT
  5
276
330
216
100
AcDbEntity
  8
0
  6
Continuous
 62
     2
100
AcDbBlockReference
  2
_CLOSED
 10
178.197115
 20
245.572447
 30
0.0
 41
2.5
 42
2.5
 43
2.5
 50
90.0
  0
INSERT
  5
277
330
216
100
AcDbEntity
  8
0
  6
Continuous
 62
     2
100
AcDbBlockReference
  2
_CLOSED
 10
178.197115
 20
177.072447
 30
0.0
 41
2.5
 42
2.5
 43
2.5
 50
270.0
  0
ENDBLK
  5
278
330
216
100
AcDbEntity
  8
0
  6
ByBlock
 62
     0
100
AcDbBlockEnd
  0
BLOCK
  5
279
330
217
100
AcDbEntity
  8
0
100
AcDbBlockBegin
  2
*D4
 70
     1
 10
0.0
 20
0.0
 30
0.0
  3
*D4
  1
*D4
  0
MTEXT
  5
27A
330
217
100
AcDbEntity
  8
0
  6
Continuous
 62
     2
100
AcDbMText
 10
149.694131
 20
90.377487
 30
0.0
 40
3.0
 41
4.66171
 46
0.0
 71
     2
 72
     1
  1
60
 11
0.0
 21
1.0
 31
0.0
 73
     1
 44
0.9
  0
LINE
  5
27B
330
217
100
AcDbEntity
  8
0
  6
Continuous
 62
     2
100
AcDbLine
 10
143.220656
 20
120.377487
 30
0.0
 11
154.194131
 21
120.377487
 31
0.0
  0
LINE
  5
27C
330
217
100
AcDbEntity
  8
0
  6
Continuous
 62
     2
100
AcDbLine
 10
143.721983
 20
60.377487
 30
0.0
 11
154.194131
 21
60.377487
 31
0.0
  0
LINE
  5
27D
330
217
100
AcDbEntity
  8
0
  6
Continuous
 62
     2
100
AcDbLine
 10
153.444131
 20
120.377487
 30
0.0
 11
153.444131
 21
90.377487
 31
0.0
  0
LINE
  5
27E
330
217
100
AcDbEntity
  8
0
  6
Continuous
 62
     2
100
AcDbLine
 10
153.444131
 20
60.377487
 30
0.0
 11
153.444131
 21
90.377487
 31
0.0
  0
INSERT
  5
27F
330
217
100
AcDbEntity
  8
0
  6
Continuous
 62
     2
100
AcDbBlockReference
  2
_CLOSED
 10
153.444131
 20
120.377487
 30
0.0
 41
2.5
 42
2.5
 43
2.5
 50
90.0
  0
INSERT
  5
280
330
217
100
AcDbEntity
  8
0
  6
Continuous
 62
     2
100
AcDbBlockReference
  2
_CLOSED
 10
153.444131
 20
60.377487
 30
0.0
 41
2.5
 42
2.5
 43
2.5
 50
270.0
  0
ENDBLK
  5
281
330
217
100
AcDbEntity
  8
0
  6
ByBlock
 62
     0
100
AcDbBlockEnd
  0
BLOCK
  5
21C
330
218
100
AcDbEntity
  8
0
100
AcDbBlockBegin
  2
LOGO2_BL0
 70
     0
 10
333.831816
 20
36.583206
 30
0.0
  3
LOGO2_BL0
  1
LOGO2_BL0
  0
LINE
  5
21D
330
218
100
AcDbEntity
  8
0
  6
Continuous
 62
     7
100
AcDbLine
 10
325.574742
 20
39.778698
 30
0.0
 11
324.270401
 21
39.778698
 31
0.0
  0
LINE
  5
21E
330
218
100
AcDbEntity
  8
0
  6
Continuous
 62
     7
100
AcDbLine
 10
324.270401
 20
39.778698
 30
0.0
 11
324.270401
 21
29.319632
 31
0.0
  0
LINE
  5
21F
330
218
100
AcDbEntity
  8
0
  6
Continuous
 62
     7
100
AcDbLine
 10
324.270401
 20
29.319632
 30
0.0
 11
328.751456
 21
29.319632
 31
0.0
  0
LINE
  5
220
330
218
100
AcDbEntity
  8
0
  6
Continuous
 62
     7
100
AcDbLine
 10
328.751456
 20
29.319632
 30
0.0
 11
328.751456
 21
30.512486
 31
0.0
  0
LINE
  5
221
330
218
100
AcDbEntity
  8
0
  6
Continuous
 62
     7
100
AcDbLine
 10
328.751456
 20
30.512486
 30
0.0
 11
325.574742
 21
30.512486
 31
0.0
  0
LINE
  5
222
330
218
100
AcDbEntity
  8
0
  6
Continuous
 62
     7
100
AcDbLine
 10
325.574742
 20
30.512486
 30
0.0
 11
325.574742
 21
39.778698
 31
0.0
  0
LINE
  5
223
330
218
100
AcDbEntity
  8
0
  6
Continuous
 62
     7
100
AcDbLine
 10
340.511068
 20
39.778698
 30
0.0
 11
339.20725
 21
39.778698
 31
0.0
  0
LINE
  5
224
330
218
100
AcDbEntity
  8
0
  6
Continuous
 62
     7
100
AcDbLine
 10
339.20725
 20
39.778698
 30
0.0
 11
339.20725
 21
29.319632
 31
0.0
  0
LINE
  5
225
330
218
100
AcDbEntity
  8
0
  6
Continuous
 62
     7
100
AcDbLine
 10
339.20725
 20
29.319632
 30
0.0
 11
343.688436
 21
29.319632
 31
0.0
  0
LINE
  5
226
330
218
100
AcDbEntity
  8
0
  6
Continuous
 62
     7
100
AcDbLine
 10
343.688436
 20
29.319632
 30
0.0
 11
343.688436
 21
30.512486
 31
0.0
  0
LINE
  5
227
330
218
100
AcDbEntity
  8
0
  6
Continuous
 62
     7
100
AcDbLine
 10
343.688436
 20
30.512486
 30
0.0
 11
340.511068
 21
30.512486
 31
0.0
  0
LINE
  5
228
330
218
100
AcDbEntity
  8
0
  6
Continuous
 62
     7
100
AcDbLine
 10
340.511068
 20
30.512486
 30
0.0
 11
340.511068
 21
39.778698
 31
0.0
  0
LWPOLYLINE
  5
229
330
218
100
AcDbEntity
  8
0
  6
Continuous
 62
     7
100
AcDbPolyline
 90
        2
 70
     0
 43
0.2
 10
322.624796
 20
25.97608
 10
322.624796
 20
24.119017
  0
LWPOLYLINE
  5
22A
330
218
100
AcDbEntity
  8
0
  6
Continuous
 62
     7
100
AcDbPolyline
 90
        2
 70
     0
 43
0.2
 10
322.624796
 20
24.119017
 10
323.420512
 20
24.119017
  0
LWPOLYLINE
  5
22B
330
218
100
AcDbEntity
  8
0
  6
Continuous
 62
     7
100
AcDbPolyline
 90
        2
 70
     0
 43
0.2
 10
323.420512
 20
24.119017
 10
323.420512
 20
24.330999
  0
LWPOLYLINE
  5
22C
330
218
100
AcDbEntity
  8
0
  6
Continuous
 62
     7
100
AcDbPolyline
 90
        2
 70
     0
 43
0.2
 10
323.420512
 20
24.330999
 10
322.856405
 20
24.330999
  0
LWPOLYLINE
  5
22D
330
218
100
AcDbEntity
  8
0
  6
Continuous
 62
     7
100
AcDbPolyline
 90
        2
 70
     0
 43
0.2
 10
322.856405
 20
24.330999
 10
322.856405
 20
25.97608
  0
LWPOLYLINE
  5
22E
330
218
100
AcDbEntity
  8
0
  6
Continuous
 62
     7
100
AcDbPolyline
 90
        2
 70
     0
 43
0.2
 10
322.856405
 20
25.97608
 10
322.624796
 20
25.97608
  0
SPLINE
  5
22F
330
218
100
AcDbEntity
  8
0
  6
Continuous
 62
     7
100
AcDbSpline
 70
     3
 71
     3
 72
    35
 73
    31
 74
     0
 42
0.000000001
 43
0.0000001
 40
0.0
 40
0.0
 40
0.0
 40
0.0
 40
1.0
 40
1.0
 40
1.0
 40
2.0
 40
2.0
 40
2.0
 40
3.0
 40
3.0
 40
3.0
 40
4.0
 40
4.0
 40
4.0
 40
5.0
 40
5.0
 40
5.0
 40
6.0
 40
6.0
 40
6.0
 40
7.0
 40
7.0
 40
7.0
 40
8.0
 40
8.0
 40
8.0
 40
9.0
 40
9.0
 40
9.0
 40
10.0
 40
10.0
 40
10.0
 40
10.0
 10
324.8188048989
 20
25.271568796
 30
0.0
 10
324.8188048989
 20
25.271568796
 30
0.0
 10
324.8188048989
 20
24.6094535168
 30
0.0
 10
324.8188048989
 20
24.6094535168
 30
0.0
 10
324.8188048989
 20
24.2943599215
 30
0.0
 10
324.9666685878
 20
24.0797612935
 30
0.0
 10
325.3067550721
 20
24.0797612935
 30
0.0
 10
325.6463181451
 20
24.0797612935
 30
0.0
 10
325.7944435395
 20
24.2943599215
 30
0.0
 10
325.7944435395
 20
24.6094535168
 30
0.0
 10
325.7944435395
 20
24.6094535168
 30
0.0
 10
325.7944435395
 20
25.271568796
 30
0.0
 10
325.7944435395
 20
25.271568796
 30
0.0
 10
325.7944435395
 20
25.271568796
 30
0.0
 10
325.5723863007
 20
25.271568796
 30
0.0
 10
325.5723863007
 20
25.271568796
 30
0.0
 10
325.5723863007
 20
25.271568796
 30
0.0
 10
325.5723863007
 20
24.6345772586
 30
0.0
 10
325.5723863007
 20
24.6345772586
 30
0.0
 10
325.5723863007
 20
24.4487662514
 30
0.0
 10
325.5256718432
 20
24.2859853409
 30
0.0
 10
325.3067550721
 20
24.2859853409
 30
0.0
 10
325.0873148896
 20
24.2859853409
 30
0.0
 10
325.0406004322
 20
24.4487662514
 30
0.0
 10
325.0406004322
 20
24.6345772586
 30
0.0
 10
325.0406004322
 20
24.6345772586
 30
0.0
 10
325.0406004322
 20
25.271568796
 30
0.0
 10
325.0406004322
 20
25.271568796
 30
0.0
 10
325.0406004322
 20
25.271568796
 30
0.0
 10
324.8188048989
 20
25.271568796
 30
0.0
 10
324.8188048989
 20
25.271568796
 30
0.0
  0
SPLINE
  5
230
330
218
100
AcDbEntity
  8
0
  6
Continuous
 62
     7
100
AcDbSpline
 70
     3
 71
     3
 72
    35
 73
    31
 74
     0
 42
0.000000001
 43
0.0000001
 40
0.0
 40
0.0
 40
0.0
 40
0.0
 40
1.0
 40
1.0
 40
1.0
 40
2.0
 40
2.0
 40
2.0
 40
3.0
 40
3.0
 40
3.0
 40
4.0
 40
4.0
 40
4.0
 40
5.0
 40
5.0
 40
5.0
 40
6.0
 40
6.0
 40
6.0
 40
7.0
 40
7.0
 40
7.0
 40
8.0
 40
8.0
 40
8.0
 40
9.0
 40
9.0
 40
9.0
 40
10.0
 40
10.0
 40
10.0
 40
10.0
 10
328.2175760967
 20
25.2302193042
 30
0.0
 10
328.1291195891
 20
25.2815136104
 30
0.0
 10
328.0156701924
 20
25.3066373523
 30
0.0
 10
327.9120347574
 20
25.3066373523
 30
0.0
 10
327.5571619043
 20
25.3066373523
 30
0.0
 10
327.281716714
 20
25.0428380632
 30
0.0
 10
327.281716714
 20
24.6853481536
 30
0.0
 10
327.281716714
 20
24.3404201149
 30
0.0
 10
327.5601715192
 20
24.0802847048
 30
0.0
 10
327.8997345922
 20
24.0802847048
 30
0.0
 10
328.0156701924
 20
24.0802847048
 30
0.0
 10
328.1164268653
 20
24.1022679789
 30
0.0
 10
328.2175760967
 20
24.1561793415
 30
0.0
 10
328.2175760967
 20
24.1561793415
 30
0.0
 10
328.2175760967
 20
24.438821437
 30
0.0
 10
328.2175760967
 20
24.438821437
 30
0.0
 10
328.1336994378
 20
24.3456542277
 30
0.0
 10
328.0301948557
 20
24.2865087522
 30
0.0
 10
327.902089943
 20
24.2865087522
 30
0.0
 10
327.6683868029
 20
24.2865087522
 30
0.0
 10
327.5031196888
 20
24.4587110659
 30
0.0
 10
327.5031196888
 20
24.695292968
 30
0.0
 10
327.5031196888
 20
24.9072745396
 30
0.0
 10
327.6708730065
 20
25.0993664823
 30
0.0
 10
327.8876961325
 20
25.0993664823
 30
0.0
 10
328.0205117468
 20
25.0993664823
 30
0.0
 10
328.1291195891
 20
25.0454551196
 30
0.0
 10
328.2175760967
 20
24.9444367411
 30
0.0
 10
328.2175760967
 20
24.9444367411
 30
0.0
 10
328.2175760967
 20
25.2302193042
 30
0.0
 10
328.2175760967
 20
25.2302193042
 30
0.0
  0
SPLINE
  5
231
330
218
100
AcDbEntity
  8
0
  6
Continuous
 62
     7
100
AcDbSpline
 70
     3
 71
     3
 72
    32
 73
    28
 74
     0
 42
0.000000001
 43
0.0000001
 40
0.0
 40
0.0
 40
0.0
 40
0.0
 40
1.0
 40
1.0
 40
1.0
 40
2.0
 40
2.0
 40
2.0
 40
3.0
 40
3.0
 40
3.0
 40
4.0
 40
4.0
 40
4.0
 40
5.0
 40
5.0
 40
5.0
 40
6.0
 40
6.0
 40
6.0
 40
7.0
 40
7.0
 40
7.0
 40
8.0
 40
8.0
 40
8.0
 40
9.0
 40
9.0
 40
9.0
 40
9.0
 10
330.749447349
 20
24.6586541779
 30
0.0
 10
330.749447349
 20
24.6586541779
 30
0.0
 10
330.749447349
 20
24.6926759116
 30
0.0
 10
330.749447349
 20
24.6926759116
 30
0.0
 10
330.749447349
 20
25.0349868939
 30
0.0
 10
330.5765907712
 20
25.3066373523
 30
0.0
 10
330.209941164
 20
25.3066373523
 30
0.0
 10
329.8383191496
 20
25.3066373523
 30
0.0
 10
329.6485825578
 20
25.0402210067
 30
0.0
 10
329.6485825578
 20
24.6853481536
 30
0.0
 10
329.6485825578
 20
24.3456542277
 30
0.0
 10
329.8626577745
 20
24.0797612935
 30
0.0
 10
330.2147827184
 20
24.0797612935
 30
0.0
 10
330.4388027496
 20
24.0797612935
 30
0.0
 10
330.6409703596
 20
24.1954351881
 30
0.0
 10
330.749447349
 20
24.3948548888
 30
0.0
 10
330.749447349
 20
24.3948548888
 30
0.0
 10
330.5618044023
 20
24.5016307915
 30
0.0
 10
330.5618044023
 20
24.5016307915
 30
0.0
 10
330.4783203019
 20
24.3629268002
 30
0.0
 10
330.3871158849
 20
24.277087349
 30
0.0
 10
330.2175306277
 20
24.277087349
 30
0.0
 10
330.0055490561
 20
24.277087349
 30
0.0
 10
329.872602589
 20
24.4618515336
 30
0.0
 10
329.8702472382
 20
24.6586541779
 30
0.0
 10
329.8702472382
 20
24.6586541779
 30
0.0
 10
330.749447349
 20
24.6586541779
 30
0.0
 10
330.749447349
 20
24.6586541779
 30
0.0
  0
SPLINE
  5
232
330
218
100
AcDbEntity
  8
0
  6
Continuous
 62
     7
100
AcDbSpline
 70
     3
 71
     3
 72
    14
 73
    10
 74
     0
 42
0.000000001
 43
0.0000001
 40
0.0
 40
0.0
 40
0.0
 40
0.0
 40
1.0
 40
1.0
 40
1.0
 40
2.0
 40
2.0
 40
2.0
 40
3.0
 40
3.0
 40
3.0
 40
3.0
 10
329.8822856978
 20
24.82614579
 30
0.0
 10
329.9098956432
 20
24.9910203457
 30
0.0
 10
330.0377388503
 20
25.1140219983
 30
0.0
 10
330.209941164
 20
25.1140219983
 30
0.0
 10
330.3871158849
 20
25.1140219983
 30
0.0
 10
330.5005652816
 20
24.9983481037
 30
0.0
 10
330.5277826686
 20
24.82614579
 30
0.0
 10
330.5277826686
 20
24.82614579
 30
0.0
 10
329.8822856978
 20
24.82614579
 30
0.0
 10
329.8822856978
 20
24.82614579
 30
0.0
  0
SPLINE
  5
233
330
218
100
AcDbEntity
  8
0
  6
Continuous
 62
     7
100
AcDbSpline
 70
     3
 71
     3
 72
    20
 73
    16
 74
     0
 42
0.000000001
 43
0.0000001
 40
0.0
 40
0.0
 40
0.0
 40
0.0
 40
1.0
 40
1.0
 40
1.0
 40
2.0
 40
2.0
 40
2.0
 40
3.0
 40
3.0
 40
3.0
 40
4.0
 40
4.0
 40
4.0
 40
5.0
 40
5.0
 40
5.0
 40
5.0
 10
332.7734787992
 20
25.0355103051
 30
0.0
 10
332.7734787992
 20
25.0355103051
 30
0.0
 10
333.1846183658
 20
24.5330354688
 30
0.0
 10
333.1846183658
 20
24.5330354688
 30
0.0
 10
333.0685519127
 20
24.4173615742
 30
0.0
 10
332.9307638912
 20
24.2870321635
 30
0.0
 10
332.7588232831
 20
24.2870321635
 30
0.0
 10
332.5813868565
 20
24.2870321635
 30
0.0
 10
332.4138952444
 20
24.4513833079
 30
0.0
 10
332.4138952444
 20
24.6282963232
 30
0.0
 10
332.4138952444
 20
24.8062561611
 30
0.0
 10
332.623652318
 20
24.9323982814
 30
0.0
 10
332.7512338194
 20
25.0203313778
 30
0.0
 10
332.7512338194
 20
25.0203313778
 30
0.0
 10
332.7734787992
 20
25.0355103051
 30
0.0
 10
332.7734787992
 20
25.0355103051
 30
0.0
  0
SPLINE
  5
234
330
218
100
AcDbEntity
  8
0
  6
Continuous
 62
     7
100
AcDbSpline
 70
     3
 71
     3
 72
    23
 73
    19
 74
     0
 42
0.000000001
 43
0.0000001
 40
0.0
 40
0.0
 40
0.0
 40
0.0
 40
1.0
 40
1.0
 40
1.0
 40
2.0
 40
2.0
 40
2.0
 40
3.0
 40
3.0
 40
3.0
 40
4.0
 40
4.0
 40
4.0
 40
5.0
 40
5.0
 40
5.0
 40
6.0
 40
6.0
 40
6.0
 40
6.0
 10
332.8228103131
 20
25.3265269812
 30
0.0
 10
332.8228103131
 20
25.3265269812
 30
0.0
 10
332.7611786339
 20
25.4050386744
 30
0.0
 10
332.7611786339
 20
25.4050386744
 30
0.0
 10
332.7072672713
 20
25.4736055531
 30
0.0
 10
332.6504771465
 20
25.5426958431
 30
0.0
 10
332.6504771465
 20
25.6363864636
 30
0.0
 10
332.6504771465
 20
25.755200826
 30
0.0
 10
332.746392265
 20
25.8326656966
 30
0.0
 10
332.8573554581
 20
25.8326656966
 30
0.0
 10
332.9806188163
 20
25.8326656966
 30
0.0
 10
333.0739168784
 20
25.7614817614
 30
0.0
 10
333.0739168784
 20
25.6311523507
 30
0.0
 10
333.0739168784
 20
25.4961122385
 30
0.0
 10
332.9458119657
 20
25.4196941904
 30
0.0
 10
332.852252198
 20
25.3458931989
 30
0.0
 10
332.852252198
 20
25.3458931989
 30
0.0
 10
332.8228103131
 20
25.3265269812
 30
0.0
 10
332.8228103131
 20
25.3265269812
 30
0.0
  0
SPLINE
  5
235
330
218
100
AcDbEntity
  8
0
  6
Continuous
 62
     7
100
AcDbSpline
 70
     3
 71
     3
 72
    50
 73
    46
 74
     0
 42
0.000000001
 43
0.0000001
 40
0.0
 40
0.0
 40
0.0
 40
0.0
 40
1.0
 40
1.0
 40
1.0
 40
2.0
 40
2.0
 40
2.0
 40
3.0
 40
3.0
 40
3.0
 40
4.0
 40
4.0
 40
4.0
 40
5.0
 40
5.0
 40
5.0
 40
6.0
 40
6.0
 40
6.0
 40
7.0
 40
7.0
 40
7.0
 40
8.0
 40
8.0
 40
8.0
 40
9.0
 40
9.0
 40
9.0
 40
10.0
 40
10.0
 40
10.0
 40
11.0
 40
11.0
 40
11.0
 40
12.0
 40
12.0
 40
12.0
 40
13.0
 40
13.0
 40
13.0
 40
14.0
 40
14.0
 40
14.0
 40
15.0
 40
15.0
 40
15.0
 40
15.0
 10
333.5249665557
 20
24.1195405514
 30
0.0
 10
333.5249665557
 20
24.1195405514
 30
0.0
 10
333.8103565604
 20
24.1195405514
 30
0.0
 10
333.8103565604
 20
24.1195405514
 30
0.0
 10
333.8103565604
 20
24.1195405514
 30
0.0
 10
333.4779903926
 20
24.5304184124
 30
0.0
 10
333.4779903926
 20
24.5304184124
 30
0.0
 10
333.4779903926
 20
24.5304184124
 30
0.0
 10
333.7044966275
 20
24.7963113466
 30
0.0
 10
333.7044966275
 20
24.7963113466
 30
0.0
 10
333.7044966275
 20
24.7963113466
 30
0.0
 10
333.5562403802
 20
24.9491474426
 30
0.0
 10
333.5562403802
 20
24.9491474426
 30
0.0
 10
333.5562403802
 20
24.9491474426
 30
0.0
 10
333.3403332239
 20
24.6979100245
 30
0.0
 10
333.3403332239
 20
24.6979100245
 30
0.0
 10
333.3403332239
 20
24.6979100245
 30
0.0
 10
332.9532705766
 20
25.1658397158
 30
0.0
 10
332.9532705766
 20
25.1658397158
 30
0.0
 10
333.1087237291
 20
25.2799433766
 30
0.0
 10
333.2910017101
 20
25.4196941904
 30
0.0
 10
333.2910017101
 20
25.6290587056
 30
0.0
 10
333.2910017101
 20
25.8729683657
 30
0.0
 10
333.0889649529
 20
26.0163830586
 30
0.0
 10
332.8624587181
 20
26.0163830586
 30
0.0
 10
332.6182873523
 20
26.0163830586
 30
0.0
 10
332.4339157262
 20
25.8656406077
 30
0.0
 10
332.4339157262
 20
25.6091690767
 30
0.0
 10
332.4339157262
 20
25.451622279
 30
0.0
 10
332.5325787539
 20
25.3139651103
 30
0.0
 10
332.6379152756
 20
25.2030019173
 30
0.0
 10
332.6379152756
 20
25.2030019173
 30
0.0
 10
332.5223722338
 20
25.1192561112
 30
0.0
 10
332.5223722338
 20
25.1192561112
 30
0.0
 10
332.3446741016
 20
24.9910203457
 30
0.0
 10
332.197333824
 20
24.8633079914
 30
0.0
 10
332.197333824
 20
24.626202678
 30
0.0
 10
332.197333824
 20
24.3058749699
 30
0.0
 10
332.4558990003
 20
24.0797612935
 30
0.0
 10
332.766281894
 20
24.0797612935
 30
0.0
 10
332.9851986651
 20
24.0797612935
 30
0.0
 10
333.1823938678
 20
24.2048565913
 30
0.0
 10
333.322668093
 20
24.3707779695
 30
0.0
 10
333.322668093
 20
24.3707779695
 30
0.0
 10
333.5249665557
 20
24.1195405514
 30
0.0
 10
333.5249665557
 20
24.1195405514
 30
0.0
  0
LWPOLYLINE
  5
236
330
218
100
AcDbEntity
  8
0
  6
Continuous
 62
     7
100
AcDbPolyline
 90
        2
 70
     0
 43
0.2
 10
335.460411
 20
25.97608
 10
335.229063
 20
25.97608
  0
LWPOLYLINE
  5
237
330
218
100
AcDbEntity
  8
0
  6
Continuous
 62
     7
100
AcDbPolyline
 90
        2
 70
     0
 43
0.2
 10
335.229063
 20
25.97608
 10
335.229063
 20
24.119017
  0
LWPOLYLINE
  5
238
330
218
100
AcDbEntity
  8
0
  6
Continuous
 62
     7
100
AcDbPolyline
 90
        2
 70
     0
 43
0.2
 10
335.229063
 20
24.119017
 10
336.024386
 20
24.119017
  0
LWPOLYLINE
  5
239
330
218
100
AcDbEntity
  8
0
  6
Continuous
 62
     7
100
AcDbPolyline
 90
        2
 70
     0
 43
0.2
 10
336.024386
 20
24.119017
 10
336.024386
 20
24.330999
  0
LWPOLYLINE
  5
23A
330
218
100
AcDbEntity
  8
0
  6
Continuous
 62
     7
100
AcDbPolyline
 90
        2
 70
     0
 43
0.2
 10
336.024386
 20
24.330999
 10
335.460411
 20
24.330999
  0
LWPOLYLINE
  5
23B
330
218
100
AcDbEntity
  8
0
  6
Continuous
 62
     7
100
AcDbPolyline
 90
        2
 70
     0
 43
0.2
 10
335.460411
 20
24.330999
 10
335.460411
 20
25.97608
  0
LWPOLYLINE
  5
23C
330
218
100
AcDbEntity
  8
0
  6
Continuous
 62
     7
100
AcDbPolyline
 90
        2
 70
     0
 43
0.2
 10
337.70349
 20
25.271569
 10
337.482348
 20
25.271569
  0
LWPOLYLINE
  5
23D
330
218
100
AcDbEntity
  8
0
  6
Continuous
 62
     7
100
AcDbPolyline
 90
        2
 70
     0
 43
0.2
 10
337.482348
 20
25.271569
 10
337.482348
 20
24.119541
  0
LWPOLYLINE
  5
23E
330
218
100
AcDbEntity
  8
0
  6
Continuous
 62
     7
100
AcDbPolyline
 90
        2
 70
     0
 43
0.2
 10
337.482348
 20
24.119541
 10
337.70349
 20
24.119541
  0
LWPOLYLINE
  5
23F
330
218
100
AcDbEntity
  8
0
  6
Continuous
 62
     7
100
AcDbPolyline
 90
        2
 70
     0
 43
0.2
 10
337.70349
 20
24.119541
 10
337.70349
 20
25.271569
  0
LWPOLYLINE
  5
240
330
218
100
AcDbEntity
  8
0
  6
Continuous
 62
     7
100
AcDbPolyline
 90
        2
 70
     1
 43
0.2
 10
337.440466
 20
25.801523
 42
1.0
 10
337.745633
 20
25.801523
 42
1.0
  0
SPLINE
  5
241
330
218
100
AcDbEntity
  8
0
  6
Continuous
 62
     7
100
AcDbSpline
 70
     3
 71
     3
 72
    17
 73
    13
 74
     0
 42
0.000000001
 43
0.0000001
 40
0.0
 40
0.0
 40
0.0
 40
0.0
 40
1.0
 40
1.0
 40
1.0
 40
2.0
 40
2.0
 40
2.0
 40
3.0
 40
3.0
 40
3.0
 40
4.0
 40
4.0
 40
4.0
 40
4.0
 10
339.8337736612
 20
24.277087349
 30
0.0
 10
339.5998088156
 20
24.277087349
 30
0.0
 10
339.4694794049
 20
24.4791241061
 30
0.0
 10
339.4694794049
 20
24.695292968
 30
0.0
 10
339.4694794049
 20
24.9098915961
 30
0.0
 10
339.6053046341
 20
25.1087878854
 30
0.0
 10
339.8337736612
 20
25.1087878854
 30
0.0
 10
340.0732343254
 20
25.1087878854
 30
0.0
 10
340.208797849
 20
24.9198364105
 30
0.0
 10
340.208797849
 20
24.695292968
 30
0.0
 10
340.208797849
 20
24.4691792917
 30
0.0
 10
340.0755896762
 20
24.277087349
 30
0.0
 10
339.8337736612
 20
24.277087349
 30
0.0
  0
SPLINE
  5
242
330
218
100
AcDbEntity
  8
0
  6
Continuous
 62
     7
100
AcDbSpline
 70
     3
 71
     3
 72
    50
 73
    46
 74
     0
 42
0.000000001
 43
0.0000001
 40
0.0
 40
0.0
 40
0.0
 40
0.0
 40
1.0
 40
1.0
 40
1.0
 40
2.0
 40
2.0
 40
2.0
 40
3.0
 40
3.0
 40
3.0
 40
4.0
 40
4.0
 40
4.0
 40
5.0
 40
5.0
 40
5.0
 40
6.0
 40
6.0
 40
6.0
 40
7.0
 40
7.0
 40
7.0
 40
8.0
 40
8.0
 40
8.0
 40
9.0
 40
9.0
 40
9.0
 40
10.0
 40
10.0
 40
10.0
 40
11.0
 40
11.0
 40
11.0
 40
12.0
 40
12.0
 40
12.0
 40
13.0
 40
13.0
 40
13.0
 40
14.0
 40
14.0
 40
14.0
 40
15.0
 40
15.0
 40
15.0
 40
15.0
 10
340.4179006585
 20
25.2720922073
 30
0.0
 10
340.4179006585
 20
25.2720922073
 30
0.0
 10
340.1962359781
 20
25.2720922073
 30
0.0
 10
340.1962359781
 20
25.2720922073
 30
0.0
 10
340.1962359781
 20
25.2720922073
 30
0.0
 10
340.1962359781
 20
25.0747661517
 30
0.0
 10
340.1962359781
 20
25.0747661517
 30
0.0
 10
340.1962359781
 20
25.0747661517
 30
0.0
 10
340.1915252765
 20
25.0747661517
 30
0.0
 10
340.1915252765
 20
25.0747661517
 30
0.0
 10
340.1001900068
 20
25.2176574333
 30
0.0
 10
339.9622711324
 20
25.306113941
 30
0.0
 10
339.7895454074
 20
25.306113941
 30
0.0
 10
339.4571792396
 20
25.306113941
 30
0.0
 10
339.2480764301
 20
25.0182377326
 30
0.0
 10
339.2480764301
 20
24.7026207261
 30
0.0
 10
339.2480764301
 20
24.3728716147
 30
0.0
 10
339.44514078
 20
24.0797612935
 30
0.0
 10
339.8000136332
 20
24.0797612935
 30
0.0
 10
339.9622711324
 20
24.0797612935
 30
0.0
 10
340.1022836519
 20
24.1682178011
 30
0.0
 10
340.1915252765
 20
24.2990706231
 30
0.0
 10
340.1915252765
 20
24.2990706231
 30
0.0
 10
340.1962359781
 20
24.2990706231
 30
0.0
 10
340.1962359781
 20
24.2990706231
 30
0.0
 10
340.1962359781
 20
24.2990706231
 30
0.0
 10
340.1962359781
 20
24.0797612935
 30
0.0
 10
340.1962359781
 20
24.0797612935
 30
0.0
 10
340.1962359781
 20
23.8431793914
 30
0.0
 10
340.139707559
 20
23.6563215616
 30
0.0
 10
339.8664868667
 20
23.6563215616
 30
0.0
 10
339.664188404
 20
23.6563215616
 30
0.0
 10
339.521558828
 20
23.7746125127
 30
0.0
 10
339.521558828
 20
23.9808365601
 30
0.0
 10
339.521558828
 20
23.9808365601
 30
0.0
 10
339.2998941476
 20
23.9808365601
 30
0.0
 10
339.2998941476
 20
23.9808365601
 30
0.0
 10
339.3048665549
 20
23.6563215616
 30
0.0
 10
339.5359526385
 20
23.4595189174
 30
0.0
 10
339.8562803466
 20
23.4595189174
 30
0.0
 10
340.304320409
 20
23.4595189174
 30
0.0
 10
340.4179006585
 20
23.7447780693
 30
0.0
 10
340.4179006585
 20
24.1415238255
 30
0.0
 10
340.4179006585
 20
24.1415238255
 30
0.0
 10
340.4179006585
 20
25.2720922073
 30
0.0
 10
340.4179006585
 20
25.2720922073
 30
0.0
  0
SPLINE
  5
243
330
218
100
AcDbEntity
  8
0
  6
Continuous
 62
     7
100
AcDbSpline
 70
     3
 71
     3
 72
    44
 73
    40
 74
     0
 42
0.000000001
 43
0.0000001
 40
0.0
 40
0.0
 40
0.0
 40
0.0
 40
1.0
 40
1.0
 40
1.0
 40
2.0
 40
2.0
 40
2.0
 40
3.0
 40
3.0
 40
3.0
 40
4.0
 40
4.0
 40
4.0
 40
5.0
 40
5.0
 40
5.0
 40
6.0
 40
6.0
 40
6.0
 40
7.0
 40
7.0
 40
7.0
 40
8.0
 40
8.0
 40
8.0
 40
9.0
 40
9.0
 40
9.0
 40
10.0
 40
10.0
 40
10.0
 40
11.0
 40
11.0
 40
11.0
 40
12.0
 40
12.0
 40
12.0
 40
13.0
 40
13.0
 40
13.0
 40
13.0
 10
341.9868259939
 20
26.257152251
 30
0.0
 10
341.9868259939
 20
26.257152251
 30
0.0
 10
341.9868259939
 20
24.1190171401
 30
0.0
 10
341.9868259939
 20
24.1190171401
 30
0.0
 10
341.9868259939
 20
24.1190171401
 30
0.0
 10
342.2082289687
 20
24.1190171401
 30
0.0
 10
342.2082289687
 20
24.1190171401
 30
0.0
 10
342.2082289687
 20
24.1190171401
 30
0.0
 10
342.2082289687
 20
24.6487093634
 30
0.0
 10
342.2082289687
 20
24.6487093634
 30
0.0
 10
342.2082289687
 20
24.8585972898
 30
0.0
 10
342.2082289687
 20
25.1093112967
 30
0.0
 10
342.4934881206
 20
25.1093112967
 30
0.0
 10
342.7203869139
 20
25.1093112967
 30
0.0
 10
342.7473425952
 20
24.9763648296
 30
0.0
 10
342.7473425952
 20
24.7800855967
 30
0.0
 10
342.7473425952
 20
24.7800855967
 30
0.0
 10
342.7473425952
 20
24.1190171401
 30
0.0
 10
342.7473425952
 20
24.1190171401
 30
0.0
 10
342.7473425952
 20
24.1190171401
 30
0.0
 10
342.9692689812
 20
24.1190171401
 30
0.0
 10
342.9692689812
 20
24.1190171401
 30
0.0
 10
342.9692689812
 20
24.1190171401
 30
0.0
 10
342.9692689812
 20
24.8062561611
 30
0.0
 10
342.9692689812
 20
24.8062561611
 30
0.0
 10
342.9692689812
 20
25.0868046114
 30
0.0
 10
342.8852614695
 20
25.3066373523
 30
0.0
 10
342.5602230598
 20
25.3066373523
 30
0.0
 10
342.4204722459
 20
25.3066373523
 30
0.0
 10
342.2822916659
 20
25.2401641187
 30
0.0
 10
342.2129396703
 20
25.1171624661
 30
0.0
 10
342.2129396703
 20
25.1171624661
 30
0.0
 10
342.2082289687
 20
25.1171624661
 30
0.0
 10
342.2082289687
 20
25.1171624661
 30
0.0
 10
342.2082289687
 20
25.1171624661
 30
0.0
 10
342.2082289687
 20
26.257152251
 30
0.0
 10
342.2082289687
 20
26.257152251
 30
0.0
 10
342.2082289687
 20
26.257152251
 30
0.0
 10
341.9868259939
 20
26.257152251
 30
0.0
 10
341.9868259939
 20
26.257152251
 30
0.0
  0
LWPOLYLINE
  5
244
330
218
100
AcDbEntity
  8
0
  6
Continuous
 62
     7
100
AcDbPolyline
 90
        2
 70
     0
 43
0.2
 10
344.80906
 20
25.064821
 10
345.02549
 20
25.064821
  0
LWPOLYLINE
  5
245
330
218
100
AcDbEntity
  8
0
  6
Continuous
 62
     7
100
AcDbPolyline
 90
        2
 70
     0
 43
0.2
 10
345.02549
 20
25.064821
 10
345.02549
 20
25.271569
  0
LWPOLYLINE
  5
246
330
218
100
AcDbEntity
  8
0
  6
Continuous
 62
     7
100
AcDbPolyline
 90
        2
 70
     0
 43
0.2
 10
345.02549
 20
25.271569
 10
344.80906
 20
25.271569
  0
LWPOLYLINE
  5
247
330
218
100
AcDbEntity
  8
0
  6
Continuous
 62
     7
100
AcDbPolyline
 90
        2
 70
     0
 43
0.2
 10
344.80906
 20
25.271569
 10
344.80906
 20
25.712281
  0
LWPOLYLINE
  5
248
330
218
100
AcDbEntity
  8
0
  6
Continuous
 62
     7
100
AcDbPolyline
 90
        2
 70
     0
 43
0.2
 10
344.80906
 20
25.712281
 10
344.587395
 20
25.712281
  0
LWPOLYLINE
  5
249
330
218
100
AcDbEntity
  8
0
  6
Continuous
 62
     7
100
AcDbPolyline
 90
        2
 70
     0
 43
0.2
 10
344.587395
 20
25.712281
 10
344.587395
 20
25.271569
  0
LWPOLYLINE
  5
24A
330
218
100
AcDbEntity
  8
0
  6
Continuous
 62
     7
100
AcDbPolyline
 90
        2
 70
     0
 43
0.2
 10
344.587395
 20
25.271569
 10
344.466749
 20
25.271569
  0
LWPOLYLINE
  5
24B
330
218
100
AcDbEntity
  8
0
  6
Continuous
 62
     7
100
AcDbPolyline
 90
        2
 70
     0
 43
0.2
 10
344.466749
 20
25.271569
 10
344.466749
 20
25.064821
  0
LWPOLYLINE
  5
24C
330
218
100
AcDbEntity
  8
0
  6
Continuous
 62
     7
100
AcDbPolyline
 90
        2
 70
     0
 43
0.2
 10
344.466749
 20
25.064821
 10
344.587395
 20
25.064821
  0
LWPOLYLINE
  5
24D
330
218
100
AcDbEntity
  8
0
  6
Continuous
 62
     7
100
AcDbPolyline
 90
        2
 70
     0
 43
0.2
 10
344.587395
 20
25.064821
 10
344.587395
 20
24.119017
  0
LWPOLYLINE
  5
24E
330
218
100
AcDbEntity
  8
0
  6
Continuous
 62
     7
100
AcDbPolyline
 90
        2
 70
     0
 43
0.2
 10
344.587395
 20
24.119017
 10
344.80906
 20
24.119017
  0
LWPOLYLINE
  5
24F
330
218
100
AcDbEntity
  8
0
  6
Continuous
 62
     7
100
AcDbPolyline
 90
        2
 70
     0
 43
0.2
 10
344.80906
 20
24.119017
 10
344.80906
 20
25.064821
  0
SPLINE
  5
250
330
218
100
AcDbEntity
  8
0
  6
Continuous
 62
     7
100
AcDbSpline
 70
     3
 71
     3
 72
    20
 73
    16
 74
     0
 42
0.000000001
 43
0.0000001
 40
0.0
 40
0.0
 40
0.0
 40
0.0
 40
1.0
 40
1.0
 40
1.0
 40
2.0
 40
2.0
 40
2.0
 40
3.0
 40
3.0
 40
3.0
 40
4.0
 40
4.0
 40
4.0
 40
5.0
 40
5.0
 40
5.0
 40
5.0
 10
332.5910699653
 20
34.4799435835
 30
0.0
 10
332.5910699653
 20
34.4799435835
 30
0.0
 10
334.9074266198
 20
31.6503821612
 30
0.0
 10
334.9074266198
 20
31.6503821612
 30
0.0
 10
334.2557795664
 20
30.9982116966
 30
0.0
 10
333.4789063624
 20
30.2622954258
 30
0.0
 10
332.5077167178
 20
30.2622954258
 30
0.0
 10
331.5091788333
 20
30.2622954258
 30
0.0
 10
330.5658608398
 20
31.1918738731
 30
0.0
 10
330.5658608398
 20
32.1910660216
 30
0.0
 10
330.5658608398
 20
33.1902581702
 30
0.0
 10
331.7447139129
 20
33.8968634088
 30
0.0
 10
332.4662363732
 20
34.3967211887
 30
0.0
 10
332.4662363732
 20
34.3967211887
 30
0.0
 10
332.5910699653
 20
34.4799435835
 30
0.0
 10
332.5910699653
 20
34.4799435835
 30
0.0
  0
SPLINE
  5
251
330
218
100
AcDbEntity
  8
0
  6
Continuous
 62
     7
100
AcDbSpline
 70
     3
 71
     3
 72
    23
 73
    19
 74
     0
 42
0.000000001
 43
0.0000001
 40
0.0
 40
0.0
 40
0.0
 40
0.0
 40
1.0
 40
1.0
 40
1.0
 40
2.0
 40
2.0
 40
2.0
 40
3.0
 40
3.0
 40
3.0
 40
4.0
 40
4.0
 40
4.0
 40
5.0
 40
5.0
 40
5.0
 40
6.0
 40
6.0
 40
6.0
 40
6.0
 10
332.8684779479
 20
36.1176975032
 30
0.0
 10
332.8684779479
 20
36.1176975032
 30
0.0
 10
332.5219796753
 20
36.561026864
 30
0.0
 10
332.5219796753
 20
36.561026864
 30
0.0
 10
332.2161766304
 20
36.949136334
 30
0.0
 10
331.8972883033
 20
37.3376383624
 30
0.0
 10
331.8972883033
 20
37.8645826765
 30
0.0
 10
331.8972883033
 20
38.5307543931
 30
0.0
 10
332.4386264278
 20
38.9744763124
 30
0.0
 10
333.0625326829
 20
38.9744763124
 30
0.0
 10
333.756314345
 20
38.9744763124
 30
0.0
 10
334.2835203647
 20
38.5722347377
 30
0.0
 10
334.2835203647
 20
37.8372344367
 30
0.0
 10
334.2835203647
 20
37.0739699262
 30
0.0
 10
333.56225961
 20
36.6438567003
 30
0.0
 10
333.0351844431
 20
36.228137285
 30
0.0
 10
333.0351844431
 20
36.228137285
 30
0.0
 10
332.8684779479
 20
36.1176975032
 30
0.0
 10
332.8684779479
 20
36.1176975032
 30
0.0
  0
SPLINE
  5
252
330
218
100
AcDbEntity
  8
0
  6
Continuous
 62
     7
100
AcDbSpline
 70
     3
 71
     3
 72
    50
 73
    46
 74
     0
 42
0.000000001
 43
0.0000001
 40
0.0
 40
0.0
 40
0.0
 40
0.0
 40
1.0
 40
1.0
 40
1.0
 40
2.0
 40
2.0
 40
2.0
 40
3.0
 40
3.0
 40
3.0
 40
4.0
 40
4.0
 40
4.0
 40
5.0
 40
5.0
 40
5.0
 40
6.0
 40
6.0
 40
6.0
 40
7.0
 40
7.0
 40
7.0
 40
8.0
 40
8.0
 40
8.0
 40
9.0
 40
9.0
 40
9.0
 40
10.0
 40
10.0
 40
10.0
 40
11.0
 40
11.0
 40
11.0
 40
12.0
 40
12.0
 40
12.0
 40
13.0
 40
13.0
 40
13.0
 40
14.0
 40
14.0
 40
14.0
 40
15.0
 40
15.0
 40
15.0
 40
15.0
 10
336.8220651108
 20
29.3191082851
 30
0.0
 10
336.8220651108
 20
29.3191082851
 30
0.0
 10
338.4312931154
 20
29.3191082851
 30
0.0
 10
338.4312931154
 20
29.3191082851
 30
0.0
 10
338.4312931154
 20
29.3191082851
 30
0.0
 10
336.5582658218
 20
31.6362500565
 30
0.0
 10
336.5582658218
 20
31.6362500565
 30
0.0
 10
336.5582658218
 20
31.6362500565
 30
0.0
 10
337.8346042472
 20
33.1337297511
 30
0.0
 10
337.8346042472
 20
33.1337297511
 30
0.0
 10
337.8346042472
 20
33.1337297511
 30
0.0
 10
337.0023802995
 20
33.9947413196
 30
0.0
 10
337.0023802995
 20
33.9947413196
 30
0.0
 10
337.0023802995
 20
33.9947413196
 30
0.0
 10
335.7817851762
 20
32.5794371972
 30
0.0
 10
335.7817851762
 20
32.5794371972
 30
0.0
 10
335.7817851762
 20
32.5794371972
 30
0.0
 10
333.6038708074
 20
35.2148130316
 30
0.0
 10
333.6038708074
 20
35.2148130316
 30
0.0
 10
334.4774442468
 20
35.8528513916
 30
0.0
 10
335.504115488
 20
36.6438567003
 30
0.0
 10
335.504115488
 20
37.8227097735
 30
0.0
 10
335.504115488
 20
39.1964026985
 30
0.0
 10
334.3662193482
 20
40.0008858479
 30
0.0
 10
333.0909277453
 20
40.0008858479
 30
0.0
 10
331.7174965259
 20
40.0008858479
 30
0.0
 10
330.6765623271
 20
39.1546606483
 30
0.0
 10
330.6765623271
 20
37.7120082861
 30
0.0
 10
330.6765623271
 20
36.8244335947
 30
0.0
 10
331.2319017036
 20
36.0475603906
 30
0.0
 10
331.8280671605
 20
35.4231307242
 30
0.0
 10
331.8280671605
 20
35.4231307242
 30
0.0
 10
331.1761584014
 20
34.9515371538
 30
0.0
 10
331.1761584014
 20
34.9515371538
 30
0.0
 10
330.177620517
 20
34.2302763992
 30
0.0
 10
329.3447423052
 20
33.5090156445
 30
0.0
 10
329.3447423052
 20
32.1774573281
 30
0.0
 10
329.3447423052
 20
30.3737820301
 30
0.0
 10
330.8017884778
 20
29.097181899
 30
0.0
 10
332.5493279151
 20
29.097181899
 30
0.0
 10
333.784185996
 20
29.097181899
 30
0.0
 10
334.8935562207
 20
29.8053573715
 30
0.0
 10
335.6844306767
 20
30.7338889962
 30
0.0
 10
335.6844306767
 20
30.7338889962
 30
0.0
 10
336.8220651108
 20
29.3191082851
 30
0.0
 10
336.8220651108
 20
29.3191082851
 30
0.0
  0
LINE
  5
253
330
218
100
AcDbEntity
  8
0
  6
Continuous
 62
     7
100
AcDbLine
 10
322.624926
 20
27.292983
 30
0.0
 11
345.038837
 21
27.292983
 31
0.0
  0
LINE
  5
254
330
218
100
AcDbEntity
  8
0
  6
Continuous
 62
     7
100
AcDbLine
 10
345.038837
 20
27.292983
 30
0.0
 11
345.038837
 21
49.706894
 31
0.0
  0
LINE
  5
255
330
218
100
AcDbEntity
  8
0
  6
Continuous
 62
     7
100
AcDbLine
 10
345.038837
 20
49.706894
 30
0.0
 11
322.624926
 21
49.706894
 31
0.0
  0
LINE
  5
256
330
218
100
AcDbEntity
  8
0
  6
Continuous
 62
     7
100
AcDbLine
 10
322.624926
 20
49.706894
 30
0.0
 11
322.624926
 21
27.292983
 31
0.0
  0
ENDBLK
  5
257
330
218
100
AcDbEntity
  8
0
  6
ByBlock
 62
     0
100
AcDbBlockEnd
  0
BLOCK
  5
282
330
219
100
AcDbEntity
  8
0
100
AcDbBlockBegin
  2
*T6
 70
     1
 10
0.0
 20
0.0
 30
0.0
  3
*T6
  1
*T6
  0
LINE
  5
283
330
219
100
AcDbEntity
  8
0
  6
Continuous
 62
     2
100
AcDbLine
 10
0.0
 20
0.0
 30
0.0
 11
90.0
 21
0.0
 31
0.0
  0
LINE
  5
284
330
219
100
AcDbEntity
  8
0
  6
Continuous
 62
     2
100
AcDbLine
 10
0.0
 20
0.0
 30
0.0
 11
0.0
 21
-40.0
 31
0.0
  0
LINE
  5
285
330
219
100
AcDbEntity
  8
0
  6
Continuous
 62
     2
100
AcDbLine
 10
30.0
 20
-6.0
 30
0.0
 11
90.0
 21
-6.0
 31
0.0
  0
LINE
  5
286
330
219
100
AcDbEntity
  8
0
  6
Continuous
 62
     2
100
AcDbLine
 10
30.0
 20
-12.0
 30
0.0
 11
90.0
 21
-12.0
 31
0.0
  0
LINE
  5
287
330
219
100
AcDbEntity
  8
0
  6
Continuous
 62
     2
100
AcDbLine
 10
30.0
 20
-22.0
 30
0.0
 11
90.0
 21
-22.0
 31
0.0
  0
LINE
  5
288
330
219
100
AcDbEntity
  8
0
  6
Continuous
 62
     2
100
AcDbLine
 10
0.0
 20
-27.0
 30
0.0
 11
90.0
 21
-27.0
 31
0.0
  0
LINE
  5
289
330
219
100
AcDbEntity
  8
0
  6
Continuous
 62
     2
100
AcDbLine
 10
0.0
 20
-40.0
 30
0.0
 11
90.0
 21
-40.0
 31
0.0
  0
LINE
  5
28A
330
219
100
AcDbEntity
  8
0
  6
Continuous
 62
     2
100
AcDbLine
 10
30.0
 20
0.0
 30
0.0
 11
30.0
 21
-27.0
 31
0.0
  0
LINE
  5
28B
330
219
100
AcDbEntity
  8
0
  6
Continuous
 62
     2
100
AcDbLine
 10
70.0
 20
0.0
 30
0.0
 11
70.0
 21
-12.0
 31
0.0
  0
LINE
  5
28C
330
219
100
AcDbEntity
  8
0
  6
Continuous
 62
     2
100
AcDbLine
 10
90.0
 20
0.0
 30
0.0
 11
90.0
 21
-40.0
 31
0.0
  0
MTEXT
  5
28D
330
219
100
AcDbEntity
  8
9_SOLID
  6
Continuous
 62
     2
100
AcDbMText
 10
31.4875
 20
-1.5
 30
0.0
 40
3.0
 41
48.914498
 46
0.0
 71
     1
 72
     1
  1
A255_C_402
 73
     1
 44
0.9
  0
MTEXT
  5
28E
330
219
100
AcDbEntity
  8
9_SOLID
  6
Continuous
 62
     2
100
AcDbMText
 10
71.4875
 20
-1.25
 30
0.0
 40
3.5
 41
30.966543
 46
0.0
 71
     1
 72
     1
  1
Rev:00
 73
     1
 44
0.9
  0
MTEXT
  5
28F
330
219
100
AcDbEntity
  8
9_SOLID
  6
Continuous
 62
     2
100
AcDbMText
 10
31.4875
 20
-7.75
 30
0.0
 40
3.5
 41
40.724907
 46
0.0
 71
     1
 72
     1
  1
Scale:1:1
 73
     1
 44
0.9
  0
MTEXT
  5
290
330
219
100
AcDbEntity
  8
9_SOLID
  6
Continuous
 62
     2
100
AcDbMText
 10
71.4875
 20
-7.25
 30
0.0
 40
3.5
 41
11.944238
 46
0.0
 71
     1
 72
     1
  1
A3
 73
     1
 44
0.9
  0
MTEXT
  5
291
330
219
100
AcDbEntity
  8
9_SOLID
  6
Continuous
 62
     2
100
AcDbMText
 10
31.4875
 20
-15.25
 30
0.0
 40
3.5
 41
110.074349
 46
0.0
 71
     1
 72
     1
  1
VISIERA STD REIKO 2.0
 73
     1
 44
0.9
  0
MTEXT
  5
292
330
219
100
AcDbEntity
  8
9_SOLID
  6
Continuous
 62
     2
100
AcDbMText
 10
31.4875
 20
-23.25
 30
0.0
 40
2.5
 41
47.695167
 46
0.0
 71
     1
 72
     1
  1
DATE:17.01.24
 73
     1
 44
0.9
  0
MTEXT
  5
293
330
219
100
AcDbEntity
  8
9_SOLID
  6
Continuous
 62
     2
100
AcDbMText
 10
1.4875
 20
-27.3125
 30
0.0
 40
2.25
 41
148.98513
 46
0.0
 71
     1
 72
     1
  1
Any integral or partial reproductions are prohibited \Pwithout prior authorisation of L & L Luce & Light s.r.l., \Pin accordance with the law in force. \PAll rights reserved.
 73
     1
 44
0.9
  0
ENDBLK
  5
294
330
219
100
AcDbEntity
  8
0
  6
ByBlock
 62
     0
100
AcDbBlockEnd
  0
ENDSEC
  0
SECTION
  2
ENTITIES
  0
LINE
  5
295
330
211
100
AcDbEntity
  8
0
  6
Continuous
 62
     7
100
AcDbLine
 10
0.0
 20
0.0
 30
0.0
 11
420.0
 21
0.0
 31
0.0
  0
LINE
  5
296
330
211
100
AcDbEntity
  8
0
  6
Continuous
 62
     7
100
AcDbLine
 10
420.0
 20
0.0
 30
0.0
 11
420.0
 21
297.0
 31
0.0
  0
LINE
  5
297
330
211
100
AcDbEntity
  8
0
  6
Continuous
 62
     7
100
AcDbLine
 10
0.0
 20
297.0
 30
0.0
 11
420.0
 21
297.0
 31
0.0
  0
LINE
  5
298
330
211
100
AcDbEntity
  8
0
  6
Continuous
 62
     7
100
AcDbLine
 10
0.0
 20
0.0
 30
0.0
 11
0.0
 21
297.0
 31
0.0
  0
LWPOLYLINE
  5
299
330
211
100
AcDbEntity
  8
0
  6
Continuous
 62
     7
100
AcDbPolyline
 90
        2
 70
     0
 43
0.5
 10
410.0
 20
10.031844
 10
410.0
 20
287.0
  0
LWPOLYLINE
  5
29A
330
211
100
AcDbEntity
  8
0
  6
Continuous
 62
     7
100
AcDbPolyline
 90
        2
 70
     0
 43
0.5
 10
10.053631
 20
10.031844
 10
10.053631
 20
287.0
  0
LWPOLYLINE
  5
29B
330
211
100
AcDbEntity
  8
0
  6
Continuous
 62
     7
100
AcDbPolyline
 90
        2
 70
     0
 43
0.5
 10
10.053631
 20
10.031844
 10
410.0
 20
10.031844
  0
LWPOLYLINE
  5
29C
330
211
100
AcDbEntity
  8
0
  6
Continuous
 62
     7
100
AcDbPolyline
 90
        2
 70
     0
 43
0.1
 10
210.0
 20
10.0
 10
210.0
 20
0.0
  0
LWPOLYLINE
  5
29D
330
211
100
AcDbEntity
  8
0
  6
Continuous
 62
     7
100
AcDbPolyline
 90
        2
 70
     0
 43
0.1
 10
210.0
 20
287.0
 10
210.0
 20
297.0
  0
LWPOLYLINE
  5
29E
330
211
100
AcDbEntity
  8
0
  6
Continuous
 62
     7
100
AcDbPolyline
 90
        2
 70
     0
 43
0.1
 10
410.0
 20
148.5
 10
420.0
 20
148.5
  0
LWPOLYLINE
  5
29F
330
211
100
AcDbEntity
  8
0
  6
Continuous
 62
     7
100
AcDbPolyline
 90
        2
 70
     0
 43
0.1
 10
10.0
 20
148.5
 10
0.0
 20
148.5
  0
LWPOLYLINE
  5
2A0
330
211
100
AcDbEntity
  8
0
  6
Continuous
 62
     7
100
AcDbPolyline
 90
        2
 70
     0
 43
0.5
 10
10.053631
 20
287.0
 10
410.0
 20
287.0
  0
LWPOLYLINE
  5
2A1
330
211
100
AcDbEntity
  8
0
  6
Continuous
 62
     7
100
AcDbPolyline
 90
        2
 70
     0
 43
0.1
 10
0.0
 20
290.0
 10
420.0
 20
290.0
  0
LWPOLYLINE
  5
2A2
330
211
100
AcDbEntity
  8
0
  6
Continuous
 62
     7
100
AcDbPolyline
 90
        2
 70
     0
 43
0.1
 10
7.053631
 20
0.0
 10
7.053631
 20
297.0
  0
LWPOLYLINE
  5
2A3
330
211
100
AcDbEntity
  8
0
  6
Continuous
 62
     7
100
AcDbPolyline
 90
        2
 70
     0
 43
0.1
 10
413.0
 20
0.0
 10
413.0
 20
297.0
  0
LWPOLYLINE
  5
2A4
330
211
100
AcDbEntity
  8
0
  6
Continuous
 62
     7
100
AcDbPolyline
 90
        2
 70
     0
 43
0.1
 10
0.0
 20
7.031844
 10
420.0
 20
7.031844
  0
LWPOLYLINE
  5
2A5
330
211
100
AcDbEntity
  8
0
  6
Continuous
 62
     7
100
AcDbPolyline
 90
        2
 70
     0
 43
0.1
 10
10.0
 20
202.968156
 10
0.0
 20
202.968156
  0
LINE
  5
2A6
330
211
100
AcDbEntity
  8
0
  6
Continuous
 62
     7
100
AcDbLine
 10
0.0
 20
99.968156
 30
0.0
 11
7.0
 21
99.968156
 31
0.0
  0
LINE
  5
2A7
330
211
100
AcDbEntity
  8
0
  6
Continuous
 62
     7
100
AcDbLine
 10
0.0
 20
199.968156
 30
0.0
 11
7.0
 21
199.968156
 31
0.0
  0
LWPOLYLINE
  5
2A8
330
211
100
AcDbEntity
  8
0
  6
Continuous
 62
     7
100
AcDbPolyline
 90
        2
 70
     0
 43
0.1
 10
410.0
 20
210.0
 10
420.0
 20
210.0
  0
LINE
  5
2A9
330
211
100
AcDbEntity
  8
0
  6
Continuous
 62
     7
100
AcDbLine
 10
413.0
 20
107.0
 30
0.0
 11
420.0
 21
107.0
 31
0.0
  0
LWPOLYLINE
  5
2AA
330
211
100
AcDbEntity
  8
0
  6
Continuous
 62
     7
100
AcDbPolyline
 90
        2
 70
     0
 43
0.1
 10
123.0
 20
10.0
 10
123.0
 20
0.0
  0
LINE
  5
2AB
330
211
100
AcDbEntity
  8
0
  6
Continuous
 62
     7
100
AcDbLine
 10
210.0
 20
0.0
 30
0.0
 11
210.0
 21
10.0
 31
0.0
  0
LINE
  5
2AC
330
211
100
AcDbEntity
  8
0
  6
Continuous
 62
     7
100
AcDbLine
 10
313.0
 20
7.0
 30
0.0
 11
313.0
 21
0.0
 31
0.0
  0
LINE
  5
2AD
330
211
100
AcDbEntity
  8
0
  6
Continuous
 62
     7
100
AcDbLine
 10
113.0
 20
7.0
 30
0.0
 11
113.0
 21
0.0
 31
0.0
  0
LWPOLYLINE
  5
2AE
330
211
100
AcDbEntity
  8
0
  6
Continuous
 62
     7
100
AcDbPolyline
 90
        2
 70
     0
 43
0.1
 10
123.0
 20
287.0
 10
123.0
 20
297.0
  0
LINE
  5
2AF
330
211
100
AcDbEntity
  8
0
  6
Continuous
 62
     7
100
AcDbLine
 10
210.0
 20
287.0
 30
0.0
 11
210.0
 21
297.0
 31
0.0
  0
LINE
  5
2B0
330
211
100
AcDbEntity
  8
0
  6
Continuous
 62
     7
100
AcDbLine
 10
313.0
 20
297.0
 30
0.0
 11
313.0
 21
290.0
 31
0.0
  0
LINE
  5
2B1
330
211
100
AcDbEntity
  8
0
  6
Continuous
 62
     7
100
AcDbLine
 10
113.0
 20
297.0
 30
0.0
 11
113.0
 21
290.0
 31
0.0
  0
MTEXT
  5
2B2
330
211
100
AcDbEntity
  8
0
  6
Continuous
 62
     2
100
AcDbMText
 10
1.646722
 20
53.595027
 30
0.0
 40
4.0
 41
3.428571
 46
0.0
 71
     1
 72
     1
  1
1
  7
TEXTSTYLE_2
 73
     1
 44
0.9
  0
MTEXT
  5
2B3
330
211
100
AcDbEntity
  8
0
  6
Continuous
 62
     2
100
AcDbMText
 10
1.646722
 20
153.595027
 30
0.0
 40
4.0
 41
4.714286
 46
0.0
 71
     1
 72
     1
  1
2
  7
TEXTSTYLE_2
 73
     1
 44
0.9
  0
MTEXT
  5
2B4
330
211
100
AcDbEntity
  8
0
  6
Continuous
 62
     2
100
AcDbMText
 10
1.646722
 20
253.595027
 30
0.0
 40
4.0
 41
4.285714
 46
0.0
 71
     1
 72
     1
  1
3
  7
TEXTSTYLE_2
 73
     1
 44
0.9
  0
MTEXT
  5
2B5
330
211
100
AcDbEntity
  8
0
  6
Continuous
 62
     2
100
AcDbMText
 10
414.646722
 20
60.626871
 30
0.0
 40
4.0
 41
3.428571
 46
0.0
 71
     1
 72
     1
  1
1
  7
TEXTSTYLE_2
 73
     1
 44
0.9
  0
MTEXT
  5
2B6
330
211
100
AcDbEntity
  8
0
  6
Continuous
 62
     2
100
AcDbMText
 10
414.646722
 20
160.626871
 30
0.0
 40
4.0
 41
4.714286
 46
0.0
 71
     1
 72
     1
  1
2
  7
TEXTSTYLE_2
 73
     1
 44
0.9
  0
MTEXT
  5
2B7
330
211
100
AcDbEntity
  8
0
  6
Continuous
 62
     2
100
AcDbMText
 10
414.646722
 20
260.626871
 30
0.0
 40
4.0
 41
4.285714
 46
0.0
 71
     1
 72
     1
  1
3
  7
TEXTSTYLE_2
 73
     1
 44
0.9
  0
MTEXT
  5
2B8
330
211
100
AcDbEntity
  8
0
  6
Continuous
 62
     2
100
AcDbMText
 10
362.154891
 20
5.35876
 30
0.0
 40
4.0
 41
3.6
 46
0.0
 71
     1
 72
     1
  1
A
  7
TEXTSTYLE_3
 73
     1
 44
0.9
  0
MTEXT
  5
2B9
330
211
100
AcDbEntity
  8
0
  6
Continuous
 62
     2
100
AcDbMText
 10
262.154891
 20
5.35876
 30
0.0
 40
4.0
 41
3.6
 46
0.0
 71
     1
 72
     1
  1
B
  7
TEXTSTYLE_3
 73
     1
 44
0.9
  0
MTEXT
  5
2BA
330
211
100
AcDbEntity
  8
0
  6
Continuous
 62
     2
100
AcDbMText
 10
162.154891
 20
5.35876
 30
0.0
 40
4.0
 41
3.6
 46
0.0
 71
     1
 72
     1
  1
C
  7
TEXTSTYLE_3
 73
     1
 44
0.9
  0
MTEXT
  5
2BB
330
211
100
AcDbEntity
  8
0
  6
Continuous
 62
     2
100
AcDbMText
 10
55.797869
 20
5.535344
 30
0.0
 40
4.0
 41
3.6
 46
0.0
 71
     1
 72
     1
  1
D
  7
TEXTSTYLE_3
 73
     1
 44
0.9
  0
MTEXT
  5
2BC
330
211
100
AcDbEntity
  8
0
  6
Continuous
 62
     2
100
AcDbMText
 10
362.154891
 20
295.35876
 30
0.0
 40
4.0
 41
3.6
 46
0.0
 71
     1
 72
     1
  1
A
  7
TEXTSTYLE_3
 73
     1
 44
0.9
  0
MTEXT
  5
2BD
330
211
100
AcDbEntity
  8
0
  6
Continuous
 62
     2
100
AcDbMText
 10
262.154891
 20
295.35876
 30
0.0
 40
4.0
 41
3.6
 46
0.0
 71
     1
 72
     1
  1
B
  7
TEXTSTYLE_3
 73
     1
 44
0.9
  0
MTEXT
  5
2BE
330
211
100
AcDbEntity
  8
0
  6
Continuous
 62
     2
100
AcDbMText
 10
162.154891
 20
295.35876
 30
0.0
 40
4.0
 41
3.6
 46
0.0
 71
     1
 72
     1
  1
C
  7
TEXTSTYLE_3
 73
     1
 44
0.9
  0
MTEXT
  5
2BF
330
211
100
AcDbEntity
  8
0
  6
Continuous
 62
     2
100
AcDbMText
 10
53.987883
 20
295.57949
 30
0.0
 40
4.0
 41
3.6
 46
0.0
 71
     1
 72
     1
  1
D
  7
TEXTSTYLE_3
 73
     1
 44
0.9
  0
LINE
  5
2C0
330
211
100
AcDbEntity
  8
02___PRT_ALL_AXES
  6
Continuous
 62
     7
100
AcDbLine
 10
106.438163
 20
182.072447
 30
0.0
 11
106.438163
 21
180.072447
 31
0.0
  0
LINE
  5
2C1
330
211
100
AcDbEntity
  8
02___PRT_ALL_AXES
  6
Continuous
 62
     7
100
AcDbLine
 10
106.438163
 20
180.072447
 30
0.0
 11
106.438163
 21
179.922485
 31
0.0
  0
LINE
  5
2C2
330
211
100
AcDbEntity
  8
02___PRT_ALL_AXES
  6
Continuous
 62
     7
100
AcDbLine
 10
106.438163
 20
179.922485
 30
0.0
 11
106.438163
 21
178.272478
 31
0.0
  0
LINE
  5
2C3
330
211
100
AcDbEntity
  8
02___PRT_ALL_AXES
  6
Continuous
 62
     7
100
AcDbLine
 10
106.438163
 20
178.272478
 30
0.0
 11
106.438163
 21
178.072447
 31
0.0
  0
LINE
  5
2C4
330
211
100
AcDbEntity
  8
02___PRT_ALL_AXES
  6
Continuous
 62
     7
100
AcDbLine
 10
106.438163
 20
186.072447
 30
0.0
 11
106.438163
 21
185.872447
 31
0.0
  0
LINE
  5
2C5
330
211
100
AcDbEntity
  8
02___PRT_ALL_AXES
  6
Continuous
 62
     7
100
AcDbLine
 10
106.438163
 20
185.872447
 30
0.0
 11
106.438163
 21
184.222409
 31
0.0
  0
LINE
  5
2C6
330
211
100
AcDbEntity
  8
02___PRT_ALL_AXES
  6
Continuous
 62
     7
100
AcDbLine
 10
106.438163
 20
184.222409
 30
0.0
 11
106.438163
 21
184.072447
 31
0.0
  0
LINE
  5
2C7
330
211
100
AcDbEntity
  8
02___PRT_ALL_AXES
  6
Continuous
 62
     7
100
AcDbLine
 10
106.438163
 20
184.072447
 30
0.0
 11
106.438163
 21
182.072447
 31
0.0
  0
LINE
  5
2C8
330
211
100
AcDbEntity
  8
02___PRT_ALL_AXES
  6
Continuous
 62
     7
100
AcDbLine
 10
105.438163
 20
178.072447
 30
0.0
 11
106.438163
 21
178.072447
 31
0.0
  0
LINE
  5
2C9
330
211
100
AcDbEntity
  8
02___PRT_ALL_AXES
  6
Continuous
 62
     7
100
AcDbLine
 10
105.438163
 20
186.072447
 30
0.0
 11
106.438163
 21
186.072447
 31
0.0
  0
LINE
  5
2CA
330
211
100
AcDbEntity
  8
7_ALL_FEATURES
  6
Continuous
 62
     7
100
AcDbLine
 10
100.438163
 20
183.572447
 30
0.0
 11
100.938163
 21
184.072447
 31
0.0
  0
LINE
  5
2CB
330
211
100
AcDbEntity
  8
7_ALL_FEATURES
  6
Continuous
 62
     7
100
AcDbLine
 10
100.438163
 20
180.572447
 30
0.0
 11
100.938163
 21
180.072447
 31
0.0
  0
LINE
  5
2CC
330
211
100
AcDbEntity
  8
3_ALL_AXES
  6
Continuous
 62
     7
100
AcDbLine
 10
100.938163
 20
184.072447
 30
0.0
 11
102.438163
 21
184.072447
 31
0.0
  0
LINE
  5
2CD
330
211
100
AcDbEntity
  8
3_ALL_AXES
  6
Continuous
 62
     7
100
AcDbLine
 10
106.438163
 20
185.872447
 30
0.0
 11
106.818163
 21
185.872447
 31
0.0
  0
LINE
  5
2CE
330
211
100
AcDbEntity
  8
3_ALL_AXES
  6
Continuous
 62
     7
100
AcDbLine
 10
108.638163
 20
182.072447
 30
0.0
 11
108.638163
 21
180.107481
 31
0.0
  0
ARC
  5
2CF
330
211
100
AcDbEntity
  8
3_ALL_AXES
  6
Continuous
 62
     7
100
AcDbCircle
 10
104.965523
 20
182.21489
 30
0.0
 40
4.1
100
AcDbArc
 50
26.393026
 51
63.136697
  0
LINE
  5
2D0
330
211
100
AcDbEntity
  8
3_ALL_AXES
  6
Continuous
 62
     7
100
AcDbLine
 10
108.638163
 20
182.072447
 30
0.0
 11
108.638163
 21
184.037413
 31
0.0
  0
LINE
  5
2D1
330
211
100
AcDbEntity
  8
3_ALL_AXES
  6
Continuous
 62
     7
100
AcDbLine
 10
100.938163
 20
180.072447
 30
0.0
 11
102.438163
 21
180.072447
 31
0.0
  0
LINE
  5
2D2
330
211
100
AcDbEntity
  8
7_ALL_FEATURES
  6
Continuous
 62
     7
100
AcDbLine
 10
100.438163
 20
182.072447
 30
0.0
 11
100.438163
 21
180.572447
 31
0.0
  0
LINE
  5
2D3
330
211
100
AcDbEntity
  8
7_ALL_FEATURES
  6
Continuous
 62
     7
100
AcDbLine
 10
100.438163
 20
182.072447
 30
0.0
 11
100.438163
 21
183.572447
 31
0.0
  0
LINE
  5
2D4
330
211
100
AcDbEntity
  8
3_ALL_AXES
  6
Continuous
 62
     7
100
AcDbLine
 10
106.438163
 20
178.272447
 30
0.0
 11
106.818163
 21
178.272447
 31
0.0
  0
ARC
  5
2D5
330
211
100
AcDbEntity
  8
3_ALL_AXES
  6
Continuous
 62
     7
100
AcDbCircle
 10
104.965523
 20
181.930004
 30
0.0
 40
4.1
100
AcDbArc
 50
296.863303
 51
333.606974
  0
LINE
  5
2D6
330
211
100
AcDbEntity
  8
3_ALL_AXES
  6
Continuous
 62
     7
100
AcDbLine
 10
106.818163
 20
182.072447
 30
0.0
 11
106.818163
 21
185.872447
 31
0.0
  0
LINE
  5
2D7
330
211
100
AcDbEntity
  8
7_ALL_FEATURES
  6
Continuous
 62
     7
100
AcDbLine
 10
100.938163
 20
182.072447
 30
0.0
 11
100.938163
 21
180.072447
 31
0.0
  0
LINE
  5
2D8
330
211
100
AcDbEntity
  8
3_ALL_AXES
  6
Continuous
 62
     7
100
AcDbLine
 10
106.818163
 20
182.072447
 30
0.0
 11
106.818163
 21
178.272447
 31
0.0
  0
LINE
  5
2D9
330
211
100
AcDbEntity
  8
7_ALL_FEATURES
  6
Continuous
 62
     7
100
AcDbLine
 10
100.938163
 20
182.072447
 30
0.0
 11
100.938163
 21
184.072447
 31
0.0
  0
LINE
  5
2DA
330
211
100
AcDbEntity
  8
7_ALL_FEATURES
  6
Continuous
 62
     7
100
AcDbLine
 10
130.688163
 20
197.572447
 30
0.0
 11
130.688163
 21
198.572447
 31
0.0
  0
ARC
  5
2DB
330
211
100
AcDbEntity
  8
7_ALL_FEATURES
  6
Continuous
 62
     7
100
AcDbCircle
 10
131.188163
 20
197.572447
 30
0.0
 40
0.5
100
AcDbArc
 50
180.0
 51
270.0
  0
LINE
  5
2DC
330
211
100
AcDbEntity
  8
7_ALL_FEATURES
  6
Continuous
 62
     7
100
AcDbLine
 10
130.688163
 20
197.582626
 30
0.0
 11
130.688163
 21
198.572447
 31
0.0
  0
ARC
  5
2DD
330
211
100
AcDbEntity
  8
7_ALL_FEATURES
  6
Continuous
 62
     7
100
AcDbCircle
 10
131.188163
 20
199.572447
 30
0.0
 40
0.5
100
AcDbArc
 50
90.0
 51
180.0
  0
LINE
  5
2DE
330
211
100
AcDbEntity
  8
7_ALL_FEATURES
  6
Continuous
 62
     7
100
AcDbLine
 10
130.688163
 20
199.562268
 30
0.0
 11
130.688163
 21
199.572447
 31
0.0
  0
LINE
  5
2DF
330
211
100
AcDbEntity
  8
7_ALL_FEATURES
  6
Continuous
 62
     7
100
AcDbLine
 10
130.688163
 20
198.572447
 30
0.0
 11
130.688163
 21
199.572447
 31
0.0
  0
LINE
  5
2E0
330
211
100
AcDbEntity
  8
7_ALL_FEATURES
  6
Continuous
 62
     7
100
AcDbLine
 10
130.688163
 20
198.572447
 30
0.0
 11
130.688163
 21
199.562268
 31
0.0
  0
ARC
  5
2E1
330
211
100
AcDbEntity
  8
7_ALL_FEATURES
  6
Continuous
 62
     7
100
AcDbCircle
 10
131.188163
 20
235.072447
 30
0.0
 40
0.5
100
AcDbArc
 50
90.0
 51
180.0
  0
LINE
  5
2E2
330
211
100
AcDbEntity
  8
7_ALL_FEATURES
  6
Continuous
 62
     7
100
AcDbLine
 10
130.688163
 20
235.062268
 30
0.0
 11
130.688163
 21
235.072447
 31
0.0
  0
LINE
  5
2E3
330
211
100
AcDbEntity
  8
7_ALL_FEATURES
  6
Continuous
 62
     7
100
AcDbLine
 10
130.688163
 20
234.072447
 30
0.0
 11
130.688163
 21
235.072447
 31
0.0
  0
LINE
  5
2E4
330
211
100
AcDbEntity
  8
7_ALL_FEATURES
  6
Continuous
 62
     7
100
AcDbLine
 10
130.688163
 20
234.072447
 30
0.0
 11
130.688163
 21
235.062268
 31
0.0
  0
LINE
  5
2E5
330
211
100
AcDbEntity
  8
7_ALL_FEATURES
  6
Continuous
 62
     7
100
AcDbLine
 10
130.688163
 20
233.072447
 30
0.0
 11
130.688163
 21
234.072447
 31
0.0
  0
ARC
  5
2E6
330
211
100
AcDbEntity
  8
7_ALL_FEATURES
  6
Continuous
 62
     7
100
AcDbCircle
 10
131.188163
 20
233.072447
 30
0.0
 40
0.5
100
AcDbArc
 50
180.0
 51
270.0
  0
LINE
  5
2E7
330
211
100
AcDbEntity
  8
7_ALL_FEATURES
  6
Continuous
 62
     7
100
AcDbLine
 10
130.688163
 20
233.082626
 30
0.0
 11
130.688163
 21
234.072447
 31
0.0
  0
LINE
  5
2E8
330
211
100
AcDbEntity
  8
7_ALL_FEATURES
  6
Continuous
 62
     7
100
AcDbLine
 10
130.188163
 20
244.072447
 30
0.0
 11
77.688163
 21
244.072447
 31
0.0
  0
ARC
  5
2E9
330
211
100
AcDbEntity
  8
7_ALL_FEATURES
  6
Continuous
 62
     7
100
AcDbCircle
 10
77.688163
 20
242.572447
 30
0.0
 40
1.5
100
AcDbArc
 50
90.0
 51
180.0
  0
LINE
  5
2EA
330
211
100
AcDbEntity
  8
7_ALL_FEATURES
  6
Continuous
 62
     7
100
AcDbLine
 10
100.438163
 20
188.572447
 30
0.0
 11
102.438163
 21
188.572447
 31
0.0
  0
LINE
  5
2EB
330
211
100
AcDbEntity
  8
7_ALL_FEATURES
  6
Continuous
 62
     7
100
AcDbLine
 10
76.188163
 20
242.572447
 30
0.0
 11
76.188163
 21
190.072447
 31
0.0
  0
ARC
  5
2EC
330
211
100
AcDbEntity
  8
7_ALL_FEATURES
  6
Continuous
 62
     7
100
AcDbCircle
 10
76.688163
 20
197.572447
 30
0.0
 40
0.5
100
AcDbArc
 50
270.0
 51
360.0
  0
LINE
  5
2ED
330
211
100
AcDbEntity
  8
7_ALL_FEATURES
  6
Continuous
 62
     7
100
AcDbLine
 10
77.188163
 20
198.572447
 30
0.0
 11
77.188163
 21
197.572447
 31
0.0
  0
LINE
  5
2EE
330
211
100
AcDbEntity
  8
7_ALL_FEATURES
  6
Continuous
 62
     7
100
AcDbLine
 10
77.188163
 20
197.582626
 30
0.0
 11
77.188163
 21
198.572447
 31
0.0
  0
ARC
  5
2EF
330
211
100
AcDbEntity
  8
7_ALL_FEATURES
  6
Continuous
 62
     7
100
AcDbCircle
 10
130.188163
 20
242.572447
 30
0.0
 40
1.5
100
AcDbArc
 50
0.0
 51
90.0
  0
LINE
  5
2F0
330
211
100
AcDbEntity
  8
7_ALL_FEATURES
  6
Continuous
 62
     7
100
AcDbLine
 10
77.188163
 20
199.572447
 30
0.0
 11
77.188163
 21
198.572447
 31
0.0
  0
ARC
  5
2F1
330
211
100
AcDbEntity
  8
7_ALL_FEATURES
  6
Continuous
 62
     7
100
AcDbCircle
 10
76.688163
 20
199.572447
 30
0.0
 40
0.5
100
AcDbArc
 50
0.0
 51
90.0
  0
LINE
  5
2F2
330
211
100
AcDbEntity
  8
7_ALL_FEATURES
  6
Continuous
 62
     7
100
AcDbLine
 10
77.188163
 20
199.562268
 30
0.0
 11
77.188163
 21
199.572447
 31
0.0
  0
LINE
  5
2F3
330
211
100
AcDbEntity
  8
7_ALL_FEATURES
  6
Continuous
 62
     7
100
AcDbLine
 10
105.438163
 20
188.572447
 30
0.0
 11
107.438163
 21
188.572447
 31
0.0
  0
LINE
  5
2F4
330
211
100
AcDbEntity
  8
7_ALL_FEATURES
  6
Continuous
 62
     7
100
AcDbLine
 10
77.188163
 20
198.572447
 30
0.0
 11
77.188163
 21
199.562268
 31
0.0
  0
LINE
  5
2F5
330
211
100
AcDbEntity
  8
7_ALL_FEATURES
  6
Continuous
 62
     7
100
AcDbLine
 10
77.188163
 20
235.072447
 30
0.0
 11
77.188163
 21
234.072447
 31
0.0
  0
LINE
  5
2F6
330
211
100
AcDbEntity
  8
7_ALL_FEATURES
  6
Continuous
 62
     7
100
AcDbLine
 10
131.688163
 20
242.572447
 30
0.0
 11
131.688163
 21
190.072447
 31
0.0
  0
ARC
  5
2F7
330
211
100
AcDbEntity
  8
7_ALL_FEATURES
  6
Continuous
 62
     7
100
AcDbCircle
 10
76.688163
 20
235.072447
 30
0.0
 40
0.5
100
AcDbArc
 50
0.0
 51
90.0
  0
LINE
  5
2F8
330
211
100
AcDbEntity
  8
7_ALL_FEATURES
  6
Continuous
 62
     7
100
AcDbLine
 10
77.188163
 20
235.062268
 30
0.0
 11
77.188163
 21
235.072447
 31
0.0
  0
LINE
  5
2F9
330
211
100
AcDbEntity
  8
7_ALL_FEATURES
  6
Continuous
 62
     7
100
AcDbLine
 10
77.188163
 20
234.072447
 30
0.0
 11
77.188163
 21
235.062268
 31
0.0
  0
ARC
  5
2FA
330
211
100
AcDbEntity
  8
7_ALL_FEATURES
  6
Continuous
 62
     7
100
AcDbCircle
 10
76.688163
 20
233.072447
 30
0.0
 40
0.5
100
AcDbArc
 50
270.0
 51
360.0
  0
LINE
  5
2FB
330
211
100
AcDbEntity
  8
7_ALL_FEATURES
  6
Continuous
 62
     7
100
AcDbLine
 10
77.188163
 20
234.072447
 30
0.0
 11
77.188163
 21
233.072447
 31
0.0
  0
LINE
  5
2FC
330
211
100
AcDbEntity
  8
7_ALL_FEATURES
  6
Continuous
 62
     7
100
AcDbLine
 10
77.188163
 20
233.082626
 30
0.0
 11
77.188163
 21
234.072447
 31
0.0
  0
LINE
  5
2FD
330
211
100
AcDbEntity
  8
7_ALL_FEATURES
  6
Continuous
 62
     7
100
AcDbLine
 10
130.188163
 20
188.572447
 30
0.0
 11
107.438163
 21
188.572447
 31
0.0
  0
ARC
  5
2FE
330
211
100
AcDbEntity
  8
7_ALL_FEATURES
  6
Continuous
 62
     7
100
AcDbCircle
 10
130.188163
 20
190.072447
 30
0.0
 40
1.5
100
AcDbArc
 50
270.0
 51
360.0
  0
LINE
  5
2FF
330
211
100
AcDbEntity
  8
7_ALL_FEATURES
  6
Continuous
 62
     7
100
AcDbLine
 10
105.438163
 20
188.572447
 30
0.0
 11
105.438163
 21
187.072447
 31
0.0
  0
LINE
  5
300
330
211
100
AcDbEntity
  8
7_ALL_FEATURES
  6
Continuous
 62
     7
100
AcDbLine
 10
77.688163
 20
188.572447
 30
0.0
 11
100.438163
 21
188.572447
 31
0.0
  0
ARC
  5
301
330
211
100
AcDbEntity
  8
7_ALL_FEATURES
  6
Continuous
 62
     7
100
AcDbCircle
 10
77.688163
 20
190.072447
 30
0.0
 40
1.5
100
AcDbArc
 50
180.0
 51
270.0
  0
LINE
  5
302
330
211
100
AcDbEntity
  8
7_ALL_FEATURES
  6
Continuous
 62
     7
100
AcDbLine
 10
102.438163
 20
188.572447
 30
0.0
 11
102.438163
 21
187.072447
 31
0.0
  0
LINE
  5
303
330
211
100
AcDbEntity
  8
7_ALL_FEATURES
  6
Continuous
 62
     7
100
AcDbLine
 10
105.438163
 20
177.072447
 30
0.0
 11
103.938163
 21
177.072447
 31
0.0
  0
LINE
  5
304
330
211
100
AcDbEntity
  8
7_ALL_FEATURES
  6
Continuous
 62
     7
100
AcDbLine
 10
102.438163
 20
177.072447
 30
0.0
 11
103.938163
 21
177.072447
 31
0.0
  0
ARC
  5
305
330
211
100
AcDbEntity
  8
7_ALL_FEATURES
  6
Continuous
 62
     7
100
AcDbCircle
 10
105.438163
 20
187.072447
 30
0.0
 40
1.5
100
AcDbArc
 50
90.0
 51
180.0
  0
ARC
  5
306
330
211
100
AcDbEntity
  8
7_ALL_FEATURES
  6
Continuous
 62
     7
100
AcDbCircle
 10
102.438163
 20
187.072447
 30
0.0
 40
1.5
100
AcDbArc
 50
0.0
 51
90.0
  0
LINE
  5
307
330
211
100
AcDbEntity
  8
7_ALL_FEATURES
  6
Continuous
 62
     9
100
AcDbLine
 10
100.438163
 20
188.572447
 30
0.0
 11
100.438163
 21
187.072447
 31
0.0
  0
LINE
  5
308
330
211
100
AcDbEntity
  8
7_ALL_FEATURES
  6
Continuous
 62
     9
100
AcDbLine
 10
133.188163
 20
190.072447
 30
0.0
 11
131.688163
 21
190.072447
 31
0.0
  0
LINE
  5
309
330
211
100
AcDbEntity
  8
7_ALL_FEATURES
  6
Continuous
 62
     9
100
AcDbLine
 10
77.688163
 20
187.072447
 30
0.0
 11
77.688163
 21
188.572447
 31
0.0
  0
LINE
  5
30A
330
211
100
AcDbEntity
  8
7_ALL_FEATURES
  6
Continuous
 62
     9
100
AcDbLine
 10
74.688163
 20
242.572447
 30
0.0
 11
76.188163
 21
242.572447
 31
0.0
  0
LINE
  5
30B
330
211
100
AcDbEntity
  8
7_ALL_FEATURES
  6
Continuous
 62
     9
100
AcDbLine
 10
74.688163
 20
190.072447
 30
0.0
 11
76.188163
 21
190.072447
 31
0.0
  0
LINE
  5
30C
330
211
100
AcDbEntity
  8
7_ALL_FEATURES
  6
Continuous
 62
     9
100
AcDbLine
 10
77.688163
 20
245.572447
 30
0.0
 11
77.688163
 21
244.072447
 31
0.0
  0
LINE
  5
30D
330
211
100
AcDbEntity
  8
7_ALL_FEATURES
  6
Continuous
 62
     9
100
AcDbLine
 10
107.438163
 20
188.572447
 30
0.0
 11
107.438163
 21
187.072447
 31
0.0
  0
LINE
  5
30E
330
211
100
AcDbEntity
  8
7_ALL_FEATURES
  6
Continuous
 62
     9
100
AcDbLine
 10
105.438163
 20
179.072447
 30
0.0
 11
103.938163
 21
179.072447
 31
0.0
  0
LINE
  5
30F
330
211
100
AcDbEntity
  8
7_ALL_FEATURES
  6
Continuous
 62
     9
100
AcDbLine
 10
103.938163
 20
187.072447
 30
0.0
 11
105.438163
 21
187.072447
 31
0.0
  0
LINE
  5
310
330
211
100
AcDbEntity
  8
7_ALL_FEATURES
  6
Continuous
 62
     9
100
AcDbLine
 10
133.188163
 20
242.572447
 30
0.0
 11
131.688163
 21
242.572447
 31
0.0
  0
LINE
  5
311
330
211
100
AcDbEntity
  8
7_ALL_FEATURES
  6
Continuous
 62
     9
100
AcDbLine
 10
102.438163
 20
179.072447
 30
0.0
 11
103.938163
 21
179.072447
 31
0.0
  0
LINE
  5
312
330
211
100
AcDbEntity
  8
7_ALL_FEATURES
  6
Continuous
 62
     9
100
AcDbLine
 10
103.938163
 20
187.072447
 30
0.0
 11
103.938163
 21
179.072447
 31
0.0
  0
LINE
  5
313
330
211
100
AcDbEntity
  8
7_ALL_FEATURES
  6
Continuous
 62
     9
100
AcDbLine
 10
130.188163
 20
187.072447
 30
0.0
 11
130.188163
 21
188.572447
 31
0.0
  0
LINE
  5
314
330
211
100
AcDbEntity
  8
7_ALL_FEATURES
  6
Continuous
 62
     9
100
AcDbLine
 10
130.188163
 20
245.572447
 30
0.0
 11
130.188163
 21
244.072447
 31
0.0
  0
LINE
  5
315
330
211
100
AcDbEntity
  8
7_ALL_FEATURES
  6
Continuous
 62
     9
100
AcDbLine
 10
103.938163
 20
187.072447
 30
0.0
 11
102.438163
 21
187.072447
 31
0.0
  0
LINE
  5
316
330
211
100
AcDbEntity
  8
7_ALL_FEATURES
  6
Continuous
 62
     3
100
AcDbLine
 10
102.438163
 20
177.072447
 30
0.0
 11
102.438163
 21
179.072447
 31
0.0
  0
LINE
  5
317
330
211
100
AcDbEntity
  8
7_ALL_FEATURES
  6
Continuous
 62
     3
100
AcDbLine
 10
105.438163
 20
179.072447
 30
0.0
 11
105.438163
 21
177.072447
 31
0.0
  0
LINE
  5
318
330
211
100
AcDbEntity
  8
7_ALL_FEATURES
  6
Continuous
 62
     3
100
AcDbLine
 10
130.188163
 20
245.572447
 30
0.0
 11
77.688163
 21
245.572447
 31
0.0
  0
LINE
  5
319
330
211
100
AcDbEntity
  8
7_ALL_FEATURES
  6
Continuous
 62
     3
100
AcDbLine
 10
131.688163
 20
235.572447
 30
0.0
 11
131.188163
 21
235.572447
 31
0.0
  0
ARC
  5
31A
330
211
100
AcDbEntity
  8
7_ALL_FEATURES
  6
Continuous
 62
     3
100
AcDbCircle
 10
77.688163
 20
242.572447
 30
0.0
 40
3.0
100
AcDbArc
 50
90.0
 51
180.0
  0
LINE
  5
31B
330
211
100
AcDbEntity
  8
7_ALL_FEATURES
  6
Continuous
 62
     3
100
AcDbLine
 10
131.688163
 20
232.572447
 30
0.0
 11
131.188163
 21
232.572447
 31
0.0
  0
LINE
  5
31C
330
211
100
AcDbEntity
  8
7_ALL_FEATURES
  6
Continuous
 62
     3
100
AcDbLine
 10
131.688163
 20
200.072447
 30
0.0
 11
131.188163
 21
200.072447
 31
0.0
  0
LINE
  5
31D
330
211
100
AcDbEntity
  8
7_ALL_FEATURES
  6
Continuous
 62
     3
100
AcDbLine
 10
131.688163
 20
197.072447
 30
0.0
 11
131.188163
 21
197.072447
 31
0.0
  0
LINE
  5
31E
330
211
100
AcDbEntity
  8
7_ALL_FEATURES
  6
Continuous
 62
     3
100
AcDbLine
 10
74.688163
 20
242.572447
 30
0.0
 11
74.688163
 21
190.072447
 31
0.0
  0
ARC
  5
31F
330
211
100
AcDbEntity
  8
7_ALL_FEATURES
  6
Continuous
 62
     3
100
AcDbCircle
 10
130.188163
 20
242.572447
 30
0.0
 40
3.0
100
AcDbArc
 50
0.0
 51
90.0
  0
LINE
  5
320
330
211
100
AcDbEntity
  8
7_ALL_FEATURES
  6
Continuous
 62
     3
100
AcDbLine
 10
133.188163
 20
242.572447
 30
0.0
 11
133.188163
 21
190.072447
 31
0.0
  0
LINE
  5
321
330
211
100
AcDbEntity
  8
7_ALL_FEATURES
  6
Continuous
 62
     3
100
AcDbLine
 10
130.188163
 20
187.072447
 30
0.0
 11
107.438163
 21
187.072447
 31
0.0
  0
ARC
  5
322
330
211
100
AcDbEntity
  8
7_ALL_FEATURES
  6
Continuous
 62
     3
100
AcDbCircle
 10
130.188163
 20
190.072447
 30
0.0
 40
3.0
100
AcDbArc
 50
270.0
 51
360.0
  0
LINE
  5
323
330
211
100
AcDbEntity
  8
7_ALL_FEATURES
  6
Continuous
 62
     3
100
AcDbLine
 10
107.438163
 20
187.072447
 30
0.0
 11
105.438163
 21
187.072447
 31
0.0
  0
LINE
  5
324
330
211
100
AcDbEntity
  8
7_ALL_FEATURES
  6
Continuous
 62
     3
100
AcDbLine
 10
76.688163
 20
235.572447
 30
0.0
 11
76.188163
 21
235.572447
 31
0.0
  0
LINE
  5
325
330
211
100
AcDbEntity
  8
7_ALL_FEATURES
  6
Continuous
 62
     3
100
AcDbLine
 10
76.688163
 20
232.572447
 30
0.0
 11
76.188163
 21
232.572447
 31
0.0
  0
LINE
  5
326
330
211
100
AcDbEntity
  8
7_ALL_FEATURES
  6
Continuous
 62
     3
100
AcDbLine
 10
77.688163
 20
187.072447
 30
0.0
 11
100.438163
 21
187.072447
 31
0.0
  0
LINE
  5
327
330
211
100
AcDbEntity
  8
7_ALL_FEATURES
  6
Continuous
 62
     3
100
AcDbLine
 10
76.688163
 20
200.072447
 30
0.0
 11
76.188163
 21
200.072447
 31
0.0
  0
ARC
  5
328
330
211
100
AcDbEntity
  8
7_ALL_FEATURES
  6
Continuous
 62
     3
100
AcDbCircle
 10
77.688163
 20
190.072447
 30
0.0
 40
3.0
100
AcDbArc
 50
180.0
 51
270.0
  0
LINE
  5
329
330
211
100
AcDbEntity
  8
7_ALL_FEATURES
  6
Continuous
 62
     3
100
AcDbLine
 10
76.688163
 20
197.072447
 30
0.0
 11
76.188163
 21
197.072447
 31
0.0
  0
LINE
  5
32A
330
211
100
AcDbEntity
  8
7_ALL_FEATURES
  6
Continuous
 62
     3
100
AcDbLine
 10
102.438163
 20
187.072447
 30
0.0
 11
100.438163
 21
187.072447
 31
0.0
  0
LINE
  5
32B
330
211
100
AcDbEntity
  8
7_ALL_FEATURES
  6
Continuous
 62
     3
100
AcDbLine
 10
105.438163
 20
187.072447
 30
0.0
 11
105.438163
 21
179.072447
 31
0.0
  0
LINE
  5
32C
330
211
100
AcDbEntity
  8
7_ALL_FEATURES
  6
Continuous
 62
     3
100
AcDbLine
 10
102.438163
 20
187.072447
 30
0.0
 11
102.438163
 21
179.072447
 31
0.0
  0
LINE
  5
32D
330
211
100
AcDbEntity
  8
7_ALL_FEATURES
  6
Continuous
 62
     9
100
AcDbLine
 10
131.188163
 20
232.572447
 30
0.0
 11
131.188163
 21
234.072447
 31
0.0
  0
LINE
  5
32E
330
211
100
AcDbEntity
  8
7_ALL_FEATURES
  6
Continuous
 62
     9
100
AcDbLine
 10
76.688163
 20
200.072447
 30
0.0
 11
76.688163
 21
198.572447
 31
0.0
  0
LINE
  5
32F
330
211
100
AcDbEntity
  8
7_ALL_FEATURES
  6
Continuous
 62
     9
100
AcDbLine
 10
76.688163
 20
198.572447
 30
0.0
 11
76.688163
 21
197.072447
 31
0.0
  0
LINE
  5
330
330
211
100
AcDbEntity
  8
7_ALL_FEATURES
  6
Continuous
 62
     9
100
AcDbLine
 10
131.188163
 20
197.072447
 30
0.0
 11
131.188163
 21
198.572447
 31
0.0
  0
LINE
  5
331
330
211
100
AcDbEntity
  8
7_ALL_FEATURES
  6
Continuous
 62
     9
100
AcDbLine
 10
76.688163
 20
234.072447
 30
0.0
 11
76.688163
 21
232.572447
 31
0.0
  0
LINE
  5
332
330
211
100
AcDbEntity
  8
7_ALL_FEATURES
  6
Continuous
 62
     9
100
AcDbLine
 10
76.688163
 20
235.572447
 30
0.0
 11
76.688163
 21
234.072447
 31
0.0
  0
LINE
  5
333
330
211
100
AcDbEntity
  8
7_ALL_FEATURES
  6
Continuous
 62
     9
100
AcDbLine
 10
131.188163
 20
234.072447
 30
0.0
 11
131.188163
 21
235.572447
 31
0.0
  0
LINE
  5
334
330
211
100
AcDbEntity
  8
7_ALL_FEATURES
  6
Continuous
 62
     9
100
AcDbLine
 10
131.188163
 20
198.572447
 30
0.0
 11
131.188163
 21
200.072447
 31
0.0
  0
ARC
  5
335
330
211
100
AcDbEntity
  8
7_ALL_FEATURES
  6
Continuous
 62
     7
100
AcDbCircle
 10
204.263097
 20
182.072447
 30
0.0
 40
2.0
100
AcDbArc
 50
0.0
 51
180.0
  0
ARC
  5
336
330
211
100
AcDbEntity
  8
7_ALL_FEATURES
  6
Continuous
 62
     7
100
AcDbCircle
 10
204.263097
 20
182.072447
 30
0.0
 40
2.0
100
AcDbArc
 50
180.0
 51
360.0
  0
ARC
  5
337
330
211
100
AcDbEntity
  8
7_ALL_FEATURES
  6
Continuous
 62
     7
100
AcDbCircle
 10
204.263097
 20
182.072447
 30
0.0
 40
1.5
100
AcDbArc
 50
180.0
 51
360.0
  0
ARC
  5
338
330
211
100
AcDbEntity
  8
7_ALL_FEATURES
  6
Continuous
 62
     7
100
AcDbCircle
 10
204.263097
 20
182.072447
 30
0.0
 40
1.5
100
AcDbArc
 50
0.0
 51
180.0
  0
ARC
  5
339
330
211
100
AcDbEntity
  8
7_ALL_FEATURES
  6
Continuous
 62
     3
100
AcDbCircle
 10
198.763097
 20
179.072447
 30
0.0
 40
2.0
100
AcDbArc
 50
180.0
 51
270.0
  0
ARC
  5
33A
330
211
100
AcDbEntity
  8
7_ALL_FEATURES
  6
Continuous
 62
     3
100
AcDbCircle
 10
209.763097
 20
179.072447
 30
0.0
 40
2.0
100
AcDbArc
 50
270.0
 51
360.0
  0
ARC
  5
33B
330
211
100
AcDbEntity
  8
3_ALL_AXES
  6
Continuous
 62
     3
100
AcDbCircle
 10
211.763097
 20
234.072447
 30
0.0
 40
1.0
100
AcDbArc
 50
180.0
 51
360.0
  0
ARC
  5
33C
330
211
100
AcDbEntity
  8
3_ALL_AXES
  6
Continuous
 62
     3
100
AcDbCircle
 10
211.763097
 20
234.072447
 30
0.0
 40
1.0
100
AcDbArc
 50
0.0
 51
180.0
  0
ARC
  5
33D
330
211
100
AcDbEntity
  8
3_ALL_AXES
  6
Continuous
 62
     3
100
AcDbCircle
 10
211.763097
 20
198.572447
 30
0.0
 40
1.0
100
AcDbArc
 50
180.0
 51
360.0
  0
ARC
  5
33E
330
211
100
AcDbEntity
  8
3_ALL_AXES
  6
Continuous
 62
     3
100
AcDbCircle
 10
211.763097
 20
198.572447
 30
0.0
 40
1.0
100
AcDbArc
 50
0.0
 51
180.0
  0
LINE
  5
33F
330
211
100
AcDbEntity
  8
7_ALL_FEATURES
  6
Continuous
 62
     3
100
AcDbLine
 10
256.763097
 20
245.572447
 30
0.0
 11
196.763097
 21
245.572447
 31
0.0
  0
LINE
  5
340
330
211
100
AcDbEntity
  8
7_ALL_FEATURES
  6
Continuous
 62
     3
100
AcDbLine
 10
196.763097
 20
187.072447
 30
0.0
 11
196.763097
 21
179.072447
 31
0.0
  0
LINE
  5
341
330
211
100
AcDbEntity
  8
7_ALL_FEATURES
  6
Continuous
 62
     3
100
AcDbLine
 10
198.763097
 20
177.072447
 30
0.0
 11
209.763097
 21
177.072447
 31
0.0
  0
LINE
  5
342
330
211
100
AcDbEntity
  8
7_ALL_FEATURES
  6
Continuous
 62
     3
100
AcDbLine
 10
211.763097
 20
187.072447
 30
0.0
 11
211.763097
 21
179.072447
 31
0.0
  0
LINE
  5
343
330
211
100
AcDbEntity
  8
7_ALL_FEATURES
  6
Continuous
 62
     3
100
AcDbLine
 10
256.763097
 20
187.072447
 30
0.0
 11
196.763097
 21
187.072447
 31
0.0
  0
LINE
  5
344
330
211
100
AcDbEntity
  8
7_ALL_FEATURES
  6
Continuous
 62
     3
100
AcDbLine
 10
196.763097
 20
190.072447
 30
0.0
 11
196.763097
 21
188.572447
 31
0.0
  0
LINE
  5
345
330
211
100
AcDbEntity
  8
7_ALL_FEATURES
  6
Continuous
 62
     3
100
AcDbLine
 10
196.763097
 20
188.572447
 30
0.0
 11
196.763097
 21
187.072447
 31
0.0
  0
LINE
  5
346
330
211
100
AcDbEntity
  8
7_ALL_FEATURES
  6
Continuous
 62
     3
100
AcDbLine
 10
256.763097
 20
190.072447
 30
0.0
 11
256.763097
 21
188.572447
 31
0.0
  0
LINE
  5
347
330
211
100
AcDbEntity
  8
7_ALL_FEATURES
  6
Continuous
 62
     3
100
AcDbLine
 10
256.763097
 20
188.572447
 30
0.0
 11
256.763097
 21
187.072447
 31
0.0
  0
LINE
  5
348
330
211
100
AcDbEntity
  8
7_ALL_FEATURES
  6
Continuous
 62
     3
100
AcDbLine
 10
256.763097
 20
245.572447
 30
0.0
 11
256.763097
 21
244.072447
 31
0.0
  0
LINE
  5
349
330
211
100
AcDbEntity
  8
7_ALL_FEATURES
  6
Continuous
 62
     3
100
AcDbLine
 10
256.763097
 20
244.072447
 30
0.0
 11
256.763097
 21
242.572447
 31
0.0
  0
LINE
  5
34A
330
211
100
AcDbEntity
  8
7_ALL_FEATURES
  6
Continuous
 62
     3
100
AcDbLine
 10
196.763097
 20
245.572447
 30
0.0
 11
196.763097
 21
244.072447
 31
0.0
  0
LINE
  5
34B
330
211
100
AcDbEntity
  8
7_ALL_FEATURES
  6
Continuous
 62
     3
100
AcDbLine
 10
196.763097
 20
244.072447
 30
0.0
 11
196.763097
 21
242.572447
 31
0.0
  0
LINE
  5
34C
330
211
100
AcDbEntity
  8
7_ALL_FEATURES
  6
Continuous
 62
     3
100
AcDbLine
 10
196.763097
 20
242.572447
 30
0.0
 11
196.763097
 21
190.072447
 31
0.0
  0
LINE
  5
34D
330
211
100
AcDbEntity
  8
7_ALL_FEATURES
  6
Continuous
 62
     3
100
AcDbLine
 10
256.763097
 20
242.572447
 30
0.0
 11
256.763097
 21
190.072447
 31
0.0
  0
LINE
  5
34E
330
211
100
AcDbEntity
  8
7_ALL_FEATURES
  6
Continuous
 62
     9
100
AcDbLine
 10
256.763097
 20
190.072447
 30
0.0
 11
196.763097
 21
190.072447
 31
0.0
  0
LINE
  5
34F
330
211
100
AcDbEntity
  8
7_ALL_FEATURES
  6
Continuous
 62
     9
100
AcDbLine
 10
256.763097
 20
242.572447
 30
0.0
 11
196.763097
 21
242.572447
 31
0.0
  0
LINE
  5
350
330
211
100
AcDbEntity
  8
7_ALL_FEATURES
  6
Continuous
 62
     3
100
AcDbLine
 10
74.688163
 20
60.377487
 30
0.0
 11
74.688163
 21
120.377487
 31
0.0
  0
LINE
  5
351
330
211
100
AcDbEntity
  8
7_ALL_FEATURES
  6
Continuous
 62
     3
100
AcDbLine
 10
133.188163
 20
120.377487
 30
0.0
 11
133.188163
 21
60.377487
 31
0.0
  0
LINE
  5
352
330
211
100
AcDbEntity
  8
7_ALL_FEATURES
  6
Continuous
 62
     3
100
AcDbLine
 10
130.188163
 20
60.377487
 30
0.0
 11
77.688163
 21
60.377487
 31
0.0
  0
LINE
  5
353
330
211
100
AcDbEntity
  8
7_ALL_FEATURES
  6
Continuous
 62
     3
100
AcDbLine
 10
130.188163
 20
120.377487
 30
0.0
 11
77.688163
 21
120.377487
 31
0.0
  0
LINE
  5
354
330
211
100
AcDbEntity
  8
7_ALL_FEATURES
  6
Continuous
 62
     3
100
AcDbLine
 10
77.688163
 20
60.377487
 30
0.0
 11
76.188163
 21
60.377487
 31
0.0
  0
LINE
  5
355
330
211
100
AcDbEntity
  8
7_ALL_FEATURES
  6
Continuous
 62
     3
100
AcDbLine
 10
76.188163
 20
60.377487
 30
0.0
 11
74.688163
 21
60.377487
 31
0.0
  0
LINE
  5
356
330
211
100
AcDbEntity
  8
7_ALL_FEATURES
  6
Continuous
 62
     3
100
AcDbLine
 10
77.688163
 20
120.377487
 30
0.0
 11
76.188163
 21
120.377487
 31
0.0
  0
LINE
  5
357
330
211
100
AcDbEntity
  8
7_ALL_FEATURES
  6
Continuous
 62
     3
100
AcDbLine
 10
76.188163
 20
120.377487
 30
0.0
 11
74.688163
 21
120.377487
 31
0.0
  0
LINE
  5
358
330
211
100
AcDbEntity
  8
7_ALL_FEATURES
  6
Continuous
 62
     3
100
AcDbLine
 10
130.188163
 20
120.377487
 30
0.0
 11
131.688163
 21
120.377487
 31
0.0
  0
LINE
  5
359
330
211
100
AcDbEntity
  8
7_ALL_FEATURES
  6
Continuous
 62
     3
100
AcDbLine
 10
131.688163
 20
120.377487
 30
0.0
 11
133.188163
 21
120.377487
 31
0.0
  0
LINE
  5
35A
330
211
100
AcDbEntity
  8
7_ALL_FEATURES
  6
Continuous
 62
     3
100
AcDbLine
 10
130.188163
 20
60.377487
 30
0.0
 11
131.688163
 21
60.377487
 31
0.0
  0
LINE
  5
35B
330
211
100
AcDbEntity
  8
7_ALL_FEATURES
  6
Continuous
 62
     3
100
AcDbLine
 10
131.688163
 20
60.377487
 30
0.0
 11
133.188163
 21
60.377487
 31
0.0
  0
LINE
  5
35C
330
211
100
AcDbEntity
  8
7_ALL_FEATURES
  6
Continuous
 62
     9
100
AcDbLine
 10
130.188163
 20
120.377487
 30
0.0
 11
130.188163
 21
60.377487
 31
0.0
  0
LINE
  5
35D
330
211
100
AcDbEntity
  8
7_ALL_FEATURES
  6
Continuous
 62
     9
100
AcDbLine
 10
77.688163
 20
60.377487
 30
0.0
 11
77.688163
 21
120.377487
 31
0.0
  0
LINE
  5
35E
330
211
100
AcDbEntity
  8
7_ALL_FEATURES
  6
Continuous
 62
     7
100
AcDbLine
 10
302.562231
 20
87.555238
 30
0.0
 11
302.72284
 21
87.364629
 31
0.0
  0
SPLINE
  5
35F
330
211
100
AcDbEntity
  8
7_ALL_FEATURES
  6
Continuous
 62
     7
100
AcDbSpline
 70
     0
 71
     3
 72
    12
 73
     8
 74
     0
 42
0.000000001
 43
0.0000001
 40
0.0
 40
0.0
 40
0.0
 40
0.0
 40
0.1086209863
 40
0.2191315158
 40
0.4520710817
 40
0.7103221464
 40
1.0
 40
1.0
 40
1.0
 40
1.0
 10
303.3139339418
 20
87.0544156143
 30
0.0
 10
303.2889457079
 20
87.0524061426
 30
0.0
 10
303.2381346908
 20
87.052245525
 30
0.0
 10
303.1346119896
 20
87.0677118255
 30
0.0
 10
303.0033429284
 20
87.1183937214
 30
0.0
 10
302.8545741142
 20
87.2223392125
 30
0.0
 10
302.7659213888
 20
87.3135051066
 30
0.0
 10
302.7228404679
 20
87.3646293295
 30
0.0
  0
LINE
  5
360
330
211
100
AcDbEntity
  8
3_ALL_AXES
  6
Continuous
 62
     7
100
AcDbLine
 10
303.313934
 20
87.05441
 30
0.0
 11
304.308394
 21
87.134317
 31
0.0
  0
SPLINE
  5
361
330
211
100
AcDbEntity
  8
7_ALL_FEATURES
  6
Continuous
 62
     7
100
AcDbSpline
 70
     0
 71
     3
 72
    11
 73
     7
 74
     0
 42
0.000000001
 43
0.0000001
 40
0.0
 40
0.0
 40
0.0
 40
0.0
 40
0.2746814202
 40
0.5291511581
 40
0.7686101578
 40
1.0
 40
1.0
 40
1.0
 40
1.0
 10
303.7136122044
 20
87.2719911133
 30
0.0
 10
303.6848998046
 20
87.2404924194
 30
0.0
 10
303.6253586347
 20
87.1834181324
 30
0.0
 10
303.5262394459
 20
87.1159685596
 30
0.0
 10
303.4221285646
 20
87.0712889078
 30
0.0
 10
303.3497222601
 20
87.0572935933
 30
0.0
 10
303.3139339418
 20
87.0544156143
 30
0.0
  0
ARC
  5
362
330
211
100
AcDbEntity
  8
7_ALL_FEATURES
  6
Continuous
 62
     7
100
AcDbCircle
 10
334.552997
 20
106.709018
 30
0.0
 40
2.4519811053
100
AcDbArc
 50
180.001055
 51
180.935044
  0
SPLINE
  5
363
330
211
100
AcDbEntity
  8
7_ALL_FEATURES
  6
Continuous
 62
     7
100
AcDbSpline
 70
     0
 71
     3
 72
    14
 73
    10
 74
     0
 42
0.000000001
 43
0.0000001
 40
0.0
 40
0.0
 40
0.0
 40
0.0
 40
0.2727300943
 40
0.403677723
 40
0.5283293424
 40
0.6476334367
 40
0.7644363441
 40
0.8814974217
 40
1.0
 40
1.0
 40
1.0
 40
1.0
 10
332.1013423702
 20
106.6690045346
 30
0.0
 10
332.1045264892
 20
106.4736944778
 30
0.0
 10
332.1424730753
 20
106.1833914947
 30
0.0
 10
332.2606899556
 20
105.8230320691
 30
0.0
 10
332.3810104747
 20
105.5817121961
 30
0.0
 10
332.5358675901
 20
105.3727265696
 30
0.0
 10
332.7311208408
 20
105.2076269564
 30
0.0
 10
332.9646044419
 20
105.1022565432
 30
0.0
 10
333.1365542962
 20
105.0864665721
 30
0.0
 10
333.2211560898
 20
105.0932644639
 30
0.0
  0
SPLINE
  5
364
330
211
100
AcDbEntity
  8
7_ALL_FEATURES
  6
Continuous
 62
     7
100
AcDbSpline
 70
     0
 71
     3
 72
    14
 73
    10
 74
     0
 42
0.000000001
 43
0.0000001
 40
0.0
 40
0.0
 40
0.0
 40
0.0
 40
0.1209816437
 40
0.2401843765
 40
0.3592435203
 40
0.478744268
 40
0.6015986919
 40
0.7294609803
 40
1.0
 40
1.0
 40
1.0
 40
1.0
 10
332.9808756313
 20
108.0836265325
 30
0.0
 10
332.908946152
 20
108.0778468818
 30
0.0
 10
332.7669015317
 20
108.0453627731
 30
0.0
 10
332.5779867418
 20
107.9391793666
 30
0.0
 10
332.4216079401
 20
107.7911444565
 30
0.0
 10
332.300038291
 20
107.6114657693
 30
0.0
 10
332.2094575592
 20
107.4090785111
 30
0.0
 10
332.1238350153
 20
107.1094397386
 30
0.0
 10
332.101015861
 20
106.8703399845
 30
0.0
 10
332.1010158606
 20
106.7089729464
 30
0.0
  0
SPLINE
  5
365
330
211
100
AcDbEntity
  8
7_ALL_FEATURES
  6
Continuous
 62
     7
100
AcDbSpline
 70
     0
 71
     3
 72
    14
 73
    10
 74
     0
 42
0.000000001
 43
0.0000001
 40
0.0
 40
0.0
 40
0.0
 40
0.0
 40
0.1209816437
 40
0.2401843765
 40
0.3592435203
 40
0.478744268
 40
0.6015986919
 40
0.7294609803
 40
1.0
 40
1.0
 40
1.0
 40
1.0
 10
332.9808756313
 20
143.2381429728
 30
0.0
 10
332.908946152
 20
143.2323633221
 30
0.0
 10
332.7669015317
 20
143.1998792134
 30
0.0
 10
332.5779867418
 20
143.0936958069
 30
0.0
 10
332.4216079401
 20
142.9456608969
 30
0.0
 10
332.300038291
 20
142.7659822096
 30
0.0
 10
332.2094575592
 20
142.5635949514
 30
0.0
 10
332.1238350153
 20
142.2639561789
 30
0.0
 10
332.101015861
 20
142.0248564248
 30
0.0
 10
332.1010158606
 20
141.8634893868
 30
0.0
  0
LINE
  5
366
330
211
100
AcDbEntity
  8
7_ALL_FEATURES
  6
Continuous
 62
     7
100
AcDbLine
 10
354.73499
 20
146.152321
 30
0.0
 11
309.268657
 21
142.499027
 31
0.0
  0
ARC
  5
367
330
211
100
AcDbEntity
  8
7_ALL_FEATURES
  6
Continuous
 62
     7
100
AcDbCircle
 10
334.552997
 20
141.863535
 30
0.0
 40
2.4519811046
100
AcDbArc
 50
180.001055
 51
180.935044
  0
SPLINE
  5
368
330
211
100
AcDbEntity
  8
7_ALL_FEATURES
  6
Continuous
 62
     7
100
AcDbSpline
 70
     0
 71
     3
 72
    14
 73
    10
 74
     0
 42
0.000000001
 43
0.0000001
 40
0.0
 40
0.0
 40
0.0
 40
0.0
 40
0.2727300943
 40
0.403677723
 40
0.5283293424
 40
0.6476334367
 40
0.7644363441
 40
0.8814974217
 40
1.0
 40
1.0
 40
1.0
 40
1.0
 10
332.1013423702
 20
141.8235209749
 30
0.0
 10
332.1045264892
 20
141.6282109181
 30
0.0
 10
332.1424730753
 20
141.337907935
 30
0.0
 10
332.2606899556
 20
140.9775485094
 30
0.0
 10
332.3810104747
 20
140.7362286364
 30
0.0
 10
332.5358675901
 20
140.5272430099
 30
0.0
 10
332.7311208408
 20
140.3621433968
 30
0.0
 10
332.9646044419
 20
140.2567729835
 30
0.0
 10
333.1365542962
 20
140.2409830124
 30
0.0
 10
333.2211560898
 20
140.2477809042
 30
0.0
  0
SPLINE
  5
369
330
211
100
AcDbEntity
  8
7_ALL_FEATURES
  6
Continuous
 62
     7
100
AcDbSpline
 70
     0
 71
     3
 72
    11
 73
     7
 74
     0
 42
0.000000001
 43
0.0000001
 40
0.0
 40
0.0
 40
0.0
 40
0.0
 40
0.232812076
 40
0.4796636563
 40
0.7382429891
 40
1.0
 40
1.0
 40
1.0
 40
1.0
 10
309.2686567581
 20
142.4990273323
 30
0.0
 10
309.0958219199
 20
142.4851397718
 30
0.0
 10
308.7431495977
 20
142.3725464786
 30
0.0
 10
308.3181479248
 20
142.0042443424
 30
0.0
 10
308.0368324709
 20
141.4946164877
 30
0.0
 10
307.9696186524
 20
141.1041946612
 30
0.0
 10
307.9696186524
 20
140.9092454034
 30
0.0
  0
LINE
  5
36A
330
211
100
AcDbEntity
  8
7_ALL_FEATURES
  6
Continuous
 62
     7
100
AcDbLine
 10
307.969619
 20
140.909245
 30
0.0
 11
307.969619
 21
88.920172
 31
0.0
  0
LINE
  5
36B
330
211
100
AcDbEntity
  8
7_ALL_FEATURES
  6
Continuous
 62
     7
100
AcDbLine
 10
354.73499
 20
146.152321
 30
0.0
 11
355.086503
 21
146.125145
 31
0.0
  0
LINE
  5
36C
330
211
100
AcDbEntity
  8
7_ALL_FEATURES
  6
Continuous
 62
     7
100
AcDbLine
 10
326.034029
 20
143.846152
 30
0.0
 11
326.034029
 21
100.013872
 31
0.0
  0
LINE
  5
36D
330
211
100
AcDbEntity
  8
7_ALL_FEATURES
  6
Continuous
 62
     7
100
AcDbLine
 10
324.73499
 20
98.42409
 30
0.0
 11
307.969619
 21
97.076965
 31
0.0
  0
LINE
  5
36E
330
211
100
AcDbEntity
  8
7_ALL_FEATURES
  6
Continuous
 62
     7
100
AcDbLine
 10
309.961049
 20
83.733845
 30
0.0
 11
307.362972
 21
83.525085
 31
0.0
  0
SPLINE
  5
36F
330
211
100
AcDbEntity
  8
7_ALL_FEATURES
  6
Continuous
 62
     7
100
AcDbSpline
 70
     0
 71
     3
 72
    11
 73
     7
 74
     0
 42
0.000000001
 43
0.0000001
 40
0.0
 40
0.0
 40
0.0
 40
0.0
 40
0.2617570109
 40
0.5203363437
 40
0.767187924
 40
1.0
 40
1.0
 40
1.0
 40
1.0
 10
326.0340285624
 20
100.0138718034
 30
0.0
 10
326.0340285624
 20
99.8189225457
 30
0.0
 10
325.966814744
 20
99.4285007192
 30
0.0
 10
325.68549929
 20
98.9188728644
 30
0.0
 10
325.2604976172
 20
98.5505707282
 30
0.0
 10
324.907825295
 20
98.4379774351
 30
0.0
 10
324.7349904568
 20
98.4240898746
 30
0.0
  0
SPLINE
  5
370
330
211
100
AcDbEntity
  8
7_ALL_FEATURES
  6
Continuous
 62
     7
100
AcDbSpline
 70
     0
 71
     3
 72
    12
 73
     8
 74
     0
 42
0.000000001
 43
0.0000001
 40
0.0
 40
0.0
 40
0.0
 40
0.0
 40
0.1279595986
 40
0.216803152
 40
0.3271652009
 40
0.6172740095
 40
1.0
 40
1.0
 40
1.0
 40
1.0
 10
329.9707346942
 20
89.3632984224
 30
0.0
 10
329.9707432474
 20
89.3766814602
 30
0.0
 10
329.9575578637
 20
89.3984291424
 30
0.0
 10
329.9309512415
 20
89.4194161491
 30
0.0
 10
329.8864622523
 20
89.4453441874
 30
0.0
 10
329.8096220019
 20
89.4744850598
 30
0.0
 10
329.7416994226
 20
89.4930911328
 30
0.0
 10
329.7027855018
 20
89.5024715234
 30
0.0
  0
LINE
  5
371
330
211
100
AcDbEntity
  8
7_ALL_FEATURES
  6
Continuous
 62
     7
100
AcDbLine
 10
329.970735
 20
89.363298
 30
0.0
 11
329.970735
 21
87.877896
 31
0.0
  0
SPLINE
  5
372
330
211
100
AcDbEntity
  8
7_ALL_FEATURES
  6
Continuous
 62
     7
100
AcDbSpline
 70
     0
 71
     3
 72
    11
 73
     7
 74
     0
 42
0.000000001
 43
0.0000001
 40
0.0
 40
0.0
 40
0.0
 40
0.0
 40
0.2664729756
 40
0.5216898459
 40
0.7648198145
 40
1.0
 40
1.0
 40
1.0
 40
1.0
 10
307.9696186524
 20
88.9201717945
 30
0.0
 10
307.9696186524
 20
88.7626233578
 30
0.0
 10
308.0127778494
 20
88.452068569
 30
0.0
 10
308.2086003124
 20
88.0362797045
 30
0.0
 10
308.5174594273
 20
87.719573653
 30
0.0
 10
308.7819628444
 20
87.5988841044
 30
0.0
 10
308.9171423673
 20
87.5663177469
 30
0.0
  0
SPLINE
  5
373
330
211
100
AcDbEntity
  8
7_ALL_FEATURES
  6
Continuous
 62
     7
100
AcDbSpline
 70
     0
 71
     3
 72
     8
 73
     4
 74
     0
 42
0.000000001
 43
0.0000001
 40
0.0
 40
0.0
 40
0.0
 40
0.0
 40
1.0
 40
1.0
 40
1.0
 40
1.0
 10
308.5542923852
 20
94.6579519922
 30
0.0
 10
308.6491275324
 20
94.6351574569
 30
0.0
 10
308.7416321811
 20
94.5992309149
 30
0.0
 10
308.8272230449
 20
94.5524601977
 30
0.0
  0
LINE
  5
374
330
211
100
AcDbEntity
  8
7_ALL_FEATURES
  6
Continuous
 62
     7
100
AcDbLine
 10
307.969619
 20
94.798921
 30
0.0
 11
308.215899
 21
94.739553
 31
0.0
  0
LINE
  5
375
330
211
100
AcDbEntity
  8
7_ALL_FEATURES
  6
Continuous
 62
     7
100
AcDbLine
 10
308.215899
 20
94.739553
 30
0.0
 11
308.554299
 21
94.657981
 31
0.0
  0
LINE
  5
376
330
211
100
AcDbEntity
  8
7_ALL_FEATURES
  6
Continuous
 62
     7
100
AcDbLine
 10
329.702786
 20
89.502472
 30
0.0
 11
308.541185
 21
94.603579
 31
0.0
  0
LINE
  5
377
330
211
100
AcDbEntity
  8
7_ALL_FEATURES
  6
Continuous
 62
     7
100
AcDbLine
 10
308.541185
 20
94.603579
 30
0.0
 11
308.202786
 21
94.685151
 31
0.0
  0
LINE
  5
378
330
211
100
AcDbEntity
  8
7_ALL_FEATURES
  6
Continuous
 62
     9
100
AcDbLine
 10
357.333067
 20
92.886605
 30
0.0
 11
356.034029
 21
92.782225
 31
0.0
  0
LINE
  5
379
330
211
100
AcDbEntity
  8
7_ALL_FEATURES
  6
Continuous
 62
     7
100
AcDbLine
 10
356.034029
 20
144.771299
 30
0.0
 11
356.034029
 21
92.782225
 31
0.0
  0
LINE
  5
37A
330
211
100
AcDbEntity
  8
7_ALL_FEATURES
  6
Continuous
 62
     9
100
AcDbLine
 10
335.032913
 20
89.609349
 30
0.0
 11
335.032913
 21
88.123947
 31
0.0
  0
LINE
  5
37B
330
211
100
AcDbEntity
  8
7_ALL_FEATURES
  6
Continuous
 62
     7
100
AcDbLine
 10
354.73499
 20
91.192443
 30
0.0
 11
335.032913
 21
89.609349
 31
0.0
  0
LINE
  5
37C
330
211
100
AcDbEntity
  8
7_ALL_FEATURES
  6
Continuous
 62
     9
100
AcDbLine
 10
354.73499
 20
89.707041
 30
0.0
 11
354.73499
 21
91.192443
 31
0.0
  0
SPLINE
  5
37D
330
211
100
AcDbEntity
  8
7_ALL_FEATURES
  6
Continuous
 62
     7
100
AcDbSpline
 70
     0
 71
     3
 72
    11
 73
     7
 74
     0
 42
0.000000001
 43
0.0000001
 40
0.0
 40
0.0
 40
0.0
 40
0.0
 40
0.2617570109
 40
0.5203363437
 40
0.767187924
 40
1.0
 40
1.0
 40
1.0
 40
1.0
 10
356.0340285624
 20
92.7822253461
 30
0.0
 10
356.0340285624
 20
92.5872760884
 30
0.0
 10
355.966814744
 20
92.1968542619
 30
0.0
 10
355.68549929
 20
91.6872264071
 30
0.0
 10
355.2604976172
 20
91.3189242709
 30
0.0
 10
354.907825295
 20
91.2063309778
 30
0.0
 10
354.7349904568
 20
91.1924434173
 30
0.0
  0
LINE
  5
37E
330
211
100
AcDbEntity
  8
7_ALL_FEATURES
  6
Continuous
 62
     9
100
AcDbLine
 10
354.73499
 20
147.637723
 30
0.0
 11
354.73499
 21
146.152321
 31
0.0
  0
LINE
  5
37F
330
211
100
AcDbEntity
  8
7_ALL_FEATURES
  6
Continuous
 62
     9
100
AcDbLine
 10
332.300862
 20
89.711231
 30
0.0
 11
332.300862
 21
88.225829
 31
0.0
  0
LINE
  5
380
330
211
100
AcDbEntity
  8
7_ALL_FEATURES
  6
Continuous
 62
     7
100
AcDbLine
 10
310.800862
 20
94.893911
 30
0.0
 11
332.300862
 21
89.711231
 31
0.0
  0
LINE
  5
381
330
211
100
AcDbEntity
  8
7_ALL_FEATURES
  6
Continuous
 62
     9
100
AcDbLine
 10
328.970735
 20
89.122244
 30
0.0
 11
328.970735
 21
87.636841
 31
0.0
  0
LINE
  5
382
330
211
100
AcDbEntity
  8
7_ALL_FEATURES
  6
Continuous
 62
     9
100
AcDbLine
 10
309.268657
 20
86.053747
 30
0.0
 11
309.268657
 21
87.53915
 31
0.0
  0
LINE
  5
383
330
211
100
AcDbEntity
  8
7_ALL_FEATURES
  6
Continuous
 62
     7
100
AcDbLine
 10
309.268657
 20
87.53915
 30
0.0
 11
328.970735
 21
89.122244
 31
0.0
  0
LINE
  5
384
330
211
100
AcDbEntity
  8
7_ALL_FEATURES
  6
Continuous
 62
     9
100
AcDbLine
 10
306.670581
 20
88.815792
 30
0.0
 11
307.969619
 21
88.920172
 31
0.0
  0
LINE
  5
385
330
211
100
AcDbEntity
  8
7_ALL_FEATURES
  6
Continuous
 62
     9
100
AcDbLine
 10
309.268657
 20
143.984429
 30
0.0
 11
309.268657
 21
142.499027
 31
0.0
  0
SPLINE
  5
386
330
211
100
AcDbEntity
  8
7_ALL_FEATURES
  6
Continuous
 62
     7
100
AcDbSpline
 70
     0
 71
     3
 72
    11
 73
     7
 74
     0
 42
0.000000001
 43
0.0000001
 40
0.0
 40
0.0
 40
0.0
 40
0.0
 40
0.2351801855
 40
0.4783101541
 40
0.7335270244
 40
1.0
 40
1.0
 40
1.0
 40
1.0
 10
355.0865048475
 20
146.1251530026
 30
0.0
 10
355.2216843705
 20
146.0925866452
 30
0.0
 10
355.4861877875
 20
145.9718970965
 30
0.0
 10
355.7950469024
 20
145.6551910451
 30
0.0
 10
355.9908693655
 20
145.2394021806
 30
0.0
 10
356.0340285624
 20
144.9288473918
 30
0.0
 10
356.0340285624
 20
144.7712989551
 30
0.0
  0
LINE
  5
387
330
211
100
AcDbEntity
  8
7_ALL_FEATURES
  6
Continuous
 62
     7
100
AcDbLine
 10
308.917144
 20
87.566326
 30
0.0
 11
309.268657
 21
87.53915
 31
0.0
  0
SPLINE
  5
388
330
211
100
AcDbEntity
  8
7_ALL_FEATURES
  6
Continuous
 62
     7
100
AcDbSpline
 70
     0
 71
     3
 72
    15
 73
    11
 74
     0
 42
0.000000001
 43
0.0000001
 40
0.0
 40
0.0
 40
0.0
 40
0.0
 40
0.3954379855
 40
0.5612632838
 40
0.702162805
 40
0.8162595792
 40
0.9025663447
 40
0.9354096557
 40
0.9618687785
 40
1.0
 40
1.0
 40
1.0
 40
1.0
 10
328.9707346942
 20
89.1222435405
 30
0.0
 10
329.1091448619
 20
89.1333650227
 30
0.0
 10
329.3053950703
 20
89.1531447563
 30
0.0
 10
329.5490652431
 20
89.1910994898
 30
0.0
 10
329.6939769287
 20
89.2204735633
 30
0.0
 10
329.8096601874
 20
89.2521042055
 30
0.0
 10
329.886488216
 20
89.2812605658
 30
0.0
 10
329.930928226
 20
89.3071796237
 30
0.0
 10
329.9575247299
 20
89.3281722718
 30
0.0
 10
329.9707261368
 20
89.3499088189
 30
0.0
 10
329.9707346942
 20
89.3632984224
 30
0.0
  0
LINE
  5
389
330
211
100
AcDbEntity
  8
7_ALL_FEATURES
  6
Continuous
 62
     9
100
AcDbLine
 10
310.800862
 20
85.486364
 30
0.0
 11
309.501824
 21
85.381985
 31
0.0
  0
LINE
  5
38A
330
211
100
AcDbEntity
  8
7_ALL_FEATURES
  6
Continuous
 62
     9
100
AcDbLine
 10
309.268657
 20
87.53915
 30
0.0
 11
308.930257
 21
87.620722
 31
0.0
  0
LINE
  5
38B
330
211
100
AcDbEntity
  8
7_ALL_FEATURES
  6
Continuous
 62
     9
100
AcDbLine
 10
308.930257
 20
87.620722
 30
0.0
 11
308.601596
 21
87.699948
 31
0.0
  0
LINE
  5
38C
330
211
100
AcDbEntity
  8
7_ALL_FEATURES
  6
Continuous
 62
     9
100
AcDbLine
 10
308.202786
 20
85.277605
 30
0.0
 11
309.501824
 21
85.381985
 31
0.0
  0
LINE
  5
38D
330
211
100
AcDbEntity
  8
7_ALL_FEATURES
  6
Continuous
 62
     9
100
AcDbLine
 10
309.501824
 20
86.072483
 30
0.0
 11
309.501824
 21
85.381985
 31
0.0
  0
LINE
  5
38E
330
211
100
AcDbEntity
  8
7_ALL_FEATURES
  6
Continuous
 62
     9
100
AcDbLine
 10
306.670581
 20
140.804866
 30
0.0
 11
307.969619
 21
140.909245
 31
0.0
  0
SPLINE
  5
38F
330
211
100
AcDbEntity
  8
7_ALL_FEATURES
  6
Continuous
 62
     7
100
AcDbSpline
 70
     0
 71
     3
 72
     9
 73
     5
 74
     0
 42
0.000000001
 43
0.0000001
 40
0.0
 40
0.0
 40
0.0
 40
0.0
 40
0.4840532756
 40
1.0
 40
1.0
 40
1.0
 40
1.0
 10
310.8008617131
 20
94.8939111359
 30
0.0
 10
310.6120137351
 20
94.8787368935
 30
0.0
 10
310.2262365539
 20
94.7467786266
 30
0.0
 10
309.9362844689
 20
94.4662953769
 30
0.0
 10
309.8188973651
 20
94.3019789922
 30
0.0
  0
LINE
  5
390
330
211
100
AcDbEntity
  8
7_ALL_FEATURES
  6
Continuous
 62
     7
100
AcDbLine
 10
310.800862
 20
94.893911
 30
0.0
 11
310.800862
 21
94.058873
 31
0.0
  0
LINE
  5
391
330
211
100
AcDbEntity
  8
7_ALL_FEATURES
  6
Continuous
 62
     7
100
AcDbLine
 10
308.202786
 20
94.685151
 30
0.0
 11
308.554292
 21
94.657952
 31
0.0
  0
LINE
  5
392
330
211
100
AcDbEntity
  8
7_ALL_FEATURES
  6
Continuous
 62
     9
100
AcDbLine
 10
310.800862
 20
94.893911
 30
0.0
 11
307.969619
 21
95.576396
 31
0.0
  0
LINE
  5
393
330
211
100
AcDbEntity
  8
7_ALL_FEATURES
  6
Continuous
 62
     9
100
AcDbLine
 10
307.969619
 20
94.741357
 30
0.0
 11
308.202786
 21
94.685151
 31
0.0
  0
LINE
  5
394
330
211
100
AcDbEntity
  8
7_ALL_FEATURES
  6
Continuous
 62
     9
100
AcDbLine
 10
357.333067
 20
144.875679
 30
0.0
 11
356.034029
 21
144.771299
 31
0.0
  0
LINE
  5
395
330
211
100
AcDbEntity
  8
7_ALL_FEATURES
  6
Continuous
 62
     9
100
AcDbLine
 10
351.41246
 20
145.885351
 30
0.0
 11
356.034029
 21
144.771299
 31
0.0
  0
SPLINE
  5
396
330
211
100
AcDbEntity
  8
7_ALL_FEATURES
  6
Continuous
 62
     9
100
AcDbSpline
 70
     0
 71
     3
 72
    18
 73
    14
 74
     0
 42
0.000000001
 43
0.0000001
 40
0.0
 40
0.0
 40
0.0
 40
0.0
 40
0.1619245623
 40
0.3129887078
 40
0.4380408904
 40
0.488942194
 40
0.5331289667
 40
0.5736701611
 40
0.6150538899
 40
0.6614115906
 40
0.7151417289
 40
0.8456559137
 40
1.0
 40
1.0
 40
1.0
 40
1.0
 10
332.1680031587
 20
106.6741796639
 30
0.0
 10
332.1680031587
 20
106.5441755956
 30
0.0
 10
332.1924939577
 20
106.2920696479
 30
0.0
 10
332.2932902006
 20
105.9533935672
 30
0.0
 10
332.4285930033
 20
105.7219705471
 30
0.0
 10
332.562746193
 20
105.6043418328
 30
0.0
 10
332.6634145054
 20
105.5577342818
 30
0.0
 10
332.7673221096
 20
105.5521731255
 30
0.0
 10
332.8661182869
 20
105.5894347749
 30
0.0
 10
332.9537426976
 20
105.6643307435
 30
0.0
 10
333.0602368514
 20
105.8175026143
 30
0.0
 10
333.1469295154
 20
106.0800795762
 30
0.0
 10
333.1680031587
 20
106.3092068361
 30
0.0
 10
333.1680031587
 20
106.433124782
 30
0.0
  0
LINE
  5
397
330
211
100
AcDbEntity
  8
7_ALL_FEATURES
  6
Continuous
 62
     9
100
AcDbLine
 10
332.168003
 20
106.67418
 30
0.0
 11
332.668003
 21
106.553652
 31
0.0
  0
ARC
  5
398
330
211
100
AcDbEntity
  8
7_ALL_FEATURES
  6
Continuous
 62
     9
100
AcDbCircle
 10
331.161781
 20
106.432638
 30
0.0
 40
2.0062225813
100
AcDbArc
 50
0.013888
 51
8.856147
  0
ARC
  5
399
330
211
100
AcDbEntity
  8
7_ALL_FEATURES
  6
Continuous
 62
     9
100
AcDbCircle
 10
331.223789
 20
106.442341
 30
0.0
 40
1.9434593076
100
AcDbArc
 50
8.854969
 51
9.693227
  0
SPLINE
  5
39A
330
211
100
AcDbEntity
  8
7_ALL_FEATURES
  6
Continuous
 62
     9
100
AcDbSpline
 70
     0
 71
     3
 72
    19
 73
    15
 74
     0
 42
0.000000001
 43
0.0000001
 40
0.0
 40
0.0
 40
0.0
 40
0.0
 40
0.1609863441
 40
0.3009584403
 40
0.3605335391
 40
0.4128562388
 40
0.4590446535
 40
0.5015258655
 40
0.543866937
 40
0.5896812962
 40
0.6415008563
 40
0.700534672
 40
0.8395050144
 40
1.0
 40
1.0
 40
1.0
 40
1.0
 10
333.139502769
 20
106.7695664415
 30
0.0
 10
333.121040184
 20
106.877648229
 30
0.0
 10
333.0697296617
 20
107.0772248439
 30
0.0
 10
332.9614509731
 20
107.3008169292
 30
0.0
 10
332.8527861096
 20
107.4346034576
 30
0.0
 10
332.7693462361
 20
107.504011397
 30
0.0
 10
332.6812861223
 20
107.5455790029
 30
0.0
 10
332.5908096135
 20
107.5559537865
 30
0.0
 10
332.5027562394
 20
107.5336384932
 30
0.0
 10
332.4218350288
 20
107.4806494379
 30
0.0
 10
332.3498437779
 20
107.4006842355
 30
0.0
 10
332.2627793729
 20
107.2535252467
 30
0.0
 10
332.1898926015
 20
107.0174033046
 30
0.0
 10
332.1699274101
 20
106.8133260427
 30
0.0
 10
332.1682341662
 20
106.7040264775
 30
0.0
  0
ARC
  5
39B
330
211
100
AcDbEntity
  8
7_ALL_FEATURES
  6
Continuous
 62
     9
100
AcDbCircle
 10
334.094887
 20
106.67419
 30
0.0
 40
1.9268836252
100
AcDbArc
 50
179.112788
 51
180.000317
  0
LINE
  5
39C
330
211
100
AcDbEntity
  8
7_ALL_FEATURES
  6
Continuous
 62
     9
100
AcDbLine
 10
333.168003
 20
106.433125
 30
0.0
 11
332.668003
 21
106.553652
 31
0.0
  0
SPLINE
  5
39D
330
211
100
AcDbEntity
  8
7_ALL_FEATURES
  6
Continuous
 62
     7
100
AcDbSpline
 70
     0
 71
     3
 72
    12
 73
     8
 74
     0
 42
0.000000001
 43
0.0000001
 40
0.0
 40
0.0
 40
0.0
 40
0.0
 40
0.0848466968
 40
0.1901559313
 40
0.4460558345
 40
0.7301113072
 40
1.0
 40
1.0
 40
1.0
 40
1.0
 10
332.3008617131
 20
89.7112311748
 30
0.0
 10
332.3762312881
 20
89.6930629708
 30
0.0
 10
332.5473281623
 20
89.6615547305
 30
0.0
 10
332.9518032446
 20
89.6106048269
 30
0.0
 10
333.5408436006
 20
89.5740344311
 30
0.0
 10
334.2810118074
 20
89.5676166168
 30
0.0
 10
334.7870947787
 20
89.5895975383
 30
0.0
 10
335.0329125207
 20
89.6093493939
 30
0.0
  0
SPLINE
  5
39E
330
211
100
AcDbEntity
  8
7_ALL_FEATURES
  6
Continuous
 62
     9
100
AcDbSpline
 70
     0
 71
     3
 72
    18
 73
    14
 74
     0
 42
0.000000001
 43
0.0000001
 40
0.0
 40
0.0
 40
0.0
 40
0.0
 40
0.1619245623
 40
0.3129887078
 40
0.4380408904
 40
0.488942194
 40
0.5331289667
 40
0.5736701611
 40
0.6150538899
 40
0.6614115906
 40
0.7151417289
 40
0.8456559137
 40
1.0
 40
1.0
 40
1.0
 40
1.0
 10
332.1680031587
 20
141.8286961042
 30
0.0
 10
332.1680031587
 20
141.6986920359
 30
0.0
 10
332.1924939577
 20
141.4465860882
 30
0.0
 10
332.2932902006
 20
141.1079100075
 30
0.0
 10
332.4285930033
 20
140.8764869875
 30
0.0
 10
332.562746193
 20
140.7588582732
 30
0.0
 10
332.6634145054
 20
140.7122507221
 30
0.0
 10
332.7673221096
 20
140.7066895659
 30
0.0
 10
332.8661182869
 20
140.7439512152
 30
0.0
 10
332.9537426976
 20
140.8188471838
 30
0.0
 10
333.0602368514
 20
140.9720190546
 30
0.0
 10
333.1469295154
 20
141.2345960165
 30
0.0
 10
333.1680031587
 20
141.4637232764
 30
0.0
 10
333.1680031587
 20
141.5876412223
 30
0.0
  0
LINE
  5
39F
330
211
100
AcDbEntity
  8
7_ALL_FEATURES
  6
Continuous
 62
     9
100
AcDbLine
 10
332.168003
 20
141.828696
 30
0.0
 11
332.668003
 21
141.708169
 31
0.0
  0
LINE
  5
3A0
330
211
100
AcDbEntity
  8
7_ALL_FEATURES
  6
Continuous
 62
     9
100
AcDbLine
 10
324.73499
 20
98.42409
 30
0.0
 11
354.73499
 21
91.192443
 31
0.0
  0
LINE
  5
3A1
330
211
100
AcDbEntity
  8
7_ALL_FEATURES
  6
Continuous
 62
     9
100
AcDbLine
 10
326.034029
 20
100.013872
 30
0.0
 11
356.034029
 21
92.782225
 31
0.0
  0
ARC
  5
3A2
330
211
100
AcDbEntity
  8
7_ALL_FEATURES
  6
Continuous
 62
     9
100
AcDbCircle
 10
331.161781
 20
141.587155
 30
0.0
 40
2.0062225813
100
AcDbArc
 50
0.013888
 51
8.856147
  0
ARC
  5
3A3
330
211
100
AcDbEntity
  8
7_ALL_FEATURES
  6
Continuous
 62
     9
100
AcDbCircle
 10
331.223789
 20
141.596857
 30
0.0
 40
1.9434593084
100
AcDbArc
 50
8.854969
 51
9.693227
  0
SPLINE
  5
3A4
330
211
100
AcDbEntity
  8
7_ALL_FEATURES
  6
Continuous
 62
     9
100
AcDbSpline
 70
     0
 71
     3
 72
    19
 73
    15
 74
     0
 42
0.000000001
 43
0.0000001
 40
0.0
 40
0.0
 40
0.0
 40
0.0
 40
0.1609863441
 40
0.3009584403
 40
0.3605335391
 40
0.4128562388
 40
0.4590446535
 40
0.5015258655
 40
0.543866937
 40
0.5896812962
 40
0.6415008563
 40
0.700534672
 40
0.8395050144
 40
1.0
 40
1.0
 40
1.0
 40
1.0
 10
333.139502769
 20
141.9240828819
 30
0.0
 10
333.121040184
 20
142.0321646693
 30
0.0
 10
333.0697296617
 20
142.2317412842
 30
0.0
 10
332.9614509731
 20
142.4553333696
 30
0.0
 10
332.8527861096
 20
142.5891198979
 30
0.0
 10
332.7693462361
 20
142.6585278374
 30
0.0
 10
332.6812861223
 20
142.7000954432
 30
0.0
 10
332.5908096135
 20
142.7104702269
 30
0.0
 10
332.5027562394
 20
142.6881549335
 30
0.0
 10
332.4218350288
 20
142.6351658783
 30
0.0
 10
332.3498437779
 20
142.5552006759
 30
0.0
 10
332.2627793729
 20
142.408041687
 30
0.0
 10
332.1898926015
 20
142.171919745
 30
0.0
 10
332.1699274101
 20
141.967842483
 30
0.0
 10
332.1682341662
 20
141.8585429178
 30
0.0
  0
ARC
  5
3A5
330
211
100
AcDbEntity
  8
7_ALL_FEATURES
  6
Continuous
 62
     9
100
AcDbCircle
 10
334.094887
 20
141.828707
 30
0.0
 40
1.9268836252
100
AcDbArc
 50
179.112788
 51
180.000317
  0
LINE
  5
3A6
330
211
100
AcDbEntity
  8
7_ALL_FEATURES
  6
Continuous
 62
     9
100
AcDbLine
 10
333.168003
 20
141.587641
 30
0.0
 11
332.668003
 21
141.708169
 31
0.0
  0
SPLINE
  5
3A7
330
211
100
AcDbEntity
  8
3_ALL_AXES
  6
Continuous
 62
     3
100
AcDbSpline
 70
     0
 71
     3
 72
    13
 73
     9
 74
     0
 42
0.000000001
 43
0.0000001
 40
0.0
 40
0.0
 40
0.0
 40
0.0
 40
0.0797868017
 40
0.1696293587
 40
0.2753062954
 40
0.3981127511
 40
0.6855204452
 40
1.0
 40
1.0
 40
1.0
 40
1.0
 10
284.0904891878
 20
103.6535661002
 30
0.0
 10
284.1266613476
 20
103.6564717375
 30
0.0
 10
284.2056645576
 20
103.6444837667
 30
0.0
 10
284.3146180197
 20
103.578415698
 30
0.0
 10
284.4142054631
 20
103.4715578102
 30
0.0
 10
284.5373793496
 20
103.2705286117
 30
0.0
 10
284.6413528076
 20
102.9535451104
 30
0.0
 10
284.6705805467
 20
102.6793097077
 30
0.0
 10
284.6705805467
 20
102.5362779551
 30
0.0
  0
SPLINE
  5
3A8
330
211
100
AcDbEntity
  8
7_ALL_FEATURES
  6
Continuous
 62
     3
100
AcDbSpline
 70
     0
 71
     3
 72
    12
 73
     8
 74
     0
 42
0.000000001
 43
0.0000001
 40
0.0
 40
0.0
 40
0.0
 40
0.0
 40
0.3040520621
 40
0.5877234703
 40
0.7127953882
 40
0.8232868043
 40
1.0
 40
1.0
 40
1.0
 40
1.0
 10
300.7027855018
 20
87.0855164457
 30
0.0
 10
300.7027855018
 20
86.8255006238
 30
0.0
 10
300.7519063644
 20
86.3219440591
 30
0.0
 10
300.9261651546
 20
85.7325750443
 30
0.0
 10
301.1341797236
 20
85.3376007001
 30
0.0
 10
301.3440898348
 20
85.0558011756
 30
0.0
 10
301.5558739602
 20
84.8993391706
 30
0.0
 10
301.7027855018
 20
84.8639254263
 30
0.0
  0
LINE
  5
3A9
330
211
100
AcDbEntity
  8
7_ALL_FEATURES
  6
Continuous
 62
     3
100
AcDbLine
 10
307.202786
 20
83.538124
 30
0.0
 11
307.362961
 21
83.525234
 31
0.0
  0
SPLINE
  5
3AA
330
211
100
AcDbEntity
  8
3_ALL_AXES
  6
Continuous
 62
     3
100
AcDbSpline
 70
     0
 71
     3
 72
    13
 73
     9
 74
     0
 42
0.000000001
 43
0.0000001
 40
0.0
 40
0.0
 40
0.0
 40
0.0
 40
0.0797868017
 40
0.1696293587
 40
0.2753062954
 40
0.3981127511
 40
0.6855204452
 40
1.0
 40
1.0
 40
1.0
 40
1.0
 10
284.0904891878
 20
138.8080825405
 30
0.0
 10
284.1266613476
 20
138.8109881779
 30
0.0
 10
284.2056645576
 20
138.799000207
 30
0.0
 10
284.3146180197
 20
138.7329321383
 30
0.0
 10
284.4142054631
 20
138.6260742505
 30
0.0
 10
284.5373793496
 20
138.425045052
 30
0.0
 10
284.6413528076
 20
138.1080615507
 30
0.0
 10
284.6705805467
 20
137.833826148
 30
0.0
 10
284.6705805467
 20
137.6907943954
 30
0.0
  0
SPLINE
  5
3AB
330
211
100
AcDbEntity
  8
7_ALL_FEATURES
  6
Continuous
 62
     3
100
AcDbSpline
 70
     0
 71
     3
 72
    13
 73
     9
 74
     0
 42
0.000000001
 43
0.0000001
 40
0.0
 40
0.0
 40
0.0
 40
0.0
 40
0.3213607767
 40
0.6009016271
 40
0.7197150234
 40
0.823861301
 40
0.9155774711
 40
1.0
 40
1.0
 40
1.0
 40
1.0
 10
310.8008617131
 20
85.4863644828
 30
0.0
 10
310.8008617131
 20
85.2624496282
 30
0.0
 10
310.7657646382
 20
84.8429752547
 30
0.0
 10
310.6234648795
 20
84.3558772628
 30
0.0
 10
310.4494140002
 20
84.0501647987
 30
0.0
 10
310.3045775968
 20
83.883097931
 30
0.0
 10
310.1410298064
 20
83.771476889
 30
0.0
 10
310.0196798919
 20
83.738594131
 30
0.0
 10
309.961044529
 20
83.7338974238
 30
0.0
  0
SPLINE
  5
3AC
330
211
100
AcDbEntity
  8
3_ALL_AXES
  6
Continuous
 62
     3
100
AcDbSpline
 70
     0
 71
     3
 72
    13
 73
     9
 74
     0
 42
0.000000001
 43
0.0000001
 40
0.0
 40
0.0
 40
0.0
 40
0.0
 40
0.3213842788
 40
0.6009271308
 40
0.7197502847
 40
0.8238958385
 40
0.9156322888
 40
1.0
 40
1.0
 40
1.0
 40
1.0
 10
284.6705805467
 20
137.6907943954
 30
0.0
 10
284.6705805467
 20
137.5788294879
 30
0.0
 10
284.653044282
 20
137.3690791991
 30
0.0
 10
284.5818543834
 20
137.1255373559
 30
0.0
 10
284.4948464825
 20
136.9726631971
 30
0.0
 10
284.4223903171
 20
136.889153301
 30
0.0
 10
284.3406360677
 20
136.8333337834
 30
0.0
 10
284.2799698334
 20
136.8169145762
 30
0.0
 10
284.2506719057
 20
136.8145611322
 30
0.0
  0
SPLINE
  5
3AD
330
211
100
AcDbEntity
  8
3_ALL_AXES
  6
Continuous
 62
     3
100
AcDbSpline
 70
     0
 71
     3
 72
    13
 73
     9
 74
     0
 42
0.000000001
 43
0.0000001
 40
0.0
 40
0.0
 40
0.0
 40
0.0
 40
0.3213842788
 40
0.6009271308
 40
0.7197502847
 40
0.8238958385
 40
0.9156322888
 40
1.0
 40
1.0
 40
1.0
 40
1.0
 10
284.6705805467
 20
102.5362779551
 30
0.0
 10
284.6705805467
 20
102.4243130476
 30
0.0
 10
284.653044282
 20
102.2145627588
 30
0.0
 10
284.5818543834
 20
101.9710209156
 30
0.0
 10
284.4948464825
 20
101.8181467567
 30
0.0
 10
284.4223903171
 20
101.7346368607
 30
0.0
 10
284.3406360677
 20
101.6788173431
 30
0.0
 10
284.2799698334
 20
101.6623981359
 30
0.0
 10
284.2506719057
 20
101.6600446919
 30
0.0
  0
LINE
  5
3AE
330
211
100
AcDbEntity
  8
7_ALL_FEATURES
  6
Continuous
 62
     3
100
AcDbLine
 10
324.73499
 20
154.86937
 30
0.0
 11
279.268657
 21
151.216076
 31
0.0
  0
SPLINE
  5
3AF
330
211
100
AcDbEntity
  8
7_ALL_FEATURES
  6
Continuous
 62
     3
100
AcDbSpline
 70
     0
 71
     3
 72
    12
 73
     8
 74
     0
 42
0.000000001
 43
0.0000001
 40
0.0
 40
0.0
 40
0.0
 40
0.0
 40
0.1153302453
 40
0.2338276018
 40
0.480352425
 40
0.7385894766
 40
1.0
 40
1.0
 40
1.0
 40
1.0
 10
279.2686567581
 20
151.2160758927
 30
0.0
 10
279.0971922446
 20
151.20229844
 30
0.0
 10
278.7516304313
 20
151.1346069338
 30
0.0
 10
278.0894518904
 20
150.8497514574
 30
0.0
 10
277.3664607569
 20
150.2263135195
 30
0.0
 10
276.8053560393
 20
149.2073121807
 30
0.0
 10
276.6705805467
 20
148.4264105505
 30
0.0
 10
276.6705805467
 20
148.036512035
 30
0.0
  0
LINE
  5
3B0
330
211
100
AcDbEntity
  8
7_ALL_FEATURES
  6
Continuous
 62
     3
100
AcDbLine
 10
333.413888
 20
143.272936
 30
0.0
 11
332.980876
 21
143.238143
 31
0.0
  0
SPLINE
  5
3B1
330
211
100
AcDbEntity
  8
7_ALL_FEATURES
  6
Continuous
 62
     3
100
AcDbSpline
 70
     0
 71
     3
 72
    13
 73
     9
 74
     0
 42
0.000000001
 43
0.0000001
 40
0.0
 40
0.0
 40
0.0
 40
0.0
 40
0.0843677112
 40
0.1761041615
 40
0.2802497153
 40
0.3990728692
 40
0.6786157212
 40
1.0
 40
1.0
 40
1.0
 40
1.0
 10
333.6541656008
 20
140.2826141575
 30
0.0
 10
333.6981124925
 20
140.2861443235
 30
0.0
 10
333.7891118439
 20
140.3107731343
 30
0.0
 10
333.9117432179
 20
140.3945024107
 30
0.0
 10
334.0204274661
 20
140.5197672548
 30
0.0
 10
334.1509393174
 20
140.7490784931
 30
0.0
 10
334.2577241653
 20
141.1143912578
 30
0.0
 10
334.2840285624
 20
141.4290166911
 30
0.0
 10
334.2840285624
 20
141.5969640523
 30
0.0
  0
LINE
  5
3B2
330
211
100
AcDbEntity
  8
7_ALL_FEATURES
  6
Continuous
 62
     3
100
AcDbLine
 10
333.654169
 20
140.282574
 30
0.0
 11
333.221156
 21
140.247781
 31
0.0
  0
LINE
  5
3B3
330
211
100
AcDbEntity
  8
7_ALL_FEATURES
  6
Continuous
 62
     3
100
AcDbLine
 10
333.413888
 20
108.11842
 30
0.0
 11
332.980876
 21
108.083627
 31
0.0
  0
SPLINE
  5
3B4
330
211
100
AcDbEntity
  8
7_ALL_FEATURES
  6
Continuous
 62
     3
100
AcDbSpline
 70
     0
 71
     3
 72
    13
 73
     9
 74
     0
 42
0.000000001
 43
0.0000001
 40
0.0
 40
0.0
 40
0.0
 40
0.0
 40
0.0843677112
 40
0.1761041615
 40
0.2802497153
 40
0.3990728692
 40
0.6786157212
 40
1.0
 40
1.0
 40
1.0
 40
1.0
 10
333.6541656008
 20
105.1280977172
 30
0.0
 10
333.6981124925
 20
105.1316278832
 30
0.0
 10
333.7891118439
 20
105.156256694
 30
0.0
 10
333.9117432179
 20
105.2399859704
 30
0.0
 10
334.0204274661
 20
105.3652508144
 30
0.0
 10
334.1509393174
 20
105.5945620527
 30
0.0
 10
334.2577241653
 20
105.9598748175
 30
0.0
 10
334.2840285624
 20
106.2745002508
 30
0.0
 10
334.2840285624
 20
106.442447612
 30
0.0
  0
LINE
  5
3B5
330
211
100
AcDbEntity
  8
7_ALL_FEATURES
  6
Continuous
 62
     3
100
AcDbLine
 10
333.654169
 20
105.128058
 30
0.0
 11
333.221156
 21
105.093264
 31
0.0
  0
LINE
  5
3B6
330
211
100
AcDbEntity
  8
7_ALL_FEATURES
  6
Continuous
 62
     3
100
AcDbLine
 10
276.670581
 20
148.036512
 30
0.0
 11
276.670581
 21
96.047438
 31
0.0
  0
LINE
  5
3B7
330
211
100
AcDbEntity
  8
7_ALL_FEATURES
  6
Continuous
 62
     3
100
AcDbLine
 10
324.73499
 20
154.86937
 30
0.0
 11
325.438015
 21
154.815018
 31
0.0
  0
LINE
  5
3B8
330
211
100
AcDbEntity
  8
7_ALL_FEATURES
  6
Continuous
 62
     3
100
AcDbLine
 10
357.333067
 20
144.875679
 30
0.0
 11
357.333067
 21
92.886605
 31
0.0
  0
LINE
  5
3B9
330
211
100
AcDbEntity
  8
7_ALL_FEATURES
  6
Continuous
 62
     3
100
AcDbLine
 10
354.73499
 20
89.707041
 30
0.0
 11
335.032913
 21
88.123947
 31
0.0
  0
SPLINE
  5
3BA
330
211
100
AcDbEntity
  8
7_ALL_FEATURES
  6
Continuous
 62
     3
100
AcDbSpline
 70
     0
 71
     3
 72
    15
 73
    11
 74
     0
 42
0.000000001
 43
0.0000001
 40
0.0
 40
0.0
 40
0.0
 40
0.0
 40
0.0381312215
 40
0.0645903443
 40
0.0974336553
 40
0.1837404208
 40
0.297837195
 40
0.4387367162
 40
0.6045620145
 40
1.0
 40
1.0
 40
1.0
 40
1.0
 10
329.9707346942
 20
87.8778963193
 30
0.0
 10
329.9707261368
 20
87.8645067158
 30
0.0
 10
329.9575247299
 20
87.8427701687
 30
0.0
 10
329.930928226
 20
87.8217775205
 30
0.0
 10
329.886488216
 20
87.7958584627
 30
0.0
 10
329.8096601874
 20
87.7667021023
 30
0.0
 10
329.6939769287
 20
87.7350714602
 30
0.0
 10
329.5490652431
 20
87.7056973867
 30
0.0
 10
329.3053950703
 20
87.6677426532
 30
0.0
 10
329.1091448619
 20
87.6479629196
 30
0.0
 10
328.9707346942
 20
87.6368414374
 30
0.0
  0
SPLINE
  5
3BB
330
211
100
AcDbEntity
  8
7_ALL_FEATURES
  6
Continuous
 62
     3
100
AcDbSpline
 70
     0
 71
     3
 72
    12
 73
     8
 74
     0
 42
0.000000001
 43
0.0000001
 40
0.0
 40
0.0
 40
0.0
 40
0.0
 40
0.2614105234
 40
0.519647575
 40
0.7661723982
 40
0.8846697547
 40
1.0
 40
1.0
 40
1.0
 40
1.0
 10
357.3330666681
 20
92.8866051719
 30
0.0
 10
357.3330666681
 20
92.4967066563
 30
0.0
 10
357.1982911756
 20
91.7158050262
 30
0.0
 10
356.6371864579
 20
90.6968036873
 30
0.0
 10
355.9141953245
 20
90.0733657495
 30
0.0
 10
355.2520167836
 20
89.7885102731
 30
0.0
 10
354.9064549702
 20
89.7208187669
 30
0.0
 10
354.7349904568
 20
89.7070413142
 30
0.0
  0
SPLINE
  5
3BC
330
211
100
AcDbEntity
  8
7_ALL_FEATURES
  6
Continuous
 62
     3
100
AcDbSpline
 70
     0
 71
     3
 72
    12
 73
     8
 74
     0
 42
0.000000001
 43
0.0000001
 40
0.0
 40
0.0
 40
0.0
 40
0.0
 40
0.2698886928
 40
0.5539441655
 40
0.8098440687
 40
0.9151533032
 40
1.0
 40
1.0
 40
1.0
 40
1.0
 10
335.0329125207
 20
88.1239472908
 30
0.0
 10
334.7870947787
 20
88.1041954352
 30
0.0
 10
334.2810118074
 20
88.0822145137
 30
0.0
 10
333.5408436006
 20
88.0886323279
 30
0.0
 10
332.9518032446
 20
88.1252027238
 30
0.0
 10
332.5473281623
 20
88.1761526274
 30
0.0
 10
332.3762312881
 20
88.2076608677
 30
0.0
 10
332.3008617131
 20
88.2258290717
 30
0.0
  0
LINE
  5
3BD
330
211
100
AcDbEntity
  8
7_ALL_FEATURES
  6
Continuous
 62
     3
100
AcDbLine
 10
329.970735
 20
88.787518
 30
0.0
 11
332.300862
 21
88.225829
 31
0.0
  0
LINE
  5
3BE
330
211
100
AcDbEntity
  8
7_ALL_FEATURES
  6
Continuous
 62
     3
100
AcDbLine
 10
309.268657
 20
86.053747
 30
0.0
 11
328.970735
 21
87.636841
 31
0.0
  0
SPLINE
  5
3BF
330
211
100
AcDbEntity
  8
7_ALL_FEATURES
  6
Continuous
 62
     3
100
AcDbSpline
 70
     0
 71
     3
 72
    11
 73
     7
 74
     0
 42
0.000000001
 43
0.0000001
 40
0.0
 40
0.0
 40
0.0
 40
0.0
 40
0.2664729756
 40
0.5216898459
 40
0.7648198145
 40
1.0
 40
1.0
 40
1.0
 40
1.0
 10
276.6705805467
 20
96.0474384261
 30
0.0
 10
276.6705805467
 20
95.7323415526
 30
0.0
 10
276.7568989407
 20
95.111231975
 30
0.0
 10
277.1485438668
 20
94.279654246
 30
0.0
 10
277.7662620966
 20
93.6462421432
 30
0.0
 10
278.2952689306
 20
93.4048630459
 30
0.0
 10
278.5656279766
 20
93.3397303309
 30
0.0
  0
LINE
  5
3C0
330
211
100
AcDbEntity
  8
7_ALL_FEATURES
  6
Continuous
 62
     3
100
AcDbLine
 10
308.565632
 20
86.1081
 30
0.0
 11
309.268657
 21
86.053747
 31
0.0
  0
LINE
  5
3C1
330
211
100
AcDbEntity
  8
7_ALL_FEATURES
  6
Continuous
 62
     3
100
AcDbLine
 10
308.565629
 20
86.108089
 30
0.0
 11
278.565629
 21
93.339736
 31
0.0
  0
SPLINE
  5
3C2
330
211
100
AcDbEntity
  8
7_ALL_FEATURES
  6
Continuous
 62
     3
100
AcDbSpline
 70
     0
 71
     3
 72
    11
 73
     7
 74
     0
 42
0.000000001
 43
0.0000001
 40
0.0
 40
0.0
 40
0.0
 40
0.0
 40
0.2351801855
 40
0.4783101541
 40
0.7335270244
 40
1.0
 40
1.0
 40
1.0
 40
1.0
 10
355.4380192383
 20
147.5833868759
 30
0.0
 10
355.7083782842
 20
147.518254161
 30
0.0
 10
356.2373851183
 20
147.2768750637
 30
0.0
 10
356.8551033481
 20
146.6434629608
 30
0.0
 10
357.2467482742
 20
145.8118852319
 30
0.0
 10
357.3330666681
 20
145.1907756543
 30
0.0
 10
357.3330666681
 20
144.8756787808
 30
0.0
  0
LINE
  5
3C3
330
211
100
AcDbEntity
  8
7_ALL_FEATURES
  6
Continuous
 62
     3
100
AcDbLine
 10
325.438018
 20
154.815028
 30
0.0
 11
354.761218
 21
147.746527
 31
0.0
  0
LINE
  5
3C4
330
211
100
AcDbEntity
  8
7_ALL_FEATURES
  6
Continuous
 62
     3
100
AcDbLine
 10
354.761218
 20
147.746527
 30
0.0
 11
355.438018
 21
147.583381
 31
0.0
  0
LINE
  5
3C5
330
211
100
AcDbEntity
  8
7_ALL_FEATURES
  6
Continuous
 62
     3
100
AcDbLine
 10
310.800862
 20
86.176863
 30
0.0
 11
310.800862
 21
85.486364
 31
0.0
  0
LINE
  5
3C6
330
211
100
AcDbEntity
  8
7_ALL_FEATURES
  6
Continuous
 62
     3
100
AcDbLine
 10
301.702786
 20
84.863925
 30
0.0
 11
307.202786
 21
83.538124
 31
0.0
  0
LINE
  5
3C7
330
211
100
AcDbEntity
  8
7_ALL_FEATURES
  6
Continuous
 62
     3
100
AcDbLine
 10
300.702786
 20
88.003466
 30
0.0
 11
300.702786
 21
87.085516
 31
0.0
  0
SPLINE
  5
3C8
330
211
100
AcDbEntity
  8
7_ALL_FEATURES
  6
Continuous
 62
     3
100
AcDbSpline
 70
     0
 71
     3
 72
    14
 73
    10
 74
     0
 42
0.000000001
 43
0.0000001
 40
0.0
 40
0.0
 40
0.0
 40
0.0
 40
0.3142913498
 40
0.4640331352
 40
0.6021255054
 40
0.7248584658
 40
0.8304721586
 40
0.9202609479
 40
1.0
 40
1.0
 40
1.0
 40
1.0
 10
334.2840285624
 20
106.442447612
 30
0.0
 10
334.2840285624
 20
106.6569952409
 30
0.0
 10
334.2503806734
 20
106.9752903505
 30
0.0
 10
334.1398891016
 20
107.3718984663
 30
0.0
 10
334.0309319803
 20
107.6311238568
 30
0.0
 10
333.8994331785
 20
107.8453517575
 30
0.0
 10
333.7500916872
 20
108.0056575273
 30
0.0
 10
333.5866529622
 20
108.1047555578
 30
0.0
 10
333.4681497637
 20
108.1227382856
 30
0.0
 10
333.413891524
 20
108.1183798296
 30
0.0
  0
SPLINE
  5
3C9
330
211
100
AcDbEntity
  8
7_ALL_FEATURES
  6
Continuous
 62
     3
100
AcDbSpline
 70
     0
 71
     3
 72
    14
 73
    10
 74
     0
 42
0.000000001
 43
0.0000001
 40
0.0
 40
0.0
 40
0.0
 40
0.0
 40
0.3142913498
 40
0.4640331352
 40
0.6021255054
 40
0.7248584658
 40
0.8304721586
 40
0.9202609479
 40
1.0
 40
1.0
 40
1.0
 40
1.0
 10
334.2840285624
 20
141.5969640523
 30
0.0
 10
334.2840285624
 20
141.8115116812
 30
0.0
 10
334.2503806734
 20
142.1298067909
 30
0.0
 10
334.1398891016
 20
142.5264149066
 30
0.0
 10
334.0309319803
 20
142.7856402972
 30
0.0
 10
333.8994331785
 20
142.9998681978
 30
0.0
 10
333.7500916872
 20
143.1601739676
 30
0.0
 10
333.5866529622
 20
143.2592719981
 30
0.0
 10
333.4681497637
 20
143.277254726
 30
0.0
 10
333.413891524
 20
143.27289627
 30
0.0
  0
SPLINE
  5
3CA
330
211
100
AcDbEntity
  8
3_ALL_AXES
  6
Continuous
 62
     3
100
AcDbSpline
 70
     0
 71
     3
 72
    13
 73
     9
 74
     0
 42
0.000000001
 43
0.0000001
 40
0.0
 40
0.0
 40
0.0
 40
0.0
 40
0.3213842788
 40
0.6009271308
 40
0.7197502847
 40
0.8238958385
 40
0.9156322888
 40
1.0
 40
1.0
 40
1.0
 40
1.0
 10
283.6705805467
 20
137.9318492773
 30
0.0
 10
283.6705805467
 20
138.0438141848
 30
0.0
 10
283.6881168115
 20
138.2535644736
 30
0.0
 10
283.7593067101
 20
138.4971063168
 30
0.0
 10
283.846314611
 20
138.6499804757
 30
0.0
 10
283.9187707764
 20
138.7334903717
 30
0.0
 10
284.0005250257
 20
138.7893098893
 30
0.0
 10
284.06119126
 20
138.8057290965
 30
0.0
 10
284.0904891878
 20
138.8080825405
 30
0.0
  0
SPLINE
  5
3CB
330
211
100
AcDbEntity
  8
3_ALL_AXES
  6
Continuous
 62
     3
100
AcDbSpline
 70
     0
 71
     3
 72
    13
 73
     9
 74
     0
 42
0.000000001
 43
0.0000001
 40
0.0
 40
0.0
 40
0.0
 40
0.0
 40
0.3213842788
 40
0.6009271308
 40
0.7197502847
 40
0.8238958385
 40
0.9156322888
 40
1.0
 40
1.0
 40
1.0
 40
1.0
 10
283.6705805467
 20
102.777332837
 30
0.0
 10
283.6705805467
 20
102.8892977445
 30
0.0
 10
283.6881168115
 20
103.0990480333
 30
0.0
 10
283.7593067101
 20
103.3425898765
 30
0.0
 10
283.846314611
 20
103.4954640354
 30
0.0
 10
283.9187707764
 20
103.5789739314
 30
0.0
 10
284.0005250257
 20
103.634793449
 30
0.0
 10
284.06119126
 20
103.6512126562
 30
0.0
 10
284.0904891878
 20
103.6535661002
 30
0.0
  0
SPLINE
  5
3CC
330
211
100
AcDbEntity
  8
7_ALL_FEATURES
  6
Continuous
 62
     3
100
AcDbSpline
 70
     0
 71
     3
 72
    13
 73
     9
 74
     0
 42
0.000000001
 43
0.0000001
 40
0.0
 40
0.0
 40
0.0
 40
0.0
 40
0.0844225289
 40
0.176138699
 40
0.2802849766
 40
0.3990983729
 40
0.6786392233
 40
1.0
 40
1.0
 40
1.0
 40
1.0
 10
307.3629683176
 20
83.5251377724
 30
0.0
 10
307.4216036806
 20
83.5298344796
 30
0.0
 10
307.5429535951
 20
83.5627172376
 30
0.0
 10
307.7065013854
 20
83.6743382796
 30
0.0
 10
307.8513377888
 20
83.8414051473
 30
0.0
 10
308.0253886682
 20
84.1471176114
 30
0.0
 10
308.1676884268
 20
84.6342156033
 30
0.0
 10
308.2027855018
 20
85.0536899768
 30
0.0
 10
308.2027855018
 20
85.2776048314
 30
0.0
  0
LINE
  5
3CD
330
211
100
AcDbEntity
  8
7_ALL_FEATURES
  6
Continuous
 62
     9
100
AcDbLine
 10
309.268657
 20
143.984429
 30
0.0
 11
279.268657
 21
151.216076
 31
0.0
  0
SPLINE
  5
3CE
330
211
100
AcDbEntity
  8
3_ALL_AXES
  6
Continuous
 62
     3
100
AcDbSpline
 70
     0
 71
     3
 72
    13
 73
     9
 74
     0
 42
0.000000001
 43
0.0000001
 40
0.0
 40
0.0
 40
0.0
 40
0.0
 40
0.0797868017
 40
0.1696293587
 40
0.2753062954
 40
0.3981127511
 40
0.6855204452
 40
1.0
 40
1.0
 40
1.0
 40
1.0
 10
284.2506719057
 20
101.6600446919
 30
0.0
 10
284.2144997459
 20
101.6571390546
 30
0.0
 10
284.1354965359
 20
101.6691270254
 30
0.0
 10
284.0265430738
 20
101.7351950941
 30
0.0
 10
283.9269556304
 20
101.8420529819
 30
0.0
 10
283.8037817438
 20
102.0430821804
 30
0.0
 10
283.6998082858
 20
102.3600656817
 30
0.0
 10
283.6705805467
 20
102.6343010844
 30
0.0
 10
283.6705805467
 20
102.777332837
 30
0.0
  0
LINE
  5
3CF
330
211
100
AcDbEntity
  8
7_ALL_FEATURES
  6
Continuous
 62
     9
100
AcDbLine
 10
324.73499
 20
154.86937
 30
0.0
 11
325.41179
 21
154.706224
 31
0.0
  0
LINE
  5
3D0
330
211
100
AcDbEntity
  8
7_ALL_FEATURES
  6
Continuous
 62
     9
100
AcDbLine
 10
325.41179
 20
154.706224
 30
0.0
 11
354.73499
 21
147.637723
 31
0.0
  0
LINE
  5
3D1
330
211
100
AcDbEntity
  8
7_ALL_FEATURES
  6
Continuous
 62
     3
100
AcDbLine
 10
354.73499
 20
147.637723
 30
0.0
 11
309.268657
 21
143.984429
 31
0.0
  0
SPLINE
  5
3D2
330
211
100
AcDbEntity
  8
7_ALL_FEATURES
  6
Continuous
 62
     3
100
AcDbSpline
 70
     0
 71
     3
 72
    11
 73
     7
 74
     0
 42
0.000000001
 43
0.0000001
 40
0.0
 40
0.0
 40
0.0
 40
0.0
 40
0.2664729756
 40
0.5216898459
 40
0.7648198145
 40
1.0
 40
1.0
 40
1.0
 40
1.0
 10
306.6705805467
 20
88.8157919688
 30
0.0
 10
306.6705805467
 20
88.5006950953
 30
0.0
 10
306.7568989407
 20
87.8795855177
 30
0.0
 10
307.1485438668
 20
87.0480077887
 30
0.0
 10
307.7662620966
 20
86.4145956859
 30
0.0
 10
308.2952689306
 20
86.1732165886
 30
0.0
 10
308.5656279766
 20
86.1080838736
 30
0.0
  0
SPLINE
  5
3D3
330
211
100
AcDbEntity
  8
7_ALL_FEATURES
  6
Continuous
 62
     3
100
AcDbSpline
 70
     0
 71
     3
 72
    12
 73
     8
 74
     0
 42
0.000000001
 43
0.0000001
 40
0.0
 40
0.0
 40
0.0
 40
0.0
 40
0.1153302453
 40
0.2338276018
 40
0.480352425
 40
0.7385894766
 40
1.0
 40
1.0
 40
1.0
 40
1.0
 10
309.2686567581
 20
143.9844294354
 30
0.0
 10
309.0971922446
 20
143.9706519827
 30
0.0
 10
308.7516304313
 20
143.9029604765
 30
0.0
 10
308.0894518904
 20
143.6181050001
 30
0.0
 10
307.3664607569
 20
142.9946670623
 30
0.0
 10
306.8053560393
 20
141.9756657234
 30
0.0
 10
306.6705805467
 20
141.1947640932
 30
0.0
 10
306.6705805467
 20
140.8048655777
 30
0.0
  0
LINE
  5
3D4
330
211
100
AcDbEntity
  8
7_ALL_FEATURES
  6
Continuous
 62
     9
100
AcDbLine
 10
306.670581
 20
88.815792
 30
0.0
 11
276.670581
 21
96.047438
 31
0.0
  0
SPLINE
  5
3D5
330
211
100
AcDbEntity
  8
7_ALL_FEATURES
  6
Continuous
 62
     9
100
AcDbSpline
 70
     0
 71
     3
 72
     9
 73
     5
 74
     0
 42
0.000000001
 43
0.0000001
 40
0.0
 40
0.0
 40
0.0
 40
0.0
 40
0.4565194136
 40
1.0
 40
1.0
 40
1.0
 40
1.0
 10
333.2211559575
 20
140.2477825498
 30
0.0
 10
333.291145802
 20
140.2534217917
 30
0.0
 10
333.4415354021
 20
140.3139530756
 30
0.0
 10
333.5452585814
 20
140.4327831033
 30
0.0
 10
333.5921613217
 20
140.5019767668
 30
0.0
  0
SPLINE
  5
3D6
330
211
100
AcDbEntity
  8
7_ALL_FEATURES
  6
Continuous
 62
     9
100
AcDbSpline
 70
     0
 71
     3
 72
     9
 73
     5
 74
     0
 42
0.000000001
 43
0.0000001
 40
0.0
 40
0.0
 40
0.0
 40
0.0
 40
0.2351495489
 40
1.0
 40
1.0
 40
1.0
 40
1.0
 10
333.5921613217
 20
140.5019767668
 30
0.0
 10
333.6034622809
 20
140.5186486024
 30
0.0
 10
333.6491833034
 20
140.5911286093
 30
0.0
 10
333.6860717866
 20
140.6689730689
 30
0.0
 10
333.7102663683
 20
140.7298525991
 30
0.0
  0
ARC
  5
3D7
330
211
100
AcDbEntity
  8
7_ALL_FEATURES
  6
Continuous
 62
     9
100
AcDbCircle
 10
332.261638
 20
141.30509
 30
0.0
 40
1.5586603586
100
AcDbArc
 50
338.342417
 51
340.617082
  0
SPLINE
  5
3D8
330
211
100
AcDbEntity
  8
7_ALL_FEATURES
  6
Continuous
 62
     9
100
AcDbSpline
 70
     0
 71
     3
 72
     9
 73
     5
 74
     0
 42
0.000000001
 43
0.0000001
 40
0.0
 40
0.0
 40
0.0
 40
0.0
 40
0.4755722253
 40
1.0
 40
1.0
 40
1.0
 40
1.0
 10
333.7319560552
 20
140.7878018557
 30
0.0
 10
333.7733493029
 20
140.9053519305
 30
0.0
 10
333.832932593
 20
141.1623373081
 30
0.0
 10
333.8510158606
 20
141.4247429123
 30
0.0
 10
333.8510158606
 20
141.5621707771
 30
0.0
  0
SPLINE
  5
3D9
330
211
100
AcDbEntity
  8
7_ALL_FEATURES
  6
Continuous
 62
     9
100
AcDbSpline
 70
     0
 71
     3
 72
     9
 73
     5
 74
     0
 42
0.000000001
 43
0.0000001
 40
0.0
 40
0.0
 40
0.0
 40
0.0
 40
0.4565194136
 40
1.0
 40
1.0
 40
1.0
 40
1.0
 10
333.2211559575
 20
105.0932661095
 30
0.0
 10
333.291145802
 20
105.0989053514
 30
0.0
 10
333.4415354021
 20
105.1594366353
 30
0.0
 10
333.5452585814
 20
105.278266663
 30
0.0
 10
333.5921613217
 20
105.3474603265
 30
0.0
  0
SPLINE
  5
3DA
330
211
100
AcDbEntity
  8
7_ALL_FEATURES
  6
Continuous
 62
     9
100
AcDbSpline
 70
     0
 71
     3
 72
     9
 73
     5
 74
     0
 42
0.000000001
 43
0.0000001
 40
0.0
 40
0.0
 40
0.0
 40
0.0
 40
0.2351495489
 40
1.0
 40
1.0
 40
1.0
 40
1.0
 10
333.5921613217
 20
105.3474603265
 30
0.0
 10
333.6034622809
 20
105.3641321621
 30
0.0
 10
333.6491833034
 20
105.436612169
 30
0.0
 10
333.6860717866
 20
105.5144566286
 30
0.0
 10
333.7102663683
 20
105.5753361587
 30
0.0
  0
ARC
  5
3DB
330
211
100
AcDbEntity
  8
7_ALL_FEATURES
  6
Continuous
 62
     9
100
AcDbCircle
 10
332.261638
 20
106.150573
 30
0.0
 40
1.5586603587
100
AcDbArc
 50
338.342417
 51
340.617082
  0
SPLINE
  5
3DC
330
211
100
AcDbEntity
  8
7_ALL_FEATURES
  6
Continuous
 62
     9
100
AcDbSpline
 70
     0
 71
     3
 72
     9
 73
     5
 74
     0
 42
0.000000001
 43
0.0000001
 40
0.0
 40
0.0
 40
0.0
 40
0.0
 40
0.4755722253
 40
1.0
 40
1.0
 40
1.0
 40
1.0
 10
333.7319560552
 20
105.6332854154
 30
0.0
 10
333.7733493029
 20
105.7508354902
 30
0.0
 10
333.832932593
 20
106.0078208677
 30
0.0
 10
333.8510158606
 20
106.270226472
 30
0.0
 10
333.8510158606
 20
106.4076543367
 30
0.0
  0
LINE
  5
3DD
330
211
100
AcDbEntity
  8
7_ALL_FEATURES
  6
Continuous
 62
     3
100
AcDbLine
 10
308.202786
 20
86.195555
 30
0.0
 11
308.202786
 21
85.277605
 31
0.0
  0
SPLINE
  5
3DE
330
211
100
AcDbEntity
  8
3_ALL_AXES
  6
Continuous
 62
     3
100
AcDbSpline
 70
     0
 71
     3
 72
    13
 73
     9
 74
     0
 42
0.000000001
 43
0.0000001
 40
0.0
 40
0.0
 40
0.0
 40
0.0
 40
0.0797868017
 40
0.1696293587
 40
0.2753062954
 40
0.3981127511
 40
0.6855204452
 40
1.0
 40
1.0
 40
1.0
 40
1.0
 10
284.2506719057
 20
136.8145611322
 30
0.0
 10
284.2144997459
 20
136.8116554949
 30
0.0
 10
284.1354965359
 20
136.8236434657
 30
0.0
 10
284.0265430738
 20
136.8897115344
 30
0.0
 10
283.9269556304
 20
136.9965694222
 30
0.0
 10
283.8037817438
 20
137.1975986207
 30
0.0
 10
283.6998082858
 20
137.5145821221
 30
0.0
 10
283.6705805467
 20
137.7888175247
 30
0.0
 10
283.6705805467
 20
137.9318492773
 30
0.0
  0
LINE
  5
3DF
330
211
100
AcDbEntity
  8
7_ALL_FEATURES
  6
Continuous
 62
     3
100
AcDbLine
 10
306.670581
 20
140.804866
 30
0.0
 11
306.670581
 21
88.815792
 31
0.0
  0
LINE
  5
3E0
330
211
100
AcDbEntity
  8
7_ALL_FEATURES
  6
Continuous
 62
     3
100
AcDbLine
 10
354.73499
 20
147.637723
 30
0.0
 11
355.438015
 21
147.583371
 31
0.0
  0
SPLINE
  5
3E1
330
211
100
AcDbEntity
  8
7_ALL_FEATURES
  6
Continuous
 62
     9
100
AcDbSpline
 70
     0
 71
     3
 72
     9
 73
     5
 74
     0
 42
0.000000001
 43
0.0000001
 40
0.0
 40
0.0
 40
0.0
 40
0.0
 40
0.521857797
 40
1.0
 40
1.0
 40
1.0
 40
1.0
 10
333.8510158606
 20
106.4076543367
 30
0.0
 10
333.8510158613
 20
106.6200094804
 30
0.0
 10
333.8081346291
 20
107.0275810393
 30
0.0
 10
333.6806802848
 20
107.419380415
 30
0.0
 10
333.5921613736
 20
107.5926445459
 30
0.0
  0
SPLINE
  5
3E2
330
211
100
AcDbEntity
  8
7_ALL_FEATURES
  6
Continuous
 62
     9
100
AcDbSpline
 70
     0
 71
     3
 72
     9
 73
     5
 74
     0
 42
0.000000001
 43
0.0000001
 40
0.0
 40
0.0
 40
0.0
 40
0.0
 40
0.2672377819
 40
1.0
 40
1.0
 40
1.0
 40
1.0
 10
333.5921613736
 20
107.5926445459
 30
0.0
 10
333.5789391661
 20
107.6185252787
 30
0.0
 10
333.5270287202
 20
107.7140548771
 30
0.0
 10
333.4649845285
 20
107.8044788575
 30
0.0
 10
333.4125772717
 20
107.864511241
 30
0.0
  0
SPLINE
  5
3E3
330
211
100
AcDbEntity
  8
7_ALL_FEATURES
  6
Continuous
 62
     9
100
AcDbSpline
 70
     0
 71
     3
 72
     9
 73
     5
 74
     0
 42
0.000000001
 43
0.0000001
 40
0.0
 40
0.0
 40
0.0
 40
0.0
 40
0.271121497
 40
1.0
 40
1.0
 40
1.0
 40
1.0
 10
333.4125772717
 20
107.864511241
 30
0.0
 10
333.3967671945
 20
107.8826216456
 30
0.0
 10
333.3361301156
 20
107.9472236706
 30
0.0
 10
333.2649558899
 20
108.0029198554
 30
0.0
 10
333.2077520011
 20
108.0329990785
 30
0.0
  0
SPLINE
  5
3E4
330
211
100
AcDbEntity
  8
7_ALL_FEATURES
  6
Continuous
 62
     9
100
AcDbSpline
 70
     0
 71
     3
 72
     9
 73
     5
 74
     0
 42
0.000000001
 43
0.0000001
 40
0.0
 40
0.0
 40
0.0
 40
0.0
 40
0.5160059779
 40
1.0
 40
1.0
 40
1.0
 40
1.0
 10
333.2077520011
 20
108.0329990785
 30
0.0
 10
333.1720013088
 20
108.051797679
 30
0.0
 10
333.0980628201
 20
108.0804544357
 30
0.0
 10
333.0186393803
 20
108.0866675879
 30
0.0
 10
332.9808757637
 20
108.0836248869
 30
0.0
  0
SPLINE
  5
3E5
330
211
100
AcDbEntity
  8
7_ALL_FEATURES
  6
Continuous
 62
     9
100
AcDbSpline
 70
     0
 71
     3
 72
     9
 73
     5
 74
     0
 42
0.000000001
 43
0.0000001
 40
0.0
 40
0.0
 40
0.0
 40
0.0
 40
0.521857797
 40
1.0
 40
1.0
 40
1.0
 40
1.0
 10
333.8510158606
 20
141.5621707771
 30
0.0
 10
333.8510158613
 20
141.7745259208
 30
0.0
 10
333.8081346291
 20
142.1820974796
 30
0.0
 10
333.6806802848
 20
142.5738968554
 30
0.0
 10
333.5921613736
 20
142.7471609862
 30
0.0
  0
SPLINE
  5
3E6
330
211
100
AcDbEntity
  8
7_ALL_FEATURES
  6
Continuous
 62
     9
100
AcDbSpline
 70
     0
 71
     3
 72
     9
 73
     5
 74
     0
 42
0.000000001
 43
0.0000001
 40
0.0
 40
0.0
 40
0.0
 40
0.0
 40
0.2672377819
 40
1.0
 40
1.0
 40
1.0
 40
1.0
 10
333.5921613736
 20
142.7471609862
 30
0.0
 10
333.5789391661
 20
142.7730417191
 30
0.0
 10
333.5270287202
 20
142.8685713175
 30
0.0
 10
333.4649845285
 20
142.9589952978
 30
0.0
 10
333.4125772717
 20
143.0190276813
 30
0.0
  0
SPLINE
  5
3E7
330
211
100
AcDbEntity
  8
7_ALL_FEATURES
  6
Continuous
 62
     9
100
AcDbSpline
 70
     0
 71
     3
 72
     9
 73
     5
 74
     0
 42
0.000000001
 43
0.0000001
 40
0.0
 40
0.0
 40
0.0
 40
0.0
 40
0.271121497
 40
1.0
 40
1.0
 40
1.0
 40
1.0
 10
333.4125772717
 20
143.0190276813
 30
0.0
 10
333.3967671945
 20
143.0371380859
 30
0.0
 10
333.3361301156
 20
143.1017401109
 30
0.0
 10
333.2649558899
 20
143.1574362957
 30
0.0
 10
333.2077520011
 20
143.1875155189
 30
0.0
  0
SPLINE
  5
3E8
330
211
100
AcDbEntity
  8
7_ALL_FEATURES
  6
Continuous
 62
     9
100
AcDbSpline
 70
     0
 71
     3
 72
     9
 73
     5
 74
     0
 42
0.000000001
 43
0.0000001
 40
0.0
 40
0.0
 40
0.0
 40
0.0
 40
0.5160059779
 40
1.0
 40
1.0
 40
1.0
 40
1.0
 10
333.2077520011
 20
143.1875155189
 30
0.0
 10
333.1720013088
 20
143.2063141193
 30
0.0
 10
333.0980628201
 20
143.234970876
 30
0.0
 10
333.0186393803
 20
143.2411840282
 30
0.0
 10
332.9808757637
 20
143.2381413272
 30
0.0
  0
LINE
  5
3E9
330
211
100
AcDbEntity
  8
7_ALL_FEATURES
  6
Continuous
 62
     9
100
AcDbLine
 10
306.670581
 20
140.804866
 30
0.0
 11
276.670581
 21
148.036512
 31
0.0
  0
DIMENSION
  5
3EA
330
211
100
AcDbEntity
  8
0
  6
Continuous
 62
     2
100
AcDbDimension
280
     0
  2
*D1
 10
133.188163
 20
262.39506
 30
0.0
 11
103.939842
 21
262.39506
 31
0.0
 70
   160
 71
     2
 42
58.5
 73
     0
 74
     0
 75
     0
  3
DIMSTYLE_1
100
AcDbAlignedDimension
 13
74.688163
 23
253.401094
 33
0.0
 14
133.188163
 24
252.598972
 34
0.0
100
AcDbRotatedDimension
  0
DIMENSION
  5
3EB
330
211
100
AcDbEntity
  8
0
  6
Continuous
 62
     2
100
AcDbDimension
280
     0
  2
*D2
 10
152.817473
 20
187.072447
 30
0.0
 11
152.817473
 21
216.324128
 31
0.0
 70
   160
 71
     2
 42
58.5
 73
     0
 74
     0
 75
     0
  3
DIMSTYLE_1
100
AcDbAlignedDimension
 13
141.417871
 23
245.572447
 33
0.0
 14
140.81628
 24
187.072447
 34
0.0
 50
270.0
100
AcDbRotatedDimension
  0
DIMENSION
  5
3EC
330
211
100
AcDbEntity
  8
0
  6
Continuous
 62
     2
100
AcDbDimension
280
     0
  2
*D3
 10
178.197115
 20
177.072447
 30
0.0
 11
178.197115
 21
211.312971
 31
0.0
 70
   160
 71
     2
 42
68.5
 73
     0
 74
     0
 75
     0
  3
DIMSTYLE_1
100
AcDbAlignedDimension
 13
188.340816
 23
245.572447
 33
0.0
 14
189.137633
 24
177.072447
 34
0.0
 50
270.0
100
AcDbRotatedDimension
  0
DIMENSION
  5
3ED
330
211
100
AcDbEntity
  8
0
  6
Continuous
 62
     2
100
AcDbDimension
280
     0
  2
*D4
 10
153.444131
 20
60.377487
 30
0.0
 11
153.444131
 21
90.358289
 31
0.0
 70
   160
 71
     2
 42
60.0
 73
     0
 74
     0
 75
     0
  3
DIMSTYLE_1
100
AcDbAlignedDimension
 13
142.470656
 23
120.377487
 33
0.0
 14
142.971983
 24
60.377487
 34
0.0
 50
270.0
100
AcDbRotatedDimension
  0
INSERT
  5
3EE
330
211
100
AcDbEntity
  8
0
  6
Continuous
 62
     2
100
AcDbBlockReference
  2
LOGO2_BL0
 10
333.831816
 20
36.583206
 30
0.0
  0
ACAD_TABLE
  5
3EF
102
{ACAD_XDICTIONARY
360
446
102
}
330
211
100
AcDbEntity
  8
0
  6
Continuous
 62
     2
160
              3328
310
000D000017000000880000001D000000000000000000F03F000000000000000000000000000000009DBFA1A1170074400000000000000000000000000000F03F000000000000000071C60482A60A494000000000000000000000000000000000000000000000F03F0000000000000000000000000000000000000000000000
310
000000000000000000000000000000F03F54000000200000000200000000000000000000000000000000000000000000000000000000000000008056400000000000000000000000000000000000000000000000000000000000000000000000000000F03F5400000020000000020000000000000000000000000000000000
310
00000000000000000000000000000000000000000000000044C0000000000000000000000000000000000000000000000000000000000000F03F5400000020000000020000000000000000003E4000000000000018C00000000000000000000000000080564000000000000018C00000000000000000000000000000000000
310
00000000000000000000000000F03F5400000020000000020000000000000000003E4000000000000028C00000000000000000000000000080564000000000000028C0000000000000000000000000000000000000000000000000000000000000F03F5400000020000000020000000000000000003E4000000000000036C0
310
0000000000000000000000000080564000000000000036C0000000000000000000000000000000000000000000000000000000000000F03F54000000200000000200000000000000000000000000000000003BC0000000000000000000000000008056400000000000003BC000000000000000000000000000000000000000
310
0000000000000000000000F03F540000002000000002000000000000000000000000000000000044C00000000000000000000000000080564000000000000044C0000000000000000000000000000000000000000000000000000000000000F03F5400000020000000020000000000000000003E4000000000000000000000
310
0000000000000000000000003E400000000000003BC0000000000000000000000000000000000000000000000000000000000000F03F540000002000000002000000000000000080514000000000000000000000000000000000000000000080514000000000000028C0000000000000000000000000000000000000000000
310
000000000000000000F03F540000002000000002000000000000000080564000000000000000000000000000000000000000000080564000000000000044C0000000000000000000000000000000000000000000000000000000000000F03F0C0000001000000013000000D000000026000000CDCCCCCCCC7C3F404E621058
310
393412C0000000000000000000000000000000000000000000000000000000000000F03F000000000000F03F0000000000000000000000000000000041003200350035005F0043005F003400300032000000000014000000010000000000000000000840000000000000F03F0000000000000000000000000000F03F000000
310
0000000000000000000000000000000000000000000000000000000000000000000000000061007200690061006C002E00740074006600000000000000C800000026000000C2F5285C8FC6514075931804560E13C0000000000000000000000000000000000000000000000000000000000000F03F000000000000F03F0000
310
00000000000000000000000000005200650076003A0030003000000000000C000000010000000000000000000C40000000000000F03F0000000000000000000000000000F03F0000000000000000000000000000000000000000000000000000000000000000000000000000000061007200690061006C002E007400740066
310
00000000000000CC00000026000000FA7E6ABC74433F405839B4C8769E26C0000000000000000000000000000000000000000000000000000000000000F03F000000000000F03F000000000000000000000000000000005300630061006C0065003A0031003A003100000012000000010000000000000000000C4000000000
310
0000F03F0000000000000000000000000000F03F0000000000000000000000000000000000000000000000000000000000000000000000000000000061007200690061006C002E00740074006600000000000000C0000000260000003333333333DF5140BA490C022B8725C000000000000000000000000000000000000000
310
0000000000000000000000F03F000000000000F03F00000000000000000000000000000000410033000000000004000000010000000000000000000C40000000000000F03F0000000000000000000000000000F03F000000000000000000000000000000000000000000000000000000000000000000000000000000006100
310
7200690061006C002E00740074006600000000000000E4000000260000008195438B6C773F40AC1C5A643BCF32C0000000000000000000000000000000000000000000000000000000000000F03F000000000000F03F0000000000000000000000000000000056004900530049004500520041002000530054004400200052
310
00450049004B004F00200032002E00300000002A000000010000000000000000000C40000000000000F03F0000000000000000000000000000F03F0000000000000000000000000000000000000000000000000000000000000000000000000000000061007200690061006C002E00740074006600000000000000D4000000
310
2600000048E17A14AE373F40C3F5285C8FC239C0000000000000000000000000000000000000000000000000000000000000F03F000000000000F03F0000000000000000000000000000000044004100540045003A00310037002E00300031002E003200340000001A000000010000000000000000000440000000000000F0
310
3F0000000000000000000000000000F03F0000000000000000000000000000000000000000000000000000000000000000000000000000000061007200690061006C002E007400740066000000000000002401000026000000CDCCCCCCCCCCF73F0000000000903DC000000000000000000000000000000000000000000000
310
0000000000000000F03F000000000000F03F0000000000000000000000000000000041006E007900200069006E00740065006700720061006C0020006F00720020007000610072007400690061006C00200072006500700072006F00640075006300740069006F006E00730020006100720065002000700072006F00680069
310
00620069007400650064000000000068000000010000000000000000000240000000000000F03F0000000000000000000000000000F03F0000000000000000000000000000000000000000000000000000000000000000000000000000000061007200690061006C002E007400740066000000000000002C01000026000000
310
FED478E926B1F73F37894160E57C40C0000000000000000000000000000000000000000000000000000000000000F03F000000000000F03F0000000000000000000000000000000077006900740068006F007500740020007000720069006F007200200061007500740068006F007200690073006100740069006F006E0020
310
006F00660020004C002000260020004C0020004C007500630065002000260020004C006900670068007400200073002E0072002E006C002E002C00000072000000010000000000000000000240000000000000F03F0000000000000000000000000000F03F0000000000000000000000000000000000000000000000000000
310
000000000000000000000000000061007200690061006C002E007400740066000000000000000401000026000000C1CAA145B673F43F4F1E166A4D3142C0000000000000000000000000000000000000000000000000000000000000F03F000000000000F03F0000000000000000000000000000000069006E002000610063
310
0063006F007200640061006E006300650020007700690074006800200074006800650020006C0061007700200069006E00200066006F007200630065002E000000000048000000010000000000000000000240000000000000F03F0000000000000000000000000000F03F0000000000000000000000000000000000000000
310
000000000000000000000000000000000000000061007200690061006C002E00740074006600000000000000E400000026000000CDCCCCCCCCCCF73F302AA913D0E043C0000000000000000000000000000000000000000000000000000000000000F03F000000000000F03F0000000000000000000000000000000041006C
310
006C0020007200690067006800740073002000720065007300650072007600650064002E000000000028000000010000000000000000000240000000000000F03F0000000000000000000000000000F03F00000000000000000000000000000000000000000000000000000000000000000000000000000000610072006900
310
61006C002E00740074006600000000000000080000001F000000
100
AcDbBlockReference
  2
*T6
 10
320.005769
 20
50.083206
 30
0.0
100
AcDbTable
342
418
343
219
 11
1.0
 21
0.0
 31
0.0
 90
       22
 91
        5
 92
        5
 93
        0
 94
        0
 95
        0
 96
        0
141
6.0
141
6.0
141
10.0
141
5.0
141
13.0
142
10.0
142
10.0
142
10.0
142
40.0
142
20.0
171
     1
172
     0
173
     0
174
     0
175
     3
176
     4
 91
       32
178
     0
145
0.0
140
3.5
 92
        0
301
CELL_VALUE
 93
        2
 90
        4
  1
 
 94
        0
300

302
 
304
ACVALUE_END
171
     1
172
     0
173
     1
174
     0
175
     1
176
     1
 91
        0
178
     0
145
0.0
 92
        0
301
CELL_VALUE
 93
        3
 90
        0
 91
        0
 94
        0
300

302

304
ACVALUE_END
171
     1
172
     0
173
     1
174
     0
175
     1
176
     1
 91
        0
178
     0
145
0.0
 92
        0
301
CELL_VALUE
 93
        3
 90
        0
 91
        0
 94
        0
300

302

304
ACVALUE_END
171
     1
172
     0
173
     0
174
     0
175
     1
176
     1
 91
       33
178
     0
145
0.0
170
     4
140
3.0
 92
        0
301
CELL_VALUE
 93
        2
 90
        4
  1
A255_C_402
 94
        0
300

302
A255_C_402
304
ACVALUE_END
171
     1
172
     0
173
     0
174
     0
175
     1
176
     1
 91
       33
178
     0
145
0.0
170
     4
140
3.5
 92
        0
301
CELL_VALUE
 93
        2
 90
        4
  1
Rev:00
 94
        0
300

302
Rev:00
304
ACVALUE_END
171
     1
172
     0
173
     1
174
     0
175
     1
176
     1
 91
        0
178
     0
145
0.0
 92
        0
301
CELL_VALUE
 93
        3
 90
        0
 91
        0
 94
        0
300

302

304
ACVALUE_END
171
     1
172
     0
173
     1
174
     0
175
     1
176
     1
 91
        0
178
     0
145
0.0
 92
        0
301
CELL_VALUE
 93
        3
 90
        0
 91
        0
 94
        0
300

302

304
ACVALUE_END
171
     1
172
     0
173
     1
174
     0
175
     1
176
     1
 91
        0
178
     0
145
0.0
 92
        0
301
CELL_VALUE
 93
        3
 90
        0
 91
        0
 94
        0
300

302

304
ACVALUE_END
171
     1
172
     0
173
     0
174
     0
175
     1
176
     1
 91
       33
178
     0
145
0.0
170
     1
140
3.5
 92
        0
301
CELL_VALUE
 93
        2
 90
        4
  1
Scale:1:1
 94
        0
300

302
Scale:1:1
304
ACVALUE_END
171
     1
172
     0
173
     0
174
     0
175
     1
176
     1
 91
       33
178
     0
145
0.0
170
     4
140
3.5
 92
        0
301
CELL_VALUE
 93
        2
 90
        4
  1
A3
 94
        0
300

302
A3
304
ACVALUE_END
171
     1
172
     0
173
     1
174
     0
175
     1
176
     1
 91
        0
178
     0
145
0.0
 92
        0
301
CELL_VALUE
 93
        3
 90
        0
 91
        0
 94
        0
300

302

304
ACVALUE_END
171
     1
172
     0
173
     1
174
     0
175
     1
176
     1
 91
        0
178
     0
145
0.0
 92
        0
301
CELL_VALUE
 93
        3
 90
        0
 91
        0
 94
        0
300

302

304
ACVALUE_END
171
     1
172
     0
173
     1
174
     0
175
     1
176
     1
 91
        0
178
     0
145
0.0
 92
        0
301
CELL_VALUE
 93
        3
 90
        0
 91
        0
 94
        0
300

302

304
ACVALUE_END
171
     1
172
     0
173
     0
174
     0
175
     2
176
     1
 91
       33
178
     0
145
0.0
170
     4
140
3.5
 92
        0
301
CELL_VALUE
 93
        2
 90
        4
  1
VISIERA STD REIKO 2.0
 94
        0
300

302
VISIERA STD REIKO 2.0
304
ACVALUE_END
171
     1
172
     0
173
     1
174
     0
175
     1
176
     1
 91
        0
178
     0
145
0.0
 92
        0
301
CELL_VALUE
 93
        3
 90
        0
 91
        0
 94
        0
300

302

304
ACVALUE_END
171
     1
172
     0
173
     1
174
     0
175
     1
176
     1
 91
        0
178
     0
145
0.0
 92
        0
301
CELL_VALUE
 93
        3
 90
        0
 91
        0
 94
        0
300

302

304
ACVALUE_END
171
     1
172
     0
173
     1
174
     0
175
     1
176
     1
 91
        0
178
     0
145
0.0
 92
        0
301
CELL_VALUE
 93
        3
 90
        0
 91
        0
 94
        0
300

302

304
ACVALUE_END
171
     1
172
     0
173
     1
174
     0
175
     1
176
     1
 91
        0
178
     0
145
0.0
 92
        0
301
CELL_VALUE
 93
        3
 90
        0
 91
        0
 94
        0
300

302

304
ACVALUE_END
171
     1
172
     0
173
     0
174
     0
175
     2
176
     1
 91
       33
178
     0
145
0.0
170
     4
140
2.5
 92
        0
301
CELL_VALUE
 93
        2
 90
        4
  1
DATE:17.01.24
 94
        0
300

302
DATE:17.01.24
304
ACVALUE_END
171
     1
172
     0
173
     1
174
     0
175
     1
176
     1
 91
        0
178
     0
145
0.0
 92
        0
301
CELL_VALUE
 93
        3
 90
        0
 91
        0
 94
        0
300

302

304
ACVALUE_END
171
     1
172
     0
173
     0
174
     0
175
     5
176
     1
 91
       33
178
     0
145
0.0
170
     4
140
2.25
 92
        0
301
CELL_VALUE
 93
        2
 90
        4
  1
Any integral or partial reproductions are prohibited \Pwithout prior authorisation of L & L Luce & Light s.r.l., \Pin accordance with the law in force. \PAll rights reserved.
 94
        0
300

302
Any integral or partial reproductions are prohibited \Pwithout prior authorisation of L & L Luce & Light s.r.l., \Pin accordance with the law in force. \PAll rights reserved.
304
ACVALUE_END
171
     1
172
     0
173
     1
174
     0
175
     1
176
     1
 91
        0
178
     0
145
0.0
 92
        0
301
CELL_VALUE
 93
        3
 90
        0
 91
        0
 94
        0
300

302

304
ACVALUE_END
171
     1
172
     0
173
     1
174
     0
175
     1
176
     1
 91
        0
178
     0
145
0.0
 92
        0
301
CELL_VALUE
 93
        3
 90
        0
 91
        0
 94
        0
300

302

304
ACVALUE_END
171
     1
172
     0
173
     1
174
     0
175
     1
176
     1
 91
        0
178
     0
145
0.0
 92
        0
301
CELL_VALUE
 93
        3
 90
        0
 91
        0
 94
        0
300

302

304
ACVALUE_END
171
     1
172
     0
173
     1
174
     0
175
     1
176
     1
 91
        0
178
     0
145
0.0
 92
        0
301
CELL_VALUE
 93
        3
 90
        0
 91
        0
 94
        0
300

302

304
ACVALUE_END
  0
ENDSEC
  0
SECTION
  2
OBJECTS
  0
DICTIONARY
  5
C
330
0
100
AcDbDictionary
281
     1
  3
ACAD_DETAILVIEWSTYLE
350
44F
  3
ACAD_GROUP
350
D
  3
ACAD_IMAGE_DICT
350
43F
  3
ACAD_LAYOUT
350
1A
  3
ACAD_MATERIAL
350
433
  3
ACAD_MLEADERSTYLE
350
44E
  3
ACAD_MLINESTYLE
350
17
  3
ACAD_PLOTSETTINGS
350
19
  3
ACAD_PLOTSTYLENAME
350
E
  3
ACAD_SCALELIST
350
3F5
  3
ACAD_SECTIONVIEWSTYLE
350
450
  3
ACAD_TABLESTYLE
350
417
  3
ACAD_VISUALSTYLE
350
41A
  3
ACDB_RECOMPOSE_DATA
350
44C
  3
AcDbVariableDictionary
350
448
  3
HOST_DOC_SETTINGS
350
43D
  3
MCS_STREAM_DICT
350
439
  0
SUN
  5
43C
330
1F4
100
AcDbSun
 90
        1
290
     0
 63
     7
421
 16777215
 40
1.0
291
     1
 91
  2455826
 92
 54000000
292
     0
 70
     2
 71
   256
280
     1
  0
DICTIONARY
  5
446
330
3EF
100
AcDbDictionary
280
     1
281
     1
  3
ACAD_XREC_ROUNDTRIP
360
447
  0
DICTIONARY
  5
44F
102
{ACAD_REACTORS
330
C
102
}
330
C
100
AcDbDictionary
281
     1
  0
DICTIONARY
  5
D
102
{ACAD_REACTORS
330
C
102
}
330
C
100
AcDbDictionary
281
     1
  0
DICTIONARY
  5
43F
102
{ACAD_REACTORS
330
C
102
}
330
C
100
AcDbDictionary
281
     1
  0
DICTIONARY
  5
1A
102
{ACAD_REACTORS
330
C
102
}
330
C
100
AcDbDictionary
281
     1
  3
Layout1
350
3F2
  3
Model
350
3F1
  0
DICTIONARY
  5
433
102
{ACAD_REACTORS
330
C
102
}
330
C
100
AcDbDictionary
281
     1
  3
ByBlock
350
435
  3
ByLayer
350
434
  3
Global
350
436
  0
DICTIONARY
  5
44E
102
{ACAD_REACTORS
330
C
102
}
330
C
100
AcDbDictionary
281
     1
  0
DICTIONARY
  5
17
102
{ACAD_REACTORS
330
C
102
}
330
C
100
AcDbDictionary
281
     1
  3
Standard
350
18
  0
DICTIONARY
  5
19
102
{ACAD_REACTORS
330
C
102
}
330
C
100
AcDbDictionary
281
     1
  0
ACDBDICTIONARYWDFLT
  5
E
102
{ACAD_REACTORS
330
C
102
}
330
C
100
AcDbDictionary
281
     1
  3
Normal
350
F
100
AcDbDictionaryWithDefault
340
F
  0
DICTIONARY
  5
3F5
102
{ACAD_REACTORS
330
C
102
}
330
C
100
AcDbDictionary
281
     1
  3
A0
350
3F6
  3
A1
350
3F7
  3
A2
350
3F8
  3
A3
350
3F9
  3
A4
350
3FA
  3
A5
350
3FB
  3
A6
350
3FC
  3
A7
350
3FD
  3
A8
350
3FE
  3
A9
350
3FF
  3
B0
350
400
  3
B1
350
401
  3
B2
350
402
  3
B3
350
403
  3
B4
350
404
  3
B5
350
405
  3
B6
350
406
  3
B7
350
407
  3
B8
350
408
  3
B9
350
409
  3
C0
350
40A
  3
C1
350
40B
  3
C2
350
40C
  3
C3
350
40D
  3
C4
350
40E
  3
C5
350
40F
  3
C6
350
410
  3
C7
350
411
  3
C8
350
412
  3
C9
350
413
  3
D0
350
414
  3
D1
350
415
  3
D2
350
416
  0
DICTIONARY
  5
450
102
{ACAD_REACTORS
330
C
102
}
330
C
100
AcDbDictionary
281
     1
  0
DICTIONARY
  5
417
102
{ACAD_REACTORS
330
C
102
}
330
C
100
AcDbDictionary
281
     1
  3
Standard
350
418
  0
DICTIONARY
  5
41A
102
{ACAD_REACTORS
330
C
102
}
330
C
100
AcDbDictionary
281
     1
  3
2dWireframe
350
41F
  3
Basic
350
422
  3
Brighten
350
426
  3
ColorChange
350
42A
  3
Conceptual
350
424
  3
Dim
350
425
  3
EdgeColorOff
350
42D
  3
Facepattern
350
429
  3
Flat
350
41B
  3
FlatWithEdges
350
41C
  3
Gouraud
350
41D
  3
GouraudWithEdges
350
41E
  3
Hidden
350
421
  3
JitterOff
350
42B
  3
Linepattern
350
428
  3
OverhangOff
350
42C
  3
Realistic
350
423
  3
Shaded
350
432
  3
Shaded with edges
350
431
  3
Shades of Gray
350
42E
  3
Sketchy
350
42F
  3
Thicken
350
427
  3
Wireframe
350
420
  3
X-Ray
350
430
  0
XRECORD
  5
44C
102
{ACAD_REACTORS
330
C
102
}
330
C
100
AcDbXrecord
280
     1
 90
        1
330
3EF
330
418
  0
DICTIONARY
  5
448
102
{ACAD_REACTORS
330
C
102
}
330
C
100
AcDbDictionary
281
     1
  3
CANNOSCALE
350
449
  3
CTABLESTYLE
350
44D
  0
DICTIONARY
  5
43D
102
{ACAD_REACTORS
330
C
102
}
330
C
100
AcDbDictionary
281
     1
  3
NCDocParameters
350
43E
  0
DICTIONARY
  5
439
102
{ACAD_REACTORS
330
C
102
}
330
C
100
AcDbDictionary
281
     1
  3
MC_VERSION_DATA
350
442
  3
MCS_DOCUMENT_ID
350
43A
  3
MCS_PARAMS_DATA
350
440
  0
XRECORD
  5
447
102
{ACAD_REACTORS
330
446
102
}
330
446
100
AcDbXrecord
280
     1
102
ACAD_ROUNDTRIP_2008_TABLE_ENTITY
360
444
 70
     2
 90
        1
 10
0.0
 20
0.0
 30
0.0
 90
        0
 90
        4
361
445
  0
LAYOUT
  5
3F2
102
{ACAD_REACTORS
330
1A
102
}
330
1A
100
AcDbPlotSettings
  1

  2
none_device
  4
ISO_A3_(420.00_x_297.00_MM)
  6

 40
0.0
 41
0.0
 42
0.0
 43
0.0
 44
420.0
 45
297.0
 46
0.0
 47
0.0
 48
0.0
 49
0.0
140
0.0
141
0.0
142
1.0
143
1.0
 70
     0
 72
     1
 73
     0
 74
     0
  7

 75
     0
 76
     0
 77
     2
 78
   300
147
1.0
148
0.0
149
0.0
100
AcDbLayout
  1
Layout1
 70
     0
 71
     1
 10
0.0
 20
0.0
 11
420.0
 21
297.0
 12
0.0
 22
0.0
 32
0.0
 14
0.0
 24
0.0
 34
0.0
 15
0.0
 25
0.0
 35
0.0
146
0.0
 13
0.0
 23
0.0
 33
0.0
 16
1.0
 26
0.0
 36
0.0
 17
0.0
 27
1.0
 37
0.0
 76
     0
330
212
  0
LAYOUT
  5
3F1
102
{ACAD_REACTORS
330
1A
102
}
330
1A
100
AcDbPlotSettings
  1

  2
none_device
  4
ISO_A3_(420.00_x_297.00_MM)
  6

 40
0.0
 41
0.0
 42
0.0
 43
0.0
 44
420.0
 45
297.0
 46
0.0
 47
0.0
 48
0.0
 49
0.0
140
0.0
141
0.0
142
1.0
143
1.0
 70
  1024
 72
     1
 73
     0
 74
     0
  7

 75
     0
 76
     0
 77
     2
 78
   300
147
1.0
148
0.0
149
0.0
100
AcDbLayout
  1
Model
 70
     0
 71
     0
 10
0.0
 20
0.0
 11
420.0
 21
297.0
 12
0.0
 22
0.0
 32
0.0
 14
0.0
 24
0.0
 34
0.0
 15
0.0
 25
0.0
 35
0.0
146
0.0
 13
0.0
 23
0.0
 33
0.0
 16
1.0
 26
0.0
 36
0.0
 17
0.0
 27
1.0
 37
0.0
 76
     0
330
211
331
1F4
  0
MATERIAL
  5
435
102
{ACAD_REACTORS
330
433
102
}
330
433
100
AcDbMaterial
  1
ByBlock
 72
     1
 94
      127
  0
MATERIAL
  5
434
102
{ACAD_REACTORS
330
433
102
}
330
433
100
AcDbMaterial
  1
ByLayer
 72
     1
 94
      127
  0
MATERIAL
  5
436
102
{ACAD_REACTORS
330
433
102
}
330
433
100
AcDbMaterial
  1
Global
 72
     1
 94
      127
  0
MLINESTYLE
  5
18
102
{ACAD_REACTORS
330
17
102
}
330
17
100
AcDbMlineStyle
  2
STANDARD
 70
     0
  3

 62
   256
 51
90.0
 52
90.0
 71
     2
 49
0.5
 62
   256
  6
BYLAYER
 49
-0.5
 62
   256
  6
BYLAYER
  0
ACDBPLACEHOLDER
  5
F
102
{ACAD_REACTORS
330
E
102
}
330
E
  0
SCALE
  5
3F6
102
{ACAD_REACTORS
330
3F5
102
}
330
3F5
100
AcDbScale
 70
     0
300
1:1
140
1.0
141
1.0
290
     1
  0
SCALE
  5
3F7
102
{ACAD_REACTORS
330
3F5
102
}
330
3F5
100
AcDbScale
 70
     0
300
1:2
140
1.0
141
2.0
290
     0
  0
SCALE
  5
3F8
102
{ACAD_REACTORS
330
3F5
102
}
330
3F5
100
AcDbScale
 70
     0
300
1:4
140
1.0
141
4.0
290
     0
  0
SCALE
  5
3F9
102
{ACAD_REACTORS
330
3F5
102
}
330
3F5
100
AcDbScale
 70
     0
300
1:5
140
1.0
141
5.0
290
     0
  0
SCALE
  5
3FA
102
{ACAD_REACTORS
330
3F5
102
}
330
3F5
100
AcDbScale
 70
     0
300
1:8
140
1.0
141
8.0
290
     0
  0
SCALE
  5
3FB
102
{ACAD_REACTORS
330
3F5
102
}
330
3F5
100
AcDbScale
 70
     0
300
1:10
140
1.0
141
10.0
290
     0
  0
SCALE
  5
3FC
102
{ACAD_REACTORS
330
3F5
102
}
330
3F5
100
AcDbScale
 70
     0
300
1:16
140
1.0
141
16.0
290
     0
  0
SCALE
  5
3FD
102
{ACAD_REACTORS
330
3F5
102
}
330
3F5
100
AcDbScale
 70
     0
300
1:20
140
1.0
141
20.0
290
     0
  0
SCALE
  5
3FE
102
{ACAD_REACTORS
330
3F5
102
}
330
3F5
100
AcDbScale
 70
     0
300
1:30
140
1.0
141
30.0
290
     0
  0
SCALE
  5
3FF
102
{ACAD_REACTORS
330
3F5
102
}
330
3F5
100
AcDbScale
 70
     0
300
1:40
140
1.0
141
40.0
290
     0
  0
SCALE
  5
400
102
{ACAD_REACTORS
330
3F5
102
}
330
3F5
100
AcDbScale
 70
     0
300
1:50
140
1.0
141
50.0
290
     0
  0
SCALE
  5
401
102
{ACAD_REACTORS
330
3F5
102
}
330
3F5
100
AcDbScale
 70
     0
300
1:100
140
1.0
141
100.0
290
     0
  0
SCALE
  5
402
102
{ACAD_REACTORS
330
3F5
102
}
330
3F5
100
AcDbScale
 70
     0
300
2:1
140
2.0
141
1.0
290
     0
  0
SCALE
  5
403
102
{ACAD_REACTORS
330
3F5
102
}
330
3F5
100
AcDbScale
 70
     0
300
4:1
140
4.0
141
1.0
290
     0
  0
SCALE
  5
404
102
{ACAD_REACTORS
330
3F5
102
}
330
3F5
100
AcDbScale
 70
     0
300
8:1
140
8.0
141
1.0
290
     0
  0
SCALE
  5
405
102
{ACAD_REACTORS
330
3F5
102
}
330
3F5
100
AcDbScale
 70
     0
300
10:1
140
10.0
141
1.0
290
     0
  0
SCALE
  5
406
102
{ACAD_REACTORS
330
3F5
102
}
330
3F5
100
AcDbScale
 70
     0
300
100:1
140
100.0
141
1.0
290
     0
  0
SCALE
  5
407
102
{ACAD_REACTORS
330
3F5
102
}
330
3F5
100
AcDbScale
 70
     0
300
1/128" = 1'-0"
140
0.007812
141
12.0
290
     0
  0
SCALE
  5
408
102
{ACAD_REACTORS
330
3F5
102
}
330
3F5
100
AcDbScale
 70
     0
300
1/64" = 1'-0"
140
0.015625
141
12.0
290
     0
  0
SCALE
  5
409
102
{ACAD_REACTORS
330
3F5
102
}
330
3F5
100
AcDbScale
 70
     0
300
1/32" = 1'-0"
140
0.03125
141
12.0
290
     0
  0
SCALE
  5
40A
102
{ACAD_REACTORS
330
3F5
102
}
330
3F5
100
AcDbScale
 70
     0
300
1/16" = 1'-0"
140
0.0625
141
12.0
290
     0
  0
SCALE
  5
40B
102
{ACAD_REACTORS
330
3F5
102
}
330
3F5
100
AcDbScale
 70
     0
300
3/32" = 1'-0"
140
0.09375
141
12.0
290
     0
  0
SCALE
  5
40C
102
{ACAD_REACTORS
330
3F5
102
}
330
3F5
100
AcDbScale
 70
     0
300
1/8" = 1'-0"
140
0.125
141
12.0
290
     0
  0
SCALE
  5
40D
102
{ACAD_REACTORS
330
3F5
102
}
330
3F5
100
AcDbScale
 70
     0
300
3/16" = 1'-0"
140
0.1875
141
12.0
290
     0
  0
SCALE
  5
40E
102
{ACAD_REACTORS
330
3F5
102
}
330
3F5
100
AcDbScale
 70
     0
300
1/4" = 1'-0"
140
0.25
141
12.0
290
     0
  0
SCALE
  5
40F
102
{ACAD_REACTORS
330
3F5
102
}
330
3F5
100
AcDbScale
 70
     0
300
3/8" = 1'-0"
140
0.375
141
12.0
290
     0
  0
SCALE
  5
410
102
{ACAD_REACTORS
330
3F5
102
}
330
3F5
100
AcDbScale
 70
     0
300
1/2" = 1'-0"
140
0.5
141
12.0
290
     0
  0
SCALE
  5
411
102
{ACAD_REACTORS
330
3F5
102
}
330
3F5
100
AcDbScale
 70
     0
300
3/4" = 1'-0"
140
0.75
141
12.0
290
     0
  0
SCALE
  5
412
102
{ACAD_REACTORS
330
3F5
102
}
330
3F5
100
AcDbScale
 70
     0
300
1" = 1'-0"
140
1.0
141
12.0
290
     0
  0
SCALE
  5
413
102
{ACAD_REACTORS
330
3F5
102
}
330
3F5
100
AcDbScale
 70
     0
300
1-1/2" = 1'-0"
140
1.5
141
12.0
290
     0
  0
SCALE
  5
414
102
{ACAD_REACTORS
330
3F5
102
}
330
3F5
100
AcDbScale
 70
     0
300
3" = 1'-0"
140
3.0
141
12.0
290
     0
  0
SCALE
  5
415
102
{ACAD_REACTORS
330
3F5
102
}
330
3F5
100
AcDbScale
 70
     0
300
6" = 1'-0"
140
6.0
141
12.0
290
     0
  0
SCALE
  5
416
102
{ACAD_REACTORS
330
3F5
102
}
330
3F5
100
AcDbScale
 70
     0
300
1'-0" = 1'-0"
140
12.0
141
12.0
290
     0
  0
TABLESTYLE
  5
418
102
{ACAD_REACTORS
330
417
102
}
102
{ACAD_XDICTIONARY
360
44A
102
}
330
417
100
AcDbTableStyle
  3
Standard
 70
     0
 71
     0
 40
0.06
 41
0.06
280
     0
281
     0
  7
STANDARD
140
4.5
170
     2
 62
     0
 63
   257
283
     0
 90
        4
 91
        0
  1

274
    -2
284
     1
 64
     0
275
    -2
285
     1
 65
     0
276
    -2
286
     1
 66
     0
277
    -2
287
     1
 67
     0
278
    -2
288
     1
 68
     0
279
    -2
289
     1
 69
     0
  7
STANDARD
140
6.0
170
     5
 62
     0
 63
   257
283
     0
 90
        4
 91
        0
  1

274
    -2
284
     1
 64
     0
275
    -2
285
     1
 65
     0
276
    -2
286
     1
 66
     0
277
    -2
287
     1
 67
     0
278
    -2
288
     1
 68
     0
279
    -2
289
     1
 69
     0
  7
STANDARD
140
4.5
170
     5
 62
     0
 63
   257
283
     0
 90
        4
 91
        0
  1

274
    -2
284
     1
 64
     0
275
    -2
285
     1
 65
     0
276
    -2
286
     1
 66
     0
277
    -2
287
     1
 67
     0
278
    -2
288
     1
 68
     0
279
    -2
289
     1
 69
     0
  0
VISUALSTYLE
  5
41F
102
{ACAD_REACTORS
330
41A
102
}
330
41A
100
AcDbVisualStyle
  2
2dWireframe
 70
     4
177
     3
291
     0
 70
    58
 90
        0
176
     1
 90
        2
176
     1
 90
        0
176
     1
 90
        0
176
     1
 40
0.6
176
     1
 40
30.0
176
     1
 62
     7
420
 16777215
176
     1
 90
        1
176
     1
 90
        4
176
     1
 62
     7
176
     1
 62
   257
176
     1
 90
        1
176
     1
 90
        1
176
     1
 40
1.0
176
     1
 90
        0
176
     1
 62
   257
176
     1
 40
1.0
176
     1
 90
        1
176
     1
 90
        6
176
     1
 90
        2
176
     1
 62
     7
176
     1
 90
        5
176
     1
 90
        0
176
     1
 90
        0
176
     1
290
     0
176
     1
 90
        1
176
     1
 40
0.0
176
     1
 90
        0
176
     1
290
     1
176
     1
290
     1
176
     1
290
     0
176
     1
290
     0
176
     1
290
     0
176
     1
290
     0
176
     1
290
     0
176
     1
290
     0
176
     1
290
     0
176
     1
 90
       50
176
     1
 40
0.0
176
     1
 40
1.0
176
     1
 90
        0
176
     1
 62
    18
420
        0
176
     1
 90
       50
176
     1
 90
        3
176
     1
 62
     5
420
      255
176
     1
290
     0
176
     1
 90
       50
176
     1
 90
       50
176
     1
 90
       50
176
     1
290
     0
176
     1
 90
       50
176
     1
 62
   256
176
     0
 40
1.0
176
     0
 90
        2
176
     1
  1
strokes_ogs.tif
176
     1
290
     0
176
     1
 40
1.0
176
     1
 40
1.0
176
     1
  0
VISUALSTYLE
  5
422
102
{ACAD_REACTORS
330
41A
102
}
330
41A
100
AcDbVisualStyle
  2
Basic
 70
     7
177
     3
291
     1
 70
    58
 90
        1
176
     1
 90
        0
176
     1
 90
        1
176
     1
 90
        0
176
     1
 40
0.6
176
     1
 40
30.0
176
     1
 62
     7
420
 16777215
176
     1
 90
        0
176
     1
 90
        4
176
     1
 62
     7
176
     1
 62
   257
176
     1
 90
        1
176
     1
 90
        1
176
     1
 40
1.0
176
     1
 90
        8
176
     1
 62
     7
176
     1
 40
1.0
176
     1
 90
        1
176
     1
 90
        6
176
     1
 90
        2
176
     1
 62
     7
176
     1
 90
        5
176
     1
 90
        0
176
     1
 90
        0
176
     1
290
     0
176
     1
 90
        1
176
     1
 40
0.0
176
     1
 90
        0
176
     1
290
     0
176
     1
290
     1
176
     1
290
     1
176
     1
290
     0
176
     1
290
     0
176
     1
290
     0
176
     1
290
     0
176
     1
290
     0
176
     1
290
     0
176
     1
 90
       50
176
     1
 40
0.0
176
     1
 40
1.0
176
     1
 90
        0
176
     1
 62
    18
420
        0
176
     1
 90
       50
176
     1
 90
        3
176
     1
 62
     5
420
      255
176
     1
290
     0
176
     1
 90
       50
176
     1
 90
       50
176
     1
 90
       50
176
     1
290
     0
176
     1
 90
       50
176
     1
 62
   256
176
     0
 40
1.0
176
     0
 90
        2
176
     1
  1
strokes_ogs.tif
176
     1
290
     0
176
     1
 40
1.0
176
     1
 40
1.0
176
     1
  0
VISUALSTYLE
  5
426
102
{ACAD_REACTORS
330
41A
102
}
330
41A
100
AcDbVisualStyle
  2
Brighten
 70
    12
177
     3
291
     1
 70
    58
 90
        2
176
     1
 90
        2
176
     1
 90
        0
176
     1
 90
        0
176
     1
 40
0.6
176
     1
 40
30.0
176
     1
 62
     7
420
 16777215
176
     1
 90
        1
176
     1
 90
        4
176
     1
 62
     7
176
     1
 62
   257
176
     1
 90
        1
176
     1
 90
        1
176
     1
 40
1.0
176
     1
 90
        8
176
     1
 62
     7
176
     1
 40
1.0
176
     1
 90
        1
176
     1
 90
        6
176
     1
 90
        2
176
     1
 62
     7
176
     1
 90
        5
176
     1
 90
        0
176
     1
 90
        0
176
     1
290
     0
176
     1
 90
        1
176
     1
 40
50.0
176
     1
 90
        0
176
     1
290
     0
176
     1
290
     1
176
     1
290
     1
176
     1
290
     0
176
     1
290
     0
176
     1
290
     0
176
     1
290
     0
176
     1
290
     0
176
     1
290
     0
176
     1
 90
       50
176
     1
 40
0.0
176
     1
 40
1.0
176
     1
 90
        0
176
     1
 62
    18
420
        0
176
     1
 90
       50
176
     1
 90
        3
176
     1
 62
     5
420
      255
176
     1
290
     0
176
     1
 90
       50
176
     1
 90
       50
176
     1
 90
       50
176
     1
290
     0
176
     1
 90
       50
176
     1
 62
   256
176
     0
 40
1.0
176
     0
 90
        2
176
     1
  1
strokes_ogs.tif
176
     1
290
     0
176
     1
 40
1.0
176
     1
 40
1.0
176
     1
  0
VISUALSTYLE
  5
42A
102
{ACAD_REACTORS
330
41A
102
}
330
41A
100
AcDbVisualStyle
  2
ColorChange
 70
    16
177
     3
291
     1
 70
    58
 90
        2
176
     1
 90
        2
176
     1
 90
        3
176
     1
 90
        0
176
     1
 40
0.6
176
     1
 40
30.0
176
     1
 62
     8
420
  8421504
176
     1
 90
        1
176
     1
 90
        4
176
     1
 62
     7
176
     1
 62
   257
176
     1
 90
        1
176
     1
 90
        1
176
     1
 40
1.0
176
     1
 90
        8
176
     1
 62
     8
420
  8421504
176
     1
 40
1.0
176
     1
 90
        1
176
     1
 90
        6
176
     1
 90
        2
176
     1
 62
     7
176
     1
 90
        5
176
     1
 90
        0
176
     1
 90
        0
176
     1
290
     0
176
     1
 90
        1
176
     1
 40
0.0
176
     1
 90
        0
176
     1
290
     0
176
     1
290
     1
176
     1
290
     1
176
     1
290
     0
176
     1
290
     0
176
     1
290
     0
176
     1
290
     0
176
     1
290
     0
176
     1
290
     0
176
     1
 90
       50
176
     1
 40
0.0
176
     1
 40
1.0
176
     1
 90
        0
176
     1
 62
    18
420
        0
176
     1
 90
       50
176
     1
 90
        3
176
     1
 62
     5
420
      255
176
     1
290
     0
176
     1
 90
       50
176
     1
 90
       50
176
     1
 90
       50
176
     1
290
     0
176
     1
 90
       50
176
     1
 62
   256
176
     0
 40
1.0
176
     0
 90
        2
176
     1
  1
strokes_ogs.tif
176
     1
290
     0
176
     1
 40
1.0
176
     1
 40
1.0
176
     1
  0
VISUALSTYLE
  5
424
102
{ACAD_REACTORS
330
41A
102
}
330
41A
100
AcDbVisualStyle
  2
Conceptual
 70
     9
177
     3
291
     0
 70
    58
 90
        3
176
     1
 90
        2
176
     1
 90
        0
176
     1
 90
        0
176
     1
 40
0.6
176
     1
 40
30.0
176
     1
 62
     7
420
 16777215
176
     1
 90
        2
176
     1
 90
        2
176
     1
 62
     7
176
     1
 62
   257
176
     1
 90
        1
176
     1
 90
        1
176
     1
 40
179.0
176
     1
 90
        8
176
     1
 62
     7
176
     1
 40
1.0
176
     1
 90
        1
176
     1
 90
        6
176
     1
 90
        2
176
     1
 62
     7
176
     1
 90
        3
176
     1
 90
        0
176
     1
 90
        0
176
     1
290
     0
176
     1
 90
        1
176
     1
 40
0.0
176
     1
 90
        0
176
     1
290
     0
176
     1
290
     1
176
     1
290
     1
176
     1
290
     0
176
     1
290
     0
176
     1
290
     0
176
     1
290
     0
176
     1
290
     0
176
     1
290
     0
176
     1
 90
       50
176
     1
 40
0.0
176
     1
 40
1.0
176
     1
 90
        0
176
     1
 62
    18
420
        0
176
     1
 90
       50
176
     1
 90
        3
176
     1
 62
     5
420
      255
176
     1
290
     0
176
     1
 90
       50
176
     1
 90
       50
176
     1
 90
       50
176
     1
290
     0
176
     1
 90
       50
176
     1
 62
   256
176
     0
 40
1.0
176
     0
 90
        2
176
     1
  1
strokes_ogs.tif
176
     1
290
     0
176
     1
 40
1.0
176
     1
 40
1.0
176
     1
  0
VISUALSTYLE
  5
425
102
{ACAD_REACTORS
330
41A
102
}
330
41A
100
AcDbVisualStyle
  2
Dim
 70
    11
177
     3
291
     1
 70
    58
 90
        2
176
     1
 90
        2
176
     1
 90
        0
176
     1
 90
        0
176
     1
 40
0.6
176
     1
 40
30.0
176
     1
 62
     7
420
 16777215
176
     1
 90
        1
176
     1
 90
        4
176
     1
 62
     7
176
     1
 62
   257
176
     1
 90
        1
176
     1
 90
        1
176
     1
 40
1.0
176
     1
 90
        8
176
     1
 62
     7
176
     1
 40
1.0
176
     1
 90
        1
176
     1
 90
        6
176
     1
 90
        2
176
     1
 62
     7
176
     1
 90
        5
176
     1
 90
        0
176
     1
 90
        0
176
     1
290
     0
176
     1
 90
        1
176
     1
 40
-50.0
176
     1
 90
        0
176
     1
290
     0
176
     1
290
     1
176
     1
290
     1
176
     1
290
     0
176
     1
290
     0
176
     1
290
     0
176
     1
290
     0
176
     1
290
     0
176
     1
290
     0
176
     1
 90
       50
176
     1
 40
0.0
176
     1
 40
1.0
176
     1
 90
        0
176
     1
 62
    18
420
        0
176
     1
 90
       50
176
     1
 90
        3
176
     1
 62
     5
420
      255
176
     1
290
     0
176
     1
 90
       50
176
     1
 90
       50
176
     1
 90
       50
176
     1
290
     0
176
     1
 90
       50
176
     1
 62
   256
176
     0
 40
1.0
176
     0
 90
        2
176
     1
  1
strokes_ogs.tif
176
     1
290
     0
176
     1
 40
1.0
176
     1
 40
1.0
176
     1
  0
VISUALSTYLE
  5
42D
102
{ACAD_REACTORS
330
41A
102
}
330
41A
100
AcDbVisualStyle
  2
EdgeColorOff
 70
    22
177
     3
291
     1
 70
    58
 90
        2
176
     0
 90
        2
176
     0
 90
        0
176
     0
 90
        0
176
     0
 40
0.6
176
     0
 40
30.0
176
     0
 62
     7
420
 16777215
176
     0
 90
        1
176
     0
 90
        4
176
     0
 62
     7
176
     0
 62
   257
176
     0
 90
        1
176
     0
 90
        1
176
     0
 40
1.0
176
     0
 90
        8
176
     2
 62
     7
176
     0
 40
1.0
176
     0
 90
        1
176
     0
 90
        6
176
     0
 90
        2
176
     0
 62
     7
176
     0
 90
        5
176
     0
 90
        0
176
     0
 90
        0
176
     0
290
     0
176
     0
 90
        1
176
     0
 40
0.0
176
     0
 90
        0
176
     0
290
     0
176
     0
290
     1
176
     0
290
     1
176
     0
290
     0
176
     0
290
     0
176
     0
290
     0
176
     0
290
     0
176
     0
290
     0
176
     0
290
     0
176
     0
 90
       50
176
     0
 40
0.0
176
     0
 40
1.0
176
     0
 90
        0
176
     0
 62
    18
420
        0
176
     0
 90
       50
176
     0
 90
        3
176
     0
 62
     5
420
      255
176
     0
290
     0
176
     0
 90
       50
176
     0
 90
       50
176
     0
 90
       50
176
     0
290
     0
176
     0
 90
       50
176
     0
 62
   256
176
     0
 40
1.0
176
     0
 90
        2
176
     0
  1
strokes_ogs.tif
176
     0
290
     0
176
     0
 40
1.0
176
     0
 40
1.0
176
     0
  0
VISUALSTYLE
  5
429
102
{ACAD_REACTORS
330
41A
102
}
330
41A
100
AcDbVisualStyle
  2
Facepattern
 70
    15
177
     3
291
     1
 70
    58
 90
        2
176
     1
 90
        2
176
     1
 90
        0
176
     1
 90
        0
176
     1
 40
0.6
176
     1
 40
30.0
176
     1
 62
     7
420
 16777215
176
     1
 90
        1
176
     1
 90
        4
176
     1
 62
     7
176
     1
 62
   257
176
     1
 90
        1
176
     1
 90
        1
176
     1
 40
1.0
176
     1
 90
        8
176
     1
 62
     7
176
     1
 40
1.0
176
     1
 90
        1
176
     1
 90
        6
176
     1
 90
        2
176
     1
 62
     7
176
     1
 90
        5
176
     1
 90
        0
176
     1
 90
        0
176
     1
290
     0
176
     1
 90
        1
176
     1
 40
0.0
176
     1
 90
        0
176
     1
290
     0
176
     1
290
     1
176
     1
290
     1
176
     1
290
     0
176
     1
290
     0
176
     1
290
     0
176
     1
290
     0
176
     1
290
     0
176
     1
290
     0
176
     1
 90
       50
176
     1
 40
0.0
176
     1
 40
1.0
176
     1
 90
        0
176
     1
 62
    18
420
        0
176
     1
 90
       50
176
     1
 90
        3
176
     1
 62
     5
420
      255
176
     1
290
     0
176
     1
 90
       50
176
     1
 90
       50
176
     1
 90
       50
176
     1
290
     0
176
     1
 90
       50
176
     1
 62
   256
176
     0
 40
1.0
176
     0
 90
        2
176
     1
  1
strokes_ogs.tif
176
     1
290
     0
176
     1
 40
1.0
176
     1
 40
1.0
176
     1
  0
VISUALSTYLE
  5
41B
102
{ACAD_REACTORS
330
41A
102
}
330
41A
100
AcDbVisualStyle
  2
Flat
 70
     0
177
     3
291
     1
 70
    58
 90
        2
176
     1
 90
        1
176
     1
 90
        1
176
     1
 90
        2
176
     1
 40
0.6
176
     1
 40
30.0
176
     1
 62
     7
420
 16777215
176
     1
 90
        0
176
     1
 90
        0
176
     1
 62
     7
176
     1
 62
   257
176
     1
 90
        1
176
     1
 90
        1
176
     1
 40
1.0
176
     1
 90
        8
176
     1
 62
     7
176
     1
 40
1.0
176
     1
 90
        1
176
     1
 90
        6
176
     1
 90
        2
176
     1
 62
     7
176
     1
 90
        5
176
     1
 90
        0
176
     1
 90
        0
176
     1
290
     0
176
     1
 90
       13
176
     1
 40
0.0
176
     1
 90
        0
176
     1
290
     0
176
     1
290
     1
176
     1
290
     1
176
     1
290
     0
176
     1
290
     0
176
     1
290
     0
176
     1
290
     0
176
     1
290
     0
176
     1
290
     0
176
     1
 90
       50
176
     1
 40
0.0
176
     1
 40
1.0
176
     1
 90
        0
176
     1
 62
    18
420
        0
176
     1
 90
       50
176
     1
 90
        3
176
     1
 62
     5
420
      255
176
     1
290
     0
176
     1
 90
       50
176
     1
 90
       50
176
     1
 90
       50
176
     1
290
     0
176
     1
 90
       50
176
     1
 62
   256
176
     0
 40
1.0
176
     0
 90
        2
176
     1
  1
strokes_ogs.tif
176
     1
290
     0
176
     1
 40
1.0
176
     1
 40
1.0
176
     1
  0
VISUALSTYLE
  5
41C
102
{ACAD_REACTORS
330
41A
102
}
330
41A
100
AcDbVisualStyle
  2
FlatWithEdges
 70
     1
177
     3
291
     1
 70
    58
 90
        2
176
     1
 90
        1
176
     1
 90
        1
176
     1
 90
        2
176
     1
 40
0.6
176
     1
 40
30.0
176
     1
 62
     7
420
 16777215
176
     1
 90
        1
176
     1
 90
        0
176
     1
 62
     7
176
     1
 62
   257
176
     1
 90
        1
176
     1
 90
        1
176
     1
 40
1.0
176
     1
 90
        0
176
     1
 62
   257
176
     1
 40
1.0
176
     1
 90
        1
176
     1
 90
        6
176
     1
 90
        2
176
     1
 62
     7
176
     1
 90
        5
176
     1
 90
        0
176
     1
 90
        0
176
     1
290
     0
176
     1
 90
       13
176
     1
 40
0.0
176
     1
 90
        0
176
     1
290
     0
176
     1
290
     1
176
     1
290
     1
176
     1
290
     0
176
     1
290
     0
176
     1
290
     0
176
     1
290
     0
176
     1
290
     0
176
     1
290
     0
176
     1
 90
       50
176
     1
 40
0.0
176
     1
 40
1.0
176
     1
 90
        0
176
     1
 62
    18
420
        0
176
     1
 90
       50
176
     1
 90
        3
176
     1
 62
     5
420
      255
176
     1
290
     0
176
     1
 90
       50
176
     1
 90
       50
176
     1
 90
       50
176
     1
290
     0
176
     1
 90
       50
176
     1
 62
   256
176
     0
 40
1.0
176
     0
 90
        2
176
     1
  1
strokes_ogs.tif
176
     1
290
     0
176
     1
 40
1.0
176
     1
 40
1.0
176
     1
  0
VISUALSTYLE
  5
41D
102
{ACAD_REACTORS
330
41A
102
}
330
41A
100
AcDbVisualStyle
  2
Gouraud
 70
     2
177
     3
291
     1
 70
    58
 90
        2
176
     1
 90
        2
176
     1
 90
        1
176
     1
 90
        2
176
     1
 40
0.6
176
     1
 40
30.0
176
     1
 62
     7
420
 16777215
176
     1
 90
        0
176
     1
 90
        0
176
     1
 62
     7
176
     1
 62
   257
176
     1
 90
        1
176
     1
 90
        1
176
     1
 40
1.0
176
     1
 90
        0
176
     1
 62
     7
176
     1
 40
1.0
176
     1
 90
        1
176
     1
 90
        6
176
     1
 90
        2
176
     1
 62
     7
176
     1
 90
        5
176
     1
 90
        0
176
     1
 90
        0
176
     1
290
     0
176
     1
 90
       13
176
     1
 40
0.0
176
     1
 90
        0
176
     1
290
     0
176
     1
290
     1
176
     1
290
     1
176
     1
290
     0
176
     1
290
     0
176
     1
290
     0
176
     1
290
     0
176
     1
290
     0
176
     1
290
     0
176
     1
 90
       50
176
     1
 40
0.0
176
     1
 40
1.0
176
     1
 90
        0
176
     1
 62
    18
420
        0
176
     1
 90
       50
176
     1
 90
        3
176
     1
 62
     5
420
      255
176
     1
290
     0
176
     1
 90
       50
176
     1
 90
       50
176
     1
 90
       50
176
     1
290
     0
176
     1
 90
       50
176
     1
 62
   256
176
     0
 40
1.0
176
     0
 90
        2
176
     1
  1
strokes_ogs.tif
176
     1
290
     0
176
     1
 40
1.0
176
     1
 40
1.0
176
     1
  0
VISUALSTYLE
  5
41E
102
{ACAD_REACTORS
330
41A
102
}
330
41A
100
AcDbVisualStyle
  2
GouraudWithEdges
 70
     3
177
     3
291
     1
 70
    58
 90
        2
176
     1
 90
        2
176
     1
 90
        1
176
     1
 90
        2
176
     1
 40
0.6
176
     1
 40
30.0
176
     1
 62
     7
420
 16777215
176
     1
 90
        1
176
     1
 90
        0
176
     1
 62
     7
176
     1
 62
   257
176
     1
 90
        1
176
     1
 90
        1
176
     1
 40
1.0
176
     1
 90
        0
176
     1
 62
   257
176
     1
 40
1.0
176
     1
 90
        1
176
     1
 90
        6
176
     1
 90
        2
176
     1
 62
     7
176
     1
 90
        5
176
     1
 90
        0
176
     1
 90
        0
176
     1
290
     0
176
     1
 90
       13
176
     1
 40
0.0
176
     1
 90
        0
176
     1
290
     0
176
     1
290
     1
176
     1
290
     1
176
     1
290
     0
176
     1
290
     0
176
     1
290
     0
176
     1
290
     0
176
     1
290
     0
176
     1
290
     0
176
     1
 90
       50
176
     1
 40
0.0
176
     1
 40
1.0
176
     1
 90
        0
176
     1
 62
    18
420
        0
176
     1
 90
       50
176
     1
 90
        3
176
     1
 62
     5
420
      255
176
     1
290
     0
176
     1
 90
       50
176
     1
 90
       50
176
     1
 90
       50
176
     1
290
     0
176
     1
 90
       50
176
     1
 62
   256
176
     0
 40
1.0
176
     0
 90
        2
176
     1
  1
strokes_ogs.tif
176
     1
290
     0
176
     1
 40
1.0
176
     1
 40
1.0
176
     1
  0
VISUALSTYLE
  5
421
102
{ACAD_REACTORS
330
41A
102
}
330
41A
100
AcDbVisualStyle
  2
Hidden
 70
     6
177
     3
291
     0
 70
    58
 90
        1
176
     1
 90
        2
176
     1
 90
        2
176
     1
 90
        0
176
     1
 40
0.6
176
     1
 40
30.0
176
     1
 62
     7
420
 16777215
176
     1
 90
        2
176
     1
 90
        2
176
     1
 62
     7
176
     1
 62
   257
176
     1
 90
        2
176
     1
 90
        1
176
     1
 40
40.0
176
     1
 90
        0
176
     1
 62
   257
176
     1
 40
1.0
176
     1
 90
        1
176
     1
 90
        6
176
     1
 90
        2
176
     1
 62
     7
176
     1
 90
        3
176
     1
 90
        0
176
     1
 90
        0
176
     1
290
     0
176
     1
 90
        1
176
     1
 40
0.0
176
     1
 90
        0
176
     1
290
     0
176
     1
290
     1
176
     1
290
     1
176
     1
290
     0
176
     1
290
     0
176
     1
290
     0
176
     1
290
     0
176
     1
290
     0
176
     1
290
     0
176
     1
 90
       50
176
     1
 40
0.0
176
     1
 40
1.0
176
     1
 90
        0
176
     1
 62
    18
420
        0
176
     1
 90
       50
176
     1
 90
        3
176
     1
 62
     5
420
      255
176
     1
290
     0
176
     1
 90
       50
176
     1
 90
       50
176
     1
 90
       50
176
     1
290
     0
176
     1
 90
       50
176
     1
 62
   256
176
     0
 40
1.0
176
     0
 90
        2
176
     1
  1
strokes_ogs.tif
176
     1
290
     0
176
     1
 40
1.0
176
     1
 40
1.0
176
     1
  0
VISUALSTYLE
  5
42B
102
{ACAD_REACTORS
330
41A
102
}
330
41A
100
AcDbVisualStyle
  2
JitterOff
 70
    20
177
     3
291
     1
 70
    58
 90
        2
176
     0
 90
        2
176
     0
 90
        0
176
     0
 90
        0
176
     0
 40
0.6
176
     0
 40
30.0
176
     0
 62
     7
420
 16777215
176
     0
 90
        1
176
     0
 90
        4
176
     0
 62
     7
176
     0
 62
   257
176
     0
 90
        1
176
     0
 90
        1
176
     0
 40
1.0
176
     0
 90
       10
176
     2
 62
     7
176
     0
 40
1.0
176
     0
 90
        1
176
     0
 90
        6
176
     0
 90
        2
176
     0
 62
     7
176
     0
 90
        5
176
     0
 90
        0
176
     0
 90
        0
176
     0
290
     0
176
     0
 90
        1
176
     0
 40
0.0
176
     0
 90
        0
176
     0
290
     0
176
     0
290
     1
176
     0
290
     1
176
     0
290
     0
176
     0
290
     0
176
     0
290
     0
176
     0
290
     0
176
     0
290
     0
176
     0
290
     0
176
     0
 90
       50
176
     0
 40
0.0
176
     0
 40
1.0
176
     0
 90
        0
176
     0
 62
    18
420
        0
176
     0
 90
       50
176
     0
 90
        3
176
     0
 62
     5
420
      255
176
     0
290
     0
176
     0
 90
       50
176
     0
 90
       50
176
     0
 90
       50
176
     0
290
     0
176
     0
 90
       50
176
     0
 62
   256
176
     0
 40
1.0
176
     0
 90
        2
176
     0
  1
strokes_ogs.tif
176
     0
290
     0
176
     0
 40
1.0
176
     0
 40
1.0
176
     0
  0
VISUALSTYLE
  5
428
102
{ACAD_REACTORS
330
41A
102
}
330
41A
100
AcDbVisualStyle
  2
Linepattern
 70
    14
177
     3
291
     1
 70
    58
 90
        2
176
     1
 90
        2
176
     1
 90
        0
176
     1
 90
        0
176
     1
 40
0.6
176
     1
 40
30.0
176
     1
 62
     7
420
 16777215
176
     1
 90
        1
176
     1
 90
        4
176
     1
 62
     7
176
     1
 62
   257
176
     1
 90
        7
176
     1
 90
        7
176
     1
 40
1.0
176
     1
 90
        8
176
     1
 62
     7
176
     1
 40
1.0
176
     1
 90
        1
176
     1
 90
        6
176
     1
 90
        2
176
     1
 62
     7
176
     1
 90
        5
176
     1
 90
        0
176
     1
 90
        0
176
     1
290
     0
176
     1
 90
        1
176
     1
 40
0.0
176
     1
 90
        0
176
     1
290
     0
176
     1
290
     1
176
     1
290
     1
176
     1
290
     0
176
     1
290
     0
176
     1
290
     0
176
     1
290
     0
176
     1
290
     0
176
     1
290
     0
176
     1
 90
       50
176
     1
 40
0.0
176
     1
 40
1.0
176
     1
 90
        0
176
     1
 62
    18
420
        0
176
     1
 90
       50
176
     1
 90
        3
176
     1
 62
     5
420
      255
176
     1
290
     0
176
     1
 90
       50
176
     1
 90
       50
176
     1
 90
       50
176
     1
290
     0
176
     1
 90
       50
176
     1
 62
   256
176
     0
 40
1.0
176
     0
 90
        2
176
     1
  1
strokes_ogs.tif
176
     1
290
     0
176
     1
 40
1.0
176
     1
 40
1.0
176
     1
  0
VISUALSTYLE
  5
42C
102
{ACAD_REACTORS
330
41A
102
}
330
41A
100
AcDbVisualStyle
  2
OverhangOff
 70
    21
177
     3
291
     1
 70
    58
 90
        2
176
     0
 90
        2
176
     0
 90
        0
176
     0
 90
        0
176
     0
 40
0.6
176
     0
 40
30.0
176
     0
 62
     7
420
 16777215
176
     0
 90
        1
176
     0
 90
        4
176
     0
 62
     7
176
     0
 62
   257
176
     0
 90
        1
176
     0
 90
        1
176
     0
 40
1.0
176
     0
 90
        9
176
     2
 62
     7
176
     0
 40
1.0
176
     0
 90
        1
176
     0
 90
        6
176
     0
 90
        2
176
     0
 62
     7
176
     0
 90
        5
176
     0
 90
        0
176
     0
 90
        0
176
     0
290
     0
176
     0
 90
        1
176
     0
 40
0.0
176
     0
 90
        0
176
     0
290
     0
176
     0
290
     1
176
     0
290
     1
176
     0
290
     0
176
     0
290
     0
176
     0
290
     0
176
     0
290
     0
176
     0
290
     0
176
     0
290
     0
176
     0
 90
       50
176
     0
 40
0.0
176
     0
 40
1.0
176
     0
 90
        0
176
     0
 62
    18
420
        0
176
     0
 90
       50
176
     0
 90
        3
176
     0
 62
     5
420
      255
176
     0
290
     0
176
     0
 90
       50
176
     0
 90
       50
176
     0
 90
       50
176
     0
290
     0
176
     0
 90
       50
176
     0
 62
   256
176
     0
 40
1.0
176
     0
 90
        2
176
     0
  1
strokes_ogs.tif
176
     0
290
     0
176
     0
 40
1.0
176
     0
 40
1.0
176
     0
  0
VISUALSTYLE
  5
423
102
{ACAD_REACTORS
330
41A
102
}
330
41A
100
AcDbVisualStyle
  2
Realistic
 70
     8
177
     3
291
     0
 70
    58
 90
        2
176
     1
 90
        3
176
     1
 90
        0
176
     1
 90
        2
176
     1
 40
0.6
176
     1
 40
30.0
176
     1
 62
     7
420
 16777215
176
     1
 90
        0
176
     1
 90
        0
176
     1
 62
     7
176
     1
 62
   257
176
     1
 90
        1
176
     1
 90
        1
176
     1
 40
1.0
176
     1
 90
        8
176
     1
 62
   257
176
     1
 40
1.0
176
     1
 90
        1
176
     1
 90
        6
176
     1
 90
        2
176
     1
 62
     7
176
     1
 90
        3
176
     1
 90
        0
176
     1
 90
        0
176
     1
290
     0
176
     1
 90
       13
176
     1
 40
0.0
176
     1
 90
        0
176
     1
290
     0
176
     1
290
     1
176
     1
290
     1
176
     1
290
     0
176
     1
290
     0
176
     1
290
     0
176
     1
290
     0
176
     1
290
     0
176
     1
290
     0
176
     1
 90
       50
176
     1
 40
0.0
176
     1
 40
1.0
176
     1
 90
        0
176
     1
 62
    18
420
        0
176
     1
 90
       50
176
     1
 90
        3
176
     1
 62
     5
420
      255
176
     1
290
     0
176
     1
 90
       50
176
     1
 90
       50
176
     1
 90
       50
176
     1
290
     0
176
     1
 90
       50
176
     1
 62
   256
176
     0
 40
1.0
176
     0
 90
        2
176
     1
  1
strokes_ogs.tif
176
     1
290
     0
176
     1
 40
1.0
176
     1
 40
1.0
176
     1
  0
VISUALSTYLE
  5
432
102
{ACAD_REACTORS
330
41A
102
}
330
41A
100
AcDbVisualStyle
  2
Shaded
 70
    27
177
     3
291
     0
 70
    58
 90
        2
176
     1
 90
        2
176
     1
 90
        1
176
     1
 90
        2
176
     1
 40
0.6
176
     1
 40
30.0
176
     1
 62
     7
420
 16777215
176
     1
 90
        0
176
     1
 90
        4
176
     1
 62
     7
176
     1
 62
   257
176
     1
 90
        1
176
     1
 90
        1
176
     1
 40
1.0
176
     1
 90
        8
176
     1
 62
   257
176
     1
 40
1.0
176
     1
 90
        1
176
     1
 90
        6
176
     1
 90
        2
176
     1
 62
     8
420
  7895160
176
     1
 90
        3
176
     1
 90
        0
176
     1
 90
        0
176
     1
290
     0
176
     1
 90
        5
176
     1
 40
0.0
176
     1
 90
        0
176
     1
290
     0
176
     1
290
     1
176
     1
290
     1
176
     1
290
     0
176
     1
290
     0
176
     1
290
     0
176
     1
290
     0
176
     1
290
     0
176
     1
290
     0
176
     1
 90
       50
176
     1
 40
0.0
176
     1
 40
1.0
176
     1
 90
        0
176
     1
 62
    18
420
        0
176
     1
 90
       50
176
     1
 90
        3
176
     1
 62
     5
420
      255
176
     1
290
     0
176
     1
 90
       50
176
     1
 90
       50
176
     1
 90
       50
176
     1
290
     0
176
     1
 90
       50
176
     1
 62
   256
176
     0
 40
1.0
176
     0
 90
        2
176
     1
  1
strokes_ogs.tif
176
     1
290
     0
176
     1
 40
1.0
176
     1
 40
1.0
176
     1
  0
VISUALSTYLE
  5
431
102
{ACAD_REACTORS
330
41A
102
}
330
41A
100
AcDbVisualStyle
  2
Shaded with edges
 70
    26
177
     3
291
     0
 70
    58
 90
        2
176
     1
 90
        2
176
     1
 90
        1
176
     1
 90
        2
176
     1
 40
0.6
176
     1
 40
30.0
176
     1
 62
     7
420
 16777215
176
     1
 90
        1
176
     1
 90
       10
176
     1
 62
     7
176
     1
 62
   257
176
     1
 90
        2
176
     1
 90
        1
176
     1
 40
1.0
176
     1
 90
        8
176
     1
 62
   257
176
     1
 40
1.0
176
     1
 90
        1
176
     1
 90
        6
176
     1
 90
        2
176
     1
 62
     7
176
     1
 90
        3
176
     1
 90
        0
176
     1
 90
        0
176
     1
290
     0
176
     1
 90
        5
176
     1
 40
0.0
176
     1
 90
        0
176
     1
290
     0
176
     1
290
     1
176
     1
290
     1
176
     1
290
     0
176
     1
290
     0
176
     1
290
     0
176
     1
290
     0
176
     1
290
     0
176
     1
290
     0
176
     1
 90
       50
176
     1
 40
0.0
176
     1
 40
1.0
176
     1
 90
        0
176
     1
 62
    18
420
        0
176
     1
 90
       50
176
     1
 90
        3
176
     1
 62
     5
420
      255
176
     1
290
     0
176
     1
 90
       50
176
     1
 90
       50
176
     1
 90
       50
176
     1
290
     0
176
     1
 90
       50
176
     1
 62
   256
176
     0
 40
1.0
176
     0
 90
        2
176
     1
  1
strokes_ogs.tif
176
     1
290
     0
176
     1
 40
1.0
176
     1
 40
1.0
176
     1
  0
VISUALSTYLE
  5
42E
102
{ACAD_REACTORS
330
41A
102
}
330
41A
100
AcDbVisualStyle
  2
Shades of Gray
 70
    23
177
     3
291
     0
 70
    58
 90
        2
176
     1
 90
        2
176
     1
 90
        3
176
     1
 90
        0
176
     1
 40
0.6
176
     1
 40
30.0
176
     1
 62
     7
420
 16777215
176
     1
 90
        2
176
     1
 90
        2
176
     1
 62
     7
176
     1
 62
     7
176
     1
 90
        1
176
     1
 90
        1
176
     1
 40
40.0
176
     1
 90
        8
176
     1
 62
     7
176
     1
 40
1.0
176
     1
 90
        1
176
     1
 90
        6
176
     1
 90
        2
176
     1
 62
     7
176
     1
 90
        3
176
     1
 90
        0
176
     1
 90
        0
176
     1
290
     0
176
     1
 90
        1
176
     1
 40
0.0
176
     1
 90
        0
176
     1
290
     0
176
     1
290
     1
176
     1
290
     1
176
     1
290
     0
176
     1
290
     0
176
     1
290
     0
176
     1
290
     0
176
     1
290
     0
176
     1
290
     0
176
     1
 90
       50
176
     1
 40
0.0
176
     1
 40
1.0
176
     1
 90
        0
176
     1
 62
    18
420
        0
176
     1
 90
       50
176
     1
 90
        3
176
     1
 62
     5
420
      255
176
     1
290
     0
176
     1
 90
       50
176
     1
 90
       50
176
     1
 90
       50
176
     1
290
     0
176
     1
 90
       50
176
     1
 62
   256
176
     0
 40
1.0
176
     0
 90
        2
176
     1
  1
strokes_ogs.tif
176
     1
290
     0
176
     1
 40
1.0
176
     1
 40
1.0
176
     1
  0
VISUALSTYLE
  5
42F
102
{ACAD_REACTORS
330
41A
102
}
330
41A
100
AcDbVisualStyle
  2
Sketchy
 70
    24
177
     3
291
     0
 70
    58
 90
        1
176
     1
 90
        2
176
     1
 90
        2
176
     1
 90
        0
176
     1
 40
0.6
176
     1
 40
30.0
176
     1
 62
     7
420
 16777215
176
     1
 90
        2
176
     1
 90
        2
176
     1
 62
     7
176
     1
 62
     7
176
     1
 90
        1
176
     1
 90
        1
176
     1
 40
40.0
176
     1
 90
       11
176
     1
 62
     7
176
     1
 40
1.0
176
     1
 90
        1
176
     1
 90
        6
176
     1
 90
        2
176
     1
 62
     7
176
     1
 90
        6
176
     1
 90
        0
176
     1
 90
        0
176
     1
290
     0
176
     1
 90
        1
176
     1
 40
0.0
176
     1
 90
        0
176
     1
290
     0
176
     1
290
     1
176
     1
290
     1
176
     1
290
     0
176
     1
290
     0
176
     1
290
     0
176
     1
290
     0
176
     1
290
     0
176
     1
290
     0
176
     1
 90
       50
176
     1
 40
0.0
176
     1
 40
1.0
176
     1
 90
        0
176
     1
 62
    18
420
        0
176
     1
 90
       50
176
     1
 90
        3
176
     1
 62
     5
420
      255
176
     1
290
     0
176
     1
 90
       50
176
     1
 90
       50
176
     1
 90
       50
176
     1
290
     0
176
     1
 90
       50
176
     1
 62
   256
176
     0
 40
1.0
176
     0
 90
        2
176
     1
  1
strokes_ogs.tif
176
     1
290
     0
176
     1
 40
1.0
176
     1
 40
1.0
176
     1
  0
VISUALSTYLE
  5
427
102
{ACAD_REACTORS
330
41A
102
}
330
41A
100
AcDbVisualStyle
  2
Thicken
 70
    13
177
     3
291
     1
 70
    58
 90
        2
176
     1
 90
        2
176
     1
 90
        0
176
     1
 90
        0
176
     1
 40
0.6
176
     1
 40
30.0
176
     1
 62
     7
420
 16777215
176
     1
 90
        1
176
     1
 90
        4
176
     1
 62
     7
176
     1
 62
   257
176
     1
 90
        1
176
     1
 90
        1
176
     1
 40
1.0
176
     1
 90
       12
176
     1
 62
     7
176
     1
 40
1.0
176
     1
 90
        1
176
     1
 90
        6
176
     1
 90
        2
176
     1
 62
     7
176
     1
 90
        5
176
     1
 90
        0
176
     1
 90
        0
176
     1
290
     0
176
     1
 90
        1
176
     1
 40
0.0
176
     1
 90
        0
176
     1
290
     0
176
     1
290
     1
176
     1
290
     1
176
     1
290
     0
176
     1
290
     0
176
     1
290
     0
176
     1
290
     0
176
     1
290
     0
176
     1
290
     0
176
     1
 90
       50
176
     1
 40
0.0
176
     1
 40
1.0
176
     1
 90
        0
176
     1
 62
    18
420
        0
176
     1
 90
       50
176
     1
 90
        3
176
     1
 62
     5
420
      255
176
     1
290
     0
176
     1
 90
       50
176
     1
 90
       50
176
     1
 90
       50
176
     1
290
     0
176
     1
 90
       50
176
     1
 62
   256
176
     0
 40
1.0
176
     0
 90
        2
176
     1
  1
strokes_ogs.tif
176
     1
290
     0
176
     1
 40
1.0
176
     1
 40
1.0
176
     1
  0
VISUALSTYLE
  5
420
102
{ACAD_REACTORS
330
41A
102
}
330
41A
100
AcDbVisualStyle
  2
Wireframe
 70
     5
177
     3
291
     0
 70
    58
 90
        0
176
     1
 90
        2
176
     1
 90
        0
176
     1
 90
        0
176
     1
 40
0.6
176
     1
 40
30.0
176
     1
 62
     7
420
 16777215
176
     1
 90
        1
176
     1
 90
        4
176
     1
 62
     7
176
     1
 62
   257
176
     1
 90
        1
176
     1
 90
        1
176
     1
 40
1.0
176
     1
 90
        0
176
     1
 62
   257
176
     1
 40
1.0
176
     1
 90
        1
176
     1
 90
        6
176
     1
 90
        2
176
     1
 62
     7
176
     1
 90
        3
176
     1
 90
        0
176
     1
 90
        0
176
     1
290
     0
176
     1
 90
        1
176
     1
 40
0.0
176
     1
 90
        0
176
     1
290
     0
176
     1
290
     1
176
     1
290
     1
176
     1
290
     0
176
     1
290
     0
176
     1
290
     0
176
     1
290
     0
176
     1
290
     0
176
     1
290
     0
176
     1
 90
       50
176
     1
 40
0.0
176
     1
 40
1.0
176
     1
 90
        0
176
     1
 62
    18
420
        0
176
     1
 90
       50
176
     1
 90
        3
176
     1
 62
     5
420
      255
176
     1
290
     0
176
     1
 90
       50
176
     1
 90
       50
176
     1
 90
       50
176
     1
290
     0
176
     1
 90
       50
176
     1
 62
   256
176
     0
 40
1.0
176
     0
 90
        2
176
     1
  1
strokes_ogs.tif
176
     1
290
     0
176
     1
 40
1.0
176
     1
 40
1.0
176
     1
  0
VISUALSTYLE
  5
430
102
{ACAD_REACTORS
330
41A
102
}
330
41A
100
AcDbVisualStyle
  2
X-Ray
 70
    25
177
     3
291
     0
 70
    58
 90
        2
176
     1
 90
        2
176
     1
 90
        1
176
     1
 90
        1
176
     1
 40
0.5
176
     1
 40
30.0
176
     1
 62
     7
420
 16777215
176
     1
 90
        1
176
     1
 90
        0
176
     1
 62
     7
176
     1
 62
   257
176
     1
 90
        1
176
     1
 90
        1
176
     1
 40
1.0
176
     1
 90
        8
176
     1
 62
     7
176
     1
 40
1.0
176
     1
 90
        1
176
     1
 90
        6
176
     1
 90
        2
176
     1
 62
     7
176
     1
 90
        3
176
     1
 90
        0
176
     1
 90
        0
176
     1
290
     0
176
     1
 90
       13
176
     1
 40
0.0
176
     1
 90
        0
176
     1
290
     0
176
     1
290
     1
176
     1
290
     1
176
     1
290
     0
176
     1
290
     0
176
     1
290
     0
176
     1
290
     0
176
     1
290
     0
176
     1
290
     0
176
     1
 90
       50
176
     1
 40
0.0
176
     1
 40
1.0
176
     1
 90
        0
176
     1
 62
    18
420
        0
176
     1
 90
       50
176
     1
 90
        3
176
     1
 62
     5
420
      255
176
     1
290
     0
176
     1
 90
       50
176
     1
 90
       50
176
     1
 90
       50
176
     1
290
     0
176
     1
 90
       50
176
     1
 62
   256
176
     0
 40
1.0
176
     0
 90
        2
176
     1
  1
strokes_ogs.tif
176
     1
290
     0
176
     1
 40
1.0
176
     1
 40
1.0
176
     1
  0
DICTIONARYVAR
  5
449
102
{ACAD_REACTORS
330
448
102
}
330
448
100
DictionaryVariables
280
     0
  1
1:1
  0
DICTIONARYVAR
  5
44D
102
{ACAD_REACTORS
330
448
102
}
330
448
100
DictionaryVariables
280
     0
  1
Standard
  0
CSACDOCUMENTOPTIONS
  5
43E
102
{ACAD_REACTORS
330
43D
102
}
330
43D
  0
XRECORD
  5
442
102
{ACAD_REACTORS
330
439
102
}
330
439
100
AcDbXrecord
280
     1
300
MC_VERSION_DATA
 90
       95
310
0600000002000000570000001C000000E404000000000000000000007801936764E5D8CF7A8393818115C460606066E0646662626666706006F214793899F8DE3171E725E6E53B3BBA2878E6951050AF75FEFFFFFF520032DE0F3057000000
  0
XRECORD
  5
43A
102
{ACAD_REACTORS
330
439
102
}
330
439
100
AcDbXrecord
280
     1
300
MCS_DOCUMENT_ID
 90
       60
310
0600000002000000150000001C000000E404000000000000000000007801E3359FAA9A28E72DE1D1E3BBECCF098F732EFF81000056560AC215000000
  0
XRECORD
  5
440
102
{ACAD_REACTORS
330
439
102
}
330
439
100
AcDbXrecord
280
     1
300
MCS_PARAMS_DATA
 90
     3313
310
0600000002000000F64B00001C000000E404000000000000000000007801C55C5B905C45199EE99EBDCCE67E5DA218172C303B91307B4B8C459531245054850D55591F78B236BB49B9BAC9E6B22A082A9655BE5865596569A965F9209288CF16503EC8834088C10B092404211702988430422E9084CDAEFFD7A7FBF4DFA7CF
310
D9D99D9D39930798FF3F7DCEF7DFFAFBBBFBCC6CDBFC46297252EECB48F9CDF5ED5234493921A5206D76815820B252E4F3225F128D7D5F59BF69E3162948D9A2D485B3131313747328BF06593E960915079422437734AA3BDAA5CCD053F5ED4FD2557D257BAB94DF007A03479F859BB2B22193C9108EC1CDCADC0464C27506
310
28605703E48886E0B986E10F03BF91E33707F8E3140E7A9091C8268236920C1C662240B94888A1C8E07600AE99C32D5131CA8B3925D172EFE62D7D6D9DABBA8ADDD6F17CE16D13F0457AE8AC9268DE32DABF73B07FCFA013F9BF8491D7C17E2550D8E8FFCA8DFE4E98B3929B331718B291824FFF72EB941D9E8E2211D5A93C
310
784A44C557923911258BD0C8640531AEEC61A924855B11378280384364A422680C0A928DB9C10CD89D581114199665B722B26E4590C82B0222AB08FAA8A60626C028E0044F81BA246F5360E167F2D27C56A10E05C058C13C59DEC6207679103AFC5DEADF992F2B284F67B31C8EE359B64A9665A62453228F64269D98455E3B
310
A4B35817F7EC92C86FB8EFFE8DBD5BEEDBDCAB0CD3B5FC8E99065A7E55D536E39DE7826237F1C8BBBCB3CFADFC93302087C80397EE69C2FF69CA32234F0763E41851010DA578E8294D435524988818E84710A7B2643B4F7C034F6CE5C9368F203BE8094C6268541D70D35EE4B585DAE170F4942EB8D2D422560A9917F34B62
310
CE86919D9F1F6DDBB36DD770FFC0B6BC682E898607BEB5737424F8D83B323AF07529CFC0B69BB96D9FD3CFF9B410ED79B1A42416161FEA29AEEDEEEC5ADF532C76DEF3C5AEEEB5CAECF97A60330D2C1C3579EAD0DA7621F20269BD6768746FDBF0D0DE51F3B0EE356B3ABBD6F474F7740D76770EACED08FCFC92BEAF13F701
310
B5AF7FEBF0B6B691ED6D7D23C3DBF6F4EF840FDA9AD583C58E81E240FFEAADDD5BD70EAC0E669D2A25F27FB610851F9335859F059541B9E5971EC7A5A7E83F2CE53DB9A4040555A2661A4DDBF2C560B2E54E7D5483931EF871F7C88E5DFDA3435B878687461F6EDB313248FE3596847C70DBDEBC682809D13B22E56A5856E4
310
E9998738519B6E2A89DCE6EDDBDB542AF4E4380F8F61A4965F57116093E5A052A06AF588670205D9A715FB49B140D81A90855F902680EBB8B3A3187EEA96F2B224E392BAF898328CB1AD47DA34C1601A1B421AD816D190715CC3F276A5DE067C546F03AED6DB808FEB6DC0B57A1BB00853B49EB3E0937A47E07ABD0D188301
310
71CB797197D3603B1D06BFCB6DB024827C0C834324E60945463B3712E196397079076E990B47228783C8E09631B8F129C211385B3E540C97413DC70673C524DEAD70BD23917B079179B782793791AE77D944EFDCDC5529988B13E1069D6092C472A7F777A6F648E4C184C88239C8822913E16AE29D48176E29E0727C316496
310
EF2A967C95165E504B0C2B218EEE82DD5C63513CD614C5091F6D6FA7551865CC5C5030A1E0A3E84BEC86CFD04EC5DD01AA74CBDB05AB8C403295A124BB2908C4B032B4682A032283FB103E391B4E03172C7199C4E0F88E871E8855ADA1482D3238FA1846E0B807A77785BFF935FE1D74369F5647D0D171CA5F4F09337C2559
310
105132935A503D6DBC7A94B54D2B6DF1E0339960F436A97441791E5EC104D40283580888C4FDED577B1FD8B4B9AF6FE30605D8AAD7F1F34A62F6DD5BBEC62E92057A31FEA25A9DB3F5FBD3C1729D9CD723B0BF0DE8402BB05A67160DDE4416E59079C0D9EAA575B7321F67115FC018C76AB5B3A33D06B68CBD9BFBDC93C073
310
800CC384FD360C544F539B6F02B1820953BE9D01DE01C0D85A6C50369A5AC4065C7760793B965800321749E4B50891C0C2AB0CAE9808178444974C70F875952A9381563C01BE9D08EAFA481283ABD8C7EF7870DAABE068E68833DFAC8EA0A3E3F87C0B07AA507B2311F0889285BDC333294C4E2DB27C67BA70ABD2857B688A
310
70552AA7873DB8489E55063D5D2DCBE9BB9E49F1E554A5083C922EDCA3E9C27D2F5DB8EF7B705EE9D87E1E920E88313AAE6AECF4FBD668D3D30DB4E51ADA9BEDB0D7AFCEB4DDED85F7C4ECF6551B3BCE2AFF6E835E49458EC94883D6E73C45753FAE614C3C0A0362777435D915EC025C33F7578776011DE6F3D066954C59D6
310
D76F86AC9CD58A53F4122CF0552BAE070AEA3B5AF15752304F1F47569D50AB71F41A31FA5A51C904CD43C6B0F51D2ACEFC112ACC4CC1B0FF086CE7AD5A4D096A005126387AAD451EE384D9C035A925859E39C1AA865EE9A9B8DA21CEE289167F7CF1D4C4BC7A125EC5AED5D8BB0B5A9D9144D134CFA71BF85A8D44BE568348
310
F6AA55A2F3CAEA4F6982FD21118CC249D3CBF852A586F244BA70FBD285DB9F085793EDE56E143F0AD06C6B4CB2242BDD3DD1419166C2865E81F9CE1648F3CBD84597B22E28992A3DDCE24C77F3F311A01C8A722828EC3CF15F7D987933F818F8E59BC138E5CD4CE8AC24C94E68BA32F5C3CBAB808B6B06B9936E642F9F804C
310
903AF2F3709D37832318A078E4B37AEBDCFAA66859945B9EBB25776BAE2DD3995995E9CA1433DDFA4DAC7ECE6FE93696E96BB06712968ED2661884A9EE40230F60D0D73DE8C858453B9E8E4212D5A9B0784A762662599FEDD18C9299F4094C728A91F536658E91CDA6DFC8E89F363B15B4CB31404FD2581CF722BBF229B517
310
430944E56AB2E2A8E3461950730F2B7ECA7BC570E389706E8BA9D241C744225C40C29385944F707279EA277D998065D9EAD604B1263E66D38513E9C2490F4EE7CC6E8AA89C3D9DA588701CA708AB6414C194931EE3FC0D4515D71A4FBFE712F8CB4A26532A6E8DCF01CA61A3745BE3F3C09F6E6B442F0CD7BAD36A8D2F002E
310
AE359E3BE646F6B8926D6BBC0CD9926FBEF08C5220B9BAE91D0E14769FF44B52301E3C00E8FA74C117BD24F396E22C7F1005F2DA2902EB76053DE720B0D3EE397F2F036AE8B24A3DE750225C4DF8F8A544B81AF69C7F2482D6C4C77F067093EF36FE359541FF8E0E8A50399BA22F63681CEF0EBDEBB2C3834A9E09EF1E0654
310
1D79F708F0A7CBBB956F495E015C1CEFEE3EEC46B65FC996771F856C09285F58A7148C77872F6104D6DC9A8897D30896D457015D1FDE3DEA25B91CEFF2EBD6EB0A68F718A0D3A6DDD7CA805699768F27C2D584925E4F84AB9476A39B03E744D09CD6610FF59F44E89A78FA46BA70DDDE0ADC144A4DBCEBF1E0221D416DC23D
310
1D715254A766A8A7AC60C1FF26021ED7783E889CD89C52F24C1ACF0940D5B1F19C047E7A8DE714E0E21ACFD5436EE339AB64DB78E44B91C6730003ECCB897CE1D28548E3798246B0C6731AD0536D3CB3E90740046E0B5FD5161351555C247A084506FA9607AAEBD39C44F1E2B63A5BDCA18E17B755B2E2664A322602C34C3A
310
0393625B51C09BC60D77315EF1E1C8DB80730A9C37D5B8CD0EBF3EA3A6FB4EA2A7C18B1B2746D53A5F7BB70C687C78291FE10E3A386EE3054657F9CB297E9CF703B0E71DFC4DA3397B4068C3CF33A1A81F02C2C920DB8E7ABF712005813923946BAE06DE453454B45CC32AF6311810C751E3F85A979E7874424F9299B34AB2
310
210DC430A45A3473162283FB2F3218C7FE178FBB1CF59692CDAD957C0DECAC3739580882F7E26636C4FC0874E66F42CE013F2EB274A4C323CBB88082C5B980AE4CFD4DC879C0C5B1FFF5E7DDC89E57324556799F2F34BC006EC70CD18A8318C0D9FF0AB6807CDBB19F46B0A4BE07E8B4D9FF8207EA504E3D7E65FA3E4C7226
310
B329B0E8D703AAFEBAA304E869379E693123CD68457958A4FF2F11AE86ECFF4119D078F6E7138AD87FF2370F86D6E1E38789702D76FED2134932CCA824CB8C811832A3160D33426421BD980847AF6F0C11D33DEECB1CFE9B7175D1F926045DE5BD8DBFBDBE94081764D0049324E6DDB40A8607F372225C4D16463974B5B836
310
F393232E193EA2E499B49986C93A780A6DA631A981D7A6CD34012EAECDFCFC5937B23F52B26D33BF83CCDBCC56A5C0ECD07DE7A7A7226D661D8D6033A419D0536D33E07F56B8C4CA7C0D48229F9610695A461A0883CE7B494E8DD95B004DF38E8247AB09FE45AC1A52EDAC32A0861DD8DA85D8A76276989D08579353913989
310
700119397510D9BB4CAB9DF096393711B4263ECE4B176E7EBA700B3C389DB3F0B5335AA6A7234288EA142D784A9083AFB414616018456CF24C3293C4CD2F49D3E5A5F0410CEE7E0F2E6A6FEA11580893E29AEE529C2FC11C4DF48D4AA628982DB44A422820F8563073C8F989CF2240392BED74F7768B819FDEDE6E09E0E29A
310
EE72FA030B3CB273954C91D5916E87CC9BEEFB4FAB1E6B73B10CFB6CBEB73B4423589D2D05F4CC9AAE2E4C768646F0614DBB4BD40606DDEA2539B5A67B13A0D36EBACBCA809A9055A7E9E24B8E0D79912B896C91FE0C1655C17843E129FA335B3277F4E8510807513CB9CC44868E210AF7FE19028691B0917E39482B125CF8
310
D4FF01F0B312DAF64B0000
  0
TABLECONTENT
  5
444
330
447
100
AcDbLinkedData
  1

300

100
AcDbLinkedTableData
 90
        5
300
COLUMN
  1
LINKEDTABLEDATACOLUMN_BEGIN
300

 91
        0
301
CUSTOMDATA
  1
DATAMAP_BEGIN
 90
        0
309
DATAMAP_END
309
LINKEDTABLEDATACOLUMN_END
  1
FORMATTEDTABLEDATACOLUMN_BEGIN
300
COLUMNTABLEFORMAT
  1
TABLEFORMAT_BEGIN
 90
        3
170
     0
309
TABLEFORMAT_END
309
FORMATTEDTABLEDATACOLUMN_END
  1
TABLECOLUMN_BEGIN
 90
        0
 40
10.0
309
TABLECOLUMN_END
300
COLUMN
  1
LINKEDTABLEDATACOLUMN_BEGIN
300

 91
        0
301
CUSTOMDATA
  1
DATAMAP_BEGIN
 90
        0
309
DATAMAP_END
309
LINKEDTABLEDATACOLUMN_END
  1
FORMATTEDTABLEDATACOLUMN_BEGIN
300
COLUMNTABLEFORMAT
  1
TABLEFORMAT_BEGIN
 90
        3
170
     0
309
TABLEFORMAT_END
309
FORMATTEDTABLEDATACOLUMN_END
  1
TABLECOLUMN_BEGIN
 90
        0
 40
10.0
309
TABLECOLUMN_END
300
COLUMN
  1
LINKEDTABLEDATACOLUMN_BEGIN
300

 91
        0
301
CUSTOMDATA
  1
DATAMAP_BEGIN
 90
        0
309
DATAMAP_END
309
LINKEDTABLEDATACOLUMN_END
  1
FORMATTEDTABLEDATACOLUMN_BEGIN
300
COLUMNTABLEFORMAT
  1
TABLEFORMAT_BEGIN
 90
        3
170
     0
309
TABLEFORMAT_END
309
FORMATTEDTABLEDATACOLUMN_END
  1
TABLECOLUMN_BEGIN
 90
        0
 40
10.0
309
TABLECOLUMN_END
300
COLUMN
  1
LINKEDTABLEDATACOLUMN_BEGIN
300

 91
        0
301
CUSTOMDATA
  1
DATAMAP_BEGIN
 90
        0
309
DATAMAP_END
309
LINKEDTABLEDATACOLUMN_END
  1
FORMATTEDTABLEDATACOLUMN_BEGIN
300
COLUMNTABLEFORMAT
  1
TABLEFORMAT_BEGIN
 90
        3
170
     0
309
TABLEFORMAT_END
309
FORMATTEDTABLEDATACOLUMN_END
  1
TABLECOLUMN_BEGIN
 90
        0
 40
40.0
309
TABLECOLUMN_END
300
COLUMN
  1
LINKEDTABLEDATACOLUMN_BEGIN
300

 91
        0
301
CUSTOMDATA
  1
DATAMAP_BEGIN
 90
        0
309
DATAMAP_END
309
LINKEDTABLEDATACOLUMN_END
  1
FORMATTEDTABLEDATACOLUMN_BEGIN
300
COLUMNTABLEFORMAT
  1
TABLEFORMAT_BEGIN
 90
        3
170
     0
309
TABLEFORMAT_END
309
FORMATTEDTABLEDATACOLUMN_END
  1
TABLECOLUMN_BEGIN
 90
        0
 40
20.0
309
TABLECOLUMN_END
 91
        5
301
ROW
  1
LINKEDTABLEDATAROW_BEGIN
 90
        5
300
CELL
  1
LINKEDTABLEDATACELL_BEGIN
 90
        0
300

 91
        0
301
CUSTOMDATA
  1
DATAMAP_BEGIN
 90
        1
300
ACAD_ROUNDTRIP_2008_CELL_CHECKSUM
301
DATAMAP_VALUE
 93
        2
 90
        2
140
32.0
 94
        0
300

302

304
ACVALUE_END
309
DATAMAP_END
 92
        0
 95
        1
302
CONTENT
  1
CELLCONTENT_BEGIN
 90
        1
300
VALUE
 93
        2
 90
        4
  1
 
 94
        0
300

302
 
304
ACVALUE_END
 91
        0
309
CELLCONTENT_END
  1
FORMATTEDCELLCONTENT_BEGIN
170
     1
300
CONTENTFORMAT
  1
CONTENTFORMAT_BEGIN
 90
      132
 91
        0
 92
      512
 93
        0
300

 40
0.0
140
1.0
 94
        1
 62
     0
340
0
144
3.5
309
CONTENTFORMAT_END
309
FORMATTEDCELLCONTENT_END
309
LINKEDTABLEDATACELL_END
  1
FORMATTEDTABLEDATACELL_BEGIN
300
CELLTABLEFORMAT
  1
TABLEFORMAT_BEGIN
 90
        1
170
     1
 91
        0
 92
        0
 62
   257
 93
        1
300
CONTENTFORMAT
  1
CONTENTFORMAT_BEGIN
 90
        0
 91
        0
 92
      512
 93
        0
300

 40
0.0
140
1.0
 94
        1
 62
     0
340
0
144
0.18
309
CONTENTFORMAT_END
171
     0
 94
        0
309
TABLEFORMAT_END
309
FORMATTEDTABLEDATACELL_END
  1
TABLECELL_BEGIN
 90
        0
 91
        0
309
TABLECELL_END
300
CELL
  1
LINKEDTABLEDATACELL_BEGIN
 90
        0
300

 91
        0
301
CUSTOMDATA
  1
DATAMAP_BEGIN
 90
        0
309
DATAMAP_END
 92
        0
 95
        0
309
LINKEDTABLEDATACELL_END
  1
FORMATTEDTABLEDATACELL_BEGIN
300
CELLTABLEFORMAT
  1
TABLEFORMAT_BEGIN
 90
        1
170
     1
 91
        0
 92
        0
 62
   257
 93
        1
300
CONTENTFORMAT
  1
CONTENTFORMAT_BEGIN
 90
        0
 91
        0
 92
      512
 93
        0
300

 40
0.0
140
1.0
 94
        1
 62
     0
340
0
144
0.18
309
CONTENTFORMAT_END
171
     0
 94
        0
309
TABLEFORMAT_END
309
FORMATTEDTABLEDATACELL_END
  1
TABLECELL_BEGIN
 90
        0
 91
        0
309
TABLECELL_END
300
CELL
  1
LINKEDTABLEDATACELL_BEGIN
 90
        0
300

 91
        0
301
CUSTOMDATA
  1
DATAMAP_BEGIN
 90
        0
309
DATAMAP_END
 92
        0
 95
        0
309
LINKEDTABLEDATACELL_END
  1
FORMATTEDTABLEDATACELL_BEGIN
300
CELLTABLEFORMAT
  1
TABLEFORMAT_BEGIN
 90
        1
170
     1
 91
        0
 92
        0
 62
   257
 93
        1
300
CONTENTFORMAT
  1
CONTENTFORMAT_BEGIN
 90
        0
 91
        0
 92
      512
 93
        0
300

 40
0.0
140
1.0
 94
        1
 62
     0
340
0
144
0.18
309
CONTENTFORMAT_END
171
     0
 94
        0
309
TABLEFORMAT_END
309
FORMATTEDTABLEDATACELL_END
  1
TABLECELL_BEGIN
 90
        0
 91
        0
309
TABLECELL_END
300
CELL
  1
LINKEDTABLEDATACELL_BEGIN
 90
        0
300

 91
        0
301
CUSTOMDATA
  1
DATAMAP_BEGIN
 90
        1
300
ACAD_ROUNDTRIP_2008_CELL_CHECKSUM
301
DATAMAP_VALUE
 93
        2
 90
        2
140
3426.0
 94
        0
300

302

304
ACVALUE_END
309
DATAMAP_END
 92
        0
 95
        1
302
CONTENT
  1
CELLCONTENT_BEGIN
 90
        1
300
VALUE
 93
        2
 90
        4
  1
A255_C_402
 94
        0
300

302
A255_C_402
304
ACVALUE_END
 91
        0
309
CELLCONTENT_END
  1
FORMATTEDCELLCONTENT_BEGIN
170
     1
300
CONTENTFORMAT
  1
CONTENTFORMAT_BEGIN
 90
      132
 91
        0
 92
      512
 93
        0
300

 40
0.0
140
1.0
 94
        1
 62
     0
340
0
144
3.0
309
CONTENTFORMAT_END
309
FORMATTEDCELLCONTENT_END
309
LINKEDTABLEDATACELL_END
  1
FORMATTEDTABLEDATACELL_BEGIN
300
CELLTABLEFORMAT
  1
TABLEFORMAT_BEGIN
 90
        1
170
     1
 91
       16
 92
        0
 62
   257
 93
        1
300
CONTENTFORMAT
  1
CONTENTFORMAT_BEGIN
 90
       16
 91
        0
 92
      512
 93
        0
300

 40
0.0
140
1.0
 94
        4
 62
     0
340
0
144
0.18
309
CONTENTFORMAT_END
171
     0
 94
        4
 95
        1
302
GRIDFORMAT
  1
GRIDFORMAT_BEGIN
 90
       26
 91
        1
 62
     0
 92
       -2
340
0
 93
        0
 40
0.045
309
GRIDFORMAT_END
 95
        4
302
GRIDFORMAT
  1
GRIDFORMAT_BEGIN
 90
       26
 91
        1
 62
     0
 92
       -2
340
0
 93
        0
 40
0.045
309
GRIDFORMAT_END
 95
        8
302
GRIDFORMAT
  1
GRIDFORMAT_BEGIN
 90
       26
 91
        1
 62
     0
 92
       -2
340
0
 93
        0
 40
0.045
309
GRIDFORMAT_END
 95
       32
302
GRIDFORMAT
  1
GRIDFORMAT_BEGIN
 90
       26
 91
        1
 62
     0
 92
       -2
340
0
 93
        0
 40
0.045
309
GRIDFORMAT_END
309
TABLEFORMAT_END
309
FORMATTEDTABLEDATACELL_END
  1
TABLECELL_BEGIN
 90
        0
 91
        0
309
TABLECELL_END
300
CELL
  1
LINKEDTABLEDATACELL_BEGIN
 90
        0
300

 91
        0
301
CUSTOMDATA
  1
DATAMAP_BEGIN
 90
        1
300
ACAD_ROUNDTRIP_2008_CELL_CHECKSUM
301
DATAMAP_VALUE
 93
        2
 90
        2
140
1398.0
 94
        0
300

302

304
ACVALUE_END
309
DATAMAP_END
 92
        0
 95
        1
302
CONTENT
  1
CELLCONTENT_BEGIN
 90
        1
300
VALUE
 93
        2
 90
        4
  1
Rev:00
 94
        0
300

302
Rev:00
304
ACVALUE_END
 91
        0
309
CELLCONTENT_END
  1
FORMATTEDCELLCONTENT_BEGIN
170
     1
300
CONTENTFORMAT
  1
CONTENTFORMAT_BEGIN
 90
      132
 91
        0
 92
      512
 93
        0
300

 40
0.0
140
1.0
 94
        1
 62
     0
340
0
144
3.5
309
CONTENTFORMAT_END
309
FORMATTEDCELLCONTENT_END
309
LINKEDTABLEDATACELL_END
  1
FORMATTEDTABLEDATACELL_BEGIN
300
CELLTABLEFORMAT
  1
TABLEFORMAT_BEGIN
 90
        1
170
     1
 91
       16
 92
        0
 62
   257
 93
        1
300
CONTENTFORMAT
  1
CONTENTFORMAT_BEGIN
 90
       16
 91
        0
 92
      512
 93
        0
300

 40
0.0
140
1.0
 94
        4
 62
     0
340
0
144
0.18
309
CONTENTFORMAT_END
171
     0
 94
        4
 95
        1
302
GRIDFORMAT
  1
GRIDFORMAT_BEGIN
 90
       26
 91
        1
 62
     0
 92
       -2
340
0
 93
        0
 40
0.045
309
GRIDFORMAT_END
 95
        4
302
GRIDFORMAT
  1
GRIDFORMAT_BEGIN
 90
       26
 91
        1
 62
     0
 92
       -2
340
0
 93
        0
 40
0.045
309
GRIDFORMAT_END
 95
        8
302
GRIDFORMAT
  1
GRIDFORMAT_BEGIN
 90
       26
 91
        1
 62
     0
 92
       -2
340
0
 93
        0
 40
0.045
309
GRIDFORMAT_END
 95
       32
302
GRIDFORMAT
  1
GRIDFORMAT_BEGIN
 90
       26
 91
        1
 62
     0
 92
       -2
340
0
 93
        0
 40
0.045
309
GRIDFORMAT_END
309
TABLEFORMAT_END
309
FORMATTEDTABLEDATACELL_END
  1
TABLECELL_BEGIN
 90
        0
 91
        0
309
TABLECELL_END
 91
        0
301
CUSTOMDATA
  1
DATAMAP_BEGIN
 90
        0
309
DATAMAP_END
309
LINKEDTABLEDATAROW_END
  1
FORMATTEDTABLEDATAROW_BEGIN
300
ROWTABLEFORMAT
  1
TABLEFORMAT_BEGIN
 90
        2
170
     0
309
TABLEFORMAT_END
309
FORMATTEDTABLEDATAROW_END
  1
TABLEROW_BEGIN
 90
        1
 40
6.0
309
TABLEROW_END
301
ROW
  1
LINKEDTABLEDATAROW_BEGIN
 90
        5
300
CELL
  1
LINKEDTABLEDATACELL_BEGIN
 90
        0
300

 91
        0
301
CUSTOMDATA
  1
DATAMAP_BEGIN
 90
        0
309
DATAMAP_END
 92
        0
 95
        0
309
LINKEDTABLEDATACELL_END
  1
FORMATTEDTABLEDATACELL_BEGIN
300
CELLTABLEFORMAT
  1
TABLEFORMAT_BEGIN
 90
        1
170
     1
 91
        0
 92
        0
 62
   257
 93
        1
300
CONTENTFORMAT
  1
CONTENTFORMAT_BEGIN
 90
        0
 91
        0
 92
      512
 93
        0
300

 40
0.0
140
1.0
 94
        1
 62
     0
340
0
144
0.18
309
CONTENTFORMAT_END
171
     0
 94
        0
309
TABLEFORMAT_END
309
FORMATTEDTABLEDATACELL_END
  1
TABLECELL_BEGIN
 90
        0
 91
        0
309
TABLECELL_END
300
CELL
  1
LINKEDTABLEDATACELL_BEGIN
 90
        0
300

 91
        0
301
CUSTOMDATA
  1
DATAMAP_BEGIN
 90
        0
309
DATAMAP_END
 92
        0
 95
        0
309
LINKEDTABLEDATACELL_END
  1
FORMATTEDTABLEDATACELL_BEGIN
300
CELLTABLEFORMAT
  1
TABLEFORMAT_BEGIN
 90
        1
170
     1
 91
        0
 92
        0
 62
   257
 93
        1
300
CONTENTFORMAT
  1
CONTENTFORMAT_BEGIN
 90
        0
 91
        0
 92
      512
 93
        0
300

 40
0.0
140
1.0
 94
        1
 62
     0
340
0
144
0.18
309
CONTENTFORMAT_END
171
     0
 94
        0
309
TABLEFORMAT_END
309
FORMATTEDTABLEDATACELL_END
  1
TABLECELL_BEGIN
 90
        0
 91
        0
309
TABLECELL_END
300
CELL
  1
LINKEDTABLEDATACELL_BEGIN
 90
        0
300

 91
        0
301
CUSTOMDATA
  1
DATAMAP_BEGIN
 90
        0
309
DATAMAP_END
 92
        0
 95
        0
309
LINKEDTABLEDATACELL_END
  1
FORMATTEDTABLEDATACELL_BEGIN
300
CELLTABLEFORMAT
  1
TABLEFORMAT_BEGIN
 90
        1
170
     1
 91
        0
 92
        0
 62
   257
 93
        1
300
CONTENTFORMAT
  1
CONTENTFORMAT_BEGIN
 90
        0
 91
        0
 92
      512
 93
        0
300

 40
0.0
140
1.0
 94
        1
 62
     0
340
0
144
0.18
309
CONTENTFORMAT_END
171
     0
 94
        0
309
TABLEFORMAT_END
309
FORMATTEDTABLEDATACELL_END
  1
TABLECELL_BEGIN
 90
        0
 91
        0
309
TABLECELL_END
300
CELL
  1
LINKEDTABLEDATACELL_BEGIN
 90
        0
300

 91
        0
301
CUSTOMDATA
  1
DATAMAP_BEGIN
 90
        1
300
ACAD_ROUNDTRIP_2008_CELL_CHECKSUM
301
DATAMAP_VALUE
 93
        2
 90
        2
140
3105.0
 94
        0
300

302

304
ACVALUE_END
309
DATAMAP_END
 92
        0
 95
        1
302
CONTENT
  1
CELLCONTENT_BEGIN
 90
        1
300
VALUE
 93
        2
 90
        4
  1
Scale:1:1
 94
        0
300

302
Scale:1:1
304
ACVALUE_END
 91
        0
309
CELLCONTENT_END
  1
FORMATTEDCELLCONTENT_BEGIN
170
     1
300
CONTENTFORMAT
  1
CONTENTFORMAT_BEGIN
 90
      132
 91
        0
 92
      512
 93
        0
300

 40
0.0
140
1.0
 94
        1
 62
     0
340
0
144
3.5
309
CONTENTFORMAT_END
309
FORMATTEDCELLCONTENT_END
309
LINKEDTABLEDATACELL_END
  1
FORMATTEDTABLEDATACELL_BEGIN
300
CELLTABLEFORMAT
  1
TABLEFORMAT_BEGIN
 90
        1
170
     1
 91
       16
 92
        0
 62
   257
 93
        1
300
CONTENTFORMAT
  1
CONTENTFORMAT_BEGIN
 90
       16
 91
        0
 92
      512
 93
        0
300

 40
0.0
140
1.0
 94
        1
 62
     0
340
0
144
0.18
309
CONTENTFORMAT_END
171
     0
 94
        4
 95
        1
302
GRIDFORMAT
  1
GRIDFORMAT_BEGIN
 90
       26
 91
        1
 62
     0
 92
       -2
340
0
 93
        0
 40
0.045
309
GRIDFORMAT_END
 95
        4
302
GRIDFORMAT
  1
GRIDFORMAT_BEGIN
 90
       26
 91
        1
 62
     0
 92
       -2
340
0
 93
        0
 40
0.045
309
GRIDFORMAT_END
 95
        8
302
GRIDFORMAT
  1
GRIDFORMAT_BEGIN
 90
       26
 91
        1
 62
     0
 92
       -2
340
0
 93
        0
 40
0.045
309
GRIDFORMAT_END
 95
       32
302
GRIDFORMAT
  1
GRIDFORMAT_BEGIN
 90
       26
 91
        1
 62
     0
 92
       -2
340
0
 93
        0
 40
0.045
309
GRIDFORMAT_END
309
TABLEFORMAT_END
309
FORMATTEDTABLEDATACELL_END
  1
TABLECELL_BEGIN
 90
        0
 91
        0
309
TABLECELL_END
300
CELL
  1
LINKEDTABLEDATACELL_BEGIN
 90
        0
300

 91
        0
301
CUSTOMDATA
  1
DATAMAP_BEGIN
 90
        1
300
ACAD_ROUNDTRIP_2008_CELL_CHECKSUM
301
DATAMAP_VALUE
 93
        2
 90
        2
140
167.0
 94
        0
300

302

304
ACVALUE_END
309
DATAMAP_END
 92
        0
 95
        1
302
CONTENT
  1
CELLCONTENT_BEGIN
 90
        1
300
VALUE
 93
        2
 90
        4
  1
A3
 94
        0
300

302
A3
304
ACVALUE_END
 91
        0
309
CELLCONTENT_END
  1
FORMATTEDCELLCONTENT_BEGIN
170
     1
300
CONTENTFORMAT
  1
CONTENTFORMAT_BEGIN
 90
      132
 91
        0
 92
      512
 93
        0
300

 40
0.0
140
1.0
 94
        1
 62
     0
340
0
144
3.5
309
CONTENTFORMAT_END
309
FORMATTEDCELLCONTENT_END
309
LINKEDTABLEDATACELL_END
  1
FORMATTEDTABLEDATACELL_BEGIN
300
CELLTABLEFORMAT
  1
TABLEFORMAT_BEGIN
 90
        1
170
     1
 91
       16
 92
        0
 62
   257
 93
        1
300
CONTENTFORMAT
  1
CONTENTFORMAT_BEGIN
 90
       16
 91
        0
 92
      512
 93
        0
300

 40
0.0
140
1.0
 94
        4
 62
     0
340
0
144
0.18
309
CONTENTFORMAT_END
171
     0
 94
        4
 95
        1
302
GRIDFORMAT
  1
GRIDFORMAT_BEGIN
 90
       26
 91
        1
 62
     0
 92
       -2
340
0
 93
        0
 40
0.045
309
GRIDFORMAT_END
 95
        4
302
GRIDFORMAT
  1
GRIDFORMAT_BEGIN
 90
       26
 91
        1
 62
     0
 92
       -2
340
0
 93
        0
 40
0.045
309
GRIDFORMAT_END
 95
        8
302
GRIDFORMAT
  1
GRIDFORMAT_BEGIN
 90
       26
 91
        1
 62
     0
 92
       -2
340
0
 93
        0
 40
0.045
309
GRIDFORMAT_END
 95
       32
302
GRIDFORMAT
  1
GRIDFORMAT_BEGIN
 90
       26
 91
        1
 62
     0
 92
       -2
340
0
 93
        0
 40
0.045
309
GRIDFORMAT_END
309
TABLEFORMAT_END
309
FORMATTEDTABLEDATACELL_END
  1
TABLECELL_BEGIN
 90
        0
 91
        0
309
TABLECELL_END
 91
        0
301
CUSTOMDATA
  1
DATAMAP_BEGIN
 90
        0
309
DATAMAP_END
309
LINKEDTABLEDATAROW_END
  1
FORMATTEDTABLEDATAROW_BEGIN
300
ROWTABLEFORMAT
  1
TABLEFORMAT_BEGIN
 90
        2
170
     0
309
TABLEFORMAT_END
309
FORMATTEDTABLEDATAROW_END
  1
TABLEROW_BEGIN
 90
        2
 40
6.0
309
TABLEROW_END
301
ROW
  1
LINKEDTABLEDATAROW_BEGIN
 90
        5
300
CELL
  1
LINKEDTABLEDATACELL_BEGIN
 90
        0
300

 91
        0
301
CUSTOMDATA
  1
DATAMAP_BEGIN
 90
        0
309
DATAMAP_END
 92
        0
 95
        0
309
LINKEDTABLEDATACELL_END
  1
FORMATTEDTABLEDATACELL_BEGIN
300
CELLTABLEFORMAT
  1
TABLEFORMAT_BEGIN
 90
        1
170
     1
 91
        0
 92
        0
 62
   257
 93
        1
300
CONTENTFORMAT
  1
CONTENTFORMAT_BEGIN
 90
        0
 91
        0
 92
      512
 93
        0
300

 40
0.0
140
1.0
 94
        1
 62
     0
340
0
144
0.18
309
CONTENTFORMAT_END
171
     0
 94
        0
309
TABLEFORMAT_END
309
FORMATTEDTABLEDATACELL_END
  1
TABLECELL_BEGIN
 90
        0
 91
        0
309
TABLECELL_END
300
CELL
  1
LINKEDTABLEDATACELL_BEGIN
 90
        0
300

 91
        0
301
CUSTOMDATA
  1
DATAMAP_BEGIN
 90
        0
309
DATAMAP_END
 92
        0
 95
        0
309
LINKEDTABLEDATACELL_END
  1
FORMATTEDTABLEDATACELL_BEGIN
300
CELLTABLEFORMAT
  1
TABLEFORMAT_BEGIN
 90
        1
170
     1
 91
        0
 92
        0
 62
   257
 93
        1
300
CONTENTFORMAT
  1
CONTENTFORMAT_BEGIN
 90
        0
 91
        0
 92
      512
 93
        0
300

 40
0.0
140
1.0
 94
        1
 62
     0
340
0
144
0.18
309
CONTENTFORMAT_END
171
     0
 94
        0
309
TABLEFORMAT_END
309
FORMATTEDTABLEDATACELL_END
  1
TABLECELL_BEGIN
 90
        0
 91
        0
309
TABLECELL_END
300
CELL
  1
LINKEDTABLEDATACELL_BEGIN
 90
        0
300

 91
        0
301
CUSTOMDATA
  1
DATAMAP_BEGIN
 90
        0
309
DATAMAP_END
 92
        0
 95
        0
309
LINKEDTABLEDATACELL_END
  1
FORMATTEDTABLEDATACELL_BEGIN
300
CELLTABLEFORMAT
  1
TABLEFORMAT_BEGIN
 90
        1
170
     1
 91
        0
 92
        0
 62
   257
 93
        1
300
CONTENTFORMAT
  1
CONTENTFORMAT_BEGIN
 90
        0
 91
        0
 92
      512
 93
        0
300

 40
0.0
140
1.0
 94
        1
 62
     0
340
0
144
0.18
309
CONTENTFORMAT_END
171
     0
 94
        0
309
TABLEFORMAT_END
309
FORMATTEDTABLEDATACELL_END
  1
TABLECELL_BEGIN
 90
        0
 91
        0
309
TABLECELL_END
300
CELL
  1
LINKEDTABLEDATACELL_BEGIN
 90
        0
300

 91
        0
301
CUSTOMDATA
  1
DATAMAP_BEGIN
 90
        1
300
ACAD_ROUNDTRIP_2008_CELL_CHECKSUM
301
DATAMAP_VALUE
 93
        2
 90
        2
140
14164.0
 94
        0
300

302

304
ACVALUE_END
309
DATAMAP_END
 92
        0
 95
        1
302
CONTENT
  1
CELLCONTENT_BEGIN
 90
        1
300
VALUE
 93
        2
 90
        4
  1
VISIERA STD REIKO 2.0
 94
        0
300

302
VISIERA STD REIKO 2.0
304
ACVALUE_END
 91
        0
309
CELLCONTENT_END
  1
FORMATTEDCELLCONTENT_BEGIN
170
     1
300
CONTENTFORMAT
  1
CONTENTFORMAT_BEGIN
 90
      132
 91
        0
 92
      512
 93
        0
300

 40
0.0
140
1.0
 94
        1
 62
     0
340
0
144
3.5
309
CONTENTFORMAT_END
309
FORMATTEDCELLCONTENT_END
309
LINKEDTABLEDATACELL_END
  1
FORMATTEDTABLEDATACELL_BEGIN
300
CELLTABLEFORMAT
  1
TABLEFORMAT_BEGIN
 90
        1
170
     1
 91
       16
 92
        0
 62
   257
 93
        1
300
CONTENTFORMAT
  1
CONTENTFORMAT_BEGIN
 90
       16
 91
        0
 92
      512
 93
        0
300

 40
0.0
140
1.0
 94
        4
 62
     0
340
0
144
0.18
309
CONTENTFORMAT_END
171
     0
 94
        4
 95
        1
302
GRIDFORMAT
  1
GRIDFORMAT_BEGIN
 90
       26
 91
        1
 62
     0
 92
       -2
340
0
 93
        0
 40
0.045
309
GRIDFORMAT_END
 95
        4
302
GRIDFORMAT
  1
GRIDFORMAT_BEGIN
 90
       26
 91
        1
 62
     0
 92
       -2
340
0
 93
        0
 40
0.045
309
GRIDFORMAT_END
 95
        8
302
GRIDFORMAT
  1
GRIDFORMAT_BEGIN
 90
       26
 91
        1
 62
     0
 92
       -2
340
0
 93
        0
 40
0.045
309
GRIDFORMAT_END
 95
       32
302
GRIDFORMAT
  1
GRIDFORMAT_BEGIN
 90
       26
 91
        1
 62
     0
 92
       -2
340
0
 93
        0
 40
0.045
309
GRIDFORMAT_END
309
TABLEFORMAT_END
309
FORMATTEDTABLEDATACELL_END
  1
TABLECELL_BEGIN
 90
        0
 91
        0
309
TABLECELL_END
300
CELL
  1
LINKEDTABLEDATACELL_BEGIN
 90
        0
300

 91
        0
301
CUSTOMDATA
  1
DATAMAP_BEGIN
 90
        0
309
DATAMAP_END
 92
        0
 95
        0
309
LINKEDTABLEDATACELL_END
  1
FORMATTEDTABLEDATACELL_BEGIN
300
CELLTABLEFORMAT
  1
TABLEFORMAT_BEGIN
 90
        1
170
     1
 91
        0
 92
        0
 62
   257
 93
        1
300
CONTENTFORMAT
  1
CONTENTFORMAT_BEGIN
 90
        0
 91
        0
 92
      512
 93
        0
300

 40
0.0
140
1.0
 94
        1
 62
     0
340
0
144
0.18
309
CONTENTFORMAT_END
171
     0
 94
        0
309
TABLEFORMAT_END
309
FORMATTEDTABLEDATACELL_END
  1
TABLECELL_BEGIN
 90
        0
 91
        0
309
TABLECELL_END
 91
        0
301
CUSTOMDATA
  1
DATAMAP_BEGIN
 90
        0
309
DATAMAP_END
309
LINKEDTABLEDATAROW_END
  1
FORMATTEDTABLEDATAROW_BEGIN
300
ROWTABLEFORMAT
  1
TABLEFORMAT_BEGIN
 90
        2
170
     0
309
TABLEFORMAT_END
309
FORMATTEDTABLEDATAROW_END
  1
TABLEROW_BEGIN
 90
        3
 40
10.0
309
TABLEROW_END
301
ROW
  1
LINKEDTABLEDATAROW_BEGIN
 90
        5
300
CELL
  1
LINKEDTABLEDATACELL_BEGIN
 90
        0
300

 91
        0
301
CUSTOMDATA
  1
DATAMAP_BEGIN
 90
        0
309
DATAMAP_END
 92
        0
 95
        0
309
LINKEDTABLEDATACELL_END
  1
FORMATTEDTABLEDATACELL_BEGIN
300
CELLTABLEFORMAT
  1
TABLEFORMAT_BEGIN
 90
        1
170
     1
 91
        0
 92
        0
 62
   257
 93
        1
300
CONTENTFORMAT
  1
CONTENTFORMAT_BEGIN
 90
        0
 91
        0
 92
      512
 93
        0
300

 40
0.0
140
1.0
 94
        1
 62
     0
340
0
144
0.18
309
CONTENTFORMAT_END
171
     0
 94
        0
309
TABLEFORMAT_END
309
FORMATTEDTABLEDATACELL_END
  1
TABLECELL_BEGIN
 90
        0
 91
        0
309
TABLECELL_END
300
CELL
  1
LINKEDTABLEDATACELL_BEGIN
 90
        0
300

 91
        0
301
CUSTOMDATA
  1
DATAMAP_BEGIN
 90
        0
309
DATAMAP_END
 92
        0
 95
        0
309
LINKEDTABLEDATACELL_END
  1
FORMATTEDTABLEDATACELL_BEGIN
300
CELLTABLEFORMAT
  1
TABLEFORMAT_BEGIN
 90
        1
170
     1
 91
        0
 92
        0
 62
   257
 93
        1
300
CONTENTFORMAT
  1
CONTENTFORMAT_BEGIN
 90
        0
 91
        0
 92
      512
 93
        0
300

 40
0.0
140
1.0
 94
        1
 62
     0
340
0
144
0.18
309
CONTENTFORMAT_END
171
     0
 94
        0
309
TABLEFORMAT_END
309
FORMATTEDTABLEDATACELL_END
  1
TABLECELL_BEGIN
 90
        0
 91
        0
309
TABLECELL_END
300
CELL
  1
LINKEDTABLEDATACELL_BEGIN
 90
        0
300

 91
        0
301
CUSTOMDATA
  1
DATAMAP_BEGIN
 90
        0
309
DATAMAP_END
 92
        0
 95
        0
309
LINKEDTABLEDATACELL_END
  1
FORMATTEDTABLEDATACELL_BEGIN
300
CELLTABLEFORMAT
  1
TABLEFORMAT_BEGIN
 90
        1
170
     1
 91
        0
 92
        0
 62
   257
 93
        1
300
CONTENTFORMAT
  1
CONTENTFORMAT_BEGIN
 90
        0
 91
        0
 92
      512
 93
        0
300

 40
0.0
140
1.0
 94
        1
 62
     0
340
0
144
0.18
309
CONTENTFORMAT_END
171
     0
 94
        0
309
TABLEFORMAT_END
309
FORMATTEDTABLEDATACELL_END
  1
TABLECELL_BEGIN
 90
        0
 91
        0
309
TABLECELL_END
300
CELL
  1
LINKEDTABLEDATACELL_BEGIN
 90
        0
300

 91
        0
301
CUSTOMDATA
  1
DATAMAP_BEGIN
 90
        1
300
ACAD_ROUNDTRIP_2008_CELL_CHECKSUM
301
DATAMAP_VALUE
 93
        2
 90
        2
140
4767.0
 94
        0
300

302

304
ACVALUE_END
309
DATAMAP_END
 92
        0
 95
        1
302
CONTENT
  1
CELLCONTENT_BEGIN
 90
        1
300
VALUE
 93
        2
 90
        4
  1
DATE:17.01.24
 94
        0
300

302
DATE:17.01.24
304
ACVALUE_END
 91
        0
309
CELLCONTENT_END
  1
FORMATTEDCELLCONTENT_BEGIN
170
     1
300
CONTENTFORMAT
  1
CONTENTFORMAT_BEGIN
 90
      132
 91
        0
 92
      512
 93
        0
300

 40
0.0
140
1.0
 94
        1
 62
     0
340
0
144
2.5
309
CONTENTFORMAT_END
309
FORMATTEDCELLCONTENT_END
309
LINKEDTABLEDATACELL_END
  1
FORMATTEDTABLEDATACELL_BEGIN
300
CELLTABLEFORMAT
  1
TABLEFORMAT_BEGIN
 90
        1
170
     1
 91
       16
 92
        0
 62
   257
 93
        1
300
CONTENTFORMAT
  1
CONTENTFORMAT_BEGIN
 90
       16
 91
        0
 92
      512
 93
        0
300

 40
0.0
140
1.0
 94
        4
 62
     0
340
0
144
0.18
309
CONTENTFORMAT_END
171
     0
 94
        4
 95
        1
302
GRIDFORMAT
  1
GRIDFORMAT_BEGIN
 90
       26
 91
        1
 62
     0
 92
       -2
340
0
 93
        0
 40
0.045
309
GRIDFORMAT_END
 95
        4
302
GRIDFORMAT
  1
GRIDFORMAT_BEGIN
 90
       26
 91
        1
 62
     0
 92
       -2
340
0
 93
        0
 40
0.045
309
GRIDFORMAT_END
 95
        8
302
GRIDFORMAT
  1
GRIDFORMAT_BEGIN
 90
       26
 91
        1
 62
     0
 92
       -2
340
0
 93
        0
 40
0.045
309
GRIDFORMAT_END
 95
       32
302
GRIDFORMAT
  1
GRIDFORMAT_BEGIN
 90
       26
 91
        1
 62
     0
 92
       -2
340
0
 93
        0
 40
0.045
309
GRIDFORMAT_END
309
TABLEFORMAT_END
309
FORMATTEDTABLEDATACELL_END
  1
TABLECELL_BEGIN
 90
        0
 91
        0
309
TABLECELL_END
300
CELL
  1
LINKEDTABLEDATACELL_BEGIN
 90
        0
300

 91
        0
301
CUSTOMDATA
  1
DATAMAP_BEGIN
 90
        0
309
DATAMAP_END
 92
        0
 95
        0
309
LINKEDTABLEDATACELL_END
  1
FORMATTEDTABLEDATACELL_BEGIN
300
CELLTABLEFORMAT
  1
TABLEFORMAT_BEGIN
 90
        1
170
     1
 91
        0
 92
        0
 62
   257
 93
        1
300
CONTENTFORMAT
  1
CONTENTFORMAT_BEGIN
 90
        0
 91
        0
 92
      512
 93
        0
300

 40
0.0
140
1.0
 94
        1
 62
     0
340
0
144
0.18
309
CONTENTFORMAT_END
171
     0
 94
        0
309
TABLEFORMAT_END
309
FORMATTEDTABLEDATACELL_END
  1
TABLECELL_BEGIN
 90
        0
 91
        0
309
TABLECELL_END
 91
        0
301
CUSTOMDATA
  1
DATAMAP_BEGIN
 90
        0
309
DATAMAP_END
309
LINKEDTABLEDATAROW_END
  1
FORMATTEDTABLEDATAROW_BEGIN
300
ROWTABLEFORMAT
  1
TABLEFORMAT_BEGIN
 90
        2
170
     0
309
TABLEFORMAT_END
309
FORMATTEDTABLEDATAROW_END
  1
TABLEROW_BEGIN
 90
        3
 40
5.0
309
TABLEROW_END
301
ROW
  1
LINKEDTABLEDATAROW_BEGIN
 90
        5
300
CELL
  1
LINKEDTABLEDATACELL_BEGIN
 90
        0
300

 91
        0
301
CUSTOMDATA
  1
DATAMAP_BEGIN
 90
        1
300
ACAD_ROUNDTRIP_2008_CELL_CHECKSUM
301
DATAMAP_VALUE
 93
        2
 90
        2
140
1361482.0
 94
        0
300

302

304
ACVALUE_END
309
DATAMAP_END
 92
        0
 95
        1
302
CONTENT
  1
CELLCONTENT_BEGIN
 90
        1
300
VALUE
 93
        2
 90
        4
  1
Any integral or partial reproductions are prohibited \Pwithout prior authorisation of L & L Luce & Light s.r.l., \Pin accordance with the law in force. \PAll rights reserved.
 94
        0
300

302
Any integral or partial reproductions are prohibited \Pwithout prior authorisation of L & L Luce & Light s.r.l., \Pin accordance with the law in force. \PAll rights reserved.
304
ACVALUE_END
 91
        0
309
CELLCONTENT_END
  1
FORMATTEDCELLCONTENT_BEGIN
170
     1
300
CONTENTFORMAT
  1
CONTENTFORMAT_BEGIN
 90
      132
 91
        0
 92
      512
 93
        0
300

 40
0.0
140
1.0
 94
        1
 62
     0
340
0
144
2.25
309
CONTENTFORMAT_END
309
FORMATTEDCELLCONTENT_END
309
LINKEDTABLEDATACELL_END
  1
FORMATTEDTABLEDATACELL_BEGIN
300
CELLTABLEFORMAT
  1
TABLEFORMAT_BEGIN
 90
        1
170
     1
 91
       16
 92
        0
 62
   257
 93
        1
300
CONTENTFORMAT
  1
CONTENTFORMAT_BEGIN
 90
       16
 91
        0
 92
      512
 93
        0
300

 40
0.0
140
1.0
 94
        4
 62
     0
340
0
144
0.18
309
CONTENTFORMAT_END
171
     0
 94
        4
 95
        1
302
GRIDFORMAT
  1
GRIDFORMAT_BEGIN
 90
       26
 91
        1
 62
     0
 92
       -2
340
0
 93
        0
 40
0.045
309
GRIDFORMAT_END
 95
        4
302
GRIDFORMAT
  1
GRIDFORMAT_BEGIN
 90
       26
 91
        1
 62
     0
 92
       -2
340
0
 93
        0
 40
0.045
309
GRIDFORMAT_END
 95
        8
302
GRIDFORMAT
  1
GRIDFORMAT_BEGIN
 90
       26
 91
        1
 62
     0
 92
       -2
340
0
 93
        0
 40
0.045
309
GRIDFORMAT_END
 95
       32
302
GRIDFORMAT
  1
GRIDFORMAT_BEGIN
 90
       26
 91
        1
 62
     0
 92
       -2
340
0
 93
        0
 40
0.045
309
GRIDFORMAT_END
309
TABLEFORMAT_END
309
FORMATTEDTABLEDATACELL_END
  1
TABLECELL_BEGIN
 90
        0
 91
        0
309
TABLECELL_END
300
CELL
  1
LINKEDTABLEDATACELL_BEGIN
 90
        0
300

 91
        0
301
CUSTOMDATA
  1
DATAMAP_BEGIN
 90
        0
309
DATAMAP_END
 92
        0
 95
        0
309
LINKEDTABLEDATACELL_END
  1
FORMATTEDTABLEDATACELL_BEGIN
300
CELLTABLEFORMAT
  1
TABLEFORMAT_BEGIN
 90
        1
170
     1
 91
        0
 92
        0
 62
   257
 93
        1
300
CONTENTFORMAT
  1
CONTENTFORMAT_BEGIN
 90
        0
 91
        0
 92
      512
 93
        0
300

 40
0.0
140
1.0
 94
        1
 62
     0
340
0
144
0.18
309
CONTENTFORMAT_END
171
     0
 94
        0
309
TABLEFORMAT_END
309
FORMATTEDTABLEDATACELL_END
  1
TABLECELL_BEGIN
 90
        0
 91
        0
309
TABLECELL_END
300
CELL
  1
LINKEDTABLEDATACELL_BEGIN
 90
        0
300

 91
        0
301
CUSTOMDATA
  1
DATAMAP_BEGIN
 90
        0
309
DATAMAP_END
 92
        0
 95
        0
309
LINKEDTABLEDATACELL_END
  1
FORMATTEDTABLEDATACELL_BEGIN
300
CELLTABLEFORMAT
  1
TABLEFORMAT_BEGIN
 90
        1
170
     1
 91
        0
 92
        0
 62
   257
 93
        1
300
CONTENTFORMAT
  1
CONTENTFORMAT_BEGIN
 90
        0
 91
        0
 92
      512
 93
        0
300

 40
0.0
140
1.0
 94
        1
 62
     0
340
0
144
0.18
309
CONTENTFORMAT_END
171
     0
 94
        0
309
TABLEFORMAT_END
309
FORMATTEDTABLEDATACELL_END
  1
TABLECELL_BEGIN
 90
        0
 91
        0
309
TABLECELL_END
300
CELL
  1
LINKEDTABLEDATACELL_BEGIN
 90
        0
300

 91
        0
301
CUSTOMDATA
  1
DATAMAP_BEGIN
 90
        0
309
DATAMAP_END
 92
        0
 95
        0
309
LINKEDTABLEDATACELL_END
  1
FORMATTEDTABLEDATACELL_BEGIN
300
CELLTABLEFORMAT
  1
TABLEFORMAT_BEGIN
 90
        1
170
     1
 91
        0
 92
        0
 62
   257
 93
        1
300
CONTENTFORMAT
  1
CONTENTFORMAT_BEGIN
 90
        0
 91
        0
 92
      512
 93
        0
300

 40
0.0
140
1.0
 94
        1
 62
     0
340
0
144
0.18
309
CONTENTFORMAT_END
171
     0
 94
        0
309
TABLEFORMAT_END
309
FORMATTEDTABLEDATACELL_END
  1
TABLECELL_BEGIN
 90
        0
 91
        0
309
TABLECELL_END
300
CELL
  1
LINKEDTABLEDATACELL_BEGIN
 90
        0
300

 91
        0
301
CUSTOMDATA
  1
DATAMAP_BEGIN
 90
        0
309
DATAMAP_END
 92
        0
 95
        0
309
LINKEDTABLEDATACELL_END
  1
FORMATTEDTABLEDATACELL_BEGIN
300
CELLTABLEFORMAT
  1
TABLEFORMAT_BEGIN
 90
        1
170
     1
 91
        0
 92
        0
 62
   257
 93
        1
300
CONTENTFORMAT
  1
CONTENTFORMAT_BEGIN
 90
        0
 91
        0
 92
      512
 93
        0
300

 40
0.0
140
1.0
 94
        1
 62
     0
340
0
144
0.18
309
CONTENTFORMAT_END
171
     0
 94
        0
309
TABLEFORMAT_END
309
FORMATTEDTABLEDATACELL_END
  1
TABLECELL_BEGIN
 90
        0
 91
        0
309
TABLECELL_END
 91
        0
301
CUSTOMDATA
  1
DATAMAP_BEGIN
 90
        0
309
DATAMAP_END
309
LINKEDTABLEDATAROW_END
  1
FORMATTEDTABLEDATAROW_BEGIN
300
ROWTABLEFORMAT
  1
TABLEFORMAT_BEGIN
 90
        2
170
     0
309
TABLEFORMAT_END
309
FORMATTEDTABLEDATAROW_END
  1
TABLEROW_BEGIN
 90
        3
 40
13.0
309
TABLEROW_END
100
AcDbFormattedTableData
300
TABLEFORMAT
  1
TABLEFORMAT_BEGIN
 90
        4
170
     1
 91
    15360
 92
        0
 62
   257
 93
        1
300
CONTENTFORMAT
  1
CONTENTFORMAT_BEGIN
 90
        0
 91
        0
 92
      512
 93
        0
300

 40
0.0
140
1.0
 94
        1
 62
     0
340
0
144
0.18
309
CONTENTFORMAT_END
171
     1
301
MARGIN
  1
CELLMARGIN_BEGIN
 40
0.06
 40
0.06
 40
0.06
 40
0.06
 40
0.06
 40
0.06
309
CELLMARGIN_END
 94
        0
309
TABLEFORMAT_END
 90
        4
 91
        0
 92
        0
 93
        3
 94
        2
 91
        2
 92
        3
 93
        2
 94
        4
 91
        3
 92
        3
 93
        3
 94
        4
 91
        4
 92
        0
 93
        4
 94
        4
100
AcDbTableContent
340
418
  0
TABLEGEOMETRY
  5
445
330
447
100
AcDbTableGeometry
 90
        5
 91
        5
 92
       25
 93
        0
 40
0.0
 41
0.0
330
0
 94
        0
 93
        0
 40
0.0
 41
0.0
330
0
 94
        0
 93
        0
 40
0.0
 41
0.0
330
0
 94
        0
 93
        0
 40
0.0
 41
0.0
330
0
 94
        0
 93
        0
 40
0.0
 41
0.0
330
0
 94
        0
 93
        0
 40
0.0
 41
0.0
330
0
 94
        0
 93
        0
 40
0.0
 41
0.0
330
0
 94
        0
 93
        0
 40
0.0
 41
0.0
330
0
 94
        0
 93
        0
 40
0.0
 41
0.0
330
0
 94
        0
 93
        0
 40
0.0
 41
0.0
330
0
 94
        0
 93
        0
 40
0.0
 41
0.0
330
0
 94
        0
 93
        0
 40
0.0
 41
0.0
330
0
 94
        0
 93
        0
 40
0.0
 41
0.0
330
0
 94
        0
 93
        0
 40
0.0
 41
0.0
330
0
 94
        0
 93
        0
 40
0.0
 41
0.0
330
0
 94
        0
 93
        0
 40
0.0
 41
0.0
330
0
 94
        0
 93
        0
 40
0.0
 41
0.0
330
0
 94
        0
 93
        0
 40
0.0
 41
0.0
330
0
 94
        0
 93
        0
 40
0.0
 41
0.0
330
0
 94
        0
 93
        0
 40
0.0
 41
0.0
330
0
 94
        0
 93
        0
 40
0.0
 41
0.0
330
0
 94
        0
 93
        0
 40
0.0
 41
0.0
330
0
 94
        0
 93
        0
 40
0.0
 41
0.0
330
0
 94
        0
 93
        0
 40
0.0
 41
0.0
330
0
 94
        0
 93
        0
 40
0.0
 41
0.0
330
0
 94
        0
  0
DICTIONARY
  5
44A
330
418
100
AcDbDictionary
280
     1
281
     1
  3
ACAD_ROUNDTRIP_2008_TABLESTYLE_CELLSTYLEMAP
360
44B
  0
CELLSTYLEMAP
  5
44B
102
{ACAD_REACTORS
330
44A
102
}
330
44A
100
AcDbCellStyleMap
 90
        3
300
CELLSTYLE
  1
TABLEFORMAT_BEGIN
 90
        5
170
     1
 91
        0
 92
        0
 62
   257
 93
        1
300
CONTENTFORMAT
  1
CONTENTFORMAT_BEGIN
 90
        0
 91
        0
 92
        4
 93
        0
300

 40
0.0
140
1.0
 94
        5
 62
     0
340
11
144
6.0
309
CONTENTFORMAT_END
171
     1
301
MARGIN
  1
CELLMARGIN_BEGIN
 40
1.5
 40
1.5
 40
1.5
 40
1.5
 40
1.5
 40
1.5
309
CELLMARGIN_END
 94
        6
 95
        1
302
GRIDFORMAT
  1
GRIDFORMAT_BEGIN
 90
        0
 91
        1
 62
     0
 92
       -2
340
14
 93
        0
 40
0.045
309
GRIDFORMAT_END
 95
        2
302
GRIDFORMAT
  1
GRIDFORMAT_BEGIN
 90
        0
 91
        1
 62
     0
 92
       -2
340
14
 93
        0
 40
0.045
309
GRIDFORMAT_END
 95
        4
302
GRIDFORMAT
  1
GRIDFORMAT_BEGIN
 90
        0
 91
        1
 62
     0
 92
       -2
340
14
 93
        0
 40
0.045
309
GRIDFORMAT_END
 95
        8
302
GRIDFORMAT
  1
GRIDFORMAT_BEGIN
 90
        0
 91
        1
 62
     0
 92
       -2
340
14
 93
        0
 40
0.045
309
GRIDFORMAT_END
 95
       16
302
GRIDFORMAT
  1
GRIDFORMAT_BEGIN
 90
        0
 91
        1
 62
     0
 92
       -2
340
14
 93
        0
 40
0.045
309
GRIDFORMAT_END
 95
       32
302
GRIDFORMAT
  1
GRIDFORMAT_BEGIN
 90
        0
 91
        1
 62
     0
 92
       -2
340
14
 93
        0
 40
0.045
309
GRIDFORMAT_END
309
TABLEFORMAT_END
  1
CELLSTYLE_BEGIN
 90
        1
 91
        1
300
_TITLE
309
CELLSTYLE_END
300
CELLSTYLE
  1
TABLEFORMAT_BEGIN
 90
        5
170
     1
 91
        0
 92
        0
 62
   257
 93
        1
300
CONTENTFORMAT
  1
CONTENTFORMAT_BEGIN
 90
        0
 91
        0
 92
        4
 93
        0
300

 40
0.0
140
1.0
 94
        5
 62
     0
340
11
144
4.5
309
CONTENTFORMAT_END
171
     1
301
MARGIN
  1
CELLMARGIN_BEGIN
 40
1.5
 40
1.5
 40
1.5
 40
1.5
 40
1.5
 40
1.5
309
CELLMARGIN_END
 94
        6
 95
        1
302
GRIDFORMAT
  1
GRIDFORMAT_BEGIN
 90
        0
 91
        1
 62
     0
 92
       -2
340
14
 93
        0
 40
0.045
309
GRIDFORMAT_END
 95
        2
302
GRIDFORMAT
  1
GRIDFORMAT_BEGIN
 90
        0
 91
        1
 62
     0
 92
       -2
340
14
 93
        0
 40
0.045
309
GRIDFORMAT_END
 95
        4
302
GRIDFORMAT
  1
GRIDFORMAT_BEGIN
 90
        0
 91
        1
 62
     0
 92
       -2
340
14
 93
        0
 40
0.045
309
GRIDFORMAT_END
 95
        8
302
GRIDFORMAT
  1
GRIDFORMAT_BEGIN
 90
        0
 91
        1
 62
     0
 92
       -2
340
14
 93
        0
 40
0.045
309
GRIDFORMAT_END
 95
       16
302
GRIDFORMAT
  1
GRIDFORMAT_BEGIN
 90
        0
 91
        1
 62
     0
 92
       -2
340
14
 93
        0
 40
0.045
309
GRIDFORMAT_END
 95
       32
302
GRIDFORMAT
  1
GRIDFORMAT_BEGIN
 90
        0
 91
        1
 62
     0
 92
       -2
340
14
 93
        0
 40
0.045
309
GRIDFORMAT_END
309
TABLEFORMAT_END
  1
CELLSTYLE_BEGIN
 90
        2
 91
        1
300
_HEADER
309
CELLSTYLE_END
300
CELLSTYLE
  1
TABLEFORMAT_BEGIN
 90
        5
170
     1
 91
        0
 92
        0
 62
   257
 93
        1
300
CONTENTFORMAT
  1
CONTENTFORMAT_BEGIN
 90
        0
 91
        0
 92
        4
 93
        0
300

 40
0.0
140
1.0
 94
        2
 62
     0
340
11
144
4.5
309
CONTENTFORMAT_END
171
     1
301
MARGIN
  1
CELLMARGIN_BEGIN
 40
1.5
 40
1.5
 40
1.5
 40
1.5
 40
1.5
 40
1.5
309
CELLMARGIN_END
 94
        6
 95
        1
302
GRIDFORMAT
  1
GRIDFORMAT_BEGIN
 90
        0
 91
        1
 62
     0
 92
       -2
340
14
 93
        0
 40
0.045
309
GRIDFORMAT_END
 95
        2
302
GRIDFORMAT
  1
GRIDFORMAT_BEGIN
 90
        0
 91
        1
 62
     0
 92
       -2
340
14
 93
        0
 40
0.045
309
GRIDFORMAT_END
 95
        4
302
GRIDFORMAT
  1
GRIDFORMAT_BEGIN
 90
        0
 91
        1
 62
     0
 92
       -2
340
14
 93
        0
 40
0.045
309
GRIDFORMAT_END
 95
        8
302
GRIDFORMAT
  1
GRIDFORMAT_BEGIN
 90
        0
 91
        1
 62
     0
 92
       -2
340
14
 93
        0
 40
0.045
309
GRIDFORMAT_END
 95
       16
302
GRIDFORMAT
  1
GRIDFORMAT_BEGIN
 90
        0
 91
        1
 62
     0
 92
       -2
340
14
 93
        0
 40
0.045
309
GRIDFORMAT_END
 95
       32
302
GRIDFORMAT
  1
GRIDFORMAT_BEGIN
 90
        0
 91
        1
 62
     0
 92
       -2
340
14
 93
        0
 40
0.045
309
GRIDFORMAT_END
309
TABLEFORMAT_END
  1
CELLSTYLE_BEGIN
 90
        3
 91
        2
300
_DATA
309
CELLSTYLE_END
  0
ENDSEC
  0
EOF
